<?xml version="1.0" standalone="no"?>
<!DOCTYPE svg PUBLIC "-//W3C//DTD SVG 1.1//EN" "http://www.w3.org/Graphics/SVG/1.1/DTD/svg11.dtd" >
<svg xmlns="http://www.w3.org/2000/svg" xmlns:xlink="http://www.w3.org/1999/xlink" version="1.1">
<metadata>
Created by FontForge 20201107 at Fri May 11 09:44:09 2018
 By 
Copyright (c) 2018 by Moritz Kleinsorge &#38; Alberto Romanos. All rights reserved.
</metadata>
<defs>
<font id="BwVivant-Medium" horiz-adv-x="0" >
  <font-face 
    font-family="Bw Vivant Med"
    font-weight="500"
    font-stretch="normal"
    units-per-em="2048"
    panose-1="0 0 6 0 0 0 0 0 0 0"
    ascent="1597"
    descent="-451"
    x-height="1106"
    cap-height="1536"
    bbox="-1663 -535 5460 2019"
    underline-thickness="0"
    underline-position="0"
    unicode-range="U+000D-FB02"
  />
<missing-glyph horiz-adv-x="2541" 
d="M1694 -6q-14 -14 -35 -14q-27 0 -34 13t-7 34v663l-694 -696q-14 -14 -35 -14q-27 0 -34 13t-7 34v663l-696 -696q-14 -14 -35 -14q-14 0 -24.5 10t-10.5 26q0 20 10 31l701 698h-664q-47 0 -47 39q0 18 14 33l697 701h-670q-18 0 -29.5 10t-11.5 28v3q0 18 11 28t30 10
h758q20 0 33.5 -7t13.5 -34q0 -18 -17 -34l-698 -697h676q16 0 28.5 -12t12.5 -29v-669l694 692q16 16 35 16q37 0 37 -45v-663l696 692q16 16 33 16q14 0 24.5 -11t10.5 -28q0 -16 -13 -28z" />
    <glyph glyph-name="uniFB01" unicode="fi" horiz-adv-x="1441" 
d="M487 1106h338v-33h-338v-1073h-262v1073h-202v33h202v151q0 162 104.5 261.5t274.5 99.5q55 0 115.5 -16.5t103.5 -42.5l-8 -19q-27 12 -61.5 20.5t-63.5 8.5q-92 0 -147.5 -72t-55.5 -190v-201zM1041 1344.5q-42 39.5 -42 105.5q0 63 42 103t110 40q70 0 111 -38.5
t41 -104.5t-41 -105.5t-111 -39.5q-68 0 -110 39.5zM1022 1106h262v-1106h-262v1106z" />
    <glyph glyph-name="uniFB02" unicode="fl" horiz-adv-x="1441" 
d="M487 1106h338v-33h-338v-1073h-262v1073h-202v33h202v151q0 162 104.5 261.5t274.5 99.5q55 0 115.5 -16.5t103.5 -42.5l-8 -19q-27 12 -61.5 20.5t-63.5 8.5q-92 0 -147.5 -72t-55.5 -190v-201zM1284 1597v-1597h-262v1597h262z" />
    <glyph glyph-name="f_f.liga" unicode="ff" horiz-adv-x="1642" 
d="M1332.5 1497q-58.5 -72 -58.5 -190v-201h350v-33h-350v-1073h-262v1073h-525v-1073h-262v1073h-202v33h202v151q0 162 104.5 261.5t274.5 99.5q68 0 139.5 -22.5t122.5 -61.5l-8 -21q-35 25 -81 40.5t-87 15.5q-92 0 -147.5 -72t-55.5 -190v-201h525v151
q0 162 104.5 261.5t272.5 99.5q88 0 169.5 -29.5t131.5 -79.5l-13 -16q-35 35 -87 55.5t-101 20.5q-98 0 -156.5 -72z" />
    <glyph glyph-name="f_f_i.liga" unicode="ffi" horiz-adv-x="2226" 
d="M1274 1106h338v-33h-338v-1073h-262v1073h-525v-1073h-262v1073h-202v33h202v151q0 162 104.5 261.5t274.5 99.5q68 0 139.5 -22.5t122.5 -61.5l-8 -21q-35 25 -81 40.5t-87 15.5q-92 0 -147.5 -72t-55.5 -190v-201h525v151q0 162 104.5 261.5t272.5 99.5
q57 0 116.5 -16.5t102.5 -42.5l-9 -19q-25 12 -59.5 20.5t-62.5 8.5q-92 0 -147.5 -72t-55.5 -190v-201zM1827 1344.5q-41 39.5 -41 105.5t41 104.5t110 38.5q70 0 111 -38.5t41 -104.5t-41 -105.5t-111 -39.5q-69 0 -110 39.5zM1806 1106h262v-1106h-262v1106z" />
    <glyph glyph-name="f_f_l.liga" unicode="ffl" horiz-adv-x="2226" 
d="M1274 1106h338v-33h-338v-1073h-262v1073h-525v-1073h-262v1073h-202v33h202v151q0 162 104.5 261.5t274.5 99.5q68 0 139.5 -22.5t122.5 -61.5l-8 -21q-35 25 -81 40.5t-87 15.5q-92 0 -147.5 -72t-55.5 -190v-201h525v151q0 162 104.5 261.5t272.5 99.5
q57 0 116.5 -16.5t102.5 -42.5l-9 -19q-25 12 -59.5 20.5t-62.5 8.5q-92 0 -147.5 -72t-55.5 -190v-201zM2068 1597v-1597h-262v1597h262z" />
    <glyph glyph-name=".notdef" horiz-adv-x="2541" 
d="M1694 -6q-14 -14 -35 -14q-27 0 -34 13t-7 34v663l-694 -696q-14 -14 -35 -14q-27 0 -34 13t-7 34v663l-696 -696q-14 -14 -35 -14q-14 0 -24.5 10t-10.5 26q0 20 10 31l701 698h-664q-47 0 -47 39q0 18 14 33l697 701h-670q-18 0 -29.5 10t-11.5 28v3q0 18 11 28t30 10
h758q20 0 33.5 -7t13.5 -34q0 -18 -17 -34l-698 -697h676q16 0 28.5 -12t12.5 -29v-669l694 692q16 16 35 16q37 0 37 -45v-663l696 692q16 16 33 16q14 0 24.5 -11t10.5 -28q0 -16 -13 -28z" />
    <glyph glyph-name="glyph1" 
 />
    <glyph glyph-name="uni000D" unicode="&#xd;" horiz-adv-x="522" 
 />
    <glyph glyph-name="space" unicode=" " horiz-adv-x="522" 
 />
    <glyph glyph-name="exclam" unicode="!" horiz-adv-x="563" 
d="M270 408q0 236 -28.5 420t-75.5 378q-12 57 -22.5 105.5t-10.5 74.5q0 76 39 123t111 47q70 0 109.5 -48t39.5 -122q0 -27 -10 -74.5t-23 -105.5q-47 -195 -75.5 -379t-28.5 -419h-25zM389 18.5q-41 -38.5 -106 -38.5q-68 0 -108 38.5t-40 102.5q0 66 40 104.5t108 38.5
q66 0 106.5 -39t40.5 -104q0 -64 -41 -102.5z" />
    <glyph glyph-name="quotedbl" unicode="&#x22;" horiz-adv-x="755" 
d="M535 1110l-89 377q-4 20 -4 31q0 43 32 71q32 29 79 29t79 -30t32 -72q0 -23 -5 -33l-96 -373h-28zM184 1110l-88 377q-4 20 -4 31q0 43 32 71q32 29 79 29t79 -30t31 -72q0 -23 -4 -33l-96 -373h-29z" />
    <glyph glyph-name="numbersign" unicode="#" horiz-adv-x="1439" 
d="M1042 840l-86 -406h314l-6 -33h-316l-84 -401h-41l84 401h-479l-84 -401h-41l84 401h-313l6 33h315l86 406h-313l6 32h313l82 385h41l-82 -385h480l82 385h40l-81 -385h313l-6 -32h-314zM1001 840h-479l-86 -406h479z" />
    <glyph glyph-name="dollar" unicode="$" horiz-adv-x="1157" 
d="M1007.5 184.5q-63.5 -98.5 -173 -150.5t-244.5 -54v-185h-41v185q-145 6 -272 67.5t-209 161.5l20 22q70 -88 180.5 -140t220.5 -52q139 0 225.5 81t86.5 214q0 92 -42 158.5t-104.5 111.5t-169.5 105q-117 66 -187.5 117t-118.5 132.5t-48 196.5q0 180 118 288.5
t308 112.5v185h41v-185q119 -6 228.5 -52t181.5 -118l-17 -22q-68 59 -158 96t-171 37q-117 0 -190 -69.5t-73 -184.5q0 -86 41 -147.5t99.5 -103.5t165.5 -103q117 -66 190.5 -120t124.5 -140t51 -209q0 -137 -63.5 -235.5z" />
    <glyph glyph-name="percent" unicode="%" horiz-adv-x="1869" 
d="M1694.5 108.5q-95.5 -118.5 -250.5 -118.5q-104 0 -183 53t-122 151.5t-43 227.5t43 227.5t122.5 152.5t182.5 54q156 0 251 -120t95 -314q0 -195 -95.5 -313.5zM1331 125q43 -113 113 -113q68 0 109.5 113t41.5 297t-42 298t-109 114q-70 0 -113 -114t-43 -298t43 -297z
M371 0l1083 1536h43l-1083 -1536h-43zM679 801q-95 -119 -251 -119q-104 0 -183 53t-122 151.5t-43 227.5t43 227.5t123 152.5t182 54q156 0 251 -119.5t95 -314.5q0 -194 -95 -313zM315 817.5q43 -112.5 113 -112.5q68 0 110 112.5t42 296.5t-42 298t-110 114
q-70 0 -113 -114t-43 -298t43 -296.5z" />
    <glyph glyph-name="ampersand" unicode="&#x26;" horiz-adv-x="1529" 
d="M1206 0l-168 176q-104 -94 -232 -145t-261 -51q-135 0 -237.5 51t-158 141t-55.5 205q0 131 74 241.5t229 239.5q-160 193 -159 352q0 158 120.5 252t317.5 94q115 0 228.5 -44t182.5 -115l-14 -21q-70 57 -157 92t-171 35q-111 0 -178 -66.5t-67 -172.5q0 -94 58 -190.5
t171 -215.5l438 -469q76 115 118 260.5t44 306.5h29q0 -170 -43 -321.5t-121 -274.5l338 -360h-326zM1008 209l-543 571l-41 45q-68 -76 -102.5 -153.5t-34.5 -167.5q0 -106 55 -201.5t150.5 -153t209.5 -57.5q165 0 306 117z" />
    <glyph glyph-name="quotesingle" unicode="'" horiz-adv-x="405" 
d="M184 1110l-88 377q-4 20 -4 31q0 43 32 71.5t79 28.5t78.5 -29.5t31.5 -72.5q0 -23 -4 -33l-96 -373h-29z" />
    <glyph glyph-name="parenleft" unicode="(" horiz-adv-x="503" 
d="M196.5 57q-100.5 301 -100.5 588q0 307 100.5 608t264.5 488h31q-158 -186 -254.5 -488.5t-96.5 -607.5q0 -281 96.5 -583t254.5 -513h-31q-164 207 -264.5 508z" />
    <glyph glyph-name="parenright" unicode=")" horiz-adv-x="503" 
d="M307.5 1253q100.5 -301 100.5 -608q0 -287 -100.5 -588t-264.5 -508h-31q158 211 254 513.5t96 582.5q0 305 -96 607t-254 489h31q164 -187 264.5 -488z" />
    <glyph glyph-name="asterisk" unicode="*" horiz-adv-x="774" 
d="M416 1430l166 -222l-33 -24l-162 229l-162 -229l-32 24l165 222l-264 83l12 39l265 -90l-4 279h41l-5 -279l265 90l12 -39z" />
    <glyph glyph-name="plus" unicode="+" horiz-adv-x="970" 
d="M844 557h-338v-332h-41v332h-338v33h338v332h41v-332h338v-33z" />
    <glyph glyph-name="comma" unicode="," horiz-adv-x="548" 
d="M397 252.5q49 -62.5 49 -166.5q0 -147 -75.5 -272t-196.5 -185l-14 25q106 61 170.5 167.5t68.5 229.5q-23 -35 -60.5 -53t-84.5 -18q-70 0 -113 46t-43 121q0 76 46 122t122 46q82 0 131 -62.5z" />
    <glyph glyph-name="hyphen" unicode="-" horiz-adv-x="968" 
d="M127 557v33h715v-33h-715z" />
    <glyph glyph-name="period" unicode="." horiz-adv-x="561" 
d="M402.5 26q-46.5 -46 -121.5 -46q-76 0 -123 46t-47 121q0 76 47 122t123 46t122 -46t46 -122q0 -75 -46.5 -121z" />
    <glyph glyph-name="slash" unicode="/" horiz-adv-x="1058" 
d="M47 -451l922 2192h43l-922 -2192h-43z" />
    <glyph glyph-name="zero" unicode="0" horiz-adv-x="1460" 
d="M1264 355q-76 -179 -213 -277t-320 -98q-182 0 -320 98t-214 277t-76 413q0 233 76 413q76 179 214 277t320 98t320 -98q137 -98 213 -277t75 -413q1 -234 -75 -413zM452 373q40 -172 112 -267q73 -94 167 -94t167 94t113 267q40 172 40 395t-40 395t-113 267
q-73 94 -167 94t-167 -94t-112 -267q-40 -172 -40 -395t40 -395z" />
    <glyph glyph-name="one" unicode="1" horiz-adv-x="980" 
d="M780 1556v-1556h-270v1389l-461 -254l-14 26l715 395h30z" />
    <glyph glyph-name="two" unicode="2" horiz-adv-x="1226" 
d="M1137 33v-33h-1090v20q352 311 557 606q205 294 205 519q0 98 -40 179t-112 127t-163 46q-92 0 -191 -43q-98 -43 -174 -115l-14 21q88 88 215 142t266 54q143 0 258 -57t180 -160q66 -102 66 -235q0 -231 -196 -516t-525 -555h758z" />
    <glyph glyph-name="three" unicode="3" horiz-adv-x="1294" 
d="M1050 680q130 -111 130 -277q0 -125 -71 -221t-201 -149t-300 -53q-150 0 -298 56t-238 146l20 25q80 -78 189 -123t215 -45q178 0 286 103q109 103 109 274q0 113 -53 199q-53 87 -149 136q-95 48 -220 48h-39v32h25q170 0 273 97q103 96 103 254q0 143 -87 229t-230 86
q-92 0 -193 -38t-171 -101l-17 20q84 80 211 129t248 49q158 0 277 -45q120 -45 186 -128t65 -189q0 -147 -112 -248q-113 -100 -308 -129q220 -26 350 -137z" />
    <glyph glyph-name="four" unicode="4" horiz-adv-x="1331" 
d="M1266 354h-213v-354h-273v354h-743v23l987 1179h29v-1169h213v-33zM780 387v819l-686 -819h686z" />
    <glyph glyph-name="five" unicode="5" horiz-adv-x="1245" 
d="M881 921q129 -62 199 -177q71 -114 71 -261q0 -150 -75 -263q-75 -114 -210 -177t-313 -63q-143 0 -274 56t-203 150l16 19q63 -76 162 -121q98 -45 199 -45q121 0 214 55t144 157q51 101 51 232t-49 231q-49 99 -137 154t-205 56q-70 0 -147 -25q-78 -25 -138 -68
l-12 25l94 680h822v-33h-555l-74 -532q61 12 121 12q170 0 299 -62z" />
    <glyph glyph-name="six" unicode="6" horiz-adv-x="1370" 
d="M1028 900q113 -58 175 -165q62 -106 63 -246q0 -152 -71 -267q-71 -116 -201 -179t-300 -63t-301 90t-203 255t-71 380q0 252 88 445q88 194 248 300t366 106q115 0 226 -40q111 -41 180 -109l-15 -21q-55 49 -138 78t-167 29q-135 0 -242 -87q-108 -87 -172 -247
q-65 -160 -79 -373q61 80 155 126t199 46q147 0 260 -58zM843 71q65 58 99 163q35 105 35 243q0 193 -76 310q-76 118 -199 118q-80 0 -158 -48q-79 -48 -134 -132v-57q0 -195 34 -343q35 -148 100 -231q65 -82 150 -82q84 1 149 59z" />
    <glyph glyph-name="seven" unicode="7" horiz-adv-x="1163" 
d="M1114 1536v-20l-610 -1516h-281l606 1503h-792v33h1077z" />
    <glyph glyph-name="eight" unicode="8" horiz-adv-x="1404" 
d="M1169 675q123 -112 123 -276q0 -125 -73 -220q-74 -95 -208 -147t-309 -52q-176 0 -309 52t-207 147t-73 220q0 166 121 277q122 111 333 139q-180 27 -285 124t-106 239q0 113 66 198q66 86 185 133q120 47 275 47q156 0 275 -47t184 -133q66 -86 66 -198
q0 -143 -105 -240q-104 -96 -284 -123q208 -28 331 -140zM531 925q65 -95 171 -96q106 0 171 97q65 96 65 252t-65 250q-65 95 -171 96q-106 0 -171 -96q-65 -95 -64 -250q-1 -158 64 -253zM919 119q83 106 82 280q0 180 -82 289q-83 109 -217 109q-135 0 -218 -109
t-83 -289q0 -174 83 -280t218 -107q134 1 217 107z" />
    <glyph glyph-name="nine" unicode="9" horiz-adv-x="1368" 
d="M965 1462q135 -94 210 -266t74 -397q0 -244 -83 -429t-232 -288q-150 -102 -346 -102q-129 0 -252 40q-123 41 -195 109l15 21q59 -51 149 -82t178 -31q139 0 245 95q105 95 166 269q60 174 64 404q-59 -86 -155 -136t-203 -51q-147 0 -260 57q-113 56 -175 158
q-62 101 -63 234q0 145 69 256t194 172t288 61q177 0 312 -94zM825 724q80 52 133 140q-2 197 -40 346q-39 150 -108 232t-157 82q-119 0 -190 -122q-72 -122 -72 -323q0 -184 76 -296t199 -111q79 0 159 52z" />
    <glyph glyph-name="colon" unicode=":" horiz-adv-x="600" 
d="M423 835q-46 -46 -122 -47q-76 0 -123 47q-47 46 -47 121q0 76 47 122t123 46t122 -46t46 -122q0 -75 -46 -121zM423 26q-46 -46 -122 -46t-123 46t-47 121q0 76 47 122t123 46t122 -46t46 -122q0 -75 -46 -121z" />
    <glyph glyph-name="semicolon" unicode=";" horiz-adv-x="612" 
d="M425 835q-46 -46 -122 -47q-76 0 -123 47q-47 46 -47 121q0 76 47 122t123 46t122 -46t46 -122q0 -75 -46 -121zM432 253q49 -62 49 -167q0 -147 -75 -272q-76 -125 -197 -185l-14 25q106 61 171 168q65 106 68 229q-23 -35 -60 -53q-38 -18 -85 -18q-70 0 -113 46
t-43 121q0 76 46 122t122 46q82 0 131 -62z" />
    <glyph glyph-name="less" unicode="&#x3c;" horiz-adv-x="970" 
d="M90 590l717 287v-37l-664 -267l664 -245v-37l-717 266v33z" />
    <glyph glyph-name="equal" unicode="=" horiz-adv-x="970" 
d="M127 705v32h717v-32h-717zM127 410v32h717v-32h-717z" />
    <glyph glyph-name="greater" unicode="&#x3e;" horiz-adv-x="970" 
d="M164 291v37l663 245l-663 267v37l717 -287v-33z" />
    <glyph glyph-name="question" unicode="?" horiz-adv-x="1095" 
d="M444 408v16q0 141 40 239.5t116 221.5q63 98 94 170.5t31 163.5q0 127 -80 202.5t-211 75.5q-90 0 -190.5 -44t-169.5 -114l-17 21q90 88 220.5 142t252.5 54q143 0 253 -43t170.5 -122.5t60.5 -184.5q0 -94 -40 -168.5t-97.5 -129t-153.5 -132.5q-86 -68 -136 -115
t-84 -106t-34 -131v-16h-25zM563 18.5q-41 -38.5 -106 -38.5q-66 0 -107 38.5t-41 102.5q0 63 41 103t107 40t106.5 -40t40.5 -103q0 -64 -41 -102.5z" />
    <glyph glyph-name="at" unicode="@" horiz-adv-x="2170" 
d="M1526 1040v-725q0 -104 45 -166.5t121 -62.5q92 0 167.5 72.5t119.5 204t44 303.5q0 256 -117.5 450.5t-332.5 301t-496 106.5q-279 0 -491.5 -122t-330.5 -345t-118 -514t118 -513.5t334 -345t496 -122.5q143 0 301 45t269 117l10 -21q-113 -78 -276.5 -126t-315.5 -48
q-291 0 -513 127t-345 356.5t-123 530.5t123 531.5t346 356t516 125.5q295 0 519.5 -110.5t348 -312t123.5 -467.5q0 -293 -118.5 -467t-333.5 -174q-131 0 -218 65.5t-116 179.5q-37 -113 -124 -179t-193 -66q-125 0 -220.5 64.5t-148.5 182t-53 271.5t53 271.5t148.5 182
t220.5 64.5q104 0 189 -65.5t124 -174.5l16 219h232zM1167.5 148.5q59.5 60.5 96.5 158.5v469q-37 98 -96.5 158.5t-123.5 60.5q-100 0 -162.5 -125t-62.5 -327q0 -203 62.5 -329t162.5 -126q64 0 123.5 60.5z" />
    <glyph glyph-name="A" unicode="A" horiz-adv-x="1419" 
d="M938 410h-696l-170 -410h-43l649 1556h29l690 -1556h-279zM924 442l-342 785l-326 -785h668z" />
    <glyph glyph-name="B" unicode="B" horiz-adv-x="1327" 
d="M1108 680.5q125 -105.5 125 -260.5q0 -125 -76 -220.5t-214 -147.5t-320 -52h-426v1536h426q156 0 274.5 -46t185 -129t66.5 -192q0 -137 -103.5 -231t-277.5 -123q215 -29 340 -134.5zM783.5 1411q-76.5 92 -201.5 92h-115v-674h115q125 0 201.5 93.5t76.5 246.5
q0 150 -76.5 242zM844.5 139.5q99.5 106.5 99.5 280.5q0 170 -99.5 273.5t-262.5 103.5h-115v-764h115q163 0 262.5 106.5z" />
    <glyph glyph-name="C" unicode="C" horiz-adv-x="1470" 
d="M1187.5 42q-155.5 -62 -310.5 -62q-227 0 -401.5 98t-270.5 277.5t-96 412.5t96 412.5t270 277.5t402 98q154 0 301 -54t237 -144l-16 -19q-80 70 -199 114t-231 44q-170 0 -299 -91t-200 -256t-71 -382t72 -382t202 -256t300 -91q117 0 240.5 52t209.5 138l17 -24
q-97 -101 -252.5 -163z" />
    <glyph glyph-name="D" unicode="D" horiz-adv-x="1681" 
d="M1172.5 1439.5q191.5 -96.5 296 -270.5t104.5 -401t-104.5 -401t-296 -270.5t-441.5 -96.5h-534v1536h534q250 0 441.5 -96.5zM1001.5 124q135.5 91 209 258t73.5 386t-73.5 386t-209 258t-311.5 91h-223v-1470h223q176 0 311.5 91z" />
    <glyph glyph-name="E" unicode="E" horiz-adv-x="1110" 
d="M1038 33v-33h-841v1536h827v-33h-557v-674h463v-32h-463v-764h571z" />
    <glyph glyph-name="F" unicode="F" horiz-adv-x="1093" 
d="M467 1503v-694h477v-33h-477v-776h-270v1536h856v-33h-586z" />
    <glyph glyph-name="G" unicode="G" horiz-adv-x="1619" 
d="M1497 815v-629q-104 -92 -275 -149t-345 -57q-227 0 -401.5 98t-270.5 277.5t-96 412.5t96 412.5t270 277.5t402 98q166 0 324.5 -57t250.5 -151l-14 -19q-88 76 -217 122t-252 46q-170 0 -299 -91t-200 -256t-71 -382t72 -382t202 -256t300 -91q125 0 254 41v735h270z
" />
    <glyph glyph-name="H" unicode="H" horiz-adv-x="1546" 
d="M1350 1536v-1536h-271v797h-612v-797h-270v1536h270v-707h612v707h271z" />
    <glyph glyph-name="I" unicode="I" horiz-adv-x="663" 
d="M197 0v1536h270v-1536h-270z" />
    <glyph glyph-name="J" unicode="J" horiz-adv-x="886" 
d="M598 76q-102 -96 -272 -96q-90 0 -167 27.5t-124 74.5l16 20q33 -33 81 -51t97 -18q88 0 143.5 68.5t55.5 179.5v1255h272v-1206q0 -158 -102 -254z" />
    <glyph glyph-name="K" unicode="K" horiz-adv-x="1406" 
d="M197 1536h270v-1536h-270v1536zM1423 0h-315l-602 809l764 727h53l-602 -573z" />
    <glyph glyph-name="L" unicode="L" horiz-adv-x="1077" 
d="M1044 33v-33h-847v1536h270v-1503h577z" />
    <glyph glyph-name="M" unicode="M" horiz-adv-x="1941" 
d="M1536 0l-98 1087l-545 -1107h-31l-583 1124l-111 -1104h-41l160 1556h28l678 -1300l633 1300h31l158 -1556h-279z" />
    <glyph glyph-name="N" unicode="N" horiz-adv-x="1546" 
d="M197 0v1556h30l1082 -1202v1182h41v-1556h-31l-1081 1200v-1180h-41z" />
    <glyph glyph-name="O" unicode="O" horiz-adv-x="1822" 
d="M1613.5 355.5q-100.5 -179.5 -282.5 -277.5t-420 -98q-240 0 -422 98t-282.5 277.5t-100.5 412.5t100.5 412.5t283 277.5t421.5 98q238 0 420 -98t282.5 -277.5t100.5 -412.5t-100.5 -412.5zM460.5 373q63.5 -172 180.5 -266.5t270 -94.5q154 0 270.5 94.5t180 266.5
t63.5 395t-63.5 395t-180 266.5t-270.5 94.5t-270.5 -94.5t-180 -266.5t-63.5 -395t63.5 -395z" />
    <glyph glyph-name="P" unicode="P" horiz-adv-x="1290" 
d="M945 1483q134 -53 208 -151.5t74 -225.5t-74 -225.5t-208 -152.5t-310 -54h-168v-674h-270v1536h438q176 0 310 -53zM842 816.5q94 109.5 94 289.5q0 178 -94 287.5t-248 109.5h-127v-796h127q154 0 248 109.5z" />
    <glyph glyph-name="Q" unicode="Q" horiz-adv-x="1822" 
d="M1606.5 343q-107.5 -183 -297.5 -277l309 -299l-29 -29l-319 309q-164 -68 -359 -67q-240 0 -422 98t-282.5 277.5t-100.5 412.5t100.5 412.5t283 277.5t421.5 98q238 0 420 -98t282.5 -277.5t100.5 -412.5q0 -242 -107.5 -425zM1196 119l-334 323l29 29l334 -324
q96 98 148 258t52 363q0 223 -63.5 395t-180 266.5t-270.5 94.5t-270.5 -94.5t-180 -266.5t-63.5 -395t63.5 -395t180.5 -266.5t270 -94.5q162 1 285 107z" />
    <glyph glyph-name="R" unicode="R" horiz-adv-x="1382" 
d="M1356 0h-316l-569 717h-4v-717h-270v1536h452q172 0 303 -50t203 -142.5t72 -213.5q0 -162 -123 -270t-332 -135zM608 750q147 0 237.5 104t90.5 276q0 168 -90 270.5t-238 102.5h-141v-753h141z" />
    <glyph glyph-name="S" unicode="S" horiz-adv-x="1159" 
d="M1007.5 181.5q-65.5 -99.5 -177 -150.5t-250.5 -51q-154 0 -288 61t-222 168l20 22q70 -88 180.5 -140t221.5 -52q139 0 225 81t86 214q0 92 -42 158.5t-104.5 111.5t-169.5 105q-117 66 -187.5 117t-118.5 132.5t-48 196.5q0 121 56.5 212t155.5 140t228 49
q125 0 242 -46t195 -124l-17 -22q-68 59 -158 96t-173 37q-117 0 -189 -69.5t-72 -184.5q0 -86 41 -147.5t99.5 -103.5t165.5 -103q117 -66 190.5 -120t124.5 -140t51 -209q0 -139 -65.5 -238.5z" />
    <glyph glyph-name="T" unicode="T" horiz-adv-x="1343" 
d="M1323 1503h-516v-1503h-270v1503h-517v33h1303v-33z" />
    <glyph glyph-name="U" unicode="U" horiz-adv-x="1527" 
d="M1281.5 234.5q-64.5 -121.5 -185.5 -188t-287 -66.5q-184 0 -326.5 72.5t-222.5 204.5t-80 304v975h271v-1024q0 -143 50 -254t140 -171t207 -60q135 0 238.5 60t161 171t57.5 254v1024h41v-1018q0 -162 -64.5 -283.5z" />
    <glyph glyph-name="V" unicode="V" horiz-adv-x="1404" 
d="M1372 1536l-639 -1556h-28l-680 1556h278l526 -1223l500 1223h43z" />
    <glyph glyph-name="W" unicode="W" horiz-adv-x="1890" 
d="M1849 1536l-499 -1556h-31l-367 1146l-364 -1146h-31l-516 1556h281l366 -1149l361 1169h32l369 -1165l356 1145h43z" />
    <glyph glyph-name="X" unicode="X" horiz-adv-x="1390" 
d="M1077 0l-473 684l-520 -684h-49l547 719l-566 817h308l456 -664l516 664h54l-545 -698l577 -838h-305z" />
    <glyph glyph-name="Y" unicode="Y" horiz-adv-x="1431" 
d="M868 686v-686h-270v668l-551 868h305l500 -803l485 803h43z" />
    <glyph glyph-name="Z" unicode="Z" horiz-adv-x="1232" 
d="M29 0v20l858 1483h-791v33h1094v-20l-875 -1483h871v-33h-1157z" />
    <glyph glyph-name="bracketleft" unicode="[" horiz-adv-x="622" 
d="M225 1708v-2126h396v-33h-437v2192h437v-33h-396z" />
    <glyph glyph-name="backslash" unicode="\" horiz-adv-x="1058" 
d="M47 1741h43l922 -2192h-43z" />
    <glyph glyph-name="bracketright" unicode="]" horiz-adv-x="622" 
d="M438 1741v-2192h-436v33h395v2126h-395v33h436z" />
    <glyph glyph-name="asciicircum" unicode="^" horiz-adv-x="970" 
d="M57 870l414 666h29l413 -666h-43l-385 619l-385 -619h-43z" />
    <glyph glyph-name="underscore" unicode="_" horiz-adv-x="1001" 
d="M-8 -242v33h1018v-33h-1018z" />
    <glyph glyph-name="grave" unicode="`" horiz-adv-x="1228" 
d="M653 1190l-475 276l17 29l473 -278z" />
    <glyph glyph-name="a" unicode="a" horiz-adv-x="1198" 
d="M929 1025q124 -101 124 -273v-752h-232l-18 227q-53 -113 -162 -180t-233 -67q-156 0 -252.5 87t-96.5 230q0 90 57.5 157.5t163 105.5t244.5 38h267v168q0 143 -79 226t-214 83q-86 0 -178.5 -34.5t-161.5 -94.5l-15 17q82 76 204 119.5t249 43.5q209 0 333 -101z
M670.5 111.5q74.5 60.5 120.5 158.5v295h-213q-109 0 -175.5 -70.5t-66.5 -187.5q0 -115 51 -185.5t133 -70.5q76 0 150.5 60.5z" />
    <glyph glyph-name="b" unicode="b" horiz-adv-x="1318" 
d="M1002.5 1054.5q107.5 -71.5 166 -201.5t58.5 -300t-58.5 -300t-166 -201.5t-246.5 -71.5q-123 0 -218.5 70.5t-131.5 185.5l-17 -236h-231v1597h262v-688q47 100 137 158.5t199 58.5q139 0 246.5 -71.5zM821.5 106.5q61.5 63.5 96 179t34.5 267.5t-34.5 267.5t-96 179
t-143.5 63.5t-152.5 -64.5t-105.5 -171.5v-548q35 -106 105.5 -171t152.5 -65t143.5 63.5z" />
    <glyph glyph-name="c" unicode="c" horiz-adv-x="1052" 
d="M835.5 21.5q-106.5 -41.5 -219.5 -41.5q-156 0 -275.5 71.5t-185 201.5t-65.5 300t65.5 300t185.5 201.5t275 71.5q104 0 205 -37.5t160 -97.5l-12 -16q-51 45 -120 72.5t-132 27.5q-104 0 -183 -65.5t-123 -183t-44 -273.5t45 -274.5t125.5 -184t185.5 -65.5
q66 0 139.5 34.5t128.5 88.5l17 -19q-66 -70 -172.5 -111.5z" />
    <glyph glyph-name="d" unicode="d" horiz-adv-x="1318" 
d="M1161 1597v-1597h-229l-17 233q-39 -115 -135 -184t-217 -69q-139 0 -246.5 71.5t-166 201.5t-58.5 300t58.5 300t166 201.5t246.5 71.5q113 0 203 -58t133 -157v686h262zM793.5 107.5q70.5 64.5 105.5 171.5v548q-33 106 -103.5 171t-154.5 65q-82 0 -143.5 -63.5
t-95 -179t-33.5 -267.5t33.5 -267.5t95 -179t143.5 -63.5t152.5 64.5z" />
    <glyph glyph-name="e" unicode="e" horiz-adv-x="1224" 
d="M367 578v-25q0 -156 47 -274.5t133 -184t196 -65.5q84 0 176.5 33.5t159.5 91.5l13 -17q-74 -72 -197 -114.5t-248 -42.5q-166 0 -292 71.5t-195.5 201.5t-69.5 300t67.5 300t191.5 201.5t286 71.5q154 0 272.5 -68.5t184 -191.5t65.5 -282v-6h-790zM449.5 961.5
q-72.5 -132.5 -80.5 -351.5h512q0 143 -31 253t-87 170.5t-128 60.5q-113 0 -185.5 -132.5z" />
    <glyph glyph-name="f" unicode="f" horiz-adv-x="858" 
d="M545.5 1497q-58.5 -72 -58.5 -190v-201h351v-33h-351v-1073h-262v1073h-202v33h202v151q0 162 104.5 261.5t274.5 99.5q86 0 168 -29.5t133 -79.5l-14 -16q-35 35 -86 55.5t-103 20.5q-98 0 -156.5 -72z" />
    <glyph glyph-name="g" unicode="g" horiz-adv-x="1318" 
d="M1161 1106v-1081q0 -147 -74.5 -260t-212 -174.5t-317.5 -61.5q-104 0 -214 38t-183 99l16 21q63 -51 155.5 -83t178.5 -32q174 0 281.5 110.5t107.5 292.5v220q-45 -98 -136 -156.5t-200 -58.5q-139 0 -246.5 71.5t-166 201.5t-58.5 300t58.5 300t166 201.5t246.5 71.5
q123 0 219.5 -70.5t132.5 -185.5l17 236h229zM793.5 107.5q70.5 64.5 105.5 171.5v548q-33 106 -103.5 171t-154.5 65q-82 0 -143.5 -63.5t-95 -179t-33.5 -267.5t33.5 -267.5t95 -179t143.5 -63.5t152.5 64.5z" />
    <glyph glyph-name="h" unicode="h" horiz-adv-x="1298" 
d="M1059 1033q92 -93 92 -245v-788h-262v858q0 90 -47 146.5t-123 56.5q-88 0 -170 -64.5t-129 -171.5v-825h-262v1597h262v-702q59 104 165.5 167.5t229.5 63.5q152 0 244 -93z" />
    <glyph glyph-name="i" unicode="i" horiz-adv-x="577" 
d="M399 1344.5q-41 -39.5 -110 -39.5q-70 0 -111 39.5t-41 105.5t41 104.5t111 38.5t110.5 -38.5t40.5 -104.5t-41 -105.5zM158 0v1106h262v-1106h-262z" />
    <glyph glyph-name="j" unicode="j" horiz-adv-x="579" 
d="M401 1344.5q-41 -39.5 -110 -39.5q-70 0 -111 39.5t-41 105.5t41 104.5t111 38.5t110.5 -38.5t40.5 -104.5t-41 -105.5zM327.5 -286.5q-94.5 -112.5 -272.5 -184.5l-10 20q115 96 115 388v1169h262v-1088q0 -192 -94.5 -304.5z" />
    <glyph glyph-name="k" unicode="k" horiz-adv-x="1187" 
d="M158 1597h262v-1597h-262v1597zM1200 0h-297l-446 606l608 500h53l-446 -367z" />
    <glyph glyph-name="l" unicode="l" horiz-adv-x="577" 
d="M158 0v1597h262v-1597h-262z" />
    <glyph glyph-name="m" unicode="m" horiz-adv-x="1988" 
d="M1752 1036q89 -90 89 -237v-799h-262v868q0 86 -44 139.5t-116 53.5q-82 0 -160.5 -61.5t-130.5 -165.5q2 -10 2 -35v-799h-262v868q0 86 -44 139.5t-115 53.5q-84 0 -163 -61.5t-126 -163.5v-836h-262v1106h231l17 -229q53 113 161.5 181t237.5 68q121 0 205 -63.5
t110 -171.5q57 106 164 170.5t232 64.5q147 0 236 -90z" />
    <glyph glyph-name="n" unicode="n" horiz-adv-x="1298" 
d="M1059 1033q92 -93 92 -245v-788h-262v858q0 90 -47 146.5t-123 56.5q-88 0 -170 -64.5t-129 -171.5v-825h-262v1106h231l17 -240q53 117 164.5 188.5t244.5 71.5q152 0 244 -93z" />
    <glyph glyph-name="o" unicode="o" horiz-adv-x="1310" 
d="M1150 253q-71 -130 -199 -201.5t-296 -71.5t-296 71.5t-199.5 201.5t-71.5 300t71.5 300t199.5 201.5t296 71.5t296 -71.5t199 -201.5t71 -300t-71 -300zM401.5 270q36.5 -123 102 -190.5t151.5 -67.5t151.5 67.5t102.5 190.5t37 283t-37 282.5t-102.5 190.5t-151.5 68
t-151.5 -68t-102 -190.5t-36.5 -282.5t36.5 -283z" />
    <glyph glyph-name="p" unicode="p" horiz-adv-x="1318" 
d="M1002.5 1054.5q107.5 -71.5 166 -201.5t58.5 -300t-58.5 -300t-166 -201.5t-246.5 -71.5q-111 0 -201 58t-135 159v-648h-262v1557h231l17 -236q39 115 135 185.5t215 70.5q139 0 246.5 -71.5zM821.5 106.5q61.5 63.5 96 179t34.5 267.5t-34.5 267.5t-96 179t-143.5 63.5
t-152.5 -64.5t-105.5 -171.5v-548q35 -106 105.5 -171t152.5 -65t143.5 63.5z" />
    <glyph glyph-name="q" unicode="q" horiz-adv-x="1318" 
d="M1161 1106v-1557h-262v646q-45 -98 -136 -156.5t-200 -58.5q-139 0 -246.5 71.5t-166 201.5t-58.5 300t58.5 300t166 201.5t246.5 71.5q123 0 219.5 -70.5t132.5 -185.5l17 236h229zM793.5 107.5q70.5 64.5 105.5 171.5v548q-33 106 -103.5 171t-154.5 65
q-82 0 -143.5 -63.5t-95 -179t-33.5 -267.5t33.5 -267.5t95 -179t143.5 -63.5t152.5 64.5z" />
    <glyph glyph-name="r" unicode="r" horiz-adv-x="843" 
d="M561.5 1025q108.5 81 243.5 81v-33q-131 0 -237.5 -84t-147.5 -221v-768h-262v1106h231l17 -295q47 133 155.5 214z" />
    <glyph glyph-name="s" unicode="s" horiz-adv-x="1036" 
d="M911.5 143.5q-57.5 -77.5 -160 -120.5t-235.5 -43q-137 0 -255 45t-193 120l16 19q63 -63 161.5 -101t198.5 -38q121 0 196 54t75 144t-70 140.5t-207 103.5q-111 45 -177 81t-113.5 98.5t-47.5 154.5q0 147 116 236t298 89q121 0 225.5 -41t167.5 -110l-12 -17
q-61 55 -142 89t-163 34q-100 0 -168 -48t-68 -134q0 -59 36 -102t90.5 -70t146.5 -63q113 -45 179 -82t114.5 -99.5t48.5 -156.5q0 -105 -57.5 -182.5z" />
    <glyph glyph-name="t" unicode="t" horiz-adv-x="862" 
d="M874 84q-51 -47 -129.5 -75.5t-162.5 -28.5q-164 0 -263.5 96t-99.5 254v743h-194v33h194l240 369h22v-369h359v-33h-359v-792q0 -115 55.5 -183.5t145.5 -68.5q49 0 98 19.5t82 51.5z" />
    <glyph glyph-name="u" unicode="u" horiz-adv-x="1277" 
d="M1120 1106v-1106h-231l-17 229q-53 -113 -161.5 -181t-237.5 -68q-147 0 -236.5 90t-89.5 237v799h263v-868q0 -88 43 -140.5t114 -52.5q86 0 165 61.5t126 163.5v836h262z" />
    <glyph glyph-name="v" unicode="v" horiz-adv-x="1128" 
d="M1110 1106l-528 -1126h-27l-537 1126h287l385 -817l379 817h41z" />
    <glyph glyph-name="w" unicode="w" horiz-adv-x="1564" 
d="M1536 1106l-424 -1126h-25l-301 786l-290 -786h-29l-444 1126h274l299 -770l281 790h32l305 -792l281 772h41z" />
    <glyph glyph-name="x" unicode="x" horiz-adv-x="1107" 
d="M793 0l-340 492l-381 -492h-47l405 524l-403 582h307l317 -459l359 459h47l-383 -492l426 -614h-307z" />
    <glyph glyph-name="y" unicode="y" horiz-adv-x="1130" 
d="M1110 1106l-688 -1559h-41l178 402l-536 1157h286l383 -852l377 852h41z" />
    <glyph glyph-name="z" unicode="z" horiz-adv-x="999" 
d="M29 0v18l641 1055h-592v33h878v-23l-639 -1050h635v-33h-923z" />
    <glyph glyph-name="braceleft" unicode="{" horiz-adv-x="524" 
d="M329.5 -372q59.5 -79 157.5 -79l-4 -20q-115 0 -184.5 84t-69.5 223v578q0 96 -48 155.5t-126 59.5h-10v33h10q78 0 126 59t48 156v577q0 139 70 223t184 84l4 -20q-98 0 -157.5 -79t-59.5 -208v-577q0 -90 -38.5 -150.5t-108.5 -81.5q70 -20 108.5 -81.5t38.5 -149.5
v-578q0 -129 59.5 -208z" />
    <glyph glyph-name="bar" unicode="|" horiz-adv-x="411" 
d="M184 -442v2183h41v-2183h-41z" />
    <glyph glyph-name="braceright" unicode="}" horiz-adv-x="524" 
d="M479 662v-33h-10q-78 0 -126 -59.5t-48 -155.5v-578q0 -139 -69.5 -223t-184.5 -84l-4 20q98 0 157.5 79t59.5 208v578q0 88 39 149.5t108 81.5q-70 20 -108.5 80.5t-38.5 151.5v577q0 129 -59.5 208t-157.5 79l4 20q115 0 184.5 -84t69.5 -223v-577q0 -96 48 -155.5
t126 -59.5h10z" />
    <glyph glyph-name="asciitilde" unicode="~" horiz-adv-x="970" 
d="M51 479q0 102 61.5 166t161.5 64q66 0 114 -29t110 -84q61 -53 104 -78.5t103 -25.5q84 0 136 54t52 142h29q0 -102 -61.5 -165.5t-162.5 -63.5q-66 0 -113.5 28.5t-109.5 83.5q-61 53 -104 79t-103 26q-84 0 -136 -54.5t-52 -142.5h-29z" />
    <glyph glyph-name="uni00A0" unicode="&#xa0;" horiz-adv-x="522" 
 />
    <glyph glyph-name="exclamdown" unicode="&#xa1;" horiz-adv-x="542" 
d="M379 881q-41 -39 -107 -39q-68 0 -108.5 39t-40.5 102t42 103t107 40q66 0 107 -39.5t41 -103.5q0 -63 -41 -102zM381 -424q-39 -47 -109 -47q-72 0 -110.5 47t-38.5 123q0 27 10 77t23 109q47 197 75.5 384.5t28.5 426.5h25q0 -240 28.5 -430t73.5 -381
q12 -59 22.5 -109t10.5 -77q0 -76 -39 -123z" />
    <glyph glyph-name="cent" unicode="&#xa2;" horiz-adv-x="1107" 
d="M865.5 241q-101.5 -42 -210.5 -46v-195h-41v195q-150 4 -264 77.5t-177.5 201.5t-63.5 294t63.5 294t178 201.5t263.5 77.5v195h41v-195q100 -4 194.5 -40.5t149.5 -92.5l-12 -18q-49 45 -117.5 72.5t-134.5 27.5q-104 0 -183 -64.5t-123 -183t-44 -274.5t45 -273.5
t126 -183t185 -65.5q68 0 141.5 33.5t127.5 87.5l16 -19q-59 -65 -160.5 -107z" />
    <glyph glyph-name="sterling" unicode="&#xa3;" horiz-adv-x="1245" 
d="M1171 33v-33h-1054v18q98 47 158.5 163t60.5 255q0 154 -51 320h-197v32h186q-6 18 -30.5 86t-36.5 130.5t-12 123.5q0 127 60 224.5t170 150.5t253 53q123 0 253 -54t220 -142l-16 -21q-72 70 -172.5 113t-194.5 43q-127 0 -206 -82t-79 -215q0 -94 17.5 -170t52.5 -180
q10 -27 20 -60h398v-32h-389q43 -139 43 -275q0 -152 -84 -271.5t-228 -176.5h858z" />
    <glyph glyph-name="currency" unicode="&#xa4;" horiz-adv-x="1329" 
d="M1184 223l-230 228q-106 -106 -292 -107q-182 0 -289 102l-228 -227l-28 29l227 227q-90 109 -90 291t92 291l-227 227l28 29l226 -226q106 100 289 101q182 0 290 -105l230 230l28 -29l-229 -229q88 -111 88 -289q0 -176 -86 -287l229 -227zM930 480.5
q96 103.5 96 285.5t-96 285.5t-268 103.5t-268.5 -103.5t-96.5 -285.5t96 -285.5t269 -103.5q172 0 268 103.5z" />
    <glyph glyph-name="yen" unicode="&#xa5;" horiz-adv-x="1439" 
d="M879 696h280v-32h-287v-230h287v-33h-287v-401h-272v401h-285v33h285v230h-285v32h267l-533 840h307l500 -803l483 803h45z" />
    <glyph glyph-name="brokenbar" unicode="&#xa6;" horiz-adv-x="411" 
d="M184 819v922h41v-922h-41zM184 -451v924h41v-924h-41z" />
    <glyph glyph-name="section" unicode="&#xa7;" horiz-adv-x="1304" 
d="M1166.5 377q-52.5 -96 -148.5 -158q90 -121 90 -280q0 -123 -59.5 -215.5t-167 -143.5t-248.5 -51q-125 0 -250 47t-205 123l17 20q70 -59 163 -95t179 -36q133 0 215 75t82 198q0 84 -30 146.5t-85 115.5q-20 -2 -68 -2q-168 0 -297 59.5t-199.5 167t-70.5 246.5
q0 119 50 214t145 159q-82 100 -82 258q0 117 59 206t166.5 138t249.5 49q125 0 250 -47t202 -123l-14 -21q-72 59 -170 95.5t-186 36.5q-129 0 -207 -70t-78 -186q0 -141 109 -240q49 4 73 4q168 0 297 -59.5t200 -167t71 -246.5q0 -121 -52.5 -217zM450.5 275.5
q75.5 -121.5 200.5 -121.5t202 121.5t77 318.5t-77 318.5t-202 121.5t-200.5 -121.5t-75.5 -318.5t75.5 -318.5z" />
    <glyph glyph-name="dieresis" unicode="&#xa8;" horiz-adv-x="1228" 
d="M357 1324q-34 -32 -91 -32q-55 0 -89 32t-34 85q0 51 34 83t89 32q57 0 91 -32t34 -83q0 -53 -34 -85zM766 1325q-35 -33 -90 -33t-89 32t-34 85q0 51 34 83t89 32t90 -32t35 -83t-35 -84z" />
    <glyph glyph-name="copyright" unicode="&#xa9;" horiz-adv-x="1822" 
d="M1613.5 355.5q-100.5 -179.5 -282.5 -277.5t-420 -98t-420 98t-282 277.5t-100 412.5q0 236 100 414t282.5 276t419.5 98q238 0 420 -98t282.5 -276t100.5 -414q0 -233 -100.5 -412.5zM248 374q94 -171 266 -266.5t397 -95.5t397.5 95.5t266.5 266.5t94 394
q0 225 -94 397t-266 265.5t-398 93.5q-225 0 -397 -93.5t-266 -265.5t-94 -397q0 -223 94 -394zM1113 334q-91 -35 -189 -35q-131 0 -230.5 58.5t-155 165t-55.5 247.5t55.5 248.5t155 166t230.5 58.5q88 0 173 -30.5t138 -79.5l-12 -17q-37 33 -90.5 52.5t-104.5 19.5
q-121 0 -194.5 -115t-73.5 -303q0 -186 75.5 -301t198.5 -115q55 0 111.5 23.5t97.5 62.5l14 -14q-53 -57 -144 -92z" />
    <glyph glyph-name="ordfeminine" unicode="&#xaa;" horiz-adv-x="788" 
d="M581.5 1499q69.5 -57 69.5 -156v-423h-131l-8 129q-31 -63 -92.5 -102.5t-130.5 -39.5q-88 0 -142.5 50.5t-54.5 132.5q0 76 72 123t190 47h150v92q0 80 -44 125t-120 45q-49 0 -100.5 -18.5t-89.5 -51.5l-13 12q49 43 118 67.5t140 24.5q117 0 186.5 -57zM436 988
q43 34 68 87v162h-121q-59 0 -97 -39t-38 -102t28.5 -102.5t73.5 -39.5q43 0 86 34z" />
    <glyph glyph-name="guillemotleft" unicode="&#xab;" horiz-adv-x="831" 
d="M92 567v13l307 387l21 -13l-254 -381l254 -380l-21 -13zM375 567v13l307 387l20 -13l-253 -381l253 -380l-20 -13z" />
    <glyph glyph-name="logicalnot" unicode="&#xac;" horiz-adv-x="970" 
d="M846 416h-41v270h-676v33h717v-303z" />
    <glyph glyph-name="uni00AD" unicode="&#xad;" horiz-adv-x="968" 
d="M127 557v33h715v-33h-715z" />
    <glyph glyph-name="registered" unicode="&#xae;" horiz-adv-x="1093" 
d="M782.5 1597.5q102.5 -53.5 158.5 -151.5t56 -227q0 -127 -56 -225.5t-158.5 -153t-235.5 -54.5t-235.5 54.5t-159 153t-56.5 225.5q0 129 56.5 227t159 151.5t235.5 53.5t235.5 -53.5zM770 858q96 51 149.5 145.5t53.5 215.5q0 123 -53.5 216t-149.5 144t-223 51
t-223.5 -51t-149.5 -144.5t-53 -215.5q0 -121 53 -215.5t149.5 -145.5t223.5 -51t223 51zM645 1214l160 -251h-131l-144 225h-16h-41v-225h-127v522h168q96 0 155.5 -41t59.5 -107q0 -80 -84 -123zM568.5 1243q27.5 37 27.5 94t-27.5 93t-72.5 36h-23v-260h23q45 0 72.5 37z
" />
    <glyph glyph-name="macron" unicode="&#xaf;" horiz-adv-x="1228" 
d="M156 1319v33h616v-33h-616z" />
    <glyph glyph-name="degree" unicode="&#xb0;" horiz-adv-x="692" 
d="M531.5 1162.5q-70.5 -72.5 -185.5 -72.5t-185.5 72.5t-70.5 191.5t70.5 191.5t185.5 72.5t185.5 -72.5t70.5 -191.5t-70.5 -191.5zM190.5 1186.5q59.5 -64.5 155.5 -64.5t155.5 64.5t59.5 167.5q0 104 -59.5 167.5t-155.5 63.5t-155.5 -63.5t-59.5 -167.5
q0 -103 59.5 -167.5z" />
    <glyph glyph-name="plusminus" unicode="&#xb1;" horiz-adv-x="970" 
d="M844 725v-33h-338v-291h-41v291h-338v33h338v291h41v-291h338zM127 264h717v-33h-717v33z" />
    <glyph glyph-name="acute" unicode="&#xb4;" horiz-adv-x="1228" 
d="M166 1190l-14 27l475 278l16 -29z" />
    <glyph glyph-name="paragraph" unicode="&#xb6;" horiz-adv-x="1101" 
d="M155.5 1498q96.5 99 252.5 99h155v-2048h-41v1323h-114q-156 0 -252.5 99.5t-96.5 263.5t96.5 263zM885 1597v-2048h-41v2048h41z" />
    <glyph glyph-name="periodcentered" unicode="&#xb7;" horiz-adv-x="577" 
d="M411 540q-46 -46 -122 -46t-123 46t-47 122t47 121q47 46 123 46t122 -46t46 -121q0 -76 -46 -122z" />
    <glyph glyph-name="cedilla" unicode="&#xb8;" horiz-adv-x="1228" 
d="M460 -178q75 -43 75 -109q0 -82 -117 -133t-307 -51l4 20q106 0 173 43t66 115q0 51 -40 87t-103 46l61 183l35 -23l-47 -131q125 -4 200 -47z" />
    <glyph glyph-name="ordmasculine" unicode="&#xba;" horiz-adv-x="823" 
d="M643 998q-88 -89 -231 -89t-231.5 89t-88.5 235q0 145 88 234t232 89q143 0 231 -89t88 -234q0 -146 -88 -235zM293 1015q45 -83 119 -83t118.5 83t44.5 218q0 137 -45 219t-118 82q-74 0 -119 -82t-45 -219q0 -135 45 -218z" />
    <glyph glyph-name="guillemotright" unicode="&#xbb;" horiz-adv-x="831" 
d="M412 193l254 380l-254 381l20 13l307 -387v-13l-307 -387zM129 193l254 380l-254 381l21 13l307 -387v-13l-307 -387z" />
    <glyph glyph-name="onequarter" unicode="&#xbc;" horiz-adv-x="1660" 
d="M1587 190h-110v-190h-185v190h-385v13l553 651h17v-641h110v-23zM1292 213v408l-346 -408h346zM199 0l1083 1536h43l-1083 -1536h-43zM487 1546v-854h-184v740l-231 -123l-11 18l410 219h16z" />
    <glyph glyph-name="onehalf" unicode="&#xbd;" horiz-adv-x="1603" 
d="M1516 23v-23h-617v12q184 172 292 336t107 279q0 84 -46 135t-122 51q-45 0 -97 -21q-52 -22 -89 -57l-10 15q51 49 124 77q73 29 146 29q129 0 209 -71t80 -183q0 -121 -103 -274q-103 -154 -278 -305h404zM199 0l1083 1536h43l-1083 -1536h-43zM487 1546v-854h-184v740
l-231 -123l-11 18l410 219h16z" />
    <glyph glyph-name="threequarters" unicode="&#xbe;" horiz-adv-x="1763" 
d="M1696 190h-111v-190h-184v190h-385v13l553 651h16v-641h111v-23zM1401 213v408l-346 -408h346zM309 0l1084 1536h43l-1084 -1536h-43zM634 1067q71 -59 71 -149q0 -106 -89 -172q-88 -65 -233 -64q-86 0 -172 31t-135 80l12 18q43 -39 100 -62q57 -24 111 -24
q96 0 155 55q58 55 58 146q0 90 -60 146t-161 56h-21v23h15q88 0 141 51t53 133q0 76 -48 123t-126 47q-47 0 -98 -19t-88 -50l-13 14q49 43 121 71t138 27q139 0 224 -56t85 -146q0 -80 -63 -135q-62 -54 -169 -70q121 -15 192 -74z" />
    <glyph glyph-name="questiondown" unicode="&#xbf;" horiz-adv-x="1081" 
d="M739 881q-41 -39 -106 -39q-66 0 -107 39t-41 102t41 103t107 40t106.5 -39.5t40.5 -103.5q0 -63 -41 -102zM812 -416.5q-130 -54.5 -253 -54.5q-143 0 -252.5 43t-170 123t-60.5 184q0 94 40 170t97 132.5t154 133.5q84 68 135 116t85 108.5t34 134.5v22h24v-22
q0 -100 -21.5 -182t-52 -141.5t-82.5 -145.5q-63 -100 -93.5 -173t-30.5 -165q0 -127 79.5 -203t210.5 -76q90 0 190.5 44t170.5 114l16 -20q-90 -88 -220 -142.5z" />
    <glyph glyph-name="Agrave" unicode="&#xc0;" horiz-adv-x="1419" 
d="M965 1632l-594 213l12 33l592 -217zM938 410h-696l-170 -410h-43l649 1556h29l690 -1556h-279zM924 442l-342 785l-326 -785h668z" />
    <glyph glyph-name="Aacute" unicode="&#xc1;" horiz-adv-x="1419" 
d="M422 1632l-10 29l592 217l12 -33zM938 410h-696l-170 -410h-43l649 1556h29l690 -1556h-279zM924 442l-342 785l-326 -785h668z" />
    <glyph glyph-name="Acircumflex" unicode="&#xc2;" horiz-adv-x="1419" 
d="M342 1628l-14 17l364 282l365 -282l-15 -17l-350 244zM938 410h-696l-170 -410h-43l649 1556h29l690 -1556h-279zM924 442l-342 785l-326 -785h668z" />
    <glyph glyph-name="Atilde" unicode="&#xc3;" horiz-adv-x="1419" 
d="M424 1811.5q-43 -37.5 -80 -111.5l-20 10q72 172 215 172q49 0 87 -22.5t85 -65.5q41 -37 72.5 -56.5t70.5 -19.5q63 0 106.5 38t77.5 112l23 -13q-72 -172 -215 -172q-49 0 -87 23t-87 66q-43 39 -74 58t-70 19q-61 0 -104 -37.5zM938 410h-696l-170 -410h-43l649 1556
h29l690 -1556h-279zM924 442l-342 785l-326 -785h668z" />
    <glyph glyph-name="Adieresis" unicode="&#xc4;" horiz-adv-x="1419" 
d="M578.5 1701q-33.5 -32 -91.5 -32q-55 0 -88.5 32t-33.5 83q0 53 33.5 85t88.5 32q57 0 91 -32t34 -85q0 -51 -33.5 -83zM987 1701q-35 -32 -90 -32t-89 32t-34 83q0 53 34 85t89 32t90 -33t35 -84t-35 -83zM938 410h-696l-170 -410h-43l649 1556h29l690 -1556h-279z
M924 442l-342 785l-326 -785h668z" />
    <glyph glyph-name="Aring" unicode="&#xc5;" horiz-adv-x="1419" 
d="M844.5 1678.5q-56.5 -54.5 -150.5 -54.5t-151.5 54.5t-57.5 144.5q0 88 57.5 142t151.5 54t150.5 -54t56.5 -142q0 -90 -56.5 -144.5zM572 1702q46 -45 122 -45t121 45t45 121q0 74 -45 119t-121 45t-122 -45.5t-46 -118.5q0 -76 46 -121zM938 410h-696l-170 -410h-43
l649 1556h29l690 -1556h-279zM924 442l-342 785l-326 -785h668z" />
    <glyph glyph-name="AE" unicode="&#xc6;" horiz-adv-x="1921" 
d="M1847 33v-33h-843l-64 477h-659l-248 -477h-45l798 1536h1045v-33h-752l90 -672h570v-32h-565l102 -766h571zM936 510l-129 979l-510 -979h639z" />
    <glyph glyph-name="Ccedilla" unicode="&#xc7;" horiz-adv-x="1470" 
d="M1194 44q-152 -60 -305 -64l-39 -111q125 -4 200.5 -47t75.5 -109q0 -82 -117.5 -133t-308.5 -51l5 20q106 0 172.5 43t66.5 115q0 51 -39 88t-104 45l49 140q-221 6 -389 106t-260 276.5t-92 405.5q0 233 96 412.5t270 277.5t402 98q154 0 301 -54t237 -144l-16 -19
q-80 70 -199 114t-231 44q-170 0 -299 -91t-200 -256t-71 -382t72 -382t202 -256t300 -91q117 0 240.5 52t209.5 138l17 -24q-94 -101 -246 -161z" />
    <glyph glyph-name="Egrave" unicode="&#xc8;" horiz-adv-x="1110" 
d="M889 1632l-594 213l12 33l592 -217zM1038 33v-33h-841v1536h827v-33h-557v-674h463v-32h-463v-764h571z" />
    <glyph glyph-name="Eacute" unicode="&#xc9;" horiz-adv-x="1110" 
d="M346 1632l-10 29l592 217l12 -33zM1038 33v-33h-841v1536h827v-33h-557v-674h463v-32h-463v-764h571z" />
    <glyph glyph-name="Ecircumflex" unicode="&#xca;" horiz-adv-x="1110" 
d="M268 1628l-14 17l364 282l365 -282l-14 -17l-351 244zM1038 33v-33h-841v1536h827v-33h-557v-674h463v-32h-463v-764h571z" />
    <glyph glyph-name="Edieresis" unicode="&#xcb;" horiz-adv-x="1110" 
d="M503 1701q-34 -32 -91 -32q-55 0 -89 32t-34 83q0 53 33.5 85t89.5 32q57 0 91 -32t34 -85q0 -51 -34 -83zM911.5 1701q-34.5 -32 -90.5 -32q-55 0 -89 32t-34 83q0 53 34 85t89 32t90 -33t35 -84t-34.5 -83zM1038 33v-33h-841v1536h827v-33h-557v-674h463v-32h-463v-764
h571z" />
    <glyph glyph-name="Igrave" unicode="&#xcc;" horiz-adv-x="663" 
d="M559 1632l-557 201l12 33l555 -205zM197 0v1536h270v-1536h-270z" />
    <glyph glyph-name="Iacute" unicode="&#xcd;" horiz-adv-x="663" 
d="M104 1632l-10 29l555 205l13 -33zM197 0v1536h270v-1536h-270z" />
    <glyph glyph-name="Icircumflex" unicode="&#xce;" horiz-adv-x="663" 
d="M53 1628l-14 17l293 282l295 -282l-15 -17l-280 242zM197 0v1536h270v-1536h-270z" />
    <glyph glyph-name="Idieresis" unicode="&#xcf;" horiz-adv-x="663" 
d="M261 1701q-34 -32 -91 -32q-55 0 -89 32t-34 83q0 53 34 85t89 32q57 0 91 -32t34 -85q0 -51 -34 -83zM582.5 1701q-33.5 -32 -88.5 -32t-89 32t-34 83q0 53 32.5 85t90.5 32q55 0 88.5 -32t33.5 -85q0 -51 -33.5 -83zM197 0v1536h270v-1536h-270z" />
    <glyph glyph-name="Eth" unicode="&#xd0;" horiz-adv-x="1697" 
d="M1188.5 1439.5q191.5 -96.5 297 -270.5t105.5 -401t-105.5 -401t-297 -270.5t-440.5 -96.5h-535v799h-174v32h174v705h535q249 0 440.5 -96.5zM1019 124q134 91 209 258t75 386t-75 386t-209 258t-310 91h-224v-672h363v-32h-363v-766h224q176 0 310 91z" />
    <glyph glyph-name="Ntilde" unicode="&#xd1;" horiz-adv-x="1546" 
d="M520 1811.5q-43 -37.5 -80 -111.5l-20 10q72 172 215 172q49 0 87 -22.5t85 -65.5q41 -37 72.5 -56.5t70.5 -19.5q63 0 106.5 38t78.5 112l22 -13q-72 -172 -215 -172q-49 0 -87 23t-87 66q-43 39 -73.5 58t-69.5 19q-62 0 -105 -37.5zM197 0v1556h30l1082 -1202v1182h41
v-1556h-31l-1081 1200v-1180h-41z" />
    <glyph glyph-name="Ograve" unicode="&#xd2;" horiz-adv-x="1822" 
d="M1182 1632l-594 213l12 33l592 -217zM1613.5 355.5q-100.5 -179.5 -282.5 -277.5t-420 -98q-240 0 -422 98t-282.5 277.5t-100.5 412.5t100.5 412.5t283 277.5t421.5 98q238 0 420 -98t282.5 -277.5t100.5 -412.5t-100.5 -412.5zM460.5 373q63.5 -172 180.5 -266.5
t270 -94.5q154 0 270.5 94.5t180 266.5t63.5 395t-63.5 395t-180 266.5t-270.5 94.5t-270.5 -94.5t-180 -266.5t-63.5 -395t63.5 -395z" />
    <glyph glyph-name="Oacute" unicode="&#xd3;" horiz-adv-x="1822" 
d="M639 1632l-10 29l592 217l12 -33zM1613.5 355.5q-100.5 -179.5 -282.5 -277.5t-420 -98q-240 0 -422 98t-282.5 277.5t-100.5 412.5t100.5 412.5t283 277.5t421.5 98q238 0 420 -98t282.5 -277.5t100.5 -412.5t-100.5 -412.5zM460.5 373q63.5 -172 180.5 -266.5
t270 -94.5q154 0 270.5 94.5t180 266.5t63.5 395t-63.5 395t-180 266.5t-270.5 94.5t-270.5 -94.5t-180 -266.5t-63.5 -395t63.5 -395z" />
    <glyph glyph-name="Ocircumflex" unicode="&#xd4;" horiz-adv-x="1822" 
d="M561 1628l-14 17l364 282l365 -282l-14 -17l-351 244zM1613.5 355.5q-100.5 -179.5 -282.5 -277.5t-420 -98q-240 0 -422 98t-282.5 277.5t-100.5 412.5t100.5 412.5t283 277.5t421.5 98q238 0 420 -98t282.5 -277.5t100.5 -412.5t-100.5 -412.5zM460.5 373
q63.5 -172 180.5 -266.5t270 -94.5q154 0 270.5 94.5t180 266.5t63.5 395t-63.5 395t-180 266.5t-270.5 94.5t-270.5 -94.5t-180 -266.5t-63.5 -395t63.5 -395z" />
    <glyph glyph-name="Otilde" unicode="&#xd5;" horiz-adv-x="1822" 
d="M641 1811.5q-43 -37.5 -80 -111.5l-20 10q72 172 215 172q49 0 87 -22.5t85 -65.5q41 -37 72.5 -56.5t70.5 -19.5q63 0 106.5 38t77.5 112l23 -13q-72 -172 -215 -172q-49 0 -87 23t-87 66q-43 39 -74 58t-70 19q-61 0 -104 -37.5zM1613.5 355.5
q-100.5 -179.5 -282.5 -277.5t-420 -98q-240 0 -422 98t-282.5 277.5t-100.5 412.5t100.5 412.5t283 277.5t421.5 98q238 0 420 -98t282.5 -277.5t100.5 -412.5t-100.5 -412.5zM460.5 373q63.5 -172 180.5 -266.5t270 -94.5q154 0 270.5 94.5t180 266.5t63.5 395t-63.5 395
t-180 266.5t-270.5 94.5t-270.5 -94.5t-180 -266.5t-63.5 -395t63.5 -395z" />
    <glyph glyph-name="Odieresis" unicode="&#xd6;" horiz-adv-x="1822" 
d="M795.5 1701q-33.5 -32 -90.5 -32q-55 0 -89 32t-34 83q0 53 33.5 85t89.5 32q57 0 90.5 -32t33.5 -85q0 -51 -33.5 -83zM1204 1701q-35 -32 -90 -32t-89 32t-34 83q0 53 34 85t89 32t90 -33t35 -84t-35 -83zM1613.5 355.5q-100.5 -179.5 -282.5 -277.5t-420 -98
q-240 0 -422 98t-282.5 277.5t-100.5 412.5t100.5 412.5t283 277.5t421.5 98q238 0 420 -98t282.5 -277.5t100.5 -412.5t-100.5 -412.5zM460.5 373q63.5 -172 180.5 -266.5t270 -94.5q154 0 270.5 94.5t180 266.5t63.5 395t-63.5 395t-180 266.5t-270.5 94.5t-270.5 -94.5
t-180 -266.5t-63.5 -395t63.5 -395z" />
    <glyph glyph-name="multiply" unicode="&#xd7;" horiz-adv-x="970" 
d="M752 283l-267 264l-272 -273l-29 29l273 272l-267 267l29 30l268 -266l256 256l29 -28l-256 -256l264 -267z" />
    <glyph glyph-name="Oslash" unicode="&#xd8;" horiz-adv-x="1822" 
d="M1635 1140q79 -165 79 -372q0 -233 -100.5 -412.5t-282.5 -277.5t-420 -98q-268 0 -467 124l-143 -192l-33 25l142 190q-145 104 -224.5 269t-79.5 372q0 233 100.5 412.5t283 277.5t421.5 98q270 0 467 -126l142 190l32 -23l-141 -188q145 -104 224 -269zM512 264
l776 1045q-68 104 -164 159.5t-213 55.5q-154 0 -270.5 -94.5t-180 -266.5t-63.5 -395q0 -303 115 -504zM1181.5 106.5q116.5 94.5 180 266.5t63.5 395q0 303 -114 504l-776 -1047q68 -102 164 -157.5t212 -55.5q154 0 270.5 94.5z" />
    <glyph glyph-name="Ugrave" unicode="&#xd9;" horiz-adv-x="1527" 
d="M1122 1632l-594 213l13 33l592 -217zM1281.5 234.5q-64.5 -121.5 -185.5 -188t-287 -66.5q-184 0 -326.5 72.5t-222.5 204.5t-80 304v975h271v-1024q0 -143 50 -254t140 -171t207 -60q135 0 238.5 60t161 171t57.5 254v1024h41v-1018q0 -162 -64.5 -283.5z" />
    <glyph glyph-name="Uacute" unicode="&#xda;" horiz-adv-x="1527" 
d="M580 1632l-11 29l592 217l13 -33zM1281.5 234.5q-64.5 -121.5 -185.5 -188t-287 -66.5q-184 0 -326.5 72.5t-222.5 204.5t-80 304v975h271v-1024q0 -143 50 -254t140 -171t207 -60q135 0 238.5 60t161 171t57.5 254v1024h41v-1018q0 -162 -64.5 -283.5z" />
    <glyph glyph-name="Ucircumflex" unicode="&#xdb;" horiz-adv-x="1527" 
d="M500 1628l-15 17l365 282l364 -282l-14 -17l-350 244zM1281.5 234.5q-64.5 -121.5 -185.5 -188t-287 -66.5q-184 0 -326.5 72.5t-222.5 204.5t-80 304v975h271v-1024q0 -143 50 -254t140 -171t207 -60q135 0 238.5 60t161 171t57.5 254v1024h41v-1018
q0 -162 -64.5 -283.5z" />
    <glyph glyph-name="Udieresis" unicode="&#xdc;" horiz-adv-x="1527" 
d="M736 1701q-34 -32 -91 -32q-55 0 -89 32t-34 83q0 53 34 85t89 32q57 0 91 -32t34 -85q0 -51 -34 -83zM1145 1701q-35 -32 -90 -32t-89 32t-34 83q0 53 33.5 85t89.5 32q55 0 90 -33t35 -84t-35 -83zM1281.5 234.5q-64.5 -121.5 -185.5 -188t-287 -66.5
q-184 0 -326.5 72.5t-222.5 204.5t-80 304v975h271v-1024q0 -143 50 -254t140 -171t207 -60q135 0 238.5 60t161 171t57.5 254v1024h41v-1018q0 -162 -64.5 -283.5z" />
    <glyph glyph-name="Yacute" unicode="&#xdd;" horiz-adv-x="1431" 
d="M526 1632l-10 29l592 217l12 -33zM868 686v-686h-270v668l-551 868h305l500 -803l485 803h43z" />
    <glyph glyph-name="Thorn" unicode="&#xde;" horiz-adv-x="1316" 
d="M945 1189q134 -54 208 -151.5t74 -224.5t-74 -225.5t-208 -151.5t-310 -53h-168v-383h-270v1534h270v-291h168q176 0 310 -54zM842 524.5q94 108.5 94 288.5t-94 288.5t-248 108.5h-127v-794h127q154 0 248 108.5z" />
    <glyph glyph-name="germandbls" unicode="&#xdf;" horiz-adv-x="1325" 
d="M1155.5 69q-106.5 -89 -278.5 -89q-94 0 -175 26.5t-129 73.5l11 16q37 -31 93 -49t109 -18q90 0 144.5 56t54.5 148q0 86 -39 141.5t-119 129.5q-78 70 -116.5 124t-38.5 136q0 76 36.5 131t108.5 125q78 76 117 135t39 143q0 117 -77 194t-202 77t-199.5 -80
t-74.5 -209v-1280h-262v1231q0 115 58 203t162.5 136t239.5 48q182 0 291 -87t109 -231q0 -63 -19.5 -114t-58.5 -119q-33 -57 -48 -94t-15 -80q0 -70 42 -120t125 -118q70 -55 113 -99t74 -106.5t31 -142.5q0 -149 -106.5 -238z" />
    <glyph glyph-name="agrave" unicode="&#xe0;" horiz-adv-x="1198" 
d="M838 1243l-476 277l17 28l473 -278zM929 1025q124 -101 124 -273v-752h-232l-18 227q-53 -113 -162 -180t-233 -67q-156 0 -252.5 87t-96.5 230q0 90 57.5 157.5t163 105.5t244.5 38h267v168q0 143 -79 226t-214 83q-86 0 -178.5 -34.5t-161.5 -94.5l-15 17
q82 76 204 119.5t249 43.5q209 0 333 -101zM670.5 111.5q74.5 60.5 120.5 158.5v295h-213q-109 0 -175.5 -70.5t-66.5 -187.5q0 -115 51 -185.5t133 -70.5q76 0 150.5 60.5z" />
    <glyph glyph-name="aacute" unicode="&#xe1;" horiz-adv-x="1198" 
d="M389 1243l-14 27l475 278l16 -28zM929 1025q124 -101 124 -273v-752h-232l-18 227q-53 -113 -162 -180t-233 -67q-156 0 -252.5 87t-96.5 230q0 90 57.5 157.5t163 105.5t244.5 38h267v168q0 143 -79 226t-214 83q-86 0 -178.5 -34.5t-161.5 -94.5l-15 17
q82 76 204 119.5t249 43.5q209 0 333 -101zM670.5 111.5q74.5 60.5 120.5 158.5v295h-213q-109 0 -175.5 -70.5t-66.5 -187.5q0 -115 51 -185.5t133 -70.5q76 0 150.5 60.5z" />
    <glyph glyph-name="acircumflex" unicode="&#xe2;" horiz-adv-x="1198" 
d="M315 1253l-14 17l313 303l314 -303l-15 -17l-299 265zM929 1025q124 -101 124 -273v-752h-232l-18 227q-53 -113 -162 -180t-233 -67q-156 0 -252.5 87t-96.5 230q0 90 57.5 157.5t163 105.5t244.5 38h267v168q0 143 -79 226t-214 83q-86 0 -178.5 -34.5t-161.5 -94.5
l-15 17q82 76 204 119.5t249 43.5q209 0 333 -101zM670.5 111.5q74.5 60.5 120.5 158.5v295h-213q-109 0 -175.5 -70.5t-66.5 -187.5q0 -115 51 -185.5t133 -70.5q76 0 150.5 60.5z" />
    <glyph glyph-name="atilde" unicode="&#xe3;" horiz-adv-x="1198" 
d="M343 1432.5q-42 -37.5 -79 -111.5l-20 10q70 172 215 172q49 0 88 -22.5t84 -63.5q41 -37 72.5 -56.5t70.5 -19.5q63 0 106.5 38t77.5 110l23 -10q-70 -172 -215 -172q-49 0 -87 22.5t-87 65.5q-41 37 -73 56t-70 19q-64 0 -106 -37.5zM929 1025q124 -101 124 -273v-752
h-232l-18 227q-53 -113 -162 -180t-233 -67q-156 0 -252.5 87t-96.5 230q0 90 57.5 157.5t163 105.5t244.5 38h267v168q0 143 -79 226t-214 83q-86 0 -178.5 -34.5t-161.5 -94.5l-15 17q82 76 204 119.5t249 43.5q209 0 333 -101zM670.5 111.5q74.5 60.5 120.5 158.5v295
h-213q-109 0 -175.5 -70.5t-66.5 -187.5q0 -115 51 -185.5t133 -70.5q76 0 150.5 60.5z" />
    <glyph glyph-name="adieresis" unicode="&#xe4;" horiz-adv-x="1198" 
d="M498.5 1377.5q-33.5 -31.5 -90.5 -31.5q-55 0 -89 31.5t-34 84.5q0 51 33.5 83t89.5 32q57 0 90.5 -32t33.5 -83q0 -53 -33.5 -84.5zM907 1378.5q-35 -32.5 -90 -32.5t-89 31.5t-34 84.5q0 51 34 83t89 32t90 -32t35 -83t-35 -83.5zM929 1025q124 -101 124 -273v-752
h-232l-18 227q-53 -113 -162 -180t-233 -67q-156 0 -252.5 87t-96.5 230q0 90 57.5 157.5t163 105.5t244.5 38h267v168q0 143 -79 226t-214 83q-86 0 -178.5 -34.5t-161.5 -94.5l-15 17q82 76 204 119.5t249 43.5q209 0 333 -101zM670.5 111.5q74.5 60.5 120.5 158.5v295
h-213q-109 0 -175.5 -70.5t-66.5 -187.5q0 -115 51 -185.5t133 -70.5q76 0 150.5 60.5z" />
    <glyph glyph-name="aring" unicode="&#xe5;" horiz-adv-x="1198" 
d="M765 1293.5q-56 -54.5 -151 -54.5q-94 0 -151 54.5t-57 144.5q0 88 57 142t151 54t150.5 -54t56.5 -142q0 -90 -56 -144.5zM492.5 1317q46.5 -45 121.5 -45q76 0 121 45t45 121q0 74 -45 119t-121 45t-122 -45.5t-46 -118.5q0 -76 46.5 -121zM929 1025q124 -101 124 -273
v-752h-232l-18 227q-53 -113 -162 -180t-233 -67q-156 0 -252.5 87t-96.5 230q0 90 57.5 157.5t163 105.5t244.5 38h267v168q0 143 -79 226t-214 83q-86 0 -178.5 -34.5t-161.5 -94.5l-15 17q82 76 204 119.5t249 43.5q209 0 333 -101zM670.5 111.5q74.5 60.5 120.5 158.5
v295h-213q-109 0 -175.5 -70.5t-66.5 -187.5q0 -115 51 -185.5t133 -70.5q76 0 150.5 60.5z" />
    <glyph glyph-name="ae" unicode="&#xe6;" horiz-adv-x="1906" 
d="M1055 575v-24q0 -156 46 -273.5t131 -183t195 -65.5q82 0 173.5 33.5t158.5 91.5l15 -17q-76 -72 -197 -114.5t-248 -42.5q-168 0 -294 78.5t-187 217.5q-63 -137 -182 -216.5t-256 -79.5q-158 0 -253.5 88t-95.5 231q0 92 56.5 162.5t160 109.5t238.5 39h277v154
q0 145 -81 228t-220 83q-86 0 -176.5 -34.5t-157.5 -94.5l-15 17q80 76 201 119.5t248 43.5q125 0 218 -46t142 -132q63 86 157.5 132t209.5 46q154 0 271.5 -68.5t182 -191.5t64.5 -284v-7h-782zM1136.5 960.5q-71.5 -133.5 -79.5 -352.5h506q0 219 -66.5 352.5
t-177.5 133.5t-182.5 -133.5zM692 124q84 73 139 193q-39 102 -38 232v29h-222q-106 0 -169.5 -73t-63.5 -194q0 -117 50 -188.5t132 -71.5q88 0 172 73z" />
    <glyph glyph-name="ccedilla" unicode="&#xe7;" horiz-adv-x="1052" 
d="M837.5 22.5q-104.5 -40.5 -216.5 -42.5l-39 -111q125 -4 200.5 -47t75.5 -109q0 -82 -116.5 -133t-307.5 -51l4 20q106 0 172 44.5t66 113.5q0 51 -39 88t-105 45l50 140q-147 8 -259 81.5t-172.5 200.5t-60.5 291q0 170 65.5 300t185.5 201.5t275 71.5q104 0 205 -37.5
t160 -97.5l-12 -16q-51 45 -120 72.5t-132 27.5q-104 0 -183 -65.5t-123 -183t-44 -273.5t45 -274.5t125.5 -184t185.5 -65.5q66 0 139.5 34.5t128.5 88.5l17 -19q-66 -70 -170.5 -110.5z" />
    <glyph glyph-name="egrave" unicode="&#xe8;" horiz-adv-x="1224" 
d="M852 1243l-475 277l16 28l473 -278zM367 578v-25q0 -156 47 -274.5t133 -184t196 -65.5q84 0 176.5 33.5t159.5 91.5l13 -17q-74 -72 -197 -114.5t-248 -42.5q-166 0 -292 71.5t-195.5 201.5t-69.5 300t67.5 300t191.5 201.5t286 71.5q154 0 272.5 -68.5t184 -191.5
t65.5 -282v-6h-790zM449.5 961.5q-72.5 -132.5 -80.5 -351.5h512q0 143 -31 253t-87 170.5t-128 60.5q-113 0 -185.5 -132.5z" />
    <glyph glyph-name="eacute" unicode="&#xe9;" horiz-adv-x="1224" 
d="M401 1243l-14 27l475 278l17 -28zM367 578v-25q0 -156 47 -274.5t133 -184t196 -65.5q84 0 176.5 33.5t159.5 91.5l13 -17q-74 -72 -197 -114.5t-248 -42.5q-166 0 -292 71.5t-195.5 201.5t-69.5 300t67.5 300t191.5 201.5t286 71.5q154 0 272.5 -68.5t184 -191.5
t65.5 -282v-6h-790zM449.5 961.5q-72.5 -132.5 -80.5 -351.5h512q0 143 -31 253t-87 170.5t-128 60.5q-113 0 -185.5 -132.5z" />
    <glyph glyph-name="ecircumflex" unicode="&#xea;" horiz-adv-x="1224" 
d="M328 1253l-15 17l314 303l313 -303l-14 -17l-299 265zM367 578v-25q0 -156 47 -274.5t133 -184t196 -65.5q84 0 176.5 33.5t159.5 91.5l13 -17q-74 -72 -197 -114.5t-248 -42.5q-166 0 -292 71.5t-195.5 201.5t-69.5 300t67.5 300t191.5 201.5t286 71.5
q154 0 272.5 -68.5t184 -191.5t65.5 -282v-6h-790zM449.5 961.5q-72.5 -132.5 -80.5 -351.5h512q0 143 -31 253t-87 170.5t-128 60.5q-113 0 -185.5 -132.5z" />
    <glyph glyph-name="edieresis" unicode="&#xeb;" horiz-adv-x="1224" 
d="M511 1377.5q-34 -31.5 -91 -31.5q-55 0 -89 31.5t-34 84.5q0 51 34 83t89 32q57 0 91 -32t34 -83q0 -53 -34 -84.5zM919.5 1378.5q-34.5 -32.5 -90.5 -32.5q-55 0 -88.5 31.5t-33.5 84.5q0 51 33.5 83t88.5 32t90 -32t35 -83t-34.5 -83.5zM367 578v-25q0 -156 47 -274.5
t133 -184t196 -65.5q84 0 176.5 33.5t159.5 91.5l13 -17q-74 -72 -197 -114.5t-248 -42.5q-166 0 -292 71.5t-195.5 201.5t-69.5 300t67.5 300t191.5 201.5t286 71.5q154 0 272.5 -68.5t184 -191.5t65.5 -282v-6h-790zM449.5 961.5q-72.5 -132.5 -80.5 -351.5h512
q0 143 -31 253t-87 170.5t-128 60.5q-113 0 -185.5 -132.5z" />
    <glyph glyph-name="igrave" unicode="&#xec;" horiz-adv-x="577" 
d="M510 1247l-449 271l17 26l446 -270zM158 0v1106h262v-1106h-262z" />
    <glyph glyph-name="iacute" unicode="&#xed;" horiz-adv-x="577" 
d="M72 1247l-17 27l447 270l18 -26zM158 0v1106h262v-1106h-262z" />
    <glyph glyph-name="icircumflex" unicode="&#xee;" horiz-adv-x="577" 
d="M8 1253l-14 17l297 303l297 -303l-15 -17l-282 263zM158 0v1106h262v-1106h-262z" />
    <glyph glyph-name="idieresis" unicode="&#xef;" horiz-adv-x="577" 
d="M218 1377.5q-34 -31.5 -91 -31.5q-55 0 -89 31.5t-34 84.5q0 51 34 83t89 32q57 0 91 -32t34 -83q0 -53 -34 -84.5zM539.5 1377.5q-33.5 -31.5 -88.5 -31.5q-57 0 -90 31.5t-33 84.5q0 51 33.5 83t89.5 32q55 0 88.5 -32t33.5 -83q0 -53 -33.5 -84.5zM158 0v1106h262
v-1106h-262z" />
    <glyph glyph-name="eth" unicode="&#xf0;" horiz-adv-x="1323" 
d="M1099 1147q122 -223 122 -514q0 -195 -70 -342.5t-198 -229t-298 -81.5q-168 0 -296 69.5t-198.5 197.5t-70.5 294q0 168 67.5 295t189.5 196.5t282 69.5q113 0 203 -54.5t143 -152.5q-39 180 -119 321.5t-197 233.5l-348 -164l-14 33l332 154q-162 117 -367 124l2 21
q254 -6 451 -105l223 105l14 -33l-196 -92q221 -123 343 -346zM806.5 77.5q65.5 65.5 101.5 185.5t36 278q0 156 -36 274.5t-101.5 184t-151.5 65.5t-151.5 -65.5t-101 -184.5t-35.5 -274q0 -158 35.5 -278t101 -185.5t151.5 -65.5t151.5 65.5z" />
    <glyph glyph-name="ntilde" unicode="&#xf1;" horiz-adv-x="1298" 
d="M382 1432.5q-42 -37.5 -79 -111.5l-20 10q70 172 215 172q49 0 88 -22.5t84 -63.5q41 -37 72.5 -56.5t70.5 -19.5q63 0 106.5 38t77.5 110l23 -10q-70 -172 -215 -172q-49 0 -87 22.5t-87 65.5q-41 37 -73 56t-71 19q-63 0 -105 -37.5zM1059 1033q92 -93 92 -245v-788
h-262v858q0 90 -47 146.5t-123 56.5q-88 0 -170 -64.5t-129 -171.5v-825h-262v1106h231l17 -240q53 117 164.5 188.5t244.5 71.5q152 0 244 -93z" />
    <glyph glyph-name="ograve" unicode="&#xf2;" horiz-adv-x="1310" 
d="M881 1243l-475 277l16 28l473 -278zM1150 253q-71 -130 -199 -201.5t-296 -71.5t-296 71.5t-199.5 201.5t-71.5 300t71.5 300t199.5 201.5t296 71.5t296 -71.5t199 -201.5t71 -300t-71 -300zM401.5 270q36.5 -123 102 -190.5t151.5 -67.5t151.5 67.5t102.5 190.5t37 283
t-37 282.5t-102.5 190.5t-151.5 68t-151.5 -68t-102 -190.5t-36.5 -282.5t36.5 -283z" />
    <glyph glyph-name="oacute" unicode="&#xf3;" horiz-adv-x="1310" 
d="M430 1243l-14 27l475 278l16 -28zM1150 253q-71 -130 -199 -201.5t-296 -71.5t-296 71.5t-199.5 201.5t-71.5 300t71.5 300t199.5 201.5t296 71.5t296 -71.5t199 -201.5t71 -300t-71 -300zM401.5 270q36.5 -123 102 -190.5t151.5 -67.5t151.5 67.5t102.5 190.5t37 283
t-37 282.5t-102.5 190.5t-151.5 68t-151.5 -68t-102 -190.5t-36.5 -282.5t36.5 -283z" />
    <glyph glyph-name="ocircumflex" unicode="&#xf4;" horiz-adv-x="1310" 
d="M356 1253l-14 17l313 303l314 -303l-15 -17l-299 265zM1150 253q-71 -130 -199 -201.5t-296 -71.5t-296 71.5t-199.5 201.5t-71.5 300t71.5 300t199.5 201.5t296 71.5t296 -71.5t199 -201.5t71 -300t-71 -300zM401.5 270q36.5 -123 102 -190.5t151.5 -67.5t151.5 67.5
t102.5 190.5t37 283t-37 282.5t-102.5 190.5t-151.5 68t-151.5 -68t-102 -190.5t-36.5 -282.5t36.5 -283z" />
    <glyph glyph-name="otilde" unicode="&#xf5;" horiz-adv-x="1310" 
d="M384 1432.5q-42 -37.5 -79 -111.5l-20 10q70 172 215 172q49 0 88 -22.5t84 -63.5q41 -37 72.5 -56.5t70.5 -19.5q63 0 106.5 38t77.5 110l23 -10q-70 -172 -215 -172q-49 0 -87 22.5t-87 65.5q-41 37 -73 56t-71 19q-63 0 -105 -37.5zM1150 253q-71 -130 -199 -201.5
t-296 -71.5t-296 71.5t-199.5 201.5t-71.5 300t71.5 300t199.5 201.5t296 71.5t296 -71.5t199 -201.5t71 -300t-71 -300zM401.5 270q36.5 -123 102 -190.5t151.5 -67.5t151.5 67.5t102.5 190.5t37 283t-37 282.5t-102.5 190.5t-151.5 68t-151.5 -68t-102 -190.5
t-36.5 -282.5t36.5 -283z" />
    <glyph glyph-name="odieresis" unicode="&#xf6;" horiz-adv-x="1310" 
d="M539.5 1377.5q-33.5 -31.5 -90.5 -31.5q-55 0 -89 31.5t-34 84.5q0 51 33.5 83t89.5 32q57 0 90.5 -32t33.5 -83q0 -53 -33.5 -84.5zM948 1378.5q-35 -32.5 -90 -32.5t-89 31.5t-34 84.5q0 51 34 83t89 32t90 -32t35 -83t-35 -83.5zM1150 253q-71 -130 -199 -201.5
t-296 -71.5t-296 71.5t-199.5 201.5t-71.5 300t71.5 300t199.5 201.5t296 71.5t296 -71.5t199 -201.5t71 -300t-71 -300zM401.5 270q36.5 -123 102 -190.5t151.5 -67.5t151.5 67.5t102.5 190.5t37 283t-37 282.5t-102.5 190.5t-151.5 68t-151.5 -68t-102 -190.5
t-36.5 -282.5t36.5 -283z" />
    <glyph glyph-name="divide" unicode="&#xf7;" horiz-adv-x="970" 
d="M563 775q-31 -30 -78 -30t-77.5 30t-30.5 79q0 47 30.5 77t77.5 30t78 -30t31 -77q0 -49 -31 -79zM127 557v33h717v-33h-717zM563 217q-31 -31 -78 -31t-77.5 31t-30.5 80q0 47 30.5 76.5t77.5 29.5t78 -29.5t31 -76.5q0 -49 -31 -80z" />
    <glyph glyph-name="oslash" unicode="&#xf8;" horiz-adv-x="1310" 
d="M1167.5 818q53.5 -118 53.5 -265q0 -170 -71 -300t-199 -201.5t-296 -71.5q-197 0 -333 94l-113 -152l-29 23l113 151q-98 76 -151.5 194t-53.5 263q0 170 71.5 300t199.5 201.5t296 71.5q195 0 332 -94l113 152l28 -23l-110 -149q96 -76 149.5 -194zM408 250l481 649
q-39 92 -99.5 143.5t-134.5 51.5q-86 0 -151.5 -68t-102 -190.5t-36.5 -282.5q0 -176 43 -303zM806.5 79.5q65.5 67.5 102.5 190.5t37 283q0 180 -43 305l-481 -649q39 -94 99.5 -145.5t133.5 -51.5q86 0 151.5 67.5z" />
    <glyph glyph-name="ugrave" unicode="&#xf9;" horiz-adv-x="1277" 
d="M858 1243l-475 277l16 28l473 -278zM1120 1106v-1106h-231l-17 229q-53 -113 -161.5 -181t-237.5 -68q-147 0 -236.5 90t-89.5 237v799h263v-868q0 -88 43 -140.5t114 -52.5q86 0 165 61.5t126 163.5v836h262z" />
    <glyph glyph-name="uacute" unicode="&#xfa;" horiz-adv-x="1277" 
d="M410 1243l-15 27l475 278l17 -28zM1120 1106v-1106h-231l-17 229q-53 -113 -161.5 -181t-237.5 -68q-147 0 -236.5 90t-89.5 237v799h263v-868q0 -88 43 -140.5t114 -52.5q86 0 165 61.5t126 163.5v836h262z" />
    <glyph glyph-name="ucircumflex" unicode="&#xfb;" horiz-adv-x="1277" 
d="M336 1253l-14 17l313 303l313 -303l-14 -17l-299 265zM1120 1106v-1106h-231l-17 229q-53 -113 -161.5 -181t-237.5 -68q-147 0 -236.5 90t-89.5 237v799h263v-868q0 -88 43 -140.5t114 -52.5q86 0 165 61.5t126 163.5v836h262z" />
    <glyph glyph-name="udieresis" unicode="&#xfc;" horiz-adv-x="1277" 
d="M519 1377.5q-34 -31.5 -91 -31.5q-55 0 -89 31.5t-34 84.5q0 51 34 83t89 32q57 0 91 -32t34 -83q0 -53 -34 -84.5zM928 1378.5q-35 -32.5 -90 -32.5t-89 31.5t-34 84.5q0 51 33.5 83t89.5 32q55 0 90 -32t35 -83t-35 -83.5zM1120 1106v-1106h-231l-17 229
q-53 -113 -161.5 -181t-237.5 -68q-147 0 -236.5 90t-89.5 237v799h263v-868q0 -88 43 -140.5t114 -52.5q86 0 165 61.5t126 163.5v836h262z" />
    <glyph glyph-name="yacute" unicode="&#xfd;" horiz-adv-x="1130" 
d="M403 1243l-14 27l475 278l17 -28zM1110 1106l-688 -1559h-41l178 402l-536 1157h286l383 -852l377 852h41z" />
    <glyph glyph-name="thorn" unicode="&#xfe;" horiz-adv-x="1318" 
d="M1002.5 1054.5q107.5 -71.5 166 -201.5t58.5 -300t-58.5 -300t-166 -201.5t-246.5 -71.5q-111 0 -201 58t-135 159v-648h-262v2048h262v-688q47 100 137 158.5t199 58.5q139 0 246.5 -71.5zM821.5 106.5q61.5 63.5 96 179t34.5 267.5t-34.5 267.5t-96 179t-143.5 63.5
t-152.5 -64.5t-105.5 -171.5v-548q35 -106 105.5 -171t152.5 -65t143.5 63.5z" />
    <glyph glyph-name="ydieresis" unicode="&#xff;" horiz-adv-x="1130" 
d="M513 1377.5q-34 -31.5 -91 -31.5q-55 0 -89 31.5t-34 84.5q0 51 34 83t89 32q57 0 91 -32t34 -83q0 -53 -34 -84.5zM921.5 1378.5q-34.5 -32.5 -90.5 -32.5q-55 0 -88.5 31.5t-33.5 84.5q0 51 33.5 83t88.5 32t90 -32t35 -83t-34.5 -83.5zM1110 1106l-688 -1559h-41
l178 402l-536 1157h286l383 -852l377 852h41z" />
    <glyph glyph-name="Amacron" unicode="&#x100;" horiz-adv-x="1419" 
d="M385 1669v33h616v-33h-616zM938 410h-696l-170 -410h-43l649 1556h29l690 -1556h-279zM924 442l-342 785l-326 -785h668z" />
    <glyph glyph-name="amacron" unicode="&#x101;" horiz-adv-x="1198" 
d="M305 1372v33h617v-33h-617zM929 1025q124 -101 124 -273v-752h-232l-18 227q-53 -113 -162 -180t-233 -67q-156 0 -252.5 87t-96.5 230q0 90 57.5 157.5t163 105.5t244.5 38h267v168q0 143 -79 226t-214 83q-86 0 -178.5 -34.5t-161.5 -94.5l-15 17q82 76 204 119.5
t249 43.5q209 0 333 -101zM670.5 111.5q74.5 60.5 120.5 158.5v295h-213q-109 0 -175.5 -70.5t-66.5 -187.5q0 -115 51 -185.5t133 -70.5q76 0 150.5 60.5z" />
    <glyph glyph-name="Abreve" unicode="&#x102;" horiz-adv-x="1419" 
d="M903 1735.5q-98 -66.5 -211 -66.5t-210 66.5t-144 175.5l20 10q53 -96 145.5 -155.5t188.5 -59.5q98 0 189.5 59.5t144.5 155.5l23 -10q-48 -109 -146 -175.5zM938 410h-696l-170 -410h-43l649 1556h29l690 -1556h-279zM924 442l-342 785l-326 -785h668z" />
    <glyph glyph-name="abreve" unicode="&#x103;" horiz-adv-x="1198" 
d="M799 1345.5q-86 -71.5 -187 -71.5q-98 0 -185 71.5t-128 188.5l20 10q47 -104 127 -168.5t166 -64.5t167 64.5t128 168.5l21 -10q-43 -117 -129 -188.5zM929 1025q124 -101 124 -273v-752h-232l-18 227q-53 -113 -162 -180t-233 -67q-156 0 -252.5 87t-96.5 230
q0 90 57.5 157.5t163 105.5t244.5 38h267v168q0 143 -79 226t-214 83q-86 0 -178.5 -34.5t-161.5 -94.5l-15 17q82 76 204 119.5t249 43.5q209 0 333 -101zM670.5 111.5q74.5 60.5 120.5 158.5v295h-213q-109 0 -175.5 -70.5t-66.5 -187.5q0 -115 51 -185.5t133 -70.5
q76 0 150.5 60.5z" />
    <glyph glyph-name="Aogonek" unicode="&#x104;" horiz-adv-x="1419" 
d="M1413 -424q-39 -20 -93 -33.5t-103 -13.5q-96 0 -154.5 46t-58.5 124q0 86 88 167t241 134h-215l-180 410h-696l-170 -410h-43l649 1556h29l690 -1556q-96 -53 -154.5 -131t-58.5 -152q0 -61 35.5 -98t95.5 -37q57 0 92 15zM924 442l-342 785l-326 -785h668z" />
    <glyph glyph-name="aogonek" unicode="&#x105;" horiz-adv-x="1198" 
d="M1069 -424q-39 -20 -93 -33.5t-106 -13.5q-96 0 -154.5 47t-58.5 123q0 86 88.5 167t243.5 134h-168l-18 227q-53 -113 -162 -180t-233 -67q-156 0 -252.5 87t-96.5 230q0 90 57.5 157.5t163 105.5t244.5 38h267v168q0 143 -79 226t-214 83q-86 0 -178.5 -34.5
t-161.5 -94.5l-15 17q82 76 204 119.5t249 43.5q209 0 333 -101t124 -273v-752q-96 -53 -154.5 -131t-58.5 -152q0 -61 34.5 -98t94.5 -37q57 0 92 15zM670.5 111.5q74.5 60.5 120.5 158.5v295h-213q-109 0 -175.5 -70.5t-66.5 -187.5q0 -115 51 -185.5t133 -70.5
q76 0 150.5 60.5z" />
    <glyph glyph-name="Cacute" unicode="&#x106;" horiz-adv-x="1470" 
d="M606 1632l-10 29l592 217l12 -33zM1187.5 42q-155.5 -62 -310.5 -62q-227 0 -401.5 98t-270.5 277.5t-96 412.5t96 412.5t270 277.5t402 98q154 0 301 -54t237 -144l-16 -19q-80 70 -199 114t-231 44q-170 0 -299 -91t-200 -256t-71 -382t72 -382t202 -256t300 -91
q117 0 240.5 52t209.5 138l17 -24q-97 -101 -252.5 -163z" />
    <glyph glyph-name="cacute" unicode="&#x107;" horiz-adv-x="1052" 
d="M387 1243l-14 27l475 278l16 -28zM835.5 21.5q-106.5 -41.5 -219.5 -41.5q-156 0 -275.5 71.5t-185 201.5t-65.5 300t65.5 300t185.5 201.5t275 71.5q104 0 205 -37.5t160 -97.5l-12 -16q-51 45 -120 72.5t-132 27.5q-104 0 -183 -65.5t-123 -183t-44 -273.5t45 -274.5
t125.5 -184t185.5 -65.5q66 0 139.5 34.5t128.5 88.5l17 -19q-66 -70 -172.5 -111.5z" />
    <glyph glyph-name="Cdotaccent" unicode="&#x10a;" horiz-adv-x="1470" 
d="M991 1696q-43 -41 -114 -41q-70 0 -113 41t-43 108q0 66 43 107t113 41t113.5 -41t43.5 -107q0 -67 -43 -108zM1187.5 42q-155.5 -62 -310.5 -62q-227 0 -401.5 98t-270.5 277.5t-96 412.5t96 412.5t270 277.5t402 98q154 0 301 -54t237 -144l-16 -19q-80 70 -199 114
t-231 44q-170 0 -299 -91t-200 -256t-71 -382t72 -382t202 -256t300 -91q117 0 240.5 52t209.5 138l17 -24q-97 -101 -252.5 -163z" />
    <glyph glyph-name="cdotaccent" unicode="&#x10b;" horiz-adv-x="1052" 
d="M723 1344.5q-41 -39.5 -111 -39.5t-110.5 39.5t-40.5 105.5t41 104.5t110 38.5q70 0 111 -38.5t41 -104.5t-41 -105.5zM835.5 21.5q-106.5 -41.5 -219.5 -41.5q-156 0 -275.5 71.5t-185 201.5t-65.5 300t65.5 300t185.5 201.5t275 71.5q104 0 205 -37.5t160 -97.5
l-12 -16q-51 45 -120 72.5t-132 27.5q-104 0 -183 -65.5t-123 -183t-44 -273.5t45 -274.5t125.5 -184t185.5 -65.5q66 0 139.5 34.5t128.5 88.5l17 -19q-66 -70 -172.5 -111.5z" />
    <glyph glyph-name="Ccaron" unicode="&#x10c;" horiz-adv-x="1470" 
d="M1227 1927l14 -16l-364 -283l-365 283l14 16l351 -244zM1187.5 42q-155.5 -62 -310.5 -62q-227 0 -401.5 98t-270.5 277.5t-96 412.5t96 412.5t270 277.5t402 98q154 0 301 -54t237 -144l-16 -19q-80 70 -199 114t-231 44q-170 0 -299 -91t-200 -256t-71 -382t72 -382
t202 -256t300 -91q117 0 240.5 52t209.5 138l17 -24q-97 -101 -252.5 -163z" />
    <glyph glyph-name="ccaron" unicode="&#x10d;" horiz-adv-x="1052" 
d="M911 1573l15 -17l-314 -303l-311 303l14 17l297 -264zM835.5 21.5q-106.5 -41.5 -219.5 -41.5q-156 0 -275.5 71.5t-185 201.5t-65.5 300t65.5 300t185.5 201.5t275 71.5q104 0 205 -37.5t160 -97.5l-12 -16q-51 45 -120 72.5t-132 27.5q-104 0 -183 -65.5t-123 -183
t-44 -273.5t45 -274.5t125.5 -184t185.5 -65.5q66 0 139.5 34.5t128.5 88.5l17 -19q-66 -70 -172.5 -111.5z" />
    <glyph glyph-name="Dcaron" unicode="&#x10e;" horiz-adv-x="1681" 
d="M1104 1927l14 -16l-364 -283l-365 283l14 16l351 -244zM1172.5 1439.5q191.5 -96.5 296 -270.5t104.5 -401t-104.5 -401t-296 -270.5t-441.5 -96.5h-534v1536h534q250 0 441.5 -96.5zM1001.5 124q135.5 91 209 258t73.5 386t-73.5 386t-209 258t-311.5 91h-223v-1470h223
q176 0 311.5 91z" />
    <glyph glyph-name="dcaron" unicode="&#x10f;" horiz-adv-x="1318" 
d="M1411 1597l-104 -423l-29 8l98 424zM899 1597h262v-1597h-229l-17 233q-39 -115 -135 -184t-217 -69q-139 0 -246.5 71.5t-166 201.5t-58.5 300t58.5 300t166 201.5t246.5 71.5q113 0 203 -58t133 -157v686zM793.5 107.5q70.5 64.5 105.5 171.5v548q-33 106 -103.5 171
t-154.5 65q-82 0 -143.5 -63.5t-95 -179t-33.5 -267.5t33.5 -267.5t95 -179t143.5 -63.5t152.5 64.5z" />
    <glyph glyph-name="Dcroat" unicode="&#x110;" horiz-adv-x="1697" 
d="M1188.5 1439.5q191.5 -96.5 297 -270.5t105.5 -401t-105.5 -401t-297 -270.5t-440.5 -96.5h-535v799h-174v32h174v705h535q249 0 440.5 -96.5zM1019 124q134 91 209 258t75 386t-75 386t-209 258t-310 91h-224v-672h363v-32h-363v-766h224q176 0 310 91z" />
    <glyph glyph-name="dcroat" unicode="&#x111;" horiz-adv-x="1318" 
d="M1339 1329h-178v-1329h-229l-17 233q-39 -115 -135 -184t-217 -69q-139 0 -246.5 71.5t-166 201.5t-58.5 300t58.5 300t166 201.5t246.5 71.5q113 0 203 -58t133 -157v418h-367v33h367v235h262v-235h178v-33zM793.5 107.5q70.5 64.5 105.5 171.5v548q-33 106 -103.5 171
t-154.5 65q-82 0 -143.5 -63.5t-95 -179t-33.5 -267.5t33.5 -267.5t95 -179t143.5 -63.5t152.5 64.5z" />
    <glyph glyph-name="Emacron" unicode="&#x112;" horiz-adv-x="1110" 
d="M309 1669v33h617v-33h-617zM1038 33v-33h-841v1536h827v-33h-557v-674h463v-32h-463v-764h571z" />
    <glyph glyph-name="emacron" unicode="&#x113;" horiz-adv-x="1224" 
d="M317 1372v33h617v-33h-617zM367 578v-25q0 -156 47 -274.5t133 -184t196 -65.5q84 0 176.5 33.5t159.5 91.5l13 -17q-74 -72 -197 -114.5t-248 -42.5q-166 0 -292 71.5t-195.5 201.5t-69.5 300t67.5 300t191.5 201.5t286 71.5q154 0 272.5 -68.5t184 -191.5t65.5 -282v-6
h-790zM449.5 961.5q-72.5 -132.5 -80.5 -351.5h512q0 143 -31 253t-87 170.5t-128 60.5q-113 0 -185.5 -132.5z" />
    <glyph glyph-name="Edotaccent" unicode="&#x116;" horiz-adv-x="1110" 
d="M731 1696q-43 -41 -115 -41q-70 0 -112.5 41t-42.5 108q0 66 43 107t112 41q70 0 114 -41t44 -107q0 -67 -43 -108zM1038 33v-33h-841v1536h827v-33h-557v-674h463v-32h-463v-764h571z" />
    <glyph glyph-name="edotaccent" unicode="&#x117;" horiz-adv-x="1224" 
d="M737 1344.5q-41 -39.5 -110 -39.5q-70 0 -111 39.5t-41 105.5t41 104.5t111 38.5t110.5 -38.5t40.5 -104.5t-41 -105.5zM367 578v-25q0 -156 47 -274.5t133 -184t196 -65.5q84 0 176.5 33.5t159.5 91.5l13 -17q-74 -72 -197 -114.5t-248 -42.5q-166 0 -292 71.5
t-195.5 201.5t-69.5 300t67.5 300t191.5 201.5t286 71.5q154 0 272.5 -68.5t184 -191.5t65.5 -282v-6h-790zM449.5 961.5q-72.5 -132.5 -80.5 -351.5h512q0 143 -31 253t-87 170.5t-128 60.5q-113 0 -185.5 -132.5z" />
    <glyph glyph-name="Eogonek" unicode="&#x118;" horiz-adv-x="1110" 
d="M1053 -424q-39 -20 -92.5 -33.5t-104.5 -13.5q-96 0 -154.5 46t-58.5 124q0 86 88 167t244 134h-778v1536h827v-33h-557v-674h463v-32h-463v-764h571v-33q-96 -53 -154.5 -131t-58.5 -152q0 -61 35 -98t94 -37q57 0 93 15z" />
    <glyph glyph-name="eogonek" unicode="&#x119;" horiz-adv-x="1224" 
d="M367 578v-25q0 -156 47 -274.5t133 -184t196 -65.5q84 0 176.5 33.5t159.5 91.5l13 -17q-55 -57 -150 -96q-131 -78 -195.5 -158t-64.5 -151q0 -70 33 -112t86 -42q61 0 102 23l8 -25q-39 -20 -93 -33.5t-105 -13.5q-96 0 -154.5 47t-58.5 123q0 82 77.5 158.5
t219.5 138.5q-78 -16 -150 -16q-166 0 -292 71.5t-195.5 201.5t-69.5 300t67.5 300t191.5 201.5t286 71.5q154 0 272.5 -68.5t184 -191.5t65.5 -282v-6h-790zM449.5 961.5q-72.5 -132.5 -80.5 -351.5h512q0 143 -31 253t-87 170.5t-128 60.5q-113 0 -185.5 -132.5z" />
    <glyph glyph-name="Ecaron" unicode="&#x11a;" horiz-adv-x="1110" 
d="M969 1927l14 -16l-365 -283l-364 283l14 16l350 -244zM1038 33v-33h-841v1536h827v-33h-557v-674h463v-32h-463v-764h571z" />
    <glyph glyph-name="ecaron" unicode="&#x11b;" horiz-adv-x="1224" 
d="M926 1573l14 -17l-313 -303l-312 303l15 17l297 -264zM367 578v-25q0 -156 47 -274.5t133 -184t196 -65.5q84 0 176.5 33.5t159.5 91.5l13 -17q-74 -72 -197 -114.5t-248 -42.5q-166 0 -292 71.5t-195.5 201.5t-69.5 300t67.5 300t191.5 201.5t286 71.5
q154 0 272.5 -68.5t184 -191.5t65.5 -282v-6h-790zM449.5 961.5q-72.5 -132.5 -80.5 -351.5h512q0 143 -31 253t-87 170.5t-128 60.5q-113 0 -185.5 -132.5z" />
    <glyph glyph-name="Gbreve" unicode="&#x11e;" horiz-adv-x="1619" 
d="M1085.5 1735.5q-98.5 -66.5 -211.5 -66.5t-210 66.5t-144 175.5l21 10q53 -96 145 -155.5t188 -59.5q98 0 189.5 59.5t144.5 155.5l23 -10q-47 -109 -145.5 -175.5zM1497 815v-629q-104 -92 -275 -149t-345 -57q-227 0 -401.5 98t-270.5 277.5t-96 412.5t96 412.5
t270 277.5t402 98q166 0 324.5 -57t250.5 -151l-14 -19q-88 76 -217 122t-252 46q-170 0 -299 -91t-200 -256t-71 -382t72 -382t202 -256t300 -91q125 0 254 41v735h270z" />
    <glyph glyph-name="gbreve" unicode="&#x11f;" horiz-adv-x="1318" 
d="M856 1343.5q-86 -71.5 -186 -71.5q-98 0 -185.5 71.5t-128.5 188.5l21 10q47 -104 127 -168.5t166 -64.5t167 64.5t128 168.5l20 -10q-43 -117 -129 -188.5zM1161 1106v-1081q0 -147 -74.5 -260t-212 -174.5t-317.5 -61.5q-104 0 -214 38t-183 99l16 21q63 -51 155.5 -83
t178.5 -32q174 0 281.5 110.5t107.5 292.5v220q-45 -98 -136 -156.5t-200 -58.5q-139 0 -246.5 71.5t-166 201.5t-58.5 300t58.5 300t166 201.5t246.5 71.5q123 0 219.5 -70.5t132.5 -185.5l17 236h229zM793.5 107.5q70.5 64.5 105.5 171.5v548q-33 106 -103.5 171
t-154.5 65q-82 0 -143.5 -63.5t-95 -179t-33.5 -267.5t33.5 -267.5t95 -179t143.5 -63.5t152.5 64.5z" />
    <glyph glyph-name="Gdotaccent" unicode="&#x120;" horiz-adv-x="1619" 
d="M989 1696q-43 -41 -115 -41q-70 0 -112.5 41t-42.5 108q0 66 43 107t112 41q70 0 114 -41t44 -107q0 -67 -43 -108zM1497 815v-629q-104 -92 -275 -149t-345 -57q-227 0 -401.5 98t-270.5 277.5t-96 412.5t96 412.5t270 277.5t402 98q166 0 324.5 -57t250.5 -151l-14 -19
q-88 76 -217 122t-252 46q-170 0 -299 -91t-200 -256t-71 -382t72 -382t202 -256t300 -91q125 0 254 41v735h270z" />
    <glyph glyph-name="gdotaccent" unicode="&#x121;" horiz-adv-x="1318" 
d="M782 1342.5q-41 -39.5 -110 -39.5q-70 0 -111 39.5t-41 105.5t41 104.5t111 38.5t110.5 -39t40.5 -104q0 -66 -41 -105.5zM1161 1106v-1081q0 -147 -74.5 -260t-212 -174.5t-317.5 -61.5q-104 0 -214 38t-183 99l16 21q63 -51 155.5 -83t178.5 -32q174 0 281.5 110.5
t107.5 292.5v220q-45 -98 -136 -156.5t-200 -58.5q-139 0 -246.5 71.5t-166 201.5t-58.5 300t58.5 300t166 201.5t246.5 71.5q123 0 219.5 -70.5t132.5 -185.5l17 236h229zM793.5 107.5q70.5 64.5 105.5 171.5v548q-33 106 -103.5 171t-154.5 65q-82 0 -143.5 -63.5
t-95 -179t-33.5 -267.5t33.5 -267.5t95 -179t143.5 -63.5t152.5 64.5z" />
    <glyph glyph-name="uni0122" unicode="&#x122;" horiz-adv-x="1619" 
d="M972 -148q36 -42 36 -116q0 -88 -56.5 -162t-146.5 -109l-14 23q72 31 119.5 92.5t56.5 126.5q-37 -37 -103 -37q-51 0 -83.5 31t-32.5 80q0 51 34.5 82t91.5 31q62 0 98 -42zM1497 815v-629q-104 -92 -275 -149t-345 -57q-227 0 -401.5 98t-270.5 277.5t-96 412.5
t96 412.5t270 277.5t402 98q166 0 324.5 -57t250.5 -151l-14 -19q-88 76 -217 122t-252 46q-170 0 -299 -91t-200 -256t-71 -382t72 -382t202 -256t300 -91q125 0 254 41v735h270z" />
    <glyph glyph-name="uni0123" unicode="&#x123;" horiz-adv-x="1318" 
d="M764 1444q33 -35 33 -90q0 -57 -35 -92t-92 -35q-61 0 -97 47t-36 127q0 115 56 213t148 145l13 -26q-74 -45 -122 -129t-54 -177q33 51 102 52q51 0 84 -35zM1161 1106v-1081q0 -147 -74.5 -260t-212 -174.5t-317.5 -61.5q-104 0 -214 38t-183 99l16 21
q63 -51 155.5 -83t178.5 -32q174 0 281.5 110.5t107.5 292.5v220q-45 -98 -136 -156.5t-200 -58.5q-139 0 -246.5 71.5t-166 201.5t-58.5 300t58.5 300t166 201.5t246.5 71.5q123 0 219.5 -70.5t132.5 -185.5l17 236h229zM793.5 107.5q70.5 64.5 105.5 171.5v548
q-33 106 -103.5 171t-154.5 65q-82 0 -143.5 -63.5t-95 -179t-33.5 -267.5t33.5 -267.5t95 -179t143.5 -63.5t152.5 64.5z" />
    <glyph glyph-name="Hbar" unicode="&#x126;" horiz-adv-x="1550" 
d="M1491 1194h-139v-1194h-271v797h-612v-797h-270v1194h-138v33h138v309h270v-309h612v309h271v-309h139v-33zM1081 1194h-612v-365h612v365z" />
    <glyph glyph-name="hbar" unicode="&#x127;" horiz-adv-x="1298" 
d="M1059 1033q92 -93 92 -245v-788h-262v858q0 90 -47 146.5t-123 56.5q-88 0 -170 -64.5t-129 -171.5v-825h-262v1329h-189v33h189v235h262v-235h356v-33h-356v-434q59 104 165.5 167.5t229.5 63.5q152 0 244 -93z" />
    <glyph glyph-name="Imacron" unicode="&#x12a;" horiz-adv-x="663" 
d="M113 1669v33h436v-33h-436zM197 0v1536h270v-1536h-270z" />
    <glyph glyph-name="imacron" unicode="&#x12b;" horiz-adv-x="577" 
d="M70 1372v33h436v-33h-436zM158 0v1106h262v-1106h-262z" />
    <glyph glyph-name="Iogonek" unicode="&#x12e;" horiz-adv-x="663" 
d="M483 -424q-39 -20 -93 -33.5t-103 -13.5q-96 0 -154.5 46t-58.5 124q0 86 88 167t241 134h-206v1536h270v-1536q-96 -53 -154.5 -131t-58.5 -152q0 -61 35 -98t94 -37q57 0 92 15z" />
    <glyph glyph-name="iogonek" unicode="&#x12f;" horiz-adv-x="577" 
d="M177 1344.5q-42 39.5 -42 105.5q0 63 42 103t110 40q70 0 110.5 -38.5t40.5 -104.5t-41 -105.5t-110 -39.5q-68 0 -110 39.5zM428 -403l8 -21q-39 -20 -93 -33.5t-105 -13.5q-96 0 -154.5 47t-58.5 123q0 86 88 167t243 134h-198v1106h262v-1106q-96 -53 -154.5 -131
t-58.5 -152q0 -61 34.5 -98t94.5 -37q57 1 92 15z" />
    <glyph glyph-name="Idotaccent" unicode="&#x130;" horiz-adv-x="663" 
d="M444 1696q-43 -41 -114 -41q-70 0 -113 41t-43 108q0 66 43 107t113 41t113.5 -41t43.5 -107q0 -67 -43 -108zM197 0v1536h270v-1536h-270z" />
    <glyph glyph-name="dotlessi" unicode="&#x131;" horiz-adv-x="577" 
d="M158 0v1106h262v-1106h-262z" />
    <glyph glyph-name="uni0136" unicode="&#x136;" horiz-adv-x="1406" 
d="M857 -148q36 -42 36 -116q0 -88 -56.5 -162t-146.5 -109l-14 23q72 31 120 92.5t56 126.5q-37 -37 -102 -37q-51 0 -84 31t-33 80q0 51 34.5 82t92.5 31q61 0 97 -42zM197 1536h270v-1536h-270v1536zM1423 0h-315l-602 809l764 727h53l-602 -573z" />
    <glyph glyph-name="uni0137" unicode="&#x137;" horiz-adv-x="1187" 
d="M734 -148q36 -42 36 -116q0 -88 -56.5 -162t-146.5 -109l-14 23q72 31 120 92.5t56 126.5q-37 -37 -102 -37q-51 0 -84 31t-33 80q0 51 35 82t92 31q61 0 97 -42zM158 1597h262v-1597h-262v1597zM1200 0h-297l-446 606l608 500h53l-446 -367z" />
    <glyph glyph-name="Lacute" unicode="&#x139;" horiz-adv-x="1077" 
d="M92 1632l-10 29l592 217l12 -33zM1044 33v-33h-847v1536h270v-1503h577z" />
    <glyph glyph-name="lacute" unicode="&#x13a;" horiz-adv-x="577" 
d="M61 1694l-10 28l555 205l12 -33zM158 0v1597h262v-1597h-262z" />
    <glyph glyph-name="uni013B" unicode="&#x13b;" horiz-adv-x="1077" 
d="M728 -148q36 -42 36 -116q0 -88 -56.5 -162t-146.5 -109l-14 23q72 31 120 92.5t56 126.5q-37 -37 -102 -37q-51 0 -84 31t-33 80q0 51 34.5 82t92.5 31q61 0 97 -42zM1044 33v-33h-847v1536h270v-1503h577z" />
    <glyph glyph-name="uni013C" unicode="&#x13c;" horiz-adv-x="577" 
d="M384 -148q36 -42 36 -116q0 -88 -56.5 -162t-146.5 -109l-14 23q72 31 120 92.5t56 126.5q-37 -37 -103 -37q-51 0 -83.5 31t-32.5 80q0 51 34.5 82t92.5 31q61 0 97 -42zM158 0v1597h262v-1597h-262z" />
    <glyph glyph-name="Lcaron" unicode="&#x13d;" horiz-adv-x="1083" 
d="M831 1174l-28 8l98 424l35 -9zM1044 33v-33h-847v1536h270v-1503h577z" />
    <glyph glyph-name="lcaron" unicode="&#x13e;" horiz-adv-x="577" 
d="M563 1174l-28 8l100 424l35 -9zM158 0v1597h262v-1597h-262z" />
    <glyph glyph-name="Lslash" unicode="&#x141;" horiz-adv-x="1126" 
d="M1092 33v-33h-850v713l-162 -111l-21 29l183 125v780h272v-633l317 223l19 -28l-336 -236v-829h578z" />
    <glyph glyph-name="lslash" unicode="&#x142;" horiz-adv-x="669" 
d="M469 985v-985h-262v838l-144 -99l-20 29l164 113v716h262v-569l141 98l21 -28z" />
    <glyph glyph-name="Nacute" unicode="&#x143;" horiz-adv-x="1546" 
d="M518 1632l-10 29l592 217l12 -33zM197 0v1556h30l1082 -1202v1182h41v-1556h-31l-1081 1200v-1180h-41z" />
    <glyph glyph-name="nacute" unicode="&#x144;" horiz-adv-x="1298" 
d="M428 1243l-14 27l475 278l16 -28zM1059 1033q92 -93 92 -245v-788h-262v858q0 90 -47 146.5t-123 56.5q-88 0 -170 -64.5t-129 -171.5v-825h-262v1106h231l17 -240q53 117 164.5 188.5t244.5 71.5q152 0 244 -93z" />
    <glyph glyph-name="uni0145" unicode="&#x145;" horiz-adv-x="1546" 
d="M869.5 -148q35.5 -42 35.5 -116q0 -88 -56 -162t-147 -109l-14 23q72 31 120 92.5t56 126.5q-37 -37 -102 -37q-51 0 -84 31t-33 80q0 51 35 82t92 31q62 0 97.5 -42zM197 0v1556h30l1082 -1202v1182h41v-1556h-31l-1081 1200v-1180h-41z" />
    <glyph glyph-name="uni0146" unicode="&#x146;" horiz-adv-x="1298" 
d="M748.5 -148q35.5 -42 35.5 -116q0 -88 -56 -162t-146 -109l-15 23q72 31 120 92.5t56 126.5q-37 -37 -102 -37q-51 0 -84 31t-33 80q0 51 35 82t92 31q62 0 97.5 -42zM1059 1033q92 -93 92 -245v-788h-262v858q0 90 -47 146.5t-123 56.5q-88 0 -170 -64.5t-129 -171.5
v-825h-262v1106h231l17 -240q53 117 164.5 188.5t244.5 71.5q152 0 244 -93z" />
    <glyph glyph-name="Ncaron" unicode="&#x147;" horiz-adv-x="1546" 
d="M1139 1927l14 -16l-365 -283l-364 283l14 16l350 -244zM197 0v1556h30l1082 -1202v1182h41v-1556h-31l-1081 1200v-1180h-41z" />
    <glyph glyph-name="ncaron" unicode="&#x148;" horiz-adv-x="1298" 
d="M950 1573l15 -17l-314 -303l-311 303l14 17l297 -264zM1059 1033q92 -93 92 -245v-788h-262v858q0 90 -47 146.5t-123 56.5q-88 0 -170 -64.5t-129 -171.5v-825h-262v1106h231l17 -240q53 117 164.5 188.5t244.5 71.5q152 0 244 -93z" />
    <glyph glyph-name="Eng" unicode="&#x14a;" horiz-adv-x="1546" 
d="M1350 1536v-1532q0 -129 -56.5 -209t-167.5 -141l-10 20q94 55 142.5 128t50.5 190l-1071 1188v-1180h-41v1556h30l1082 -1202v1182h41z" />
    <glyph glyph-name="eng" unicode="&#x14b;" horiz-adv-x="1298" 
d="M1059 1033q92 -93 92 -245v-770q0 -193 -94 -305t-273 -184l-12 20q117 96 117 400v909q0 90 -47 146.5t-123 56.5q-88 0 -170 -64.5t-129 -171.5v-825h-262v1106h231l17 -240q53 117 164.5 188.5t244.5 71.5q152 0 244 -93z" />
    <glyph glyph-name="Omacron" unicode="&#x14c;" horiz-adv-x="1822" 
d="M602 1669v33h617v-33h-617zM1613.5 355.5q-100.5 -179.5 -282.5 -277.5t-420 -98q-240 0 -422 98t-282.5 277.5t-100.5 412.5t100.5 412.5t283 277.5t421.5 98q238 0 420 -98t282.5 -277.5t100.5 -412.5t-100.5 -412.5zM460.5 373q63.5 -172 180.5 -266.5t270 -94.5
q154 0 270.5 94.5t180 266.5t63.5 395t-63.5 395t-180 266.5t-270.5 94.5t-270.5 -94.5t-180 -266.5t-63.5 -395t63.5 -395z" />
    <glyph glyph-name="omacron" unicode="&#x14d;" horiz-adv-x="1310" 
d="M346 1372v33h617v-33h-617zM1150 253q-71 -130 -199 -201.5t-296 -71.5t-296 71.5t-199.5 201.5t-71.5 300t71.5 300t199.5 201.5t296 71.5t296 -71.5t199 -201.5t71 -300t-71 -300zM401.5 270q36.5 -123 102 -190.5t151.5 -67.5t151.5 67.5t102.5 190.5t37 283
t-37 282.5t-102.5 190.5t-151.5 68t-151.5 -68t-102 -190.5t-36.5 -282.5t36.5 -283z" />
    <glyph glyph-name="Ohungarumlaut" unicode="&#x150;" horiz-adv-x="1822" 
d="M1073 2015l21 -28l-521 -359l-16 25zM1507 2015l21 -28l-520 -359l-17 25zM1613.5 355.5q-100.5 -179.5 -282.5 -277.5t-420 -98q-240 0 -422 98t-282.5 277.5t-100.5 412.5t100.5 412.5t283 277.5t421.5 98q238 0 420 -98t282.5 -277.5t100.5 -412.5t-100.5 -412.5z
M460.5 373q63.5 -172 180.5 -266.5t270 -94.5q154 0 270.5 94.5t180 266.5t63.5 395t-63.5 395t-180 266.5t-270.5 94.5t-270.5 -94.5t-180 -266.5t-63.5 -395t63.5 -395z" />
    <glyph glyph-name="ohungarumlaut" unicode="&#x151;" horiz-adv-x="1310" 
d="M748 1630l22 -22l-387 -389l-21 20zM1122 1630l25 -22l-389 -389l-21 20zM1150 253q-71 -130 -199 -201.5t-296 -71.5t-296 71.5t-199.5 201.5t-71.5 300t71.5 300t199.5 201.5t296 71.5t296 -71.5t199 -201.5t71 -300t-71 -300zM401.5 270q36.5 -123 102 -190.5
t151.5 -67.5t151.5 67.5t102.5 190.5t37 283t-37 282.5t-102.5 190.5t-151.5 68t-151.5 -68t-102 -190.5t-36.5 -282.5t36.5 -283z" />
    <glyph glyph-name="OE" unicode="&#x152;" horiz-adv-x="2197" 
d="M2124 33v-33h-840v113q-88 -61 -196.5 -97t-215.5 -36q-225 0 -399 98t-269 277.5t-95 412.5t95 412.5t269 277.5t399 98q109 0 218.5 -34.5t193.5 -94.5v109h827v-33h-557v-674h461v-32h-461v-764h570zM1129.5 68.5q82.5 29.5 154.5 83.5v1239q-70 49 -155 77.5
t-162 28.5q-170 0 -299 -91t-200 -256t-71 -382t72 -382t202 -256t300 -91q76 0 158.5 29.5z" />
    <glyph glyph-name="oe" unicode="&#x153;" horiz-adv-x="2080" 
d="M1221 575v-22q0 -156 48 -274.5t133 -184t197 -65.5q82 0 174.5 33.5t159.5 91.5l13 -17q-76 -72 -197 -114.5t-248 -42.5q-139 0 -246.5 63t-171.5 178q-66 -115 -176 -178t-252 -63q-168 0 -296 71.5t-199.5 201.5t-71.5 300t71.5 300t199.5 201.5t296 71.5
q141 0 251 -62.5t177 -176.5q61 115 166 177t240 62q156 0 274.5 -68.5t183 -192.5t64.5 -283v-7h-790zM807.5 79.5q66.5 67.5 102.5 189.5t36 284q0 160 -37 282.5t-102.5 190.5t-151.5 68t-151.5 -68t-102 -190.5t-36.5 -282.5t36.5 -283t102 -190.5t151.5 -67.5
t152.5 67.5zM1303.5 960.5q-72.5 -133.5 -80.5 -352.5h512q0 219 -66.5 352.5t-179.5 133.5t-185.5 -133.5z" />
    <glyph glyph-name="Racute" unicode="&#x154;" horiz-adv-x="1382" 
d="M379 1632l-10 29l592 217l12 -33zM1356 0h-316l-569 717h-4v-717h-270v1536h452q172 0 303 -50t203 -142.5t72 -213.5q0 -162 -123 -270t-332 -135zM608 750q147 0 237.5 104t90.5 276q0 168 -90 270.5t-238 102.5h-141v-753h141z" />
    <glyph glyph-name="racute" unicode="&#x155;" horiz-adv-x="843" 
d="M272 1243l-14 27l475 278l17 -28zM561.5 1025q108.5 81 243.5 81v-33q-131 0 -237.5 -84t-147.5 -221v-768h-262v1106h231l17 -295q47 133 155.5 214z" />
    <glyph glyph-name="uni0156" unicode="&#x156;" horiz-adv-x="1382" 
d="M826.5 -148q35.5 -42 35.5 -116q0 -88 -56 -162t-147 -109l-14 23q72 31 120 92.5t56 126.5q-37 -37 -102 -37q-51 0 -84 31t-33 80q0 51 35 82t92 31q62 0 97.5 -42zM1356 0h-316l-569 717h-4v-717h-270v1536h452q172 0 303 -50t203 -142.5t72 -213.5q0 -162 -123 -270
t-332 -135zM608 750q147 0 237.5 104t90.5 276q0 168 -90 270.5t-238 102.5h-141v-753h141z" />
    <glyph glyph-name="uni0157" unicode="&#x157;" horiz-adv-x="843" 
d="M384 -148q36 -42 36 -116q0 -88 -56.5 -162t-146.5 -109l-14 23q72 31 120 92.5t56 126.5q-37 -37 -103 -37q-51 0 -83.5 31t-32.5 80q0 51 34.5 82t92.5 31q61 0 97 -42zM561.5 1025q108.5 81 243.5 81v-33q-131 0 -237.5 -84t-147.5 -221v-768h-262v1106h231l17 -295
q47 133 155.5 214z" />
    <glyph glyph-name="Rcaron" unicode="&#x158;" horiz-adv-x="1382" 
d="M1001 1927l15 -16l-365 -283l-364 283l14 16l350 -244zM1356 0h-316l-569 717h-4v-717h-270v1536h452q172 0 303 -50t203 -142.5t72 -213.5q0 -162 -123 -270t-332 -135zM608 750q147 0 237.5 104t90.5 276q0 168 -90 270.5t-238 102.5h-141v-753h141z" />
    <glyph glyph-name="rcaron" unicode="&#x159;" horiz-adv-x="843" 
d="M797 1573l14 -17l-313 -303l-312 303l15 17l297 -264zM561.5 1025q108.5 81 243.5 81v-33q-131 0 -237.5 -84t-147.5 -221v-768h-262v1106h231l17 -295q47 133 155.5 214z" />
    <glyph glyph-name="Sacute" unicode="&#x15a;" horiz-adv-x="1159" 
d="M311 1632l-10 29l592 217l12 -33zM1007.5 181.5q-65.5 -99.5 -177 -150.5t-250.5 -51q-154 0 -288 61t-222 168l20 22q70 -88 180.5 -140t221.5 -52q139 0 225 81t86 214q0 92 -42 158.5t-104.5 111.5t-169.5 105q-117 66 -187.5 117t-118.5 132.5t-48 196.5
q0 121 56.5 212t155.5 140t228 49q125 0 242 -46t195 -124l-17 -22q-68 59 -158 96t-173 37q-117 0 -189 -69.5t-72 -184.5q0 -86 41 -147.5t99.5 -103.5t165.5 -103q117 -66 190.5 -120t124.5 -140t51 -209q0 -139 -65.5 -238.5z" />
    <glyph glyph-name="sacute" unicode="&#x15b;" horiz-adv-x="1036" 
d="M295 1243l-14 27l475 278l16 -28zM911.5 143.5q-57.5 -77.5 -160 -120.5t-235.5 -43q-137 0 -255 45t-193 120l16 19q63 -63 161.5 -101t198.5 -38q121 0 196 54t75 144t-70 140.5t-207 103.5q-111 45 -177 81t-113.5 98.5t-47.5 154.5q0 147 116 236t298 89
q121 0 225.5 -41t167.5 -110l-12 -17q-61 55 -142 89t-163 34q-100 0 -168 -48t-68 -134q0 -59 36 -102t90.5 -70t146.5 -63q113 -45 179 -82t114.5 -99.5t48.5 -156.5q0 -105 -57.5 -182.5z" />
    <glyph glyph-name="Scedilla" unicode="&#x15e;" horiz-adv-x="1159" 
d="M1007.5 181.5q-65.5 -99.5 -177 -150.5t-250.5 -51l-39 -111q125 -4 199.5 -47t74.5 -109q0 -82 -116.5 -133t-307.5 -51l4 20q106 0 173 43t67 115q0 51 -39 87t-104 46l47 142q-141 8 -265 68.5t-204 158.5l20 22q70 -88 180.5 -140t221.5 -52q139 0 225 81t86 214
q0 92 -42 158.5t-104.5 111.5t-169.5 105q-117 66 -187.5 117t-118.5 132.5t-48 196.5q0 121 56.5 212t155.5 140t228 49q125 0 242 -46t195 -124l-17 -22q-68 59 -158 96t-173 37q-117 0 -189 -69.5t-72 -184.5q0 -86 41 -147.5t99.5 -103.5t165.5 -103q117 -66 190.5 -120
t124.5 -140t51 -209q0 -139 -65.5 -238.5z" />
    <glyph glyph-name="scedilla" unicode="&#x15f;" horiz-adv-x="1036" 
d="M846 76q-123 -94 -324 -96l-39 -111q125 -4 201 -47t76 -109q0 -82 -117 -133t-307 -51l4 20q106 0 172 44.5t66 113.5q0 51 -39 88t-105 45l49 140q-127 6 -236.5 50t-178.5 115l16 19q63 -63 161.5 -101t198.5 -38q121 0 196 54t75 144t-70 140.5t-207 103.5
q-111 45 -177 81t-113.5 98.5t-47.5 154.5q0 147 116 236t298 89q121 0 225.5 -41t167.5 -110l-12 -17q-61 55 -142 89t-163 34q-100 0 -168 -48t-68 -134q0 -59 36 -102t90.5 -70t146.5 -63q113 -45 179 -82t114.5 -99.5t48.5 -156.5q0 -156 -123 -250z" />
    <glyph glyph-name="Scaron" unicode="&#x160;" horiz-adv-x="1159" 
d="M932 1927l14 -16l-364 -283l-365 283l14 16l351 -244zM1007.5 181.5q-65.5 -99.5 -177 -150.5t-250.5 -51q-154 0 -288 61t-222 168l20 22q70 -88 180.5 -140t221.5 -52q139 0 225 81t86 214q0 92 -42 158.5t-104.5 111.5t-169.5 105q-117 66 -187.5 117t-118.5 132.5
t-48 196.5q0 121 56.5 212t155.5 140t228 49q125 0 242 -46t195 -124l-17 -22q-68 59 -158 96t-173 37q-117 0 -189 -69.5t-72 -184.5q0 -86 41 -147.5t99.5 -103.5t165.5 -103q117 -66 190.5 -120t124.5 -140t51 -209q0 -139 -65.5 -238.5z" />
    <glyph glyph-name="scaron" unicode="&#x161;" horiz-adv-x="1036" 
d="M819 1573l15 -17l-314 -303l-311 303l14 17l297 -264zM911.5 143.5q-57.5 -77.5 -160 -120.5t-235.5 -43q-137 0 -255 45t-193 120l16 19q63 -63 161.5 -101t198.5 -38q121 0 196 54t75 144t-70 140.5t-207 103.5q-111 45 -177 81t-113.5 98.5t-47.5 154.5q0 147 116 236
t298 89q121 0 225.5 -41t167.5 -110l-12 -17q-61 55 -142 89t-163 34q-100 0 -168 -48t-68 -134q0 -59 36 -102t90.5 -70t146.5 -63q113 -45 179 -82t114.5 -99.5t48.5 -156.5q0 -105 -57.5 -182.5z" />
    <glyph glyph-name="uni0162" unicode="&#x162;" horiz-adv-x="1343" 
d="M692 0l-47 -131q125 -4 201 -47t76 -109q0 -82 -118 -133t-306 -51l4 20q106 0 171.5 44.5t65.5 113.5q0 51 -38.5 88t-104.5 45l55 160h-114v1503h-517v33h1303v-33h-516v-1503h-115z" />
    <glyph glyph-name="uni0163" unicode="&#x163;" horiz-adv-x="862" 
d="M538.5 -178q75.5 -43 75.5 -109q0 -82 -116.5 -133t-307.5 -51l5 20q106 0 172.5 43t66.5 115q0 51 -39 88t-104 45l69 203q-68 45 -104.5 119t-36.5 168v743h-194v33h194l240 369h22v-369h359v-33h-359v-792q0 -115 55.5 -183.5t145.5 -68.5q49 0 98 19.5t82 51.5
l12 -16q-51 -47 -129.5 -75.5t-162.5 -28.5q-109 0 -189 43l-55 -154q125 -4 200.5 -47z" />
    <glyph glyph-name="Tcaron" unicode="&#x164;" horiz-adv-x="1343" 
d="M1022 1927l14 -16l-364 -283l-365 283l15 16l350 -244zM1323 1503h-516v-1503h-270v1503h-517v33h1303v-33z" />
    <glyph glyph-name="tcaron" unicode="&#x165;" horiz-adv-x="862" 
d="M668 1194l-29 8l100 424l35 -8zM874 84q-51 -47 -129.5 -75.5t-162.5 -28.5q-164 0 -263.5 96t-99.5 254v743h-194v33h194l240 369h22v-369h359v-33h-359v-792q0 -115 55.5 -183.5t145.5 -68.5q49 0 98 19.5t82 51.5z" />
    <glyph glyph-name="Tbar" unicode="&#x166;" horiz-adv-x="1363" 
d="M817 1503v-694h268v-33h-268v-776h-270v776h-268v33h268v694h-516v33h1300v-33h-514z" />
    <glyph glyph-name="tbar" unicode="&#x167;" horiz-adv-x="892" 
d="M893 84q-51 -47 -130 -75.5t-163 -28.5q-164 0 -263 96t-99 254v266h-195v33h195v444h-195v33h195l239 369h23v-369h358v-33h-358v-444h352v-33h-352v-315q0 -115 55 -183.5t145 -68.5q49 0 98.5 19.5t82.5 51.5z" />
    <glyph glyph-name="Umacron" unicode="&#x16a;" horiz-adv-x="1527" 
d="M543 1669v33h616v-33h-616zM1281.5 234.5q-64.5 -121.5 -185.5 -188t-287 -66.5q-184 0 -326.5 72.5t-222.5 204.5t-80 304v975h271v-1024q0 -143 50 -254t140 -171t207 -60q135 0 238.5 60t161 171t57.5 254v1024h41v-1018q0 -162 -64.5 -283.5z" />
    <glyph glyph-name="umacron" unicode="&#x16b;" horiz-adv-x="1277" 
d="M326 1372v33h616v-33h-616zM1120 1106v-1106h-231l-17 229q-53 -113 -161.5 -181t-237.5 -68q-147 0 -236.5 90t-89.5 237v799h263v-868q0 -88 43 -140.5t114 -52.5q86 0 165 61.5t126 163.5v836h262z" />
    <glyph glyph-name="Uring" unicode="&#x16e;" horiz-adv-x="1527" 
d="M1002.5 1678.5q-56.5 -54.5 -150.5 -54.5t-151.5 54.5t-57.5 144.5q0 88 57.5 142t151.5 54t150.5 -54t56.5 -142q0 -90 -56.5 -144.5zM730 1702q46 -45 122 -45t121 45t45 121q0 74 -45 119t-121 45t-122 -45.5t-46 -118.5q0 -76 46 -121zM1281.5 234.5
q-64.5 -121.5 -185.5 -188t-287 -66.5q-184 0 -326.5 72.5t-222.5 204.5t-80 304v975h271v-1024q0 -143 50 -254t140 -171t207 -60q135 0 238.5 60t161 171t57.5 254v1024h41v-1018q0 -162 -64.5 -283.5z" />
    <glyph glyph-name="uring" unicode="&#x16f;" horiz-adv-x="1277" 
d="M785.5 1293.5q-56.5 -54.5 -150.5 -54.5t-151.5 54.5t-57.5 144.5q0 88 57.5 142t151.5 54t150.5 -54t56.5 -142q0 -90 -56.5 -144.5zM513 1317q46 -45 122 -45t121 45t45 121q0 74 -45 119t-121 45t-122 -45.5t-46 -118.5q0 -76 46 -121zM1120 1106v-1106h-231l-17 229
q-53 -113 -161.5 -181t-237.5 -68q-147 0 -236.5 90t-89.5 237v799h263v-868q0 -88 43 -140.5t114 -52.5q86 0 165 61.5t126 163.5v836h262z" />
    <glyph glyph-name="Uhungarumlaut" unicode="&#x170;" horiz-adv-x="1527" 
d="M1014 2015l20 -28l-520 -359l-16 25zM1448 2015l20 -28l-520 -359l-16 25zM1281.5 234.5q-64.5 -121.5 -185.5 -188t-287 -66.5q-184 0 -326.5 72.5t-222.5 204.5t-80 304v975h271v-1024q0 -143 50 -254t140 -171t207 -60q135 0 238.5 60t161 171t57.5 254v1024h41v-1018
q0 -162 -64.5 -283.5z" />
    <glyph glyph-name="uhungarumlaut" unicode="&#x171;" horiz-adv-x="1277" 
d="M725 1630l23 -22l-388 -389l-20 20zM1100 1630l24 -22l-389 -389l-20 20zM1120 1106v-1106h-231l-17 229q-53 -113 -161.5 -181t-237.5 -68q-147 0 -236.5 90t-89.5 237v799h263v-868q0 -88 43 -140.5t114 -52.5q86 0 165 61.5t126 163.5v836h262z" />
    <glyph glyph-name="Uogonek" unicode="&#x172;" horiz-adv-x="1527" 
d="M1346 1536v-1018q0 -203 -99.5 -340t-277.5 -180q-96 -53 -153.5 -130t-57.5 -151q0 -61 35.5 -98t95.5 -37q57 0 92 15l6 -21q-39 -20 -92 -33.5t-104 -13.5q-96 0 -154.5 46t-58.5 124t74.5 153.5t207.5 129.5q-16 -2 -51 -2q-184 0 -326.5 72.5t-222.5 204.5t-80 304
v975h271v-1024q0 -143 50 -254t140 -171t207 -60q135 0 238.5 60t161 171t57.5 254v1024h41z" />
    <glyph glyph-name="uogonek" unicode="&#x173;" horiz-adv-x="1277" 
d="M1135 -424q-39 -20 -92.5 -33.5t-104.5 -13.5q-96 0 -154.5 46t-58.5 124q0 86 88 167t242 134h-166l-17 229q-53 -113 -161.5 -181t-237.5 -68q-147 0 -236.5 90t-89.5 237v799h263v-868q0 -88 43 -140.5t114 -52.5q86 0 165 61.5t126 163.5v836h262v-1106h-2
q-96 -53 -154.5 -131t-58.5 -152q0 -61 36 -98t95 -37q57 0 92 15z" />
    <glyph glyph-name="Wcircumflex" unicode="&#x174;" horiz-adv-x="1890" 
d="M688 1628l-14 17l364 282l365 -282l-14 -17l-351 244zM1849 1536l-499 -1556h-31l-367 1146l-364 -1146h-31l-516 1556h281l366 -1149l361 1169h32l369 -1165l356 1145h43z" />
    <glyph glyph-name="wcircumflex" unicode="&#x175;" horiz-adv-x="1564" 
d="M559 1253l-14 17l313 303l313 -303l-14 -17l-299 265zM1536 1106l-424 -1126h-25l-301 786l-290 -786h-29l-444 1126h274l299 -770l281 790h32l305 -792l281 772h41z" />
    <glyph glyph-name="Ycircumflex" unicode="&#x176;" horiz-adv-x="1431" 
d="M446 1628l-14 17l365 282l364 -282l-14 -17l-350 244zM868 686v-686h-270v668l-551 868h305l500 -803l485 803h43z" />
    <glyph glyph-name="ycircumflex" unicode="&#x177;" horiz-adv-x="1130" 
d="M330 1253l-15 17l314 303l313 -303l-14 -17l-299 265zM1110 1106l-688 -1559h-41l178 402l-536 1157h286l383 -852l377 852h41z" />
    <glyph glyph-name="Ydieresis" unicode="&#x178;" horiz-adv-x="1431" 
d="M683 1701q-34 -32 -91 -32q-55 0 -89 32t-34 83q0 53 34 85t89 32q57 0 91 -32t34 -85q0 -51 -34 -83zM1091.5 1701q-34.5 -32 -90.5 -32q-55 0 -88.5 32t-33.5 83q0 53 33.5 85t88.5 32t90 -33t35 -84t-34.5 -83zM868 686v-686h-270v668l-551 868h305l500 -803l485 803
h43z" />
    <glyph glyph-name="Zacute" unicode="&#x179;" horiz-adv-x="1232" 
d="M375 1632l-10 29l591 217l13 -33zM29 0v20l858 1483h-791v33h1094v-20l-875 -1483h871v-33h-1157z" />
    <glyph glyph-name="zacute" unicode="&#x17a;" horiz-adv-x="999" 
d="M311 1243l-14 27l475 278l16 -28zM29 0v18l641 1055h-592v33h878v-23l-639 -1050h635v-33h-923z" />
    <glyph glyph-name="Zdotaccent" unicode="&#x17b;" horiz-adv-x="1232" 
d="M758 1696q-43 -41 -115 -41q-70 0 -113 41t-43 108q0 66 43 107t113 41t114 -41t44 -107q0 -67 -43 -108zM29 0v20l858 1483h-791v33h1094v-20l-875 -1483h871v-33h-1157z" />
    <glyph glyph-name="zdotaccent" unicode="&#x17c;" horiz-adv-x="999" 
d="M647 1344.5q-41 -39.5 -110 -39.5q-70 0 -111 39.5t-41 105.5t41 104.5t111 38.5t110.5 -38.5t40.5 -104.5t-41 -105.5zM29 0v18l641 1055h-592v33h878v-23l-639 -1050h635v-33h-923z" />
    <glyph glyph-name="Zcaron" unicode="&#x17d;" horiz-adv-x="1232" 
d="M995 1927l15 -16l-365 -283l-364 283l14 16l350 -244zM29 0v20l858 1483h-791v33h1094v-20l-875 -1483h871v-33h-1157z" />
    <glyph glyph-name="zcaron" unicode="&#x17e;" horiz-adv-x="999" 
d="M836 1573l14 -17l-313 -303l-312 303l15 17l297 -264zM29 0v18l641 1055h-592v33h878v-23l-639 -1050h635v-33h-923z" />
    <glyph glyph-name="florin" unicode="&#x192;" horiz-adv-x="1196" 
d="M784.5 1437.5q-55.5 -65.5 -55.5 -175.5v-433h311v-32h-311v-465q0 -158 -104.5 -255t-274.5 -97q-84 0 -165 29.5t-128 78.5l15 18q33 -33 84 -53t100 -20q92 0 147.5 65.5t55.5 175.5v523h-271v32h271v375q0 158 105.5 255t275.5 97q84 0 163.5 -29.5t129.5 -78.5
l-13 -16q-35 33 -87 52t-101 19q-92 0 -147.5 -65.5z" />
    <glyph glyph-name="uni0218" unicode="&#x218;" horiz-adv-x="1159" 
d="M662.5 -148q35.5 -42 35.5 -116q0 -88 -56 -162t-146 -109l-15 23q72 31 120 92.5t56 126.5q-37 -37 -102 -37q-51 0 -84 31t-33 80q0 51 35 82t92 31q62 0 97.5 -42zM1007.5 181.5q-65.5 -99.5 -177 -150.5t-250.5 -51q-154 0 -288 61t-222 168l20 22q70 -88 180.5 -140
t221.5 -52q139 0 225 81t86 214q0 92 -42 158.5t-104.5 111.5t-169.5 105q-117 66 -187.5 117t-118.5 132.5t-48 196.5q0 121 56.5 212t155.5 140t228 49q125 0 242 -46t195 -124l-17 -22q-68 59 -158 96t-173 37q-117 0 -189 -69.5t-72 -184.5q0 -86 41 -147.5t99.5 -103.5
t165.5 -103q117 -66 190.5 -120t124.5 -140t51 -209q0 -139 -65.5 -238.5z" />
    <glyph glyph-name="uni0219" unicode="&#x219;" horiz-adv-x="1036" 
d="M605 -148q36 -42 36 -116q0 -88 -56.5 -162t-146.5 -109l-14 23q72 31 120 92.5t56 126.5q-37 -37 -102 -37q-51 0 -84 31t-33 80q0 51 35 82t92 31q61 0 97 -42zM911.5 143.5q-57.5 -77.5 -160 -120.5t-235.5 -43q-137 0 -255 45t-193 120l16 19q63 -63 161.5 -101
t198.5 -38q121 0 196 54t75 144t-70 140.5t-207 103.5q-111 45 -177 81t-113.5 98.5t-47.5 154.5q0 147 116 236t298 89q121 0 225.5 -41t167.5 -110l-12 -17q-61 55 -142 89t-163 34q-100 0 -168 -48t-68 -134q0 -59 36 -102t90.5 -70t146.5 -63q113 -45 179 -82
t114.5 -99.5t48.5 -156.5q0 -105 -57.5 -182.5z" />
    <glyph glyph-name="uni021A" unicode="&#x21a;" horiz-adv-x="1343" 
d="M767 -148q36 -42 36 -116q0 -88 -56.5 -162t-146.5 -109l-14 23q72 31 120 92.5t56 126.5q-37 -37 -103 -37q-51 0 -83.5 31t-32.5 80q0 51 34.5 82t92.5 31q61 0 97 -42zM1323 1503h-516v-1503h-270v1503h-517v33h1303v-33z" />
    <glyph glyph-name="uni021B" unicode="&#x21b;" horiz-adv-x="862" 
d="M466 -148q36 -42 36 -116q0 -88 -56.5 -162t-146.5 -109l-14 23q72 31 120 92.5t56 126.5q-37 -37 -103 -37q-51 0 -83.5 31t-32.5 80q0 51 34.5 82t92.5 31q61 0 97 -42zM874 84q-51 -47 -129.5 -75.5t-162.5 -28.5q-164 0 -263.5 96t-99.5 254v743h-194v33h194l240 369
h22v-369h359v-33h-359v-792q0 -115 55.5 -183.5t145.5 -68.5q49 0 98 19.5t82 51.5z" />
    <glyph glyph-name="uni0237" unicode="&#x237;" horiz-adv-x="579" 
d="M327.5 -286.5q-94.5 -112.5 -272.5 -184.5l-10 20q115 96 115 388v1169h262v-1088q0 -192 -94.5 -304.5z" />
    <glyph glyph-name="circumflex" unicode="&#x2c6;" horiz-adv-x="1228" 
d="M195 1200l-15 17l314 303l313 -303l-14 -17l-299 264z" />
    <glyph glyph-name="caron" unicode="&#x2c7;" horiz-adv-x="1228" 
d="M793 1520l14 -17l-313 -303l-312 303l15 17l297 -265z" />
    <glyph glyph-name="breve" unicode="&#x2d8;" horiz-adv-x="1228" 
d="M655 1292q-86 -72 -186 -71q-98 0 -185 71q-87 72 -128 189l20 10q47 -104 127 -169t166 -65t167 65t128 169l20 -10q-43 -117 -129 -189z" />
    <glyph glyph-name="dotaccent" unicode="&#x2d9;" horiz-adv-x="1228" 
d="M446 1345q-41 -40 -110 -40q-70 0 -111 40t-41 105q0 66 41 104q41 39 111 39t110 -39q41 -39 41 -104t-41 -105z" />
    <glyph glyph-name="ring" unicode="&#x2da;" horiz-adv-x="1228" 
d="M534 1240q-56 -54 -151 -54q-94 0 -152 54q-57 54 -57 144q0 88 57 143q57 54 152 54q94 0 151 -54q56 -54 56 -143q0 -90 -56 -144zM261 1264q46 -45 122 -45t121 45t45 120q0 74 -45 119t-121 45t-122 -45t-46 -119q0 -75 46 -120z" />
    <glyph glyph-name="ogonek" unicode="&#x2db;" horiz-adv-x="1228" 
d="M424 -458q-53 -13 -105 -13q-96 0 -154 46t-59 124q0 92 102 178q101 86 275 137l19 -14q-96 -53 -155 -131q-58 -78 -58 -152q0 -61 35 -98t94 -37q57 0 92 15l6 -21q-39 -21 -92 -34z" />
    <glyph glyph-name="tilde" unicode="&#x2dc;" horiz-adv-x="1228" 
d="M296 1379q-42 -38 -79 -111l-20 10q70 172 215 172q49 0 88 -23t84 -63q41 -37 72 -56q32 -19 71 -20q63 0 107 38q43 38 77 110l23 -11q-70 -172 -215 -172q-49 0 -87 23t-87 65q-41 37 -73 57q-32 19 -71 19q-63 0 -105 -38z" />
    <glyph glyph-name="hungarumlaut" unicode="&#x2dd;" horiz-adv-x="1228" 
d="M653 1577l23 -23l-387 -389l-21 21zM1028 1577l25 -23l-389 -389l-21 21z" />
    <glyph glyph-name="gravecomb" unicode="&#x300;" 
d="M-166 1190l-475 276l16 29l473 -278z" />
    <glyph glyph-name="acutecomb" unicode="&#x301;" 
d="M-653 1190l-15 27l475 278l17 -29z" />
    <glyph glyph-name="uni0302" unicode="&#x302;" 
d="M-793 1200l-14 17l313 303l314 -303l-15 -17l-299 264z" />
    <glyph glyph-name="tildecomb" unicode="&#x303;" 
d="M-835 1379q-42 -38 -78 -111l-21 10q70 172 215 172q49 0 88 -22.5t84 -63.5q41 -37 73 -56.5t71 -19.5q63 0 106 38t78 110l22 -11q-70 -172 -215 -172q-49 0 -87 22.5t-87 65.5q-41 37 -72.5 56.5t-70.5 19.5q-64 0 -106 -38z" />
    <glyph glyph-name="uni0304" unicode="&#x304;" 
d="M-772 1319v33h616v-33h-616z" />
    <glyph glyph-name="uni0306" unicode="&#x306;" 
d="M-285 1292.5q-86 -71.5 -186 -71.5q-98 0 -185 71.5t-128 188.5l20 10q47 -104 127 -169t166 -65t167 64.5t128 169.5l20 -10q-43 -117 -129 -188.5z" />
    <glyph glyph-name="uni0307" unicode="&#x307;" 
d="M-225 1344.5q-41 -39.5 -111 -39.5t-110.5 39.5t-40.5 105.5t40.5 104.5t110.5 38.5t111 -38.5t41 -104.5t-41 -105.5z" />
    <glyph glyph-name="uni0308" unicode="&#x308;" 
d="M-587 1324q-34 -32 -91 -32q-55 0 -89 32t-34 85q0 51 34 83t89 32q57 0 91 -32t34 -83q0 -53 -34 -85zM-178 1325q-35 -33 -90 -33t-89 32t-34 85q0 51 33.5 83t89.5 32q55 0 90 -32t35 -83t-35 -84z" />
    <glyph glyph-name="uni030A" unicode="&#x30a;" 
d="M-230.5 1240q-56.5 -54 -150.5 -54t-151.5 54t-57.5 144q0 88 57.5 142.5t151.5 54.5t150.5 -54t56.5 -143q0 -90 -56.5 -144zM-503 1264q46 -45 122 -45t121 45t45 120q0 74 -45 119t-121 45t-122 -45t-46 -119q0 -75 46 -120z" />
    <glyph glyph-name="uni030B" unicode="&#x30b;" 
d="M-575 1577l22 -23l-387 -389l-21 21zM-201 1577l25 -23l-389 -389l-21 21z" />
    <glyph glyph-name="uni030C" unicode="&#x30c;" 
d="M-285 1520l15 -17l-314 -303l-311 303l14 17l297 -265z" />
    <glyph glyph-name="uni0312" unicode="&#x312;" 
d="M-217 1446q33 -35 33 -90q0 -57 -35 -92t-92 -35q-61 0 -97 47t-36 127q0 115 56 213t148 145l13 -26q-74 -45 -122 -129t-54 -176q33 51 102 51q51 0 84 -35z" />
    <glyph glyph-name="uni0326" unicode="&#x326;" 
d="M-220 -148q36 -42 36 -116q0 -88 -56.5 -162t-146.5 -109l-14 23q72 31 120 92.5t56 126.5q-37 -37 -103 -37q-51 0 -83.5 31t-32.5 80q0 51 34.5 82t92.5 31q61 0 97 -42z" />
    <glyph glyph-name="uni0327" unicode="&#x327;" 
d="M-185.5 -178q74.5 -43 74.5 -109q0 -82 -116.5 -133t-307.5 -51l5 20q106 0 172.5 43t66.5 115q0 51 -40 87t-103 46l61 183l35 -23l-47 -131q125 -4 199.5 -47z" />
    <glyph glyph-name="uni0328" unicode="&#x328;" 
d="M-209 -457.5q-53 -13.5 -104 -13.5q-96 0 -154.5 46t-58.5 124q0 92 101 178t275 137l19 -14q-96 -53 -154.5 -131t-58.5 -152q0 -61 35 -98t94 -37q57 0 92 15l6 -21q-39 -20 -92 -33.5z" />
    <glyph glyph-name="uni0335" unicode="&#x335;" 
d="M-1018 725v33h807v-33h-807z" />
    <glyph glyph-name="uni0336" unicode="&#x336;" 
d="M-1620 1110v33h1477v-33h-1477z" />
    <glyph glyph-name="uni0337" unicode="&#x337;" 
d="M-381 705v32l-272 -186l-21 29l293 200v-32l275 188l20 -29z" />
    <glyph glyph-name="uni0338" unicode="&#x338;" 
d="M-956 -111l-29 23l919 1241l29 -25z" />
    <glyph glyph-name="uni0394" unicode="&#x394;" horiz-adv-x="1406" 
d="M1376 23v-23h-1341v20l639 1536h28zM1087 33l-516 1179l-489 -1179h1005z" />
    <glyph glyph-name="uni03A9" unicode="&#x3a9;" horiz-adv-x="1748" 
d="M1599.5 666.5q-53.5 -107.5 -126 -182t-187.5 -169.5q-115 -96 -167 -154.5t-52 -127.5h504v-33h-545v33q0 84 33 150.5t104 170.5q66 92 105 163t67.5 169t28.5 221q0 170 -60.5 300t-172 202t-257.5 72q-145 0 -255.5 -72t-171 -202t-60.5 -300q0 -123 28.5 -221
t66.5 -167.5t104 -164.5q70 -100 103.5 -168.5t33.5 -152.5v-33h-545v33h504q0 68 -51 127t-166 155q-115 94 -187.5 169t-126 182.5t-53.5 240.5q0 193 97.5 340.5t273.5 228t405 80.5q231 0 407.5 -80.5t274 -228t97.5 -340.5q0 -133 -53.5 -240.5z" />
    <glyph glyph-name="uni03BC" unicode="&#x3bc;" horiz-adv-x="1277" 
d="M1130 1106v-799q0 -147 -89 -237t-236 -90q-121 0 -224.5 60t-160.5 161v-652h-262v1557h262v-836q47 -102 126 -163.5t163 -61.5q72 0 115.5 52.5t43.5 140.5v868h262z" />
    <glyph glyph-name="pi" unicode="&#x3c0;" horiz-adv-x="1437" 
d="M1178 1073v-911q0 -63 32.5 -101t87.5 -38q37 0 68 10l4 -17q-33 -16 -78 -27.5t-88 -11.5q-129 0 -209 77t-80 200v819h-411v-1073h-262v1073h-224v33h1383v-33h-223z" />
    <glyph glyph-name="Wgrave" unicode="&#x1e80;" horiz-adv-x="1890" 
d="M1311 1632l-594 213l12 33l592 -217zM1849 1536l-499 -1556h-31l-367 1146l-364 -1146h-31l-516 1556h281l366 -1149l361 1169h32l369 -1165l356 1145h43z" />
    <glyph glyph-name="wgrave" unicode="&#x1e81;" horiz-adv-x="1564" 
d="M1081 1243l-475 277l17 28l473 -278zM1536 1106l-424 -1126h-25l-301 786l-290 -786h-29l-444 1126h274l299 -770l281 790h32l305 -792l281 772h41z" />
    <glyph glyph-name="Wacute" unicode="&#x1e82;" horiz-adv-x="1890" 
d="M768 1632l-10 29l592 217l12 -33zM1849 1536l-499 -1556h-31l-367 1146l-364 -1146h-31l-516 1556h281l366 -1149l361 1169h32l369 -1165l356 1145h43z" />
    <glyph glyph-name="wacute" unicode="&#x1e83;" horiz-adv-x="1564" 
d="M633 1243l-15 27l476 278l16 -28zM1536 1106l-424 -1126h-25l-301 786l-290 -786h-29l-444 1126h274l299 -770l281 790h32l305 -792l281 772h41z" />
    <glyph glyph-name="Wdieresis" unicode="&#x1e84;" horiz-adv-x="1890" 
d="M924.5 1701q-33.5 -32 -90.5 -32q-55 0 -89 32t-34 83q0 53 33.5 85t89.5 32q57 0 90.5 -32t33.5 -85q0 -51 -33.5 -83zM1333 1701q-35 -32 -90 -32t-89 32t-34 83q0 53 34 85t89 32t90 -33t35 -84t-35 -83zM1849 1536l-499 -1556h-31l-367 1146l-364 -1146h-31
l-516 1556h281l366 -1149l361 1169h32l369 -1165l356 1145h43z" />
    <glyph glyph-name="wdieresis" unicode="&#x1e85;" horiz-adv-x="1564" 
d="M742.5 1377.5q-33.5 -31.5 -91.5 -31.5q-55 0 -89 31.5t-34 84.5q0 51 34 83t89 32q57 0 91 -32t34 -83q0 -53 -33.5 -84.5zM1151 1378.5q-35 -32.5 -90 -32.5t-89 31.5t-34 84.5q0 51 34 83t89 32t90 -32t35 -83t-35 -83.5zM1536 1106l-424 -1126h-25l-301 786
l-290 -786h-29l-444 1126h274l299 -770l281 790h32l305 -792l281 772h41z" />
    <glyph glyph-name="uni1E9E" unicode="&#x1e9e;" horiz-adv-x="1619" 
d="M1416.5 671q107.5 -120 107.5 -274q0 -125 -64.5 -219t-182.5 -146t-271 -52q-98 0 -197.5 31.5t-165.5 80.5l14 23q53 -39 123 -62.5t131 -23.5q145 0 234.5 101t89.5 267q0 160 -110.5 273.5t-290.5 142.5l333 690h-700v-1503h-270v1536h1276v-20l-351 -670
q187 -55 294.5 -175z" />
    <glyph glyph-name="Ygrave" unicode="&#x1ef2;" horiz-adv-x="1431" 
d="M1069 1632l-594 213l12 33l592 -217zM868 686v-686h-270v668l-551 868h305l500 -803l485 803h43z" />
    <glyph glyph-name="ygrave" unicode="&#x1ef3;" horiz-adv-x="1130" 
d="M852 1243l-475 277l16 28l473 -278zM1110 1106l-688 -1559h-41l178 402l-536 1157h286l383 -852l377 852h41z" />
    <glyph glyph-name="endash" unicode="&#x2013;" horiz-adv-x="1175" 
d="M127 557v33h922v-33h-922z" />
    <glyph glyph-name="emdash" unicode="&#x2014;" horiz-adv-x="1521" 
d="M127 557v33h1268v-33h-1268z" />
    <glyph glyph-name="quoteleft" unicode="&#x2018;" horiz-adv-x="542" 
d="M402 1234q42 -46 42 -122t-46 -122t-122 -46q-82 0 -130 58.5t-48 158.5q0 127 75 235.5t196 159.5l12 -22q-98 -47 -162.5 -135t-73.5 -187q49 68 146 68q69 0 111 -46z" />
    <glyph glyph-name="quoteright" unicode="&#x2019;" horiz-adv-x="538" 
d="M401.5 1497q49.5 -59 49.5 -158q0 -127 -75 -235.5t-196 -159.5l-14 23q98 47 163.5 135t73.5 186q-49 -68 -145 -67q-70 0 -113 46t-43 122t47.5 121.5t122.5 45.5q80 0 129.5 -59z" />
    <glyph glyph-name="quotesinglbase" unicode="&#x201a;" horiz-adv-x="550" 
d="M397 256q49 -59 49 -158q0 -127 -74 -235q-75 -109 -196 -160l-14 23q98 47 164 135t73 186q-49 -68 -145 -67q-70 0 -113 46t-43 121q0 76 47 122t123 46q80 0 129 -59z" />
    <glyph glyph-name="quotedblleft" unicode="&#x201c;" horiz-adv-x="970" 
d="M402 1234q42 -46 42 -122t-46 -122t-122 -46q-82 0 -130 58t-48 159q0 127 75 236t196 159l12 -22q-98 -47 -163 -135t-73 -187q49 68 146 68q69 0 111 -46zM830 1234q42 -46 42 -122t-46 -122t-121 -46q-82 0 -131 58q-48 58 -48 159q0 127 75 236t196 159l12 -22
q-98 -47 -163 -135t-73 -187q49 68 146 68q69 0 111 -46z" />
    <glyph glyph-name="quotedblright" unicode="&#x201d;" horiz-adv-x="966" 
d="M401.5 1497q49.5 -59 49.5 -158q0 -127 -75 -235.5t-196 -159.5l-14 23q98 47 163.5 135t73.5 186q-49 -68 -145 -67q-70 0 -113 46t-43 122t47.5 121.5t122.5 45.5q80 0 129.5 -59zM829.5 1497q49.5 -59 49.5 -158q0 -127 -75 -235.5t-196 -159.5l-12 23
q96 47 161.5 135t73.5 186q-49 -68 -145 -67q-70 0 -112 46t-42 122t46.5 121.5t121.5 45.5q80 0 129.5 -59z" />
    <glyph glyph-name="quotedblbase" unicode="&#x201e;" horiz-adv-x="976" 
d="M395 256q49 -59 49 -158q0 -127 -74 -235q-75 -109 -196 -160l-14 23q98 47 164 135t73 186q-49 -68 -145 -67q-70 0 -113 46t-43 121q0 76 47 122t123 46q80 0 129 -59zM823 256q49 -59 49 -158q0 -127 -74 -235q-75 -109 -196 -160l-12 23q96 47 162 135t73 186
q-49 -68 -145 -67q-70 0 -112 46t-42 121q0 76 46 122t122 46q80 0 129 -59z" />
    <glyph glyph-name="dagger" unicode="&#x2020;" horiz-adv-x="655" 
d="M553 1440h-205v-498h-41v498h-205v33h205v268h41v-268h205v-33z" />
    <glyph glyph-name="daggerdbl" unicode="&#x2021;" horiz-adv-x="688" 
d="M365 1495v-307h204v-33h-204v-213h-41v213h-205v33h205v307h-205v33h205v213h41v-213h204v-33h-204z" />
    <glyph glyph-name="bullet" unicode="&#x2022;" horiz-adv-x="778" 
d="M545.5 582.5q-60.5 -60.5 -156.5 -60.5q-98 0 -157.5 60.5t-59.5 158.5q0 96 59.5 156.5t157.5 60.5q96 0 156.5 -60t60.5 -157q0 -98 -60.5 -158.5z" />
    <glyph glyph-name="ellipsis" unicode="&#x2026;" horiz-adv-x="1642" 
d="M1486 26q-46 -46 -122 -46t-123 46t-47 121q0 76 47 122t123 46t122 -46t46 -122q0 -75 -46 -121zM943 26q-46 -46 -122 -46t-123 46t-47 121q0 76 47 122t123 46t122 -46t46 -122q0 -75 -46 -121zM402 26q-46 -46 -121 -46q-76 0 -123 46t-47 121q0 76 47 122t123 46
t121 -46q46 -46 47 -122q-1 -75 -47 -121z" />
    <glyph glyph-name="perthousand" unicode="&#x2030;" horiz-adv-x="2672" 
d="M2502 109q-95 -119 -251 -119q-104 0 -184 53q-79 53 -121 152q-43 98 -43 227t43 227t122 153q80 54 183 54q156 0 251 -120t95 -314t-95 -313zM2138 125q43 -113 113 -113q68 0 109 113q42 113 42 297t-42 298t-109 114q-70 0 -113 -114t-43 -298t43 -297zM679 801
q-95 -119 -251 -119q-104 0 -183 53t-122 152q-43 98 -43 227t43 227t123 153q80 54 182 54q156 0 251 -120t95 -314t-95 -313zM315 817q43 -113 113 -112q68 0 110 112q42 113 42 297t-42 298t-110 114q-70 0 -113 -114t-43 -298t43 -297zM371 0l1083 1536h43l-1083 -1536
h-43zM1695 109q-95 -119 -251 -119q-104 0 -183 53t-122 152q-43 98 -43 227t43 227t123 153q80 54 182 54q156 0 251 -120t95 -314t-95 -313zM1331 125q43 -113 113 -113q68 0 109 113q42 113 42 297t-42 298t-109 114q-70 0 -113 -114t-43 -298t43 -297z" />
    <glyph glyph-name="guilsinglleft" unicode="&#x2039;" horiz-adv-x="546" 
d="M92 567v13l307 387l21 -13l-254 -381l254 -380l-21 -13z" />
    <glyph glyph-name="guilsinglright" unicode="&#x203a;" horiz-adv-x="546" 
d="M129 193l254 380l-254 381l21 13l307 -387v-13l-307 -387z" />
    <glyph glyph-name="fraction" unicode="&#x2044;" horiz-adv-x="225" 
d="M-453 0l1084 1536h43l-1084 -1536h-43z" />
    <glyph glyph-name="lira" unicode="&#x20a4;" horiz-adv-x="1318" 
d="M1251 698q0 -207 -89 -365.5t-250.5 -245.5t-374.5 -87h-273v782l-168 -45v35l168 45v225l-168 -45v35l168 45v459h273v-387l444 119v-35l-444 -119v-223l444 119v-35l-444 -119v-823q199 0 353 83t241.5 234.5t91.5 347.5h28z" />
    <glyph glyph-name="Euro" unicode="&#x20ac;" horiz-adv-x="1484" 
d="M1405 205q-82 -102 -214 -163.5t-269 -61.5q-180 0 -322.5 77.5t-234 221t-117.5 333.5h-176v33h172q-6 59 -6 123q0 37 4 106h-170v33h174q23 197 110.5 343.5t226 226t314.5 79.5q145 0 274 -53t209 -145l-16 -17q-66 70 -166 113t-194 43q-190 0 -316.5 -158.5
t-155.5 -431.5h486v-33h-488q-4 -70 -4 -106q0 -63 6 -123h486v-33h-483q31 -264 157.5 -418.5t315.5 -154.5q96 0 201.5 52t179.5 136z" />
    <glyph glyph-name="uni20B1" unicode="&#x20b1;" horiz-adv-x="1490" 
d="M1419 1159h-174q12 -55 12 -115q0 -59 -12 -114h174v-33h-182q-47 -160 -193.5 -253t-357.5 -93h-145v-551h-273v897h-176v33h176v229h-176v33h176v344h418q211 0 357.5 -92t193.5 -252h182v-33zM541 1192h413q-29 143 -110.5 227t-198.5 84h-104v-311zM961 1159h-420
v-229h420q8 49 8 114q0 66 -8 115zM844 668q82 84 110 229h-413v-313h104q117 0 199 84z" />
    <glyph glyph-name="uni20B9" unicode="&#x20b9;" horiz-adv-x="1157" 
d="M1087 1503h-626q195 -39 309.5 -131t122.5 -219h194v-33h-194q-6 -139 -122 -236.5t-316 -138.5l481 -745h-311l-486 754h13q201 0 324.5 100t127.5 266h-465v33h465q-10 158 -133 254t-319 96h-13v33h948v-33z" />
    <glyph glyph-name="uni20BD" unicode="&#x20bd;" horiz-adv-x="1370" 
d="M543 674v-230h426v-32h-426v-412h-271v412h-178v32h178v230h-178v33h178v829h439q176 0 310 -53t208 -151.5t74 -225.5t-74 -225.5t-208 -152.5t-310 -54h-168zM917.5 1393.5q-94.5 109.5 -247.5 109.5h-127v-796h127q154 0 248 109.5t94 289.5q0 178 -94.5 287.5z" />
    <glyph glyph-name="uni20BF" unicode="&#x20bf;" horiz-adv-x="1323" 
d="M1107 146.5q-126 -109.5 -341 -138.5v-213h-41v209q-66 -4 -102 -4h-111v-205h-41v205h-274v1536h274v205h41v-205h111q53 0 102 -6v211h41v-215q176 -29 279.5 -124t103.5 -233q0 -137 -103.5 -231t-277.5 -123q215 -29 340 -134.5t125 -260.5q0 -164 -126 -273.5z
M783.5 1411q-76.5 92 -201.5 92h-115v-674h115q125 0 201.5 93.5t76.5 246.5q0 150 -76.5 242zM844.5 139.5q99.5 106.5 99.5 280.5q0 170 -99.5 273.5t-262.5 103.5h-115v-764h115q163 0 262.5 106.5z" />
    <glyph glyph-name="trademark" unicode="&#x2122;" horiz-adv-x="1513" 
d="M1208 922l-41 364l-200 -375h-17l-221 396l-41 -385h-24l69 624h19l272 -483l254 483h18l70 -624h-158zM66 1536h548v-20h-198v-594h-152v594h-198v20z" />
    <glyph glyph-name="oneeighth" unicode="&#x215b;" horiz-adv-x="1693" 
d="M1532 373q70 -59 70 -152q0 -104 -94 -168q-93 -63 -244 -63q-152 0 -245 63t-93 168q0 92 70 152q71 59 190 76q-104 14 -165 66q-60 52 -60 130q0 94 82 153q83 58 221 58q137 0 221 -58t84 -153q0 -78 -62 -130q-61 -52 -166 -66q121 -17 191 -76zM1186 781
q-31 -52 -31 -136t31 -135t78 -51q49 0 78 51q30 51 30 135t-30 136t-78 53q-47 -1 -78 -53zM1369 70q40 57 40 151q0 96 -40 156q-40 59 -105 59q-63 0 -104 -59q-40 -59 -40 -156q0 -94 39 -151t105 -58q65 1 105 58zM199 0l1083 1536h43l-1083 -1536h-43zM487 1546v-854
h-184v740l-231 -123l-11 18l410 219h16z" />
    <glyph glyph-name="threeeighths" unicode="&#x215c;" horiz-adv-x="1789" 
d="M1638 373q70 -59 70 -152q0 -104 -93 -168q-93 -63 -245 -63t-245 63t-93 168q0 92 71 152q71 59 189 76q-104 14 -165 66q-60 52 -60 130q0 94 83 153q83 58 220 58t221 -58t84 -153q0 -78 -61 -130t-166 -66q120 -17 190 -76zM1292 781q-31 -52 -30 -136q0 -84 30 -135
q31 -51 78 -51q49 0 79 51t30 135t-30 136t-79 53q-47 -1 -78 -53zM1476 70q40 57 40 151q0 96 -40 156q-40 59 -106 59q-63 0 -103 -59t-40 -156q0 -94 39 -151t104 -58q66 1 106 58zM305 0l1084 1536h43l-1084 -1536h-43zM630 1067q71 -59 70 -149q0 -106 -88 -172
q-88 -65 -233 -64q-86 0 -172 31t-135 80l12 18q43 -39 100 -62q57 -24 111 -24q96 0 155 55q58 55 58 146q0 90 -61 146q-60 56 -160 56h-21v23h15q88 0 141 51t53 133q0 76 -48 123t-126 47q-47 0 -98 -19t-88 -50l-13 14q49 43 121 71t137 27q139 0 225 -56
q85 -56 85 -146q0 -80 -63 -135q-62 -54 -169 -70q121 -15 192 -74z" />
    <glyph glyph-name="fiveeighths" unicode="&#x215d;" horiz-adv-x="1775" 
d="M1624 373q70 -59 70 -152q0 -104 -93 -168q-93 -63 -245 -63t-245 63t-93 168q0 92 71 152q71 59 189 76q-104 14 -165 66q-60 52 -60 130q0 94 83 153q83 58 220 58t221 -58t84 -153q0 -78 -62 -130q-61 -52 -165 -66q120 -17 190 -76zM1278 781q-31 -52 -31 -136
t31 -135t78 -51q49 0 79 51t29 135q0 84 -29 136q-30 52 -79 53q-47 -1 -78 -53zM1461 70q40 57 40 151q0 96 -40 156q-40 59 -105 59q-63 0 -104 -59q-40 -59 -40 -156q0 -94 39 -151t105 -58q65 1 105 58zM291 0l1083 1536h43l-1083 -1536h-43zM597 1161q89 -76 89 -200
q0 -125 -94 -202t-248 -77q-80 0 -155 30t-115 81l12 16q33 -37 84 -60q51 -24 100 -24q100 0 161 65q60 65 61 171q0 104 -59 168q-58 65 -154 65q-35 0 -73 -11t-67 -32l-8 14l51 371h471v-23h-291l-40 -278q14 2 38 2q148 0 237 -76z" />
    <glyph glyph-name="seveneighths" unicode="&#x215e;" horiz-adv-x="1728" 
d="M1567 373q70 -59 69 -152q0 -104 -93 -168q-93 -63 -245 -63t-244 63q-93 63 -93 168q0 92 70 152q71 59 190 76q-104 14 -165 66q-60 52 -61 130q0 94 83 153q83 58 220 58t222 -58q84 -58 84 -153q0 -78 -62 -130q-61 -52 -166 -66q121 -17 191 -76zM1221 781
q-31 -52 -31 -136t31 -135t77 -51q49 0 79 51t30 135t-30 136t-79 53q-46 -1 -77 -53zM1404 70q40 57 40 151q0 96 -40 156q-40 59 -106 59q-63 0 -103 -59t-40 -156q0 -94 39 -151t104 -58q66 1 106 58zM236 0l1083 1536h43l-1083 -1536h-43zM674 1536v-12l-328 -832h-190
l329 821h-424v23h613z" />
    <glyph glyph-name="partialdiff" unicode="&#x2202;" horiz-adv-x="1318" 
d="M760 1455q225 -130 338.5 -341t113.5 -483q0 -193 -71.5 -341.5t-202.5 -229t-301 -80.5t-300 61t-200.5 172t-70.5 256q0 133 62 234.5t175 158t260 56.5q100 0 193.5 -44.5t156.5 -121.5q-37 334 -215 551t-495 294l6 21q326 -33 551 -163zM785.5 84q64.5 72 100.5 201
t36 297q0 63 -2 92q-55 86 -134 136t-157 50q-123 0 -199 -111.5t-76 -291.5q0 -201 78 -323t205 -122q84 0 148.5 72z" />
    <glyph glyph-name="emptyset" unicode="&#x2205;" horiz-adv-x="1417" 
d="M1141 1014q68 -80 104.5 -188.5t36.5 -235.5q0 -182 -71.5 -320.5t-201.5 -214t-302 -75.5q-123 0 -226.5 39.5t-179.5 115.5l-166 -174l-33 31l168 176q-68 80 -104.5 187.5t-36.5 234.5q0 182 71.5 320.5t203 214t303.5 75.5q123 0 226 -40t177 -113l168 174l31 -33z
M299 197l784 819q-70 74 -166 112.5t-210 38.5q-158 0 -279 -71.5t-187.5 -202.5t-66.5 -303q0 -235 125 -393zM1112 983l-784 -819q147 -152 379 -152q158 0 277.5 72t186 203t66.5 303q0 235 -125 393z" />
    <glyph glyph-name="product" unicode="&#x220f;" horiz-adv-x="1730" 
d="M1667 1565h-233v-2016h-271v2016h-594v-2016h-272v2016h-234v32h1604v-32z" />
    <glyph glyph-name="summation" unicode="&#x2211;" horiz-adv-x="1249" 
d="M70 -451v21l520 1044l-500 963v20h1081v-32h-796l508 -951l-529 -1032h838v-33h-1122z" />
    <glyph glyph-name="minus" unicode="&#x2212;" horiz-adv-x="970" 
d="M127 557v33h717v-33h-717z" />
    <glyph glyph-name="radical" unicode="&#x221a;" horiz-adv-x="1480" 
d="M1522 1597l-969 -2060h-33l-532 1118h288l383 -813l822 1755h41z" />
    <glyph glyph-name="infinity" unicode="&#x221e;" horiz-adv-x="1613" 
d="M1403 834.5q98 -95.5 98 -250.5q0 -156 -98 -251t-260 -95q-125 0 -214 62t-122 169q-33 -106 -122 -168.5t-214 -62.5q-162 0 -260 95t-98 251t98 251t260 95q125 0 214 -62.5t122 -169.5q33 106 122 169t214 63q162 0 260 -95.5zM698 356q86 86 86 228q0 141 -86 227
t-227 86t-227 -86t-86 -227t86 -227.5t227 -86.5t227 86zM1370 356q86 86 86 228q0 141 -86 227t-227 86t-227.5 -86t-86.5 -227t86 -227.5t228 -86.5q141 0 227 86z" />
    <glyph glyph-name="integral" unicode="&#x222b;" horiz-adv-x="1003" 
d="M531.5 -373.5q-105.5 -97.5 -275.5 -97.5q-84 0 -164 29.5t-129 79.5l14 18q35 -33 84.5 -53.5t96.5 -20.5q94 0 150.5 65.5t56.5 176.5v1442q0 158 105 255t275 97q84 0 165 -29.5t128 -79.5l-14 -18q-35 33 -88 53.5t-105 20.5q-88 0 -141 -62.5t-53 -167.5v-1454
q0 -157 -105.5 -254.5z" />
    <glyph glyph-name="approxequal" unicode="&#x2248;" horiz-adv-x="970" 
d="M51 662q0 102 62 165q61 63 161 64q66 0 114 -29t110 -84q61 -53 104 -79t103 -25q84 0 136 54t52 142h29q0 -102 -62 -165q-61 -63 -162 -64q-66 0 -113 29q-48 29 -110 84q-61 53 -104 79t-103 25q-84 0 -136 -54t-52 -142h-29zM51 297q0 102 62 166q61 63 161 63
q66 0 114 -28q48 -29 110 -84q61 -53 104 -79t103 -26q84 0 136 55q52 54 52 142h29q0 -102 -62 -166q-61 -63 -162 -64q-66 0 -113 29q-48 29 -110 84q-61 53 -104 79t-103 26q-84 0 -136 -55q-52 -54 -52 -142h-29z" />
    <glyph glyph-name="notequal" unicode="&#x2260;" horiz-adv-x="970" 
d="M580 705l-142 -263h406v-32h-424l-121 -222h-41l121 222h-252v32h270l142 263h-412v32h430l121 221h41l-121 -221h246v-32h-264z" />
    <glyph glyph-name="lessequal" unicode="&#x2264;" horiz-adv-x="970" 
d="M123 729l711 209v-37l-644 -188l644 -189v-37l-711 209v33zM123 264h717v-33h-717v33z" />
    <glyph glyph-name="greaterequal" unicode="&#x2265;" horiz-adv-x="970" 
d="M137 487v37l643 189l-643 188v37l711 -209v-33zM131 231v33h717v-33h-717z" />
    <glyph glyph-name="lozenge" unicode="&#x25ca;" horiz-adv-x="1019" 
d="M938 666l-414 -666h-28l-414 666l414 665h28zM895 666l-385 618l-385 -618l385 -619z" />
    <glyph glyph-name="uni261E" unicode="&#x261e;" horiz-adv-x="5521" 
d="M109 324l192 90q27 10 33 10t20.5 -6t34.5 -6l320 137q20 10 36 10q12 0 19 -2q18 -6 50 5t110 50q6 2 19 11.5t28 7.5q35 -2 78 8q41 8 63 8q10 0 82 27q14 4 65.5 22.5t73.5 20.5q37 2 86 33l41 20q23 8 41 8q14 0 28.5 -3t26.5 -3q14 0 21 2q23 6 53.5 9t40.5 10
q23 10 44.5 25.5t31.5 15.5q12 0 49 -15q18 27 43 27q10 0 36 -7.5t40 -7.5t33 7q53 18 266 78.5t252 68.5l45 8l33 21l217 88q14 6 22 -2q49 -49 99.5 -84t126.5 -76l372 -201l21 -18q6 -8 16 -8l1032 -4q20 0 29.5 7t21 11t44.5 2l276 -12l57 -8l70 4l434 -4l78 -4l-4 -97
l-39 -4l-573 2q-8 0 -13.5 2t-3.5 10l-305 5q-33 0 -45 7t-35 7l-975 10l27 -35q12 -16 50 -68t48 -71q96 -197 96 -262l-2 -8q-45 -29 -59 -29q-6 0 -23.5 5t-33.5 9l-47 7q-16 2 -71.5 10t-74.5 18l-80 62l21 -72q31 -98 30 -115q0 -10 -6 -15t-14 -11l-25 -25
q-20 -20 -36 -20q-10 0 -23 6l-76 63l-67 8q-59 6 -80 50l-62 110q-4 8 -9 13.5t-13 5.5q-10 0 -78 7t-121 7q45 0 -51 -3t-205.5 -6t-181.5 -3q-27 0 -81 14t-90 26.5t-52 16.5q-111 39 -150 45h-6q-14 0 -28.5 -11t-22.5 -16q-35 -14 -61.5 -20t-43.5 -10
q-35 -12 -47 -21.5t-22 -23.5q-10 -23 -45 -45q-8 -4 -19 -4l-37 2q-39 0 -65 -27q-53 -53 -75.5 -71.5t-51.5 -32t-100 -35.5q-16 -6 -42 -11.5t-40 -19.5q-10 -10 -35 -23.5t-35 -17.5q-109 -51 -131 -90q-20 -37 -46 -50.5t-89 -27.5l-109 -76l-170 -100
q-61 -53 -94 -70.5t-113 -36.5q-25 4 -59 52q-61 80 -125.5 206.5t-108 256t-43.5 215.5q1 25 46 45zM3447 212q51 -7 74 -7q-55 20 -76 33.5t-43 35.5q-33 33 -72 62q-6 4 -8 10t0 8l33 -12q45 -45 116.5 -93t143.5 -63l-168 250q-4 6 -15 56q-57 63 -143 102l-14 -2
l98 -74l47 -45l-2 -6q-113 102 -254 186q-18 12 -27.5 21.5t-11.5 25.5q-2 12 -7 16.5t-19 6.5l-43 6l-39 33l-86 45l-23 18l-112 56q-4 2 -19.5 8t-30.5 0l-159 -64l-52 -4q-70 -27 -100 -53q-2 2 -2 6q0 12 12 19q33 18 64 28t78 13l151 61q16 4 23 4q25 0 50 -11
t50 -26.5t39 -23.5l172 -80l78 -56l14 -16l125 -78q8 8 47 -20.5t80 -69.5t55 -67l150 -250q6 -12 10 -13l21 9q12 4 15 10t1 20q-20 94 -56 167t-90.5 145.5t-164.5 203.5q-213 94 -378 190.5t-204 162.5l-270 -115q-150 -27 -480 -135q-12 -4 -61 -20.5t-74 -16.5
q-16 0 -30 8q-6 -35 -19 -84q-23 -74 -24 -151l-9 -209h-4l-8 55q-2 27 -14 27q-4 0 -25 -9q-14 -4 -19 -17t-3 -26l6 -41l-4 -2l-17 35q-14 -14 -21 -18t-18 -2q-57 10 -65 10q-20 0 -35 -8l-121 -76q-18 -12 -18 -31q0 -8 2 -16t2 -16q0 -14 -14 -23l-160 -84
q-33 -18 -98 -45q-53 -18 -138 -70q-4 -4 -12 -4q-6 0 -11 5.5t-7 9.5q-4 4 -9 4q-6 0 -11 -4t-5 -9q0 -10 -6 -15t-19 -9q-68 -33 -79 -41q-154 -76 -260.5 -132.5t-165.5 -92.5q-14 -10 -15 8l53 33l-6 6q-29 0 -69 -17q-29 -12 -41 -12q-20 0 -35 23q-49 76 -123 270
l-41 125q-25 63 -24 117q0 14 4 19t18 5q4 -59 11 -99t26 -81q10 -25 20 -64q2 -23 13 -47q47 -143 116 -245q4 -6 11 -7q4 0 12 4.5t14 6.5l72 14q4 2 12 2q16 0 19 -16l102 57l305 147q10 6 28.5 13.5t30 16.5t17.5 24q2 8 14 8q8 0 26.5 -4t29.5 2l368 186q16 8 17 21
q0 6 -4.5 18t-4.5 19q0 12 13 20l98 61q33 23 56.5 35.5t41.5 12.5q14 0 52 -11q4 -2 10 -2q18 0 18 25q0 37 -4 70q-4 41 -4 104q0 74 2 133l8 70q-27 -12 -47 -19.5t-44.5 -13.5t-45.5 -10q-41 -10 -53 -11q-25 0 -43 19l-25 -21l-176 -208l-6 2l25 49l124 145
q-27 -14 -49 -18l-47 -8q-33 -12 -94 -31q-98 -29 -121 -45q-10 -8 -24 -8l-25 2q-20 0 -35.5 -6.5t-21.5 -6.5l-47 6l-78 -38q-47 -23 -76 -35.5t-39 -12.5q-8 0 -20 7l-9 2q-8 0 -16 -15q-2 -6 -4 -18t-6 -19q-18 -35 -23.5 -78.5t-15.5 -197.5q-14 35 -14 98
q0 57 10 117.5t26 91.5q-45 -14 -217 -88q-104 -47 -112 -47q-10 0 -27.5 9t-24.5 5l-239 -112q16 -141 96 -324.5t221 -400.5l68 43l-62 90l9 6l73 -86q59 23 75.5 31t27.5 22q135 80 192.5 117t77.5 55q16 16 66 33q35 10 55 21.5t33 35.5q16 33 87.5 74t221.5 102
q84 31 127 55.5t67 65.5q63 41 129 54q31 6 48 34q8 14 18 21.5t33 9.5q20 2 40.5 10t53.5 25l76 35q10 4 26 4q14 0 38 -8.5t42 -14.5l125 -39q-2 6 -2 29q0 39 10 90q2 8 4.5 19.5t5.5 14.5t11 3q-12 -57 -12 -96t10 -60q6 -12 17.5 -17t23.5 -6t18 -3q-8 16 -19 35.5
t-14.5 34t-3.5 38.5q0 23 4 72q6 41 7 82l6 4l2 -21q10 29 23.5 47.5t33.5 32.5l-211 -2q-20 0 -51 -12t-43 -12q-23 0 -39 37q-6 12 -6 30q0 23 8 42.5t25 27.5q12 6 22 6q12 0 22.5 -7t27 -26.5t28.5 -19.5l819 10l-2 4l-96 19q-4 4 -1 9t9 5q76 0 152 -29
q29 -10 39 -26.5t14 -18.5q10 -4 40 -10t42 -14l131 -109l-2 -4l-94 72q-4 2 -14.5 10t-19.5 11t-22 3l-159 6q4 -4 13 -15t13 -21q4 -12 25 -13h10q14 0 21 -6l178 -80q45 -4 101 -31.5t56 -44.5q0 -29 -15 -61.5t-38 -48.5q57 -45 88 -72q27 -25 41 -35q17 -10 68 -17z
M1837 823q-10 0 -41 -30q-6 -6 -16 -7q-16 0 -25 9q-12 12 -16 12q-6 0 -17 -8q10 -12 11 -35l-2 -27q-4 -66 -5 -159q0 -102 5 -136q18 14 33.5 18.5t19.5 8.5t6 23l25 256l24 75h-2zM4835 690l4 17l-333 10q-6 0 -10.5 -5t-4.5 -10zM5394 623q8 0 11.5 3t5.5 11l8 53
l-465 -6q-35 0 -59.5 1t-46.5 7l-9 -63zM4481 659.5q-2 -16.5 4 -16.5l340 -8l2 29l-340 12q-4 0 -6 -16.5zM2865 631q-12 31 -45 24l57 -57zM2200 444q0 -31 10 -49t53 -73l25 -9h487q57 -4 90 -8l62 -6l143 -12v4l-262 53l-80 10q-18 6 -33 6q-14 0 -27.5 -6t-17.5 -6
q-10 0 -18 14q-4 10 -17 11q-6 0 -18 -2t-17 8l-276 29l-10 8l10 8q12 4 23 4q12 0 29.5 -3t27.5 -5l166 -23q6 -2 20.5 -7t40.5 -5q27 0 43.5 -6t28.5 -6q10 0 24.5 2t26.5 0l236 -53q61 -14 103 -23.5t58 -9.5q20 0 39 12q61 39 84 60.5t33 56.5q2 4 2 10q0 16 -12 25
q-27 23 -59.5 32t-92.5 19l-53 10l-193 8q-27 0 -45 15.5t-49 50.5q-43 49 -47 53q-8 10 -13 12t-11.5 2h-8.5h-407q-27 0 -51.5 -37.5t-24.5 -74.5q0 -80 26.5 -126t86.5 -79l4 -4l-6 -2q-14 0 -47 14q-37 18 -53.5 60.5t-26.5 105.5q-6 -43 -6 -68zM2880.5 614.5
q11.5 -28.5 7.5 -36.5l-78 69l31 -55l-5 -2q-4 6 -15 17t-15 22q-8 18 -15.5 21t-40.5 3l50 -57q10 -14 37.5 -26.5t39.5 -18.5l29 37q4 10 0 18q-12 29 -39 47q2 -10 13.5 -38.5zM2888 547q147 -20 217 -21l-129 58q-14 6 -29.5 10t-21.5 -2zM1817 453q0 2 8 47l10 47
l10 14l-14 -108q8 -4 14 2t19.5 25.5t21.5 33.5q10 12 27 12q18 0 29 -14q12 -16 18 -26.5t10 -13.5t10 3l21 23q12 14 27 14q20 0 32 -27q6 -16 21.5 -28.5t32.5 -10.5l18 3v-7l-37 -6q-16 -4 -28.5 6.5t-22.5 40.5q-6 16 -19 17q-10 0 -20 -11q-39 -39 -51 -38
q-14 0 -17 22l-6 31q-2 10 -12 10q-6 0 -11 -3t-7 -7q-6 -10 -21.5 -32.5t-24 -27t-22.5 -4.5q-16 1 -16 13zM3181 100l67 -55q10 -6 15.5 -7t13.5 7q20 18 38.5 32.5t18.5 18.5q0 37 -33.5 127t-56.5 109l-90 -53l-94 -5q66 -74 80 -102q8 -20 28 -47zM3029 176
q4 -4 11 -21.5t18 -21.5l106 -24l-121 165l-75 2z" />
    <glyph glyph-name="uniF8FF" unicode="&#xf8ff;" horiz-adv-x="2541" 
d="M1694 -6q-14 -14 -35 -14q-27 0 -34 13t-7 34v663l-694 -696q-14 -14 -35 -14q-27 0 -34 13t-7 34v663l-696 -696q-14 -14 -35 -14q-14 0 -24.5 10t-10.5 26q0 20 10 31l701 698h-664q-47 0 -47 39q0 18 14 33l697 701h-670q-18 0 -29.5 10t-11.5 28v3q0 18 11 28t30 10
h758q20 0 33.5 -7t13.5 -34q0 -18 -17 -34l-698 -697h676q16 0 28.5 -12t12.5 -29v-669l694 692q16 16 35 16q37 0 37 -45v-663l696 692q16 16 33 16q14 0 24.5 -11t10.5 -28q0 -16 -13 -28z" />
    <glyph glyph-name="G.aalt" horiz-adv-x="1628" 
d="M1497 815v-835h-20l-232 260q-63 -117 -190 -188.5t-273 -71.5q-201 0 -353.5 95t-236 268t-83.5 400q0 242 96 426.5t270 285.5t402 101q166 0 324.5 -57t250.5 -151l-14 -19q-88 76 -217 122t-252 46q-170 0 -299 -94t-200 -265t-71 -395q0 -209 56.5 -368.5
t160 -247.5t238.5 -88q109 0 212 63.5t161 165.5v547h270z" />
    <glyph glyph-name="J.aalt" horiz-adv-x="886" 
d="M336 1632l-10 29l555 205l12 -33zM598 76q-102 -96 -272 -96q-90 0 -167 27.5t-124 74.5l16 20q33 -33 81 -51t97 -18q88 0 143.5 68.5t55.5 179.5v1255h272v-1206q0 -158 -102 -254z" />
    <glyph glyph-name="W.aalt" horiz-adv-x="1878" 
d="M1847 1536l-587 -1556h-31l-287 763l-285 -763h-30l-600 1556h280l447 -1196l168 461l-277 735h270l187 -506l196 506h43l-217 -565l234 -629l446 1194h43z" />
    <glyph glyph-name="Wacute.aalt" horiz-adv-x="1878" 
d="M713 1632l-11 29l592 217l13 -33zM1847 1536l-587 -1556h-31l-287 763l-285 -763h-30l-600 1556h280l447 -1196l168 461l-277 735h270l187 -506l196 506h43l-217 -565l234 -629l446 1194h43z" />
    <glyph glyph-name="Wcircumflex.aalt" horiz-adv-x="1878" 
d="M633 1628l-15 17l365 282l365 -282l-15 -17l-350 244zM1847 1536l-587 -1556h-31l-287 763l-285 -763h-30l-600 1556h280l447 -1196l168 461l-277 735h270l187 -506l196 506h43l-217 -565l234 -629l446 1194h43z" />
    <glyph glyph-name="Wdieresis.aalt" horiz-adv-x="1878" 
d="M869.5 1701q-33.5 -32 -91.5 -32q-55 0 -89 32t-34 83q0 53 34 85t89 32q57 0 91 -32t34 -85q0 -51 -33.5 -83zM1278 1701q-35 -32 -90 -32t-89 32t-34 83q0 53 34 85t89 32t90 -33t35 -84t-35 -83zM1847 1536l-587 -1556h-31l-287 763l-285 -763h-30l-600 1556h280
l447 -1196l168 461l-277 735h270l187 -506l196 506h43l-217 -565l234 -629l446 1194h43z" />
    <glyph glyph-name="Wgrave.aalt" horiz-adv-x="1878" 
d="M1255 1632l-593 213l12 33l592 -217zM1847 1536l-587 -1556h-31l-287 763l-285 -763h-30l-600 1556h280l447 -1196l168 461l-277 735h270l187 -506l196 506h43l-217 -565l234 -629l446 1194h43z" />
    <glyph glyph-name="Y.aalt" horiz-adv-x="1402" 
d="M1389 1536l-846 -1536h-45l221 399l-664 1137h301l502 -881l485 881h46z" />
    <glyph glyph-name="Yacute.aalt" horiz-adv-x="1402" 
d="M561 1632l-10 29l592 217l12 -33zM1389 1536l-846 -1536h-45l221 399l-664 1137h301l502 -881l485 881h46z" />
    <glyph glyph-name="Ycircumflex.aalt" horiz-adv-x="1402" 
d="M483 1628l-14 17l365 282l364 -282l-14 -17l-350 244zM1389 1536l-846 -1536h-45l221 399l-664 1137h301l502 -881l485 881h46z" />
    <glyph glyph-name="Ydieresis.aalt" horiz-adv-x="1402" 
d="M718 1701q-34 -32 -91 -32q-55 0 -89 32t-34 83q0 53 33.5 85t89.5 32q57 0 91 -32t34 -85q0 -51 -34 -83zM1126.5 1701q-34.5 -32 -90.5 -32q-55 0 -89 32t-34 83q0 53 34 85t89 32t90 -33t35 -84t-34.5 -83zM1389 1536l-846 -1536h-45l221 399l-664 1137h301l502 -881
l485 881h46z" />
    <glyph glyph-name="Ygrave.aalt" horiz-adv-x="1402" 
d="M1104 1632l-594 213l12 33l592 -217zM1389 1536l-846 -1536h-45l221 399l-664 1137h301l502 -881l485 881h46z" />
    <glyph glyph-name="a.salt" horiz-adv-x="1198" 
d="M929 1025q124 -101 124 -273v-772h-21l-225 253q-51 -115 -161.5 -184t-237.5 -69q-156 0 -252.5 88t-96.5 233q0 88 57.5 155.5t163 104.5t244.5 37h267v168q0 143 -79 226t-214 83q-86 0 -178.5 -34.5t-161.5 -94.5l-15 17q82 76 204 119.5t249 43.5q209 0 333 -101z
M670.5 111.5q74.5 60.5 120.5 158.5v295h-213q-109 0 -175.5 -69.5t-66.5 -184.5q0 -117 51 -188.5t133 -71.5q76 0 150.5 60.5z" />
    <glyph glyph-name="aacute.aalt" horiz-adv-x="1198" 
d="M389 1243l-14 27l475 278l16 -28zM929 1025q124 -101 124 -273v-772h-21l-225 253q-51 -115 -161.5 -184t-237.5 -69q-156 0 -252.5 88t-96.5 233q0 88 57.5 155.5t163 104.5t244.5 37h267v168q0 143 -79 226t-214 83q-86 0 -178.5 -34.5t-161.5 -94.5l-15 17
q82 76 204 119.5t249 43.5q209 0 333 -101zM670.5 111.5q74.5 60.5 120.5 158.5v295h-213q-109 0 -175.5 -69.5t-66.5 -184.5q0 -117 51 -188.5t133 -71.5q76 0 150.5 60.5z" />
    <glyph glyph-name="abreve.aalt" horiz-adv-x="1198" 
d="M799 1345.5q-86 -71.5 -187 -71.5q-98 0 -185 71.5t-128 188.5l20 10q47 -104 127 -168.5t166 -64.5t167 64.5t128 168.5l21 -10q-43 -117 -129 -188.5zM929 1025q124 -101 124 -273v-772h-21l-225 253q-51 -115 -161.5 -184t-237.5 -69q-156 0 -252.5 88t-96.5 233
q0 88 57.5 155.5t163 104.5t244.5 37h267v168q0 143 -79 226t-214 83q-86 0 -178.5 -34.5t-161.5 -94.5l-15 17q82 76 204 119.5t249 43.5q209 0 333 -101zM670.5 111.5q74.5 60.5 120.5 158.5v295h-213q-109 0 -175.5 -69.5t-66.5 -184.5q0 -117 51 -188.5t133 -71.5
q76 0 150.5 60.5z" />
    <glyph glyph-name="acircumflex.aalt" horiz-adv-x="1198" 
d="M315 1253l-14 17l313 303l314 -303l-15 -17l-299 265zM929 1025q124 -101 124 -273v-772h-21l-225 253q-51 -115 -161.5 -184t-237.5 -69q-156 0 -252.5 88t-96.5 233q0 88 57.5 155.5t163 104.5t244.5 37h267v168q0 143 -79 226t-214 83q-86 0 -178.5 -34.5
t-161.5 -94.5l-15 17q82 76 204 119.5t249 43.5q209 0 333 -101zM670.5 111.5q74.5 60.5 120.5 158.5v295h-213q-109 0 -175.5 -69.5t-66.5 -184.5q0 -117 51 -188.5t133 -71.5q76 0 150.5 60.5z" />
    <glyph glyph-name="adieresis.aalt" horiz-adv-x="1198" 
d="M498.5 1377.5q-33.5 -31.5 -90.5 -31.5q-55 0 -89 31.5t-34 84.5q0 51 33.5 83t89.5 32q57 0 90.5 -32t33.5 -83q0 -53 -33.5 -84.5zM907 1378.5q-35 -32.5 -90 -32.5t-89 31.5t-34 84.5q0 51 34 83t89 32t90 -32t35 -83t-35 -83.5zM929 1025q124 -101 124 -273v-772h-21
l-225 253q-51 -115 -161.5 -184t-237.5 -69q-156 0 -252.5 88t-96.5 233q0 88 57.5 155.5t163 104.5t244.5 37h267v168q0 143 -79 226t-214 83q-86 0 -178.5 -34.5t-161.5 -94.5l-15 17q82 76 204 119.5t249 43.5q209 0 333 -101zM670.5 111.5q74.5 60.5 120.5 158.5v295
h-213q-109 0 -175.5 -69.5t-66.5 -184.5q0 -117 51 -188.5t133 -71.5q76 0 150.5 60.5z" />
    <glyph glyph-name="agrave.aalt" horiz-adv-x="1198" 
d="M838 1243l-476 277l17 28l473 -278zM929 1025q124 -101 124 -273v-772h-21l-225 253q-51 -115 -161.5 -184t-237.5 -69q-156 0 -252.5 88t-96.5 233q0 88 57.5 155.5t163 104.5t244.5 37h267v168q0 143 -79 226t-214 83q-86 0 -178.5 -34.5t-161.5 -94.5l-15 17
q82 76 204 119.5t249 43.5q209 0 333 -101zM670.5 111.5q74.5 60.5 120.5 158.5v295h-213q-109 0 -175.5 -69.5t-66.5 -184.5q0 -117 51 -188.5t133 -71.5q76 0 150.5 60.5z" />
    <glyph glyph-name="amacron.aalt" horiz-adv-x="1198" 
d="M305 1372v33h617v-33h-617zM929 1025q124 -101 124 -273v-772h-21l-225 253q-51 -115 -161.5 -184t-237.5 -69q-156 0 -252.5 88t-96.5 233q0 88 57.5 155.5t163 104.5t244.5 37h267v168q0 143 -79 226t-214 83q-86 0 -178.5 -34.5t-161.5 -94.5l-15 17q82 76 204 119.5
t249 43.5q209 0 333 -101zM670.5 111.5q74.5 60.5 120.5 158.5v295h-213q-109 0 -175.5 -69.5t-66.5 -184.5q0 -117 51 -188.5t133 -71.5q76 0 150.5 60.5z" />
    <glyph glyph-name="aogonek.aalt" horiz-adv-x="1198" 
d="M1069 -424q-39 -20 -93 -33.5t-106 -13.5q-96 0 -154.5 47t-58.5 123q0 84 98.5 163t266.5 128l-215 243q-51 -115 -161.5 -184t-237.5 -69q-156 0 -252.5 88t-96.5 233q0 88 57.5 155.5t163 104.5t244.5 37h267v168q0 143 -79 226t-214 83q-86 0 -178.5 -34.5
t-161.5 -94.5l-15 17q82 76 204 119.5t249 43.5q209 0 333 -101t124 -273v-772q-96 -51 -154.5 -123t-58.5 -140q0 -61 34.5 -98t94.5 -37q57 0 92 15zM670.5 111.5q74.5 60.5 120.5 158.5v295h-213q-109 0 -175.5 -69.5t-66.5 -184.5q0 -117 51 -188.5t133 -71.5
q76 0 150.5 60.5z" />
    <glyph glyph-name="aring.aalt" horiz-adv-x="1198" 
d="M765 1293.5q-56 -54.5 -151 -54.5q-94 0 -151 54.5t-57 144.5q0 88 57 142t151 54t150.5 -54t56.5 -142q0 -90 -56 -144.5zM492.5 1317q46.5 -45 121.5 -45q76 0 121 45t45 121q0 74 -45 119t-121 45t-122 -45.5t-46 -118.5q0 -76 46.5 -121zM929 1025q124 -101 124 -273
v-772h-21l-225 253q-51 -115 -161.5 -184t-237.5 -69q-156 0 -252.5 88t-96.5 233q0 88 57.5 155.5t163 104.5t244.5 37h267v168q0 143 -79 226t-214 83q-86 0 -178.5 -34.5t-161.5 -94.5l-15 17q82 76 204 119.5t249 43.5q209 0 333 -101zM670.5 111.5
q74.5 60.5 120.5 158.5v295h-213q-109 0 -175.5 -69.5t-66.5 -184.5q0 -117 51 -188.5t133 -71.5q76 0 150.5 60.5z" />
    <glyph glyph-name="atilde.aalt" horiz-adv-x="1198" 
d="M343 1432.5q-42 -37.5 -79 -111.5l-20 10q70 172 215 172q49 0 88 -22.5t84 -63.5q41 -37 72.5 -56.5t70.5 -19.5q63 0 106.5 38t77.5 110l23 -10q-70 -172 -215 -172q-49 0 -87 22.5t-87 65.5q-41 37 -73 56t-70 19q-64 0 -106 -37.5zM929 1025q124 -101 124 -273v-772
h-21l-225 253q-51 -115 -161.5 -184t-237.5 -69q-156 0 -252.5 88t-96.5 233q0 88 57.5 155.5t163 104.5t244.5 37h267v168q0 143 -79 226t-214 83q-86 0 -178.5 -34.5t-161.5 -94.5l-15 17q82 76 204 119.5t249 43.5q209 0 333 -101zM670.5 111.5q74.5 60.5 120.5 158.5
v295h-213q-109 0 -175.5 -69.5t-66.5 -184.5q0 -117 51 -188.5t133 -71.5q76 0 150.5 60.5z" />
    <glyph glyph-name="b.aalt" horiz-adv-x="1318" 
d="M1002.5 1054.5q107.5 -71.5 166 -201.5t58.5 -300t-58.5 -300t-166 -201.5t-246.5 -71.5q-125 0 -221.5 72.5t-133.5 191.5l-223 -264h-20v1617h262v-688q47 100 137 158.5t199 58.5q139 0 246.5 -71.5zM821.5 106.5q61.5 63.5 96 179t34.5 267.5t-34.5 267.5t-96 179
t-143.5 63.5t-152.5 -64.5t-105.5 -171.5v-548q35 -106 105.5 -171t152.5 -65t143.5 63.5z" />
    <glyph glyph-name="d.aalt" horiz-adv-x="1318" 
d="M1161 1597v-1617h-20l-223 264q-35 -119 -133.5 -191.5t-221.5 -72.5q-139 0 -246.5 71.5t-166 201.5t-58.5 300t58.5 300t166 201.5t246.5 71.5q113 0 203 -58t133 -157v686h262zM793.5 107.5q70.5 64.5 105.5 171.5v548q-33 106 -103.5 171t-154.5 65
q-82 0 -143.5 -63.5t-95 -179t-33.5 -267.5t33.5 -267.5t95 -179t143.5 -63.5t152.5 64.5z" />
    <glyph glyph-name="dcaron.aalt" horiz-adv-x="1318" 
d="M1411 1597l-104 -423l-29 8l98 424zM899 1597h262v-1617h-20l-223 264q-35 -119 -133.5 -191.5t-221.5 -72.5q-139 0 -246.5 71.5t-166 201.5t-58.5 300t58.5 300t166 201.5t246.5 71.5q113 0 203 -58t133 -157v686zM793.5 107.5q70.5 64.5 105.5 171.5v548
q-33 106 -103.5 171t-154.5 65q-82 0 -143.5 -63.5t-95 -179t-33.5 -267.5t33.5 -267.5t95 -179t143.5 -63.5t152.5 64.5z" />
    <glyph glyph-name="dcroat.aalt" horiz-adv-x="1318" 
d="M1339 1329h-178v-1349h-20l-223 264q-35 -119 -133.5 -191.5t-221.5 -72.5q-139 0 -246.5 71.5t-166 201.5t-58.5 300t58.5 300t166 201.5t246.5 71.5q113 0 203 -58t133 -157v418h-367v33h367v235h262v-235h178v-33zM793.5 107.5q70.5 64.5 105.5 171.5v548
q-33 106 -103.5 171t-154.5 65q-82 0 -143.5 -63.5t-95 -179t-33.5 -267.5t33.5 -267.5t95 -179t143.5 -63.5t152.5 64.5z" />
    <glyph glyph-name="g.aalt" horiz-adv-x="1318" 
d="M1161 1126v-1101q0 -147 -74.5 -260t-212 -174.5t-317.5 -61.5q-104 0 -214 38t-183 99l16 21q63 -51 155.5 -83t178.5 -32q174 0 281.5 110.5t107.5 292.5v220q-45 -98 -136 -156.5t-200 -58.5q-139 0 -246.5 71.5t-166 201.5t-58.5 300t58.5 300t166 201.5t246.5 71.5
q125 0 222.5 -72.5t132.5 -193.5l223 266h20zM793.5 107.5q70.5 64.5 105.5 171.5v548q-33 106 -103.5 171t-154.5 65q-82 0 -143.5 -63.5t-95 -179t-33.5 -267.5t33.5 -267.5t95 -179t143.5 -63.5t152.5 64.5z" />
    <glyph glyph-name="gbreve.aalt" horiz-adv-x="1318" 
d="M856 1343.5q-86 -71.5 -186 -71.5q-98 0 -185.5 71.5t-128.5 188.5l21 10q47 -104 127 -168.5t166 -64.5t167 64.5t128 168.5l20 -10q-43 -117 -129 -188.5zM1161 1126v-1101q0 -147 -74.5 -260t-212 -174.5t-317.5 -61.5q-104 0 -214 38t-183 99l16 21q63 -51 155.5 -83
t178.5 -32q174 0 281.5 110.5t107.5 292.5v220q-45 -98 -136 -156.5t-200 -58.5q-139 0 -246.5 71.5t-166 201.5t-58.5 300t58.5 300t166 201.5t246.5 71.5q125 0 222.5 -72.5t132.5 -193.5l223 266h20zM793.5 107.5q70.5 64.5 105.5 171.5v548q-33 106 -103.5 171
t-154.5 65q-82 0 -143.5 -63.5t-95 -179t-33.5 -267.5t33.5 -267.5t95 -179t143.5 -63.5t152.5 64.5z" />
    <glyph glyph-name="uni0123.aalt" horiz-adv-x="1318" 
d="M764 1444q33 -35 33 -90q0 -57 -35 -92t-92 -35q-61 0 -97 47t-36 127q0 115 56 213t148 145l13 -26q-74 -45 -122 -129t-54 -177q33 51 102 52q51 0 84 -35zM1161 1126v-1101q0 -147 -74.5 -260t-212 -174.5t-317.5 -61.5q-104 0 -214 38t-183 99l16 21
q63 -51 155.5 -83t178.5 -32q174 0 281.5 110.5t107.5 292.5v220q-45 -98 -136 -156.5t-200 -58.5q-139 0 -246.5 71.5t-166 201.5t-58.5 300t58.5 300t166 201.5t246.5 71.5q125 0 222.5 -72.5t132.5 -193.5l223 266h20zM793.5 107.5q70.5 64.5 105.5 171.5v548
q-33 106 -103.5 171t-154.5 65q-82 0 -143.5 -63.5t-95 -179t-33.5 -267.5t33.5 -267.5t95 -179t143.5 -63.5t152.5 64.5z" />
    <glyph glyph-name="gdotaccent.aalt" horiz-adv-x="1318" 
d="M782 1342.5q-41 -39.5 -110 -39.5q-70 0 -111 39.5t-41 105.5t41 104.5t111 38.5t110.5 -39t40.5 -104q0 -66 -41 -105.5zM1161 1126v-1101q0 -147 -74.5 -260t-212 -174.5t-317.5 -61.5q-104 0 -214 38t-183 99l16 21q63 -51 155.5 -83t178.5 -32q174 0 281.5 110.5
t107.5 292.5v220q-45 -98 -136 -156.5t-200 -58.5q-139 0 -246.5 71.5t-166 201.5t-58.5 300t58.5 300t166 201.5t246.5 71.5q125 0 222.5 -72.5t132.5 -193.5l223 266h20zM793.5 107.5q70.5 64.5 105.5 171.5v548q-33 106 -103.5 171t-154.5 65q-82 0 -143.5 -63.5
t-95 -179t-33.5 -267.5t33.5 -267.5t95 -179t143.5 -63.5t152.5 64.5z" />
    <glyph glyph-name="i.aalt" horiz-adv-x="577" 
d="M399 1344.5q-41 -39.5 -110 -39.5q-70 0 -111 39.5t-41 105.5t41 104.5t111 38.5t110.5 -38.5t40.5 -104.5t-41 -105.5zM158 0v1106h262v-1106h-262z" />
    <glyph glyph-name="glyph410" horiz-adv-x="579" 
d="M76 1247l-17 27l447 270l18 -26zM327.5 -286.5q-94.5 -112.5 -272.5 -184.5l-10 20q115 96 115 388v1169h262v-1088q0 -192 -94.5 -304.5z" />
    <glyph glyph-name="m.aalt" horiz-adv-x="1988" 
d="M1752 1036q89 -90 89 -237v-799h-262v868q0 86 -44 139.5t-116 53.5q-82 0 -160.5 -61.5t-130.5 -165.5q2 -10 2 -35v-799h-262v868q0 86 -44 139.5t-115 53.5q-84 0 -163 -61.5t-126 -163.5v-836h-262v1126h20l223 -258q51 117 162 187.5t242 70.5q121 0 205 -63.5
t110 -171.5q57 106 164 170.5t232 64.5q147 0 236 -90z" />
    <glyph glyph-name="n.aalt" horiz-adv-x="1298" 
d="M1059 1033q92 -93 92 -245v-788h-262v858q0 90 -47 146.5t-123 56.5q-88 0 -170 -64.5t-129 -171.5v-825h-262v1126h20l223 -268q53 121 166 194.5t248 73.5q152 0 244 -93z" />
    <glyph glyph-name="nacute.aalt" horiz-adv-x="1298" 
d="M428 1243l-14 27l475 278l16 -28zM1059 1033q92 -93 92 -245v-788h-262v858q0 90 -47 146.5t-123 56.5q-88 0 -170 -64.5t-129 -171.5v-825h-262v1126h20l223 -268q53 121 166 194.5t248 73.5q152 0 244 -93z" />
    <glyph glyph-name="ncaron.aalt" horiz-adv-x="1298" 
d="M950 1573l15 -17l-314 -303l-311 303l14 17l297 -264zM1059 1033q92 -93 92 -245v-788h-262v858q0 90 -47 146.5t-123 56.5q-88 0 -170 -64.5t-129 -171.5v-825h-262v1126h20l223 -268q53 121 166 194.5t248 73.5q152 0 244 -93z" />
    <glyph glyph-name="uni0146.aalt" horiz-adv-x="1298" 
d="M748.5 -148q35.5 -42 35.5 -116q0 -88 -56 -162t-146 -109l-15 23q72 31 120 92.5t56 126.5q-37 -37 -102 -37q-51 0 -84 31t-33 80q0 51 35 82t92 31q62 0 97.5 -42zM1059 1033q92 -93 92 -245v-788h-262v858q0 90 -47 146.5t-123 56.5q-88 0 -170 -64.5t-129 -171.5
v-825h-262v1126h20l223 -268q53 121 166 194.5t248 73.5q152 0 244 -93z" />
    <glyph glyph-name="eng.aalt" horiz-adv-x="1298" 
d="M1059 1033q92 -93 92 -245v-770q0 -193 -94 -305t-273 -184l-12 20q117 96 117 400v909q0 90 -47 146.5t-123 56.5q-88 0 -170 -64.5t-129 -171.5v-825h-262v1126h20l223 -268q53 121 166 194.5t248 73.5q152 0 244 -93z" />
    <glyph glyph-name="ntilde.aalt" horiz-adv-x="1298" 
d="M382 1432.5q-42 -37.5 -79 -111.5l-20 10q70 172 215 172q49 0 88 -22.5t84 -63.5q41 -37 72.5 -56.5t70.5 -19.5q63 0 106.5 38t77.5 110l23 -10q-70 -172 -215 -172q-49 0 -87 22.5t-87 65.5q-41 37 -73 56t-71 19q-63 0 -105 -37.5zM1059 1033q92 -93 92 -245v-788
h-262v858q0 90 -47 146.5t-123 56.5q-88 0 -170 -64.5t-129 -171.5v-825h-262v1126h20l223 -268q53 121 166 194.5t248 73.5q152 0 244 -93z" />
    <glyph glyph-name="p.aalt" horiz-adv-x="1318" 
d="M1002.5 1054.5q107.5 -71.5 166 -201.5t58.5 -300t-58.5 -300t-166 -201.5t-246.5 -71.5q-111 0 -201 58t-135 159v-648h-262v1577h20l223 -266q37 121 134.5 193.5t220.5 72.5q139 0 246.5 -71.5zM821.5 106.5q61.5 63.5 96 179t34.5 267.5t-34.5 267.5t-96 179
t-143.5 63.5t-152.5 -64.5t-105.5 -171.5v-548q35 -106 105.5 -171t152.5 -65t143.5 63.5z" />
    <glyph glyph-name="q.aalt" horiz-adv-x="1318" 
d="M1161 1126v-1577h-262v646q-45 -98 -136 -156.5t-200 -58.5q-139 0 -246.5 71.5t-166 201.5t-58.5 300t58.5 300t166 201.5t246.5 71.5q125 0 222.5 -72.5t132.5 -193.5l223 266h20zM793.5 107.5q70.5 64.5 105.5 171.5v548q-33 106 -103.5 171t-154.5 65
q-82 0 -143.5 -63.5t-95 -179t-33.5 -267.5t33.5 -267.5t95 -179t143.5 -63.5t152.5 64.5z" />
    <glyph glyph-name="r.aalt" horiz-adv-x="843" 
d="M558.5 1023q109.5 83 246.5 83v-33q-131 0 -237.5 -84t-147.5 -221v-768h-262v1126h20l223 -323q48 137 157.5 220z" />
    <glyph glyph-name="racute.aalt" horiz-adv-x="843" 
d="M272 1243l-14 27l475 278l17 -28zM558.5 1023q109.5 83 246.5 83v-33q-131 0 -237.5 -84t-147.5 -221v-768h-262v1126h20l223 -323q48 137 157.5 220z" />
    <glyph glyph-name="rcaron.aalt" horiz-adv-x="843" 
d="M797 1573l14 -17l-313 -303l-312 303l15 17l297 -264zM558.5 1023q109.5 83 246.5 83v-33q-131 0 -237.5 -84t-147.5 -221v-768h-262v1126h20l223 -323q48 137 157.5 220z" />
    <glyph glyph-name="uni0157.aalt" horiz-adv-x="843" 
d="M384 -148q36 -42 36 -116q0 -88 -56.5 -162t-146.5 -109l-14 23q72 31 120 92.5t56 126.5q-37 -37 -103 -37q-51 0 -83.5 31t-32.5 80q0 51 34.5 82t92.5 31q61 0 97 -42zM558.5 1023q109.5 83 246.5 83v-33q-131 0 -237.5 -84t-147.5 -221v-768h-262v1126h20l223 -323
q48 137 157.5 220z" />
    <glyph glyph-name="u.aalt" horiz-adv-x="1277" 
d="M1120 1106v-1126h-20l-223 256q-53 -115 -163 -185.5t-241 -70.5q-147 0 -236.5 90t-89.5 237v799h263v-868q0 -88 43 -140.5t114 -52.5q86 0 165 61.5t126 163.5v836h262z" />
    <glyph glyph-name="uacute.aalt" horiz-adv-x="1277" 
d="M410 1243l-15 27l475 278l17 -28zM1120 1106v-1126h-20l-223 256q-53 -115 -163 -185.5t-241 -70.5q-147 0 -236.5 90t-89.5 237v799h263v-868q0 -88 43 -140.5t114 -52.5q86 0 165 61.5t126 163.5v836h262z" />
    <glyph glyph-name="ucircumflex.aalt" horiz-adv-x="1277" 
d="M336 1253l-14 17l313 303l313 -303l-14 -17l-299 265zM1120 1106v-1126h-20l-223 256q-53 -115 -163 -185.5t-241 -70.5q-147 0 -236.5 90t-89.5 237v799h263v-868q0 -88 43 -140.5t114 -52.5q86 0 165 61.5t126 163.5v836h262z" />
    <glyph glyph-name="udieresis.aalt" horiz-adv-x="1277" 
d="M519 1377.5q-34 -31.5 -91 -31.5q-55 0 -89 31.5t-34 84.5q0 51 34 83t89 32q57 0 91 -32t34 -83q0 -53 -34 -84.5zM928 1378.5q-35 -32.5 -90 -32.5t-89 31.5t-34 84.5q0 51 33.5 83t89.5 32q55 0 90 -32t35 -83t-35 -83.5zM1120 1106v-1126h-20l-223 256
q-53 -115 -163 -185.5t-241 -70.5q-147 0 -236.5 90t-89.5 237v799h263v-868q0 -88 43 -140.5t114 -52.5q86 0 165 61.5t126 163.5v836h262z" />
    <glyph glyph-name="ugrave.aalt" horiz-adv-x="1277" 
d="M858 1243l-475 277l16 28l473 -278zM1120 1106v-1126h-20l-223 256q-53 -115 -163 -185.5t-241 -70.5q-147 0 -236.5 90t-89.5 237v799h263v-868q0 -88 43 -140.5t114 -52.5q86 0 165 61.5t126 163.5v836h262z" />
    <glyph glyph-name="uhungarumlaut.aalt" horiz-adv-x="1277" 
d="M725 1630l23 -22l-388 -389l-20 20zM1100 1630l24 -22l-389 -389l-20 20zM1120 1106v-1126h-20l-223 256q-53 -115 -163 -185.5t-241 -70.5q-147 0 -236.5 90t-89.5 237v799h263v-868q0 -88 43 -140.5t114 -52.5q86 0 165 61.5t126 163.5v836h262z" />
    <glyph glyph-name="umacron.aalt" horiz-adv-x="1277" 
d="M326 1372v33h616v-33h-616zM1120 1106v-1126h-20l-223 256q-53 -115 -163 -185.5t-241 -70.5q-147 0 -236.5 90t-89.5 237v799h263v-868q0 -88 43 -140.5t114 -52.5q86 0 165 61.5t126 163.5v836h262z" />
    <glyph glyph-name="uogonek.aalt" horiz-adv-x="1277" 
d="M1135 -424q-39 -20 -92.5 -33.5t-104.5 -13.5q-96 0 -154.5 46t-58.5 124q0 86 97.5 164t267.5 127l-213 246q-53 -115 -163 -185.5t-241 -70.5q-147 0 -236.5 90t-89.5 237v799h263v-868q0 -88 43 -140.5t114 -52.5q86 0 165 61.5t126 163.5v836h262v-1126h-2
q-96 -51 -154.5 -123t-58.5 -140q0 -61 36 -98t95 -37q57 0 92 15z" />
    <glyph glyph-name="uring.aalt" horiz-adv-x="1277" 
d="M785.5 1293.5q-56.5 -54.5 -150.5 -54.5t-151.5 54.5t-57.5 144.5q0 88 57.5 142t151.5 54t150.5 -54t56.5 -142q0 -90 -56.5 -144.5zM513 1317q46 -45 122 -45t121 45t45 121q0 74 -45 119t-121 45t-122 -45.5t-46 -118.5q0 -76 46 -121zM1120 1106v-1126h-20l-223 256
q-53 -115 -163 -185.5t-241 -70.5q-147 0 -236.5 90t-89.5 237v799h263v-868q0 -88 43 -140.5t114 -52.5q86 0 165 61.5t126 163.5v836h262z" />
    <glyph glyph-name="w.aalt" horiz-adv-x="1648" 
d="M1612 1106l-496 -1126h-29l-245 569l-271 -569h-26l-506 1126h285l358 -821l141 307l-221 514h256l139 -322l142 322h41l-162 -369l196 -452l357 821h41z" />
    <glyph glyph-name="wacute.aalt" horiz-adv-x="1648" 
d="M670 1243l-15 27l475 278l17 -28zM1612 1106l-496 -1126h-29l-245 569l-271 -569h-26l-506 1126h285l358 -821l141 307l-221 514h256l139 -322l142 322h41l-162 -369l196 -452l357 821h41z" />
    <glyph glyph-name="wcircumflex.aalt" horiz-adv-x="1648" 
d="M598 1253l-14 17l313 303l313 -303l-14 -17l-299 265zM1612 1106l-496 -1126h-29l-245 569l-271 -569h-26l-506 1126h285l358 -821l141 307l-221 514h256l139 -322l142 322h41l-162 -369l196 -452l357 821h41z" />
    <glyph glyph-name="wdieresis.aalt" horiz-adv-x="1648" 
d="M781.5 1377.5q-33.5 -31.5 -91.5 -31.5q-55 0 -89 31.5t-34 84.5q0 51 34 83t89 32q57 0 91 -32t34 -83q0 -53 -33.5 -84.5zM1190 1378.5q-35 -32.5 -90 -32.5t-89 31.5t-34 84.5q0 51 33.5 83t89.5 32q55 0 90 -32t35 -83t-35 -83.5zM1612 1106l-496 -1126h-29l-245 569
l-271 -569h-26l-506 1126h285l358 -821l141 307l-221 514h256l139 -322l142 322h41l-162 -369l196 -452l357 821h41z" />
    <glyph glyph-name="wgrave.aalt" horiz-adv-x="1648" 
d="M1120 1243l-475 277l17 28l473 -278zM1612 1106l-496 -1126h-29l-245 569l-271 -569h-26l-506 1126h285l358 -821l141 307l-221 514h256l139 -322l142 322h41l-162 -369l196 -452l357 821h41z" />
    <glyph glyph-name="A_A.dlig" horiz-adv-x="2619" 
d="M707 1556l690 -1556h-279l-180 410h-696l-170 -410h-43l649 1556h29zM2316 0l-180 410h-737l479 1146h29l690 -1556h-281zM924 442l-342 785l-326 -785h668zM2122 442l-342 783l-324 -783h666z" />
    <glyph glyph-name="A_Aacute.dlig" horiz-adv-x="2619" 
d="M1620 1632l-10 29l592 217l12 -33zM707 1556l690 -1556h-279l-180 410h-696l-170 -410h-43l649 1556h29zM2316 0l-180 410h-737l479 1146h29l690 -1556h-281zM924 442l-342 785l-326 -785h668zM2122 442l-342 783l-324 -783h666z" />
    <glyph glyph-name="A_Adieresis.dlig" horiz-adv-x="2619" 
d="M1776.5 1701q-33.5 -32 -90.5 -32q-55 0 -89 32t-34 83q0 53 33.5 85t89.5 32q57 0 90.5 -32t33.5 -85q0 -51 -33.5 -83zM2185 1701q-35 -32 -90 -32t-89 32t-34 83q0 53 34 85t89 32t90 -33t35 -84t-35 -83zM707 1556l690 -1556h-279l-180 410h-696l-170 -410h-43
l649 1556h29zM2316 0l-180 410h-737l479 1146h29l690 -1556h-281zM924 442l-342 785l-326 -785h668zM2122 442l-342 783l-324 -783h666z" />
    <glyph glyph-name="A_Adieresis_Adieresis.dlig" horiz-adv-x="3817" 
d="M1597.5 1701q-34.5 32 -34.5 83t34.5 84t90.5 33q55 0 88.5 -32t33.5 -85q0 -51 -33.5 -83t-88.5 -32q-56 0 -90.5 32zM2007 1700q-33 31 -33 84t33 85t90 32q55 0 89 -32t34 -85q0 -51 -34 -83t-89 -32q-57 0 -90 31zM2796.5 1701q-33.5 32 -33.5 83q0 53 33.5 85
t89.5 32q55 0 89 -32t34 -85q0 -51 -34 -83t-89 -32q-56 0 -89.5 32zM3206 1701q-34 32 -34 83q0 53 34 85t89 32t90 -33t35 -84t-34.5 -83t-90.5 -32q-55 0 -89 32zM707 1556l690 -1556h-279l-180 410h-696l-170 -410h-43l649 1556h29zM1907 1556l690 -1556h-281l-180 410
h-737l479 1146h29zM3514 0l-178 410h-739l479 1146h29l690 -1556h-281zM924 442l-342 785l-326 -785h668zM3322 442l-342 785l-326 -785h668zM2122 442l-342 783l-324 -783h666z" />
    <glyph glyph-name="A_Agrave.dlig" horiz-adv-x="2619" 
d="M2163 1632l-594 213l12 33l592 -217zM707 1556l690 -1556h-279l-180 410h-696l-170 -410h-43l649 1556h29zM2316 0l-180 410h-737l479 1146h29l690 -1556h-281zM924 442l-342 785l-326 -785h668zM2122 442l-342 783l-324 -783h666z" />
    <glyph glyph-name="A_Amacron.dlig" horiz-adv-x="2619" 
d="M1583 1669v33h617v-33h-617zM707 1556l690 -1556h-279l-180 410h-696l-170 -410h-43l649 1556h29zM2316 0l-180 410h-737l479 1146h29l690 -1556h-281zM924 442l-342 785l-326 -785h668zM2122 442l-342 783l-324 -783h666z" />
    <glyph glyph-name="A_Aogonek.dlig" horiz-adv-x="2619" 
d="M707 1556l690 -1556h-279l-180 410h-696l-170 -410h-43l649 1556h29zM2613 -424q-39 -20 -93 -33.5t-105 -13.5q-96 0 -154.5 47t-58.5 123q0 86 88 167t243 134h-217l-180 410h-737l479 1146h29l690 -1556q-96 -53 -154.5 -131t-58.5 -152q0 -61 35 -98t94 -37
q57 0 92 15zM924 442l-342 785l-326 -785h668zM2122 442l-342 783l-324 -783h666z" />
    <glyph glyph-name="A_Aring.dlig" horiz-adv-x="2619" 
d="M2043 1678.5q-56 -54.5 -151 -54.5q-94 0 -151.5 54.5t-57.5 144.5q0 88 57.5 142t151.5 54t150.5 -54t56.5 -142q0 -90 -56 -144.5zM1770.5 1702q46.5 -45 121.5 -45q76 0 121 45t45 121q0 74 -45 119t-121 45t-122 -45.5t-46 -118.5q0 -76 46.5 -121zM707 1556
l690 -1556h-279l-180 410h-696l-170 -410h-43l649 1556h29zM2316 0l-180 410h-737l479 1146h29l690 -1556h-281zM924 442l-342 785l-326 -785h668zM2122 442l-342 783l-324 -783h666z" />
    <glyph glyph-name="A_Atilde.dlig" horiz-adv-x="2619" 
d="M1622 1811q-43 -38 -80 -111l-20 10q72 172 215 172q49 0 87 -22q38 -23 85 -66q41 -37 72 -56q32 -19 71 -20q63 0 107 38q43 38 77 112l23 -13q-72 -172 -215 -172q-49 0 -87 23t-87 66q-43 39 -74 58t-70 19q-61 0 -104 -38zM707 1556l690 -1556h-279l-180 410h-696
l-170 -410h-43l649 1556h29zM2316 0l-180 410h-737l479 1146h29l690 -1556h-281zM924 442l-342 785l-326 -785h668zM2122 442l-342 783l-324 -783h666z" />
    <glyph glyph-name="A_J.dlig" horiz-adv-x="2076" 
d="M1219 410h-975l-170 -410h-43l649 1556h29zM1890 1536v-1206q0 -158 -102 -254t-272 -96q-90 0 -167 27.5t-124 74.5l16 20q33 -33 81 -51t97 -18q90 0 144.5 68.5t54.5 179.5v1255h272zM258 442h666l-342 783z" />
    <glyph glyph-name="Aacute_A.dlig" horiz-adv-x="2619" 
d="M422 1632l-10 29l592 217l12 -33zM707 1556l690 -1556h-279l-180 410h-696l-170 -410h-43l649 1556h29zM2316 0l-180 410h-737l479 1146h29l690 -1556h-281zM924 442l-342 785l-326 -785h668zM2122 442l-342 783l-324 -783h666z" />
    <glyph glyph-name="Aacute_Aacute.dlig" horiz-adv-x="2619" 
d="M422 1632l-10 29l592 217l12 -33zM707 1556l690 -1556h-279l-180 410h-696l-170 -410h-43l649 1556h29zM2316 0l-180 410h-737l479 1146h29l690 -1556h-281zM924 442l-342 785l-326 -785h668zM2122 442l-342 783l-324 -783h666zM1620 1632l-10 29l592 217l12 -33z" />
    <glyph glyph-name="Aacute_J.dlig" horiz-adv-x="2076" 
d="M424 1632l-10 29l592 217l12 -33zM1219 410h-975l-170 -410h-43l649 1556h29zM1890 1536v-1206q0 -158 -102 -254t-272 -96q-90 0 -167 27q-77 28 -124 75l16 20q33 -33 81 -51t97 -18q90 0 145 68q54 69 54 180v1255h272zM258 442h666l-342 783z" />
    <glyph glyph-name="Abreve_J.dlig" horiz-adv-x="2076" 
d="M903 1736q-98 -67 -211 -67t-210 67t-144 175l20 10q53 -96 146 -156q92 -59 188 -59q98 0 190 59q91 59 144 156l23 -10q-48 -108 -146 -175zM1219 410h-975l-170 -410h-43l649 1556h29zM1890 1536v-1206q0 -158 -102 -254t-272 -96q-90 0 -167 27q-77 28 -124 75l16 20
q33 -33 81 -51t97 -18q90 0 145 68q54 69 54 180v1255h272zM258 442h666l-342 783z" />
    <glyph glyph-name="Adieresis_A.dlig" horiz-adv-x="2619" 
d="M398.5 1701q-33.5 32 -33.5 83q0 53 33.5 85t90.5 32q55 0 89 -32t34 -85q0 -51 -33.5 -83t-89.5 -32q-57 0 -90.5 32zM808 1701q-34 32 -34 83q0 53 34 85t89 32t90 -33t35 -84t-35 -83t-90 -32t-89 32zM707 1556l690 -1556h-279l-180 410h-696l-170 -410h-43l649 1556
h29zM2316 0l-180 410h-737l479 1146h29l690 -1556h-281zM924 442l-342 785l-326 -785h668zM2122 442l-342 783l-324 -783h666z" />
    <glyph glyph-name="Adieresis_Adieresis.dlig" horiz-adv-x="2619" 
d="M579 1701q-34 -32 -92 -32q-55 0 -89 32t-33 83q0 53 33 85q34 32 89 32q57 0 92 -32q34 -32 33 -85q1 -51 -33 -83zM987 1701q-35 -32 -90 -32t-89 32t-34 83q0 53 34 85t89 32t90 -33t35 -84t-35 -83zM707 1556l690 -1556h-279l-180 410h-696l-170 -410h-43l649 1556
h29zM2316 0l-180 410h-737l479 1146h29l690 -1556h-281zM924 442l-342 785l-326 -785h668zM2122 442l-342 783l-324 -783h666zM1777 1701q-34 -32 -91 -32q-55 0 -90 32q-34 32 -33 83q0 53 33 85q34 32 90 32q57 0 91 -32t33 -85q1 -51 -33 -83zM2185 1701q-35 -32 -90 -32
t-89 32t-34 83q0 53 34 85t89 32t90 -33t35 -84t-35 -83z" />
    <glyph glyph-name="Adieresis_Adieresis_A.dlig" horiz-adv-x="3817" 
d="M398.5 1701q-33.5 32 -33.5 83q0 53 33.5 85t90.5 32q55 0 89 -32t34 -85q0 -51 -33.5 -83t-89.5 -32q-57 0 -90.5 32zM808 1701q-34 32 -34 83q0 53 34 85t89 32t90 -33t35 -84t-35 -83t-90 -32t-89 32zM1597.5 1701q-34.5 32 -34.5 83t34.5 84t90.5 33q55 0 88.5 -32
t33.5 -85q0 -51 -33.5 -83t-88.5 -32q-56 0 -90.5 32zM2007 1700q-33 31 -33 84t33 85t90 32q55 0 89 -32t34 -85q0 -51 -34 -83t-89 -32q-57 0 -90 31zM707 1556l690 -1556h-279l-180 410h-696l-170 -410h-43l649 1556h29zM1907 1556l690 -1556h-281l-180 410h-737
l479 1146h29zM3514 0l-178 410h-739l479 1146h29l690 -1556h-281zM924 442l-342 785l-326 -785h668zM3322 442l-342 785l-326 -785h668zM2122 442l-342 783l-324 -783h666z" />
    <glyph glyph-name="Adieresis_J.dlig" horiz-adv-x="2076" 
d="M579 1701q-34 -32 -92 -32q-55 0 -89 32t-33 83q0 53 33 85q34 32 89 32q57 0 92 -32q34 -32 33 -85q1 -51 -33 -83zM987 1701q-35 -32 -90 -32t-89 32t-34 83q0 53 34 85t89 32t90 -33t35 -84t-35 -83zM1219 410h-975l-170 -410h-43l649 1556h29zM1890 1536v-1206
q0 -158 -102 -254t-272 -96q-90 0 -167 27q-77 28 -124 75l16 20q33 -33 81 -51t97 -18q90 0 145 68q54 69 54 180v1255h272zM258 442h666l-342 783z" />
    <glyph glyph-name="Agrave_Agrave.dlig" horiz-adv-x="2619" 
d="M965 1632l-594 213l12 33l592 -217zM707 1556l690 -1556h-279l-180 410h-696l-170 -410h-43l649 1556h29zM2316 0l-180 410h-737l479 1146h29l690 -1556h-281zM924 442l-342 785l-326 -785h668zM2122 442l-342 783l-324 -783h666zM2163 1632l-594 213l12 33l592 -217z
" />
    <glyph glyph-name="Amacron_A.dlig" horiz-adv-x="2619" 
d="M1001 1669h-616v33h616v-33zM707 1556l690 -1556h-279l-180 410h-696l-170 -410h-43l649 1556h29zM2316 0l-180 410h-737l479 1146h29l690 -1556h-281zM924 442l-342 785l-326 -785h668zM2122 442l-342 783l-324 -783h666z" />
    <glyph glyph-name="Amacron_J.dlig" horiz-adv-x="2076" 
d="M385 1669v33h616v-33h-616zM1219 410h-975l-170 -410h-43l649 1556h29zM1890 1536v-1206q0 -158 -102 -254t-272 -96q-90 0 -167 27q-77 28 -124 75l16 20q33 -33 81 -51t97 -18q90 0 145 68q54 69 54 180v1255h272zM258 442h666l-342 783z" />
    <glyph glyph-name="Aring_A.dlig" horiz-adv-x="2619" 
d="M541.5 1676.5q-56.5 54.5 -56.5 144.5t56.5 144t150.5 54t151.5 -54t57.5 -144t-57.5 -144.5t-151.5 -54.5t-150.5 54.5zM571 1941.5q-45 -45.5 -45 -120.5q0 -74 45 -120t121 -46t122 46t46 120q0 76 -46 121t-122 45t-121 -45.5zM707 1556l690 -1556h-279l-180 410
h-696l-170 -410h-43l649 1556h29zM2316 0l-180 410h-737l479 1146h29l690 -1556h-281zM924 442l-342 785l-326 -785h668zM2122 442l-342 783l-324 -783h666z" />
    <glyph glyph-name="Aring_Aring.dlig" horiz-adv-x="2619" 
d="M845 1678q-56 -54 -151 -54q-94 0 -151 54t-58 145q0 88 58 142q57 54 151 54t151 -54q56 -54 56 -142q0 -91 -56 -145zM572 1702q46 -45 122 -45t121 45t45 121q0 74 -45 119t-121 45t-122 -45t-46 -119q0 -76 46 -121zM707 1556l690 -1556h-279l-180 410h-696
l-170 -410h-43l649 1556h29zM2316 0l-180 410h-737l479 1146h29l690 -1556h-281zM924 442l-342 785l-326 -785h668zM2122 442l-342 783l-324 -783h666zM2043 1678q-56 -54 -151 -54q-94 0 -151 54t-58 145q0 88 58 142q57 54 151 54t151 -54q56 -54 56 -142q0 -91 -56 -145z
M1770 1702q46 -45 122 -45t121 45t45 121q0 74 -45 119t-121 45t-122 -45t-46 -119q0 -76 46 -121z" />
    <glyph glyph-name="Aring_J.dlig" horiz-adv-x="2076" 
d="M847 1678q-56 -54 -151 -54q-94 0 -151 54t-58 145q0 88 58 142q57 54 151 54t151 -54q56 -54 56 -142q0 -91 -56 -145zM574 1702q46 -45 122 -45t121 45t45 121q0 74 -45 119t-121 45t-122 -45t-46 -119q0 -76 46 -121zM1219 410h-975l-170 -410h-43l649 1556h29z
M1890 1536v-1206q0 -158 -102 -254t-272 -96q-90 0 -167 27q-77 28 -124 75l16 20q33 -33 81 -51t97 -18q90 0 145 68q54 69 54 180v1255h272zM258 442h666l-342 783z" />
    <glyph glyph-name="H_E.dlig" horiz-adv-x="1992" 
d="M1919 33v-33h-840v797h-612v-797h-270v1536h270v-707h612v707h826v-33h-555v-674h460v-32h-460v-764h569z" />
    <glyph glyph-name="H_Eacute.dlig" horiz-adv-x="1992" 
d="M1229 1632l-10 29l591 217l13 -33zM1919 33v-33h-840v797h-612v-797h-270v1536h270v-707h612v707h826v-33h-555v-674h460v-32h-460v-764h569z" />
    <glyph glyph-name="H_Ecircumflex.dlig" horiz-adv-x="1992" 
d="M1151 1628l-14 17l364 282l365 -282l-15 -17l-350 244zM1919 33v-33h-840v797h-612v-797h-270v1536h270v-707h612v707h826v-33h-555v-674h460v-32h-460v-764h569z" />
    <glyph glyph-name="H_Edieresis.dlig" horiz-adv-x="1992" 
d="M1385 1701q-34 -32 -91 -32q-55 0 -89 32t-34 83q0 53 34 85t89 32q57 0 91 -32t34 -85q0 -51 -34 -83zM1794 1701q-35 -32 -90 -32t-89 32t-34 83q0 53 34 85t89 32t90 -33t35 -84t-35 -83zM1919 33v-33h-840v797h-612v-797h-270v1536h270v-707h612v707h826v-33h-555
v-674h460v-32h-460v-764h569z" />
    <glyph glyph-name="H_Edotaccent.dlig" horiz-adv-x="1992" 
d="M1614 1696q-43 -41 -115 -41q-70 0 -113 41t-43 108q0 66 43 107t113 41t114 -41t44 -107q0 -67 -43 -108zM1919 33v-33h-840v797h-612v-797h-270v1536h270v-707h612v707h826v-33h-555v-674h460v-32h-460v-764h569z" />
    <glyph glyph-name="H_Egrave.dlig" horiz-adv-x="1992" 
d="M1772 1632l-594 213l12 33l592 -217zM1919 33v-33h-840v797h-612v-797h-270v1536h270v-707h612v707h826v-33h-555v-674h460v-32h-460v-764h569z" />
    <glyph glyph-name="H_Emacron.dlig" horiz-adv-x="1992" 
d="M1192 1669v33h616v-33h-616zM1919 33v-33h-840v797h-612v-797h-270v1536h270v-707h612v707h826v-33h-555v-674h460v-32h-460v-764h569z" />
    <glyph glyph-name="H_Eogonek.dlig" horiz-adv-x="1992" 
d="M1935 -424q-39 -20 -93 -33.5t-103 -13.5q-96 0 -154.5 46t-58.5 124q0 86 88 167t241 134h-776v797h-612v-797h-270v1536h270v-707h612v707h826v-33h-555v-674h460v-32h-460v-764h569v-33q-96 -53 -154.5 -131t-58.5 -152q0 -61 35 -98t94 -37q57 0 92 15z" />
    <glyph glyph-name="K_A.dlig" horiz-adv-x="2633" 
d="M2333 0l-181 410h-737l479 1146h29l690 -1556h-280zM197 1536h270v-1536h-270v1536zM721 963l702 -963h-315l-602 809l764 727h53zM2138 442l-342 783l-323 -783h665z" />
    <glyph glyph-name="K_A_A.dlig" horiz-adv-x="3831" 
d="M1923 1556l690 -1556h-280l-181 410h-737l479 1146h29zM3533 0l-180 410h-740l479 1146h29l690 -1556h-278zM197 1536h270v-1536h-270v1536zM721 963l702 -963h-315l-602 809l764 727h53zM3338 442l-342 785l-327 -785h669zM2138 442l-342 783l-323 -783h665z" />
    <glyph glyph-name="K_Aacute.dlig" horiz-adv-x="2633" 
d="M1638 1632l-10 29l592 217l12 -33zM2333 0l-181 410h-737l479 1146h29l690 -1556h-280zM197 1536h270v-1536h-270v1536zM721 963l702 -963h-315l-602 809l764 727h53zM2138 442l-342 783l-323 -783h665z" />
    <glyph glyph-name="K_Abreve.dlig" horiz-adv-x="2633" 
d="M2118 1736q-98 -67 -211 -67t-210 67t-145 175l21 10q53 -96 145 -156q92 -59 189 -59q98 0 189 59t145 156l22 -10q-47 -108 -145 -175zM2333 0l-181 410h-737l479 1146h29l690 -1556h-280zM197 1536h270v-1536h-270v1536zM721 963l702 -963h-315l-602 809l764 727h53z
M2138 442l-342 783l-323 -783h665z" />
    <glyph glyph-name="K_Acircumflex.dlig" horiz-adv-x="2633" 
d="M1559 1628l-15 17l365 282l364 -282l-14 -17l-350 244zM2333 0l-181 410h-737l479 1146h29l690 -1556h-280zM197 1536h270v-1536h-270v1536zM721 963l702 -963h-315l-602 809l764 727h53zM2138 442l-342 783l-323 -783h665z" />
    <glyph glyph-name="K_Adieresis.dlig" horiz-adv-x="2633" 
d="M1793 1701q-34 -32 -91 -32q-55 0 -89 32t-34 83q0 53 34 85t89 32q57 0 91 -32t34 -85q0 -51 -34 -83zM2202 1701q-35 -32 -91 -32q-55 0 -89 32t-33 83q0 53 33 85q34 32 89 32t91 -33q35 -33 34 -84q1 -51 -34 -83zM2333 0l-181 410h-737l479 1146h29l690 -1556h-280z
M197 1536h270v-1536h-270v1536zM721 963l702 -963h-315l-602 809l764 727h53zM2138 442l-342 783l-323 -783h665z" />
    <glyph glyph-name="K_Agrave.dlig" horiz-adv-x="2633" 
d="M2181 1632l-594 213l12 33l592 -217zM2333 0l-181 410h-737l479 1146h29l690 -1556h-280zM197 1536h270v-1536h-270v1536zM721 963l702 -963h-315l-602 809l764 727h53zM2138 442l-342 783l-323 -783h665z" />
    <glyph glyph-name="K_Amacron.dlig" horiz-adv-x="2633" 
d="M1599 1669v33h617v-33h-617zM2333 0l-181 410h-737l479 1146h29l690 -1556h-280zM197 1536h270v-1536h-270v1536zM721 963l702 -963h-315l-602 809l764 727h53zM2138 442l-342 783l-323 -783h665z" />
    <glyph glyph-name="K_Aogonek.dlig" horiz-adv-x="2633" 
d="M2630 -424q-39 -20 -93.5 -33.5t-105.5 -13.5q-96 0 -154.5 47t-58.5 123q0 86 88 167t244 134h-217l-181 410h-737l479 1146h29l690 -1556q-96 -53 -154.5 -131t-58.5 -152q0 -61 35 -98t94 -37q57 0 92 15zM197 1536h270v-1536h-270v1536zM721 963l702 -963h-315
l-602 809l764 727h53zM2138 442l-342 783l-323 -783h665z" />
    <glyph glyph-name="K_Aring.dlig" horiz-adv-x="2633" 
d="M2061 1678q-56 -54 -150 -54t-152 54q-57 54 -57 145q0 88 57 142t152 54q94 0 150 -54t57 -142q-1 -91 -57 -145zM1789 1702q46 -45 122 -45t121 45t45 121q0 74 -45 119t-121 45t-122 -45t-46 -119q0 -76 46 -121zM2333 0l-181 410h-737l479 1146h29l690 -1556h-280z
M197 1536h270v-1536h-270v1536zM721 963l702 -963h-315l-602 809l764 727h53zM2138 442l-342 783l-323 -783h665z" />
    <glyph glyph-name="uni0136_Amacron.dlig" horiz-adv-x="2633" 
d="M857 -148q36 -42 36 -116q0 -88 -56 -162t-147 -109l-14 23q72 31 120 92t56 127q-37 -37 -102 -37q-51 0 -84 31t-33 80q0 51 35 82t92 31q61 0 97 -42zM2333 0l-181 410h-737l479 1146h29l690 -1556h-280zM197 1536h270v-1536h-270v1536zM721 963l702 -963h-315
l-602 809l764 727h53zM2138 442l-342 783l-323 -783h665zM1599 1669v33h617v-33h-617z" />
    <glyph glyph-name="L_A.dlig" horiz-adv-x="2086" 
d="M1788 0l-180 410h-740l480 1146h28l692 -1556h-280zM467 33h577v-33h-847v1536h270v-1503zM1593 442l-342 785l-325 -785h667z" />
    <glyph glyph-name="L_A_A.dlig" horiz-adv-x="3287" 
d="M1376 1556l692 -1556h-280l-180 410h-740l480 1146h28zM2986 0l-180 410h-738l480 1146h28l691 -1556h-281zM467 33h577v-33h-847v1536h270v-1503zM1593 442l-342 785l-325 -785h667zM2791 442l-342 783l-323 -783h665z" />
    <glyph glyph-name="L_Aacute.dlig" horiz-adv-x="2086" 
d="M1092 1632l-11 29l592 217l13 -33zM1788 0l-180 410h-740l480 1146h28l692 -1556h-280zM467 33h577v-33h-847v1536h270v-1503zM1593 442l-342 785l-325 -785h667z" />
    <glyph glyph-name="L_Abreve.dlig" horiz-adv-x="2086" 
d="M1573 1736q-98 -67 -211 -67t-210 67t-144 175l20 10q53 -96 146 -156q92 -59 188 -59q98 0 189 59t145 156l22 -10q-47 -108 -145 -175zM1788 0l-180 410h-740l480 1146h28l692 -1556h-280zM467 33h577v-33h-847v1536h270v-1503zM1593 442l-342 785l-325 -785h667z" />
    <glyph glyph-name="L_Acircumflex.dlig" horiz-adv-x="2086" 
d="M1012 1628l-15 17l365 282l364 -282l-14 -17l-350 244zM1788 0l-180 410h-740l480 1146h28l692 -1556h-280zM467 33h577v-33h-847v1536h270v-1503zM1593 442l-342 785l-325 -785h667z" />
    <glyph glyph-name="L_Adieresis.dlig" horiz-adv-x="2086" 
d="M1248 1701q-34 -32 -91 -32q-55 0 -89 32t-34 83q0 53 34 85t89 32q57 0 91 -32t34 -85q0 -51 -34 -83zM1657 1701q-35 -32 -90 -32t-89 32t-34 83q0 53 34 85t89 32t90 -33t35 -84t-35 -83zM1788 0l-180 410h-740l480 1146h28l692 -1556h-280zM467 33h577v-33h-847v1536
h270v-1503zM1593 442l-342 785l-325 -785h667z" />
    <glyph glyph-name="L_Adieresis_A.dlig" horiz-adv-x="3287" 
d="M1068 1701q-34 32 -34 83q0 53 34 85t91 32q55 0 89 -32t34 -85q0 -51 -34 -83t-89 -32q-57 0 -91 32zM1477.5 1701q-33.5 32 -33.5 83q0 53 33.5 85t89.5 32q55 0 90 -33t35 -84t-35 -83t-90 -32q-56 0 -89.5 32zM1376 1556l692 -1556h-280l-180 410h-740l480 1146h28z
M2986 0l-180 410h-738l480 1146h28l691 -1556h-281zM467 33h577v-33h-847v1536h270v-1503zM1593 442l-342 785l-325 -785h667zM2791 442l-342 783l-323 -783h665z" />
    <glyph glyph-name="L_Agrave.dlig" horiz-adv-x="2086" 
d="M1634 1632l-594 213l13 33l592 -217zM1788 0l-180 410h-740l480 1146h28l692 -1556h-280zM467 33h577v-33h-847v1536h270v-1503zM1593 442l-342 785l-325 -785h667z" />
    <glyph glyph-name="L_Amacron.dlig" horiz-adv-x="2086" 
d="M1055 1669v33h616v-33h-616zM1788 0l-180 410h-740l480 1146h28l692 -1556h-280zM467 33h577v-33h-847v1536h270v-1503zM1593 442l-342 785l-325 -785h667z" />
    <glyph glyph-name="L_Aogonek.dlig" horiz-adv-x="2086" 
d="M2083 -424q-39 -20 -92.5 -33.5t-104.5 -13.5q-96 0 -154.5 46t-58.5 124q0 86 88 167t244 134h-217l-180 410h-740l480 1146h28l692 -1556q-96 -53 -154.5 -131t-58.5 -152q0 -61 35 -98t95 -37q57 0 92 15zM467 33h577v-33h-847v1536h270v-1503zM1593 442l-342 785
l-325 -785h667z" />
    <glyph glyph-name="L_Aring.dlig" horiz-adv-x="2086" 
d="M1514 1678q-56 -54 -150 -54t-152 54q-57 54 -57 145q0 88 57 142t152 54q94 0 150 -54t57 -142q-1 -91 -57 -145zM1242 1702q46 -45 122 -45t121 45t45 121q0 74 -45 119t-121 45t-122 -45t-46 -119q0 -76 46 -121zM1788 0l-180 410h-740l480 1146h28l692 -1556h-280z
M467 33h577v-33h-847v1536h270v-1503zM1593 442l-342 785l-325 -785h667z" />
    <glyph glyph-name="L_Atilde.dlig" horiz-adv-x="2086" 
d="M1094 1811q-43 -38 -80 -111l-21 10q72 172 215 172q49 0 87 -22q38 -23 85 -66q41 -37 73 -56t71 -20q63 0 106 38t78 112l23 -13q-72 -172 -215 -172q-49 0 -88 23q-38 23 -87 66q-43 39 -73 58q-31 19 -70 19q-61 0 -104 -38zM1788 0l-180 410h-740l480 1146h28
l692 -1556h-280zM467 33h577v-33h-847v1536h270v-1503zM1593 442l-342 785l-325 -785h667z" />
    <glyph glyph-name="L_L.dlig" horiz-adv-x="1533" 
d="M467 33h811v-33h-1081v1536h270v-1503zM1540 381v-33h-684v1188h270v-1155h414z" />
    <glyph glyph-name="uni013B_Amacron.dlig" horiz-adv-x="2086" 
d="M728 -148q36 -42 36 -116q0 -88 -56 -162t-147 -109l-14 23q72 31 120 92t56 127q-37 -37 -102 -37q-51 0 -84 31t-33 80q0 51 35 82t92 31q61 0 97 -42zM1788 0l-180 410h-740l480 1146h28l692 -1556h-280zM467 33h577v-33h-847v1536h270v-1503zM1593 442l-342 785
l-325 -785h667zM1055 1669v33h616v-33h-616z" />
    <glyph glyph-name="uni013B_L.dlig" horiz-adv-x="1533" 
d="M816 -148q36 -42 36 -116q0 -88 -56 -162t-147 -109l-14 23q72 31 120 92t56 127q-37 -37 -102 -37q-51 0 -84 31t-33 80q0 51 35 82t92 31q61 0 97 -42zM467 33h811v-33h-1081v1536h270v-1503zM1540 381v-33h-684v1188h270v-1155h414z" />
    <glyph glyph-name="N_N.dlig" horiz-adv-x="2658" 
d="M2462 1536v-1556h-31l-1081 1204v-1204h-31l-1081 1204v-1184h-41v1556h30l1082 -1204v1204h30l1082 -1204v1184h41z" />
    <glyph glyph-name="uni0145_N.dlig" horiz-adv-x="2658" 
d="M869.5 -148q35.5 -42 35.5 -116q0 -88 -56 -162t-147 -109l-14 23q72 31 120 92.5t56 126.5q-37 -37 -102 -37q-51 0 -84 31t-33 80q0 51 35 82t92 31q62 0 97.5 -42zM2462 1536v-1556h-31l-1081 1204v-1204h-31l-1081 1204v-1184h-41v1556h30l1082 -1204v1204h30
l1082 -1204v1184h41z" />
    <glyph glyph-name="uni0145_uni0145.dlig" horiz-adv-x="2658" 
d="M1981 -148q36 -42 36 -116q0 -88 -56 -162t-146 -109l-15 23q72 31 120 92t56 127q-37 -37 -102 -37q-51 0 -84 31t-33 80q0 51 35 82t92 31q61 0 97 -42zM2462 1536v-1556h-31l-1081 1204v-1204h-31l-1081 1204v-1184h-41v1556h30l1082 -1204v1204h30l1082 -1204v1184
h41zM869 -148q36 -42 36 -116q0 -88 -56 -162t-147 -109l-14 23q72 31 120 92t56 127q-37 -37 -102 -37q-51 0 -84 31t-33 80q0 51 35 82t92 31q61 0 97 -42z" />
    <glyph glyph-name="O_O.dlig" horiz-adv-x="2656" 
d="M2167 1458q182 -98 282.5 -277.5t100.5 -412.5t-100.5 -412.5t-282.5 -277.5t-420 -98q-242 0 -418 116q-176 -117 -418 -116q-240 0 -422 98t-282.5 277.5t-100.5 412.5t100.5 412.5t283 277.5t421.5 98q242 0 418 -116q176 117 418 116q238 0 420 -98zM1290 123
q-135 104 -208.5 270t-73.5 375t73.5 375t208.5 270q-131 74 -293 74q-178 0 -314 -90t-211 -253t-75 -376t75 -376t211 -253t314 -90q162 0 293 74zM1975 139q136 90 211 253t75 376t-75 376t-211 253t-316 90q-162 0 -293 -74q137 -104 211 -270t74 -375t-74 -375
t-211 -270q131 -74 293 -74q180 0 316 90zM1125.5 1137.5q-72.5 -160.5 -72.5 -369.5t72.5 -369.5t203.5 -251.5q131 90 204 251t73 370t-73 369.5t-204 251.5q-131 -91 -203.5 -251.5z" />
    <glyph glyph-name="O_Oacute.dlig" horiz-adv-x="2656" 
d="M1475 1632l-11 29l592 217l12 -33zM2167 1458q182 -98 282.5 -277.5t100.5 -412.5t-100.5 -412.5t-282.5 -277.5t-420 -98q-242 0 -418 116q-176 -117 -418 -116q-240 0 -422 98t-282.5 277.5t-100.5 412.5t100.5 412.5t283 277.5t421.5 98q242 0 418 -116
q176 117 418 116q238 0 420 -98zM1290 123q-135 104 -208.5 270t-73.5 375t73.5 375t208.5 270q-131 74 -293 74q-178 0 -314 -90t-211 -253t-75 -376t75 -376t211 -253t314 -90q162 0 293 74zM1975 139q136 90 211 253t75 376t-75 376t-211 253t-316 90q-162 0 -293 -74
q137 -104 211 -270t74 -375t-74 -375t-211 -270q131 -74 293 -74q180 0 316 90zM1125.5 1137.5q-72.5 -160.5 -72.5 -369.5t72.5 -369.5t203.5 -251.5q131 90 204 251t73 370t-73 369.5t-204 251.5q-131 -91 -203.5 -251.5z" />
    <glyph glyph-name="O_Odieresis.dlig" horiz-adv-x="2656" 
d="M1452 1701q-35 32 -35 83t35 84t90 33t89 -32t34 -85q0 -51 -34 -83t-89 -32t-90 32zM1860.5 1701q-33.5 32 -33.5 83q0 53 33.5 85t89.5 32q57 0 91 -32t34 -85q0 -51 -34 -83t-91 -32q-56 0 -89.5 32zM2167 1458q182 -98 282.5 -277.5t100.5 -412.5t-100.5 -412.5
t-282.5 -277.5t-420 -98q-242 0 -418 116q-176 -117 -418 -116q-240 0 -422 98t-282.5 277.5t-100.5 412.5t100.5 412.5t283 277.5t421.5 98q242 0 418 -116q176 117 418 116q238 0 420 -98zM1290 123q-135 104 -208.5 270t-73.5 375t73.5 375t208.5 270q-131 74 -293 74
q-178 0 -314 -90t-211 -253t-75 -376t75 -376t211 -253t314 -90q162 0 293 74zM1975 139q136 90 211 253t75 376t-75 376t-211 253t-316 90q-162 0 -293 -74q137 -104 211 -270t74 -375t-74 -375t-211 -270q131 -74 293 -74q180 0 316 90zM1125.5 1137.5
q-72.5 -160.5 -72.5 -369.5t72.5 -369.5t203.5 -251.5q131 90 204 251t73 370t-73 369.5t-204 251.5q-131 -91 -203.5 -251.5z" />
    <glyph glyph-name="O_Ograve.dlig" horiz-adv-x="2656" 
d="M2017 1632l-594 213l13 33l592 -217zM2167 1458q182 -98 282.5 -277.5t100.5 -412.5t-100.5 -412.5t-282.5 -277.5t-420 -98q-242 0 -418 116q-176 -117 -418 -116q-240 0 -422 98t-282.5 277.5t-100.5 412.5t100.5 412.5t283 277.5t421.5 98q242 0 418 -116
q176 117 418 116q238 0 420 -98zM1290 123q-135 104 -208.5 270t-73.5 375t73.5 375t208.5 270q-131 74 -293 74q-178 0 -314 -90t-211 -253t-75 -376t75 -376t211 -253t314 -90q162 0 293 74zM1975 139q136 90 211 253t75 376t-75 376t-211 253t-316 90q-162 0 -293 -74
q137 -104 211 -270t74 -375t-74 -375t-211 -270q131 -74 293 -74q180 0 316 90zM1125.5 1137.5q-72.5 -160.5 -72.5 -369.5t72.5 -369.5t203.5 -251.5q131 90 204 251t73 370t-73 369.5t-204 251.5q-131 -91 -203.5 -251.5z" />
    <glyph glyph-name="O_Otilde.dlig" horiz-adv-x="2656" 
d="M1477 1809.5q-43 -37.5 -78 -111.5l-23 10q70 172 215 172q49 0 88 -22.5t84 -63.5q41 -37 74 -56.5t72 -19.5q63 0 105 37t77 111l23 -11q-29 -76 -83.5 -124t-132.5 -48q-49 0 -85.5 21.5t-86.5 64.5q-41 39 -72.5 58.5t-72.5 19.5q-61 0 -104 -37.5zM2167 1458
q182 -98 282.5 -277.5t100.5 -412.5t-100.5 -412.5t-282.5 -277.5t-420 -98q-242 0 -418 116q-176 -117 -418 -116q-240 0 -422 98t-282.5 277.5t-100.5 412.5t100.5 412.5t283 277.5t421.5 98q242 0 418 -116q176 117 418 116q238 0 420 -98zM1290 123q-135 104 -208.5 270
t-73.5 375t73.5 375t208.5 270q-131 74 -293 74q-178 0 -314 -90t-211 -253t-75 -376t75 -376t211 -253t314 -90q162 0 293 74zM1975 139q136 90 211 253t75 376t-75 376t-211 253t-316 90q-162 0 -293 -74q137 -104 211 -270t74 -375t-74 -375t-211 -270q131 -74 293 -74
q180 0 316 90zM1125.5 1137.5q-72.5 -160.5 -72.5 -369.5t72.5 -369.5t203.5 -251.5q131 90 204 251t73 370t-73 369.5t-204 251.5q-131 -91 -203.5 -251.5z" />
    <glyph glyph-name="O_dieresis_Otilde.dlig" horiz-adv-x="2656" 
d="M1477 1811q-43 -38 -80 -111l-21 10q72 172 215 172q49 0 87 -22q38 -23 85 -66q41 -37 73 -56t71 -20q63 0 106 38t78 112l23 -13q-72 -172 -216 -172q-49 0 -87 23t-87 66q-43 39 -73 58q-31 19 -70 19q-61 0 -104 -38zM2167 1458q182 -98 282 -277t101 -413
q0 -233 -101 -413q-100 -179 -282 -277t-420 -98q-242 0 -418 116q-176 -117 -418 -116q-240 0 -422 98t-282 277t-101 413q0 233 101 413q100 179 282 277t422 98q242 0 418 -116q176 117 418 116q238 0 420 -98zM1290 123q-135 104 -209 270t-73 375q0 209 73 375
q74 166 209 270q-131 74 -293 74q-178 0 -314 -90t-211 -253t-75 -376t75 -376t211 -253t314 -90q162 0 293 74zM1975 139q136 90 211 253t75 376t-75 376t-211 253t-316 90q-162 0 -293 -74q137 -104 211 -270t74 -375t-74 -375t-211 -270q131 -74 293 -74q180 0 316 90z
M1125 1138q-73 -161 -72 -370q0 -209 72 -370q73 -161 204 -251q131 90 204 251t73 370t-73 370t-204 251q-131 -90 -204 -251zM796 1701q-34 -32 -91 -32q-55 0 -90 32q-34 32 -33 83q0 53 33 85q34 32 90 32q57 0 91 -32t33 -85q1 -51 -33 -83zM1204 1701q-35 -32 -90 -32
t-89 32t-34 83q0 53 34 85t89 32t90 -33t35 -84t-35 -83z" />
    <glyph glyph-name="Oacute_O.dlig" horiz-adv-x="2656" 
d="M639 1632l-10 29l592 217l12 -33zM2167 1458q182 -98 282.5 -277.5t100.5 -412.5t-100.5 -412.5t-282.5 -277.5t-420 -98q-242 0 -418 116q-176 -117 -418 -116q-240 0 -422 98t-282.5 277.5t-100.5 412.5t100.5 412.5t283 277.5t421.5 98q242 0 418 -116
q176 117 418 116q238 0 420 -98zM1290 123q-135 104 -208.5 270t-73.5 375t73.5 375t208.5 270q-131 74 -293 74q-178 0 -314 -90t-211 -253t-75 -376t75 -376t211 -253t314 -90q162 0 293 74zM1975 139q136 90 211 253t75 376t-75 376t-211 253t-316 90q-162 0 -293 -74
q137 -104 211 -270t74 -375t-74 -375t-211 -270q131 -74 293 -74q180 0 316 90zM1125.5 1137.5q-72.5 -160.5 -72.5 -369.5t72.5 -369.5t203.5 -251.5q131 90 204 251t73 370t-73 369.5t-204 251.5q-131 -91 -203.5 -251.5z" />
    <glyph glyph-name="Oacute_Oacute.dlig" horiz-adv-x="2656" 
d="M1475 1632l-11 29l592 217l12 -33zM2167 1458q182 -98 282 -277t101 -413q0 -233 -101 -413q-100 -179 -282 -277t-420 -98q-242 0 -418 116q-176 -117 -418 -116q-240 0 -422 98t-282 277t-101 413q0 233 101 413q100 179 282 277t422 98q242 0 418 -116
q176 117 418 116q238 0 420 -98zM1290 123q-135 104 -209 270t-73 375q0 209 73 375q74 166 209 270q-131 74 -293 74q-178 0 -314 -90t-211 -253t-75 -376t75 -376t211 -253t314 -90q162 0 293 74zM1975 139q136 90 211 253t75 376t-75 376t-211 253t-316 90
q-162 0 -293 -74q137 -104 211 -270t74 -375t-74 -375t-211 -270q131 -74 293 -74q180 0 316 90zM1125 1138q-73 -161 -72 -370q0 -209 72 -370q73 -161 204 -251q131 90 204 251t73 370t-73 370t-204 251q-131 -90 -204 -251zM639 1632l-10 29l592 217l12 -33z" />
    <glyph glyph-name="Oacute_Odieresis.dlig" horiz-adv-x="2656" 
d="M1631 1701q-34 -32 -91 -32q-55 0 -89 32t-34 83q0 53 34 85t89 32q57 0 91 -32t34 -85q0 -51 -34 -83zM2040 1701q-35 -32 -90 -32t-89 32t-34 83q0 53 34 85t89 32t90 -33t35 -84t-35 -83zM2167 1458q182 -98 282 -277t101 -413q0 -233 -101 -413q-100 -179 -282 -277
t-420 -98q-242 0 -418 116q-176 -117 -418 -116q-240 0 -422 98t-282 277t-101 413q0 233 101 413q100 179 282 277t422 98q242 0 418 -116q176 117 418 116q238 0 420 -98zM1290 123q-135 104 -209 270t-73 375q0 209 73 375q74 166 209 270q-131 74 -293 74
q-178 0 -314 -90t-211 -253t-75 -376t75 -376t211 -253t314 -90q162 0 293 74zM1975 139q136 90 211 253t75 376t-75 376t-211 253t-316 90q-162 0 -293 -74q137 -104 211 -270t74 -375t-74 -375t-211 -270q131 -74 293 -74q180 0 316 90zM1125 1138q-73 -161 -72 -370
q0 -209 72 -370q73 -161 204 -251q131 90 204 251t73 370t-73 370t-204 251q-131 -90 -204 -251zM639 1632l-10 29l592 217l12 -33z" />
    <glyph glyph-name="Ocircumflex_O.dlig" horiz-adv-x="2656" 
d="M561 1628l-14 17l364 282l365 -282l-14 -17l-351 244zM2167 1458q182 -98 282 -277t101 -413q0 -233 -101 -413q-100 -179 -282 -277t-420 -98q-242 0 -418 116q-176 -117 -418 -116q-240 0 -422 98t-282 277t-101 413q0 233 101 413q100 179 282 277t422 98
q242 0 418 -116q176 117 418 116q238 0 420 -98zM1290 123q-135 104 -209 270t-73 375q0 209 73 375q74 166 209 270q-131 74 -293 74q-178 0 -314 -90t-211 -253t-75 -376t75 -376t211 -253t314 -90q162 0 293 74zM1975 139q136 90 211 253t75 376t-75 376t-211 253
t-316 90q-162 0 -293 -74q137 -104 211 -270t74 -375t-74 -375t-211 -270q131 -74 293 -74q180 0 316 90zM1125 1138q-73 -161 -72 -370q0 -209 72 -370q73 -161 204 -251q131 90 204 251t73 370t-73 370t-204 251q-131 -90 -204 -251z" />
    <glyph glyph-name="Odieresis_O.dlig" horiz-adv-x="2656" 
d="M795.5 1701q-33.5 -32 -90.5 -32q-55 0 -89 32t-34 83q0 53 33.5 85t89.5 32q57 0 90.5 -32t33.5 -85q0 -51 -33.5 -83zM1204 1701q-35 -32 -90 -32t-89 32t-34 83q0 53 34 85t89 32t90 -33t35 -84t-35 -83zM2167 1458q182 -98 282.5 -277.5t100.5 -412.5t-100.5 -412.5
t-282.5 -277.5t-420 -98q-242 0 -418 116q-176 -117 -418 -116q-240 0 -422 98t-282.5 277.5t-100.5 412.5t100.5 412.5t283 277.5t421.5 98q242 0 418 -116q176 117 418 116q238 0 420 -98zM1290 123q-135 104 -208.5 270t-73.5 375t73.5 375t208.5 270q-131 74 -293 74
q-178 0 -314 -90t-211 -253t-75 -376t75 -376t211 -253t314 -90q162 0 293 74zM1975 139q136 90 211 253t75 376t-75 376t-211 253t-316 90q-162 0 -293 -74q137 -104 211 -270t74 -375t-74 -375t-211 -270q131 -74 293 -74q180 0 316 90zM1125.5 1137.5
q-72.5 -160.5 -72.5 -369.5t72.5 -369.5t203.5 -251.5q131 90 204 251t73 370t-73 369.5t-204 251.5q-131 -91 -203.5 -251.5z" />
    <glyph glyph-name="Odieresis_Odieresis.dlig" horiz-adv-x="2656" 
d="M1631 1701q-34 -32 -91 -32q-55 0 -89 32t-34 83q0 53 34 85t89 32q57 0 91 -32t34 -85q0 -51 -34 -83zM2040 1701q-35 -32 -90 -32t-89 32t-34 83q0 53 34 85t89 32t90 -33t35 -84t-35 -83zM2167 1458q182 -98 282 -277t101 -413q0 -233 -101 -413q-100 -179 -282 -277
t-420 -98q-242 0 -418 116q-176 -117 -418 -116q-240 0 -422 98t-282 277t-101 413q0 233 101 413q100 179 282 277t422 98q242 0 418 -116q176 117 418 116q238 0 420 -98zM1290 123q-135 104 -209 270t-73 375q0 209 73 375q74 166 209 270q-131 74 -293 74
q-178 0 -314 -90t-211 -253t-75 -376t75 -376t211 -253t314 -90q162 0 293 74zM1975 139q136 90 211 253t75 376t-75 376t-211 253t-316 90q-162 0 -293 -74q137 -104 211 -270t74 -375t-74 -375t-211 -270q131 -74 293 -74q180 0 316 90zM1125 1138q-73 -161 -72 -370
q0 -209 72 -370q73 -161 204 -251q131 90 204 251t73 370t-73 370t-204 251q-131 -90 -204 -251zM796 1701q-34 -32 -91 -32q-55 0 -90 32q-34 32 -33 83q0 53 33 85q34 32 90 32q57 0 91 -32t33 -85q1 -51 -33 -83zM1204 1701q-35 -32 -90 -32t-89 32t-34 83q0 53 34 85
t89 32t90 -33t35 -84t-35 -83z" />
    <glyph glyph-name="Ohungarumlaut_O.dlig" horiz-adv-x="2656" 
d="M1073 2015l21 -28l-521 -359l-16 25zM1507 2015l21 -28l-520 -359l-17 25zM2167 1458q182 -98 282.5 -277.5t100.5 -412.5t-100.5 -412.5t-282.5 -277.5t-420 -98q-242 0 -418 116q-176 -117 -418 -116q-240 0 -422 98t-282.5 277.5t-100.5 412.5t100.5 412.5t283 277.5
t421.5 98q242 0 418 -116q176 117 418 116q238 0 420 -98zM1290 123q-135 104 -208.5 270t-73.5 375t73.5 375t208.5 270q-131 74 -293 74q-178 0 -314 -90t-211 -253t-75 -376t75 -376t211 -253t314 -90q162 0 293 74zM1975 139q136 90 211 253t75 376t-75 376t-211 253
t-316 90q-162 0 -293 -74q137 -104 211 -270t74 -375t-74 -375t-211 -270q131 -74 293 -74q180 0 316 90zM1125.5 1137.5q-72.5 -160.5 -72.5 -369.5t72.5 -369.5t203.5 -251.5q131 90 204 251t73 370t-73 369.5t-204 251.5q-131 -91 -203.5 -251.5z" />
    <glyph glyph-name="Ohungarumlaut_Oacute.dlig" horiz-adv-x="2656" 
d="M1475 1632l-11 29l592 217l12 -33zM2167 1458q182 -98 282 -277t101 -413q0 -233 -101 -413q-100 -179 -282 -277t-420 -98q-242 0 -418 116q-176 -117 -418 -116q-240 0 -422 98t-282 277t-101 413q0 233 101 413q100 179 282 277t422 98q242 0 418 -116
q176 117 418 116q238 0 420 -98zM1290 123q-135 104 -209 270t-73 375q0 209 73 375q74 166 209 270q-131 74 -293 74q-178 0 -314 -90t-211 -253t-75 -376t75 -376t211 -253t314 -90q162 0 293 74zM1975 139q136 90 211 253t75 376t-75 376t-211 253t-316 90
q-162 0 -293 -74q137 -104 211 -270t74 -375t-74 -375t-211 -270q131 -74 293 -74q180 0 316 90zM1125 1138q-73 -161 -72 -370q0 -209 72 -370q73 -161 204 -251q131 90 204 251t73 370t-73 370t-204 251q-131 -90 -204 -251zM1073 2015l21 -28l-521 -359l-16 25z
M1507 2015l21 -28l-520 -359l-17 25z" />
    <glyph glyph-name="Ohungarumlaut_Ohungarumlaut.dlig" horiz-adv-x="2656" 
d="M1909 2015l20 -28l-520 -359l-16 25zM2343 2015l20 -28l-520 -359l-16 25zM2167 1458q182 -98 282 -277t101 -413q0 -233 -101 -413q-100 -179 -282 -277t-420 -98q-242 0 -418 116q-176 -117 -418 -116q-240 0 -422 98t-282 277t-101 413q0 233 101 413q100 179 282 277
t422 98q242 0 418 -116q176 117 418 116q238 0 420 -98zM1290 123q-135 104 -209 270t-73 375q0 209 73 375q74 166 209 270q-131 74 -293 74q-178 0 -314 -90t-211 -253t-75 -376t75 -376t211 -253t314 -90q162 0 293 74zM1975 139q136 90 211 253t75 376t-75 376t-211 253
t-316 90q-162 0 -293 -74q137 -104 211 -270t74 -375t-74 -375t-211 -270q131 -74 293 -74q180 0 316 90zM1125 1138q-73 -161 -72 -370q0 -209 72 -370q73 -161 204 -251q131 90 204 251t73 370t-73 370t-204 251q-131 -90 -204 -251zM1073 2015l21 -28l-521 -359l-16 25z
M1507 2015l21 -28l-520 -359l-17 25z" />
    <glyph glyph-name="Otilde_O.dlig" horiz-adv-x="2656" 
d="M641 1811.5q-43 -37.5 -80 -111.5l-20 10q72 172 215 172q49 0 87 -22.5t85 -65.5q41 -37 72.5 -56.5t70.5 -19.5q63 0 106.5 38t77.5 112l23 -13q-72 -172 -215 -172q-49 0 -87 23t-87 66q-43 39 -74 58t-70 19q-61 0 -104 -37.5zM2167 1458q182 -98 282.5 -277.5
t100.5 -412.5t-100.5 -412.5t-282.5 -277.5t-420 -98q-242 0 -418 116q-176 -117 -418 -116q-240 0 -422 98t-282.5 277.5t-100.5 412.5t100.5 412.5t283 277.5t421.5 98q242 0 418 -116q176 117 418 116q238 0 420 -98zM1290 123q-135 104 -208.5 270t-73.5 375t73.5 375
t208.5 270q-131 74 -293 74q-178 0 -314 -90t-211 -253t-75 -376t75 -376t211 -253t314 -90q162 0 293 74zM1975 139q136 90 211 253t75 376t-75 376t-211 253t-316 90q-162 0 -293 -74q137 -104 211 -270t74 -375t-74 -375t-211 -270q131 -74 293 -74q180 0 316 90z
M1125.5 1137.5q-72.5 -160.5 -72.5 -369.5t72.5 -369.5t203.5 -251.5q131 90 204 251t73 370t-73 369.5t-204 251.5q-131 -91 -203.5 -251.5z" />
    <glyph glyph-name="Otilde_Otilde.dlig" horiz-adv-x="2656" 
d="M1477 1811q-43 -38 -80 -111l-21 10q72 172 215 172q49 0 87 -22q38 -23 85 -66q41 -37 73 -56t71 -20q63 0 106 38t78 112l23 -13q-72 -172 -216 -172q-49 0 -87 23t-87 66q-43 39 -73 58q-31 19 -70 19q-61 0 -104 -38zM2167 1458q182 -98 282 -277t101 -413
q0 -233 -101 -413q-100 -179 -282 -277t-420 -98q-242 0 -418 116q-176 -117 -418 -116q-240 0 -422 98t-282 277t-101 413q0 233 101 413q100 179 282 277t422 98q242 0 418 -116q176 117 418 116q238 0 420 -98zM1290 123q-135 104 -209 270t-73 375q0 209 73 375
q74 166 209 270q-131 74 -293 74q-178 0 -314 -90t-211 -253t-75 -376t75 -376t211 -253t314 -90q162 0 293 74zM1975 139q136 90 211 253t75 376t-75 376t-211 253t-316 90q-162 0 -293 -74q137 -104 211 -270t74 -375t-74 -375t-211 -270q131 -74 293 -74q180 0 316 90z
M1125 1138q-73 -161 -72 -370q0 -209 72 -370q73 -161 204 -251q131 90 204 251t73 370t-73 370t-204 251q-131 -90 -204 -251zM641 1811q-43 -38 -80 -111l-20 10q72 172 215 172q49 0 87 -22q38 -23 85 -66q41 -37 72 -56q32 -19 71 -20q63 0 107 38q43 38 77 112l23 -13
q-72 -172 -215 -172q-49 0 -87 23t-87 66q-43 39 -74 58t-70 19q-61 0 -104 -38z" />
    <glyph glyph-name="R_A.dlig" horiz-adv-x="2670" 
d="M2370 0l-181 410h-737l477 1146h31l690 -1556h-280zM1104 860.5q-123 -108.5 -332 -135.5l584 -725h-316l-569 717h-4v-717h-270v1536h452q172 0 303 -50t203 -142.5t72 -213.5q0 -161 -123 -269.5zM608 750q147 0 237.5 104t90.5 276q0 168 -90 270.5t-238 102.5h-141
v-753h141zM2175 442l-342 785l-326 -785h668z" />
    <glyph glyph-name="R_A_A.dlig" horiz-adv-x="3868" 
d="M1960 1556l690 -1556h-280l-181 410h-737l477 1146h31zM3568 0l-181 410h-721v2l-16 -2l479 1146h29l690 -1556h-280zM1104 860.5q-123 -108.5 -332 -135.5l584 -725h-316l-569 717h-4v-717h-270v1536h452q172 0 303 -50t203 -142.5t72 -213.5q0 -161 -123 -269.5z
M608 750q147 0 237.5 104t90.5 276q0 168 -90 270.5t-238 102.5h-141v-753h141zM2175 442l-342 785l-326 -785h668zM3373 442l-342 783l-326 -783h668z" />
    <glyph glyph-name="R_A_Aring.dlig" horiz-adv-x="3868" 
d="M3296 1678q-56 -54 -150 -54t-152 54q-57 54 -57 145q0 88 57 142t152 54q94 0 150 -54t57 -142q-1 -91 -57 -145zM3024 1702q46 -45 122 -45t121 45t45 121q0 74 -45 119t-121 45t-122 -45t-46 -119q0 -76 46 -121zM1960 1556l690 -1556h-280l-181 410h-737l477 1146h31
zM3568 0l-181 410h-721v2l-16 -2l479 1146h29l690 -1556h-280zM1104 860q-123 -109 -332 -135l584 -725h-316l-569 717h-4v-717h-270v1536h452q172 0 303 -50t203 -143q72 -92 72 -213q0 -161 -123 -270zM608 750q147 0 238 104q90 104 90 276q0 168 -90 271
q-90 102 -238 102h-141v-753h141zM2175 442l-342 785l-326 -785h668zM3373 442l-342 783l-326 -783h668z" />
    <glyph glyph-name="R_A_Atilde.dlig" horiz-adv-x="3868" 
d="M2875 1811q-43 -38 -79 -111l-21 10q72 172 215 172q49 0 87 -22q38 -23 85 -66q41 -37 73 -56t70 -20q63 0 107 38q43 38 78 112l22 -13q-72 -172 -215 -172q-49 0 -87 23t-87 66q-43 39 -74 58t-69 19q-62 0 -105 -38zM1960 1556l690 -1556h-280l-181 410h-737
l477 1146h31zM3568 0l-181 410h-721v2l-16 -2l479 1146h29l690 -1556h-280zM1104 860q-123 -109 -332 -135l584 -725h-316l-569 717h-4v-717h-270v1536h452q172 0 303 -50t203 -143q72 -92 72 -213q0 -161 -123 -270zM608 750q147 0 238 104q90 104 90 276q0 168 -90 271
q-90 102 -238 102h-141v-753h141zM2175 442l-342 785l-326 -785h668zM3373 442l-342 783l-326 -783h668z" />
    <glyph glyph-name="R_Aacute.dlig" horiz-adv-x="2670" 
d="M1673 1632l-10 29l592 217l12 -33zM2370 0l-181 410h-737l477 1146h31l690 -1556h-280zM1104 860.5q-123 -108.5 -332 -135.5l584 -725h-316l-569 717h-4v-717h-270v1536h452q172 0 303 -50t203 -142.5t72 -213.5q0 -161 -123 -269.5zM608 750q147 0 237.5 104t90.5 276
q0 168 -90 270.5t-238 102.5h-141v-753h141zM2175 442l-342 785l-326 -785h668z" />
    <glyph glyph-name="R_Abreve.dlig" horiz-adv-x="2670" 
d="M2154 1736q-98 -67 -210 -67q-113 0 -210 67t-145 175l21 10q53 -96 145 -156q92 -59 189 -59q98 0 189 59t144 156l23 -10q-48 -108 -146 -175zM2370 0l-181 410h-737l477 1146h31l690 -1556h-280zM1104 860q-123 -109 -332 -135l584 -725h-316l-569 717h-4v-717h-270
v1536h452q172 0 303 -50t203 -143q72 -92 72 -213q0 -161 -123 -270zM608 750q147 0 238 104q90 104 90 276q0 168 -90 271q-90 102 -238 102h-141v-753h141zM2175 442l-342 785l-326 -785h668z" />
    <glyph glyph-name="R_Acircumflex.dlig" horiz-adv-x="2670" 
d="M1595 1628l-14 17l365 282l364 -282l-14 -17l-350 244zM2370 0l-181 410h-737l477 1146h31l690 -1556h-280zM1104 860q-123 -109 -332 -135l584 -725h-316l-569 717h-4v-717h-270v1536h452q172 0 303 -50t203 -143q72 -92 72 -213q0 -161 -123 -270zM608 750
q147 0 238 104q90 104 90 276q0 168 -90 271q-90 102 -238 102h-141v-753h141zM2175 442l-342 785l-326 -785h668z" />
    <glyph glyph-name="R_Adieresis.dlig" horiz-adv-x="2670" 
d="M1830 1701q-34 -32 -91 -32q-55 0 -89 32t-34 83q0 53 34 85t89 32q57 0 91 -32t34 -85q0 -51 -34 -83zM2238 1701q-35 -32 -90 -32t-89 32t-34 83q0 53 34 85t89 32t90 -33t35 -84t-35 -83zM2370 0l-181 410h-737l477 1146h31l690 -1556h-280zM1104 860
q-123 -109 -332 -135l584 -725h-316l-569 717h-4v-717h-270v1536h452q172 0 303 -50t203 -143q72 -92 72 -213q0 -161 -123 -270zM608 750q147 0 238 104q90 104 90 276q0 168 -90 271q-90 102 -238 102h-141v-753h141zM2175 442l-342 785l-326 -785h668z" />
    <glyph glyph-name="R_Adieresis_Adieresis.dlig" horiz-adv-x="3868" 
d="M1651 1701q-35 32 -35 83t35 84t90 33t89 -32t34 -85q0 -51 -34 -83t-89 -32t-90 32zM2059 1701q-34 32 -34 83q0 53 34 85t91 32q55 0 89 -32t34 -85q0 -51 -33.5 -83t-89.5 -32q-57 0 -91 32zM2850 1701q-34 32 -34 83q0 53 34 85t89 32t89 -32t34 -85q0 -51 -34 -83
t-89 -32t-89 32zM3259.5 1701q-33.5 32 -33.5 83q0 53 33.5 85t88.5 32t90 -33t35 -84t-34.5 -83t-90.5 -32q-55 0 -88.5 32zM1960 1556l690 -1556h-280l-181 410h-737l477 1146h31zM3568 0l-181 410h-721v2l-16 -2l479 1146h29l690 -1556h-280zM1104 860.5
q-123 -108.5 -332 -135.5l584 -725h-316l-569 717h-4v-717h-270v1536h452q172 0 303 -50t203 -142.5t72 -213.5q0 -161 -123 -269.5zM608 750q147 0 237.5 104t90.5 276q0 168 -90 270.5t-238 102.5h-141v-753h141zM2175 442l-342 785l-326 -785h668zM3373 442l-342 783
l-326 -783h668z" />
    <glyph glyph-name="R_Agrave.dlig" horiz-adv-x="2670" 
d="M2216 1632l-594 213l12 33l592 -217zM2370 0l-181 410h-737l477 1146h31l690 -1556h-280zM1104 860q-123 -109 -332 -135l584 -725h-316l-569 717h-4v-717h-270v1536h452q172 0 303 -50t203 -143q72 -92 72 -213q0 -161 -123 -270zM608 750q147 0 238 104q90 104 90 276
q0 168 -90 271q-90 102 -238 102h-141v-753h141zM2175 442l-342 785l-326 -785h668z" />
    <glyph glyph-name="R_Amacron.dlig" horiz-adv-x="2670" 
d="M1636 1669v33h617v-33h-617zM2370 0l-181 410h-737l477 1146h31l690 -1556h-280zM1104 860q-123 -109 -332 -135l584 -725h-316l-569 717h-4v-717h-270v1536h452q172 0 303 -50t203 -143q72 -92 72 -213q0 -161 -123 -270zM608 750q147 0 238 104q90 104 90 276
q0 168 -90 271q-90 102 -238 102h-141v-753h141zM2175 442l-342 785l-326 -785h668z" />
    <glyph glyph-name="R_Aogonek.dlig" horiz-adv-x="2670" 
d="M2666 -424q-39 -20 -93 -33.5t-105 -13.5q-96 0 -154.5 47t-58.5 123q0 86 88 167t244 134h-217l-181 410h-737l477 1146h31l690 -1556q-96 -53 -154.5 -131t-58.5 -152q0 -61 35 -98t94 -37q57 0 92 15zM1104 860.5q-123 -108.5 -332 -135.5l584 -725h-316l-569 717h-4
v-717h-270v1536h452q172 0 303 -50t203 -142.5t72 -213.5q0 -161 -123 -269.5zM608 750q147 0 237.5 104t90.5 276q0 168 -90 270.5t-238 102.5h-141v-753h141zM2175 442l-342 785l-326 -785h668z" />
    <glyph glyph-name="R_Aring.dlig" horiz-adv-x="2670" 
d="M2096 1678q-56 -54 -150 -54t-152 54q-57 54 -57 145q0 88 57 142t152 54q94 0 150 -54t56 -142q0 -91 -56 -145zM1824 1702q46 -45 122 -45t120 45q45 45 45 121q0 74 -45 119t-120 45q-76 0 -122 -45t-46 -119q0 -76 46 -121zM2370 0l-181 410h-737l477 1146h31
l690 -1556h-280zM1104 860q-123 -109 -332 -135l584 -725h-316l-569 717h-4v-717h-270v1536h452q172 0 303 -50t203 -143q72 -92 72 -213q0 -161 -123 -270zM608 750q147 0 238 104q90 104 90 276q0 168 -90 271q-90 102 -238 102h-141v-753h141zM2175 442l-342 785
l-326 -785h668z" />
    <glyph glyph-name="R_Atilde.dlig" horiz-adv-x="2670" 
d="M1675 1811q-43 -38 -80 -111l-20 10q72 172 215 172q49 0 87 -22q38 -23 85 -66q41 -37 73 -56t70 -20q63 0 107 38q43 38 78 112l22 -13q-72 -172 -215 -172q-49 0 -87 23t-87 66q-43 39 -74 58t-69 19q-62 0 -105 -38zM2370 0l-181 410h-737l477 1146h31l690 -1556
h-280zM1104 860q-123 -109 -332 -135l584 -725h-316l-569 717h-4v-717h-270v1536h452q172 0 303 -50t203 -143q72 -92 72 -213q0 -161 -123 -270zM608 750q147 0 238 104q90 104 90 276q0 168 -90 271q-90 102 -238 102h-141v-753h141zM2175 442l-342 785l-326 -785h668z
" />
    <glyph glyph-name="Rcaron_Aacute.dlig" horiz-adv-x="2670" 
d="M1001 1927l15 -16l-365 -283l-364 283l14 16l350 -244zM2370 0l-181 410h-737l477 1146h31l690 -1556h-280zM1104 860q-123 -109 -332 -135l584 -725h-316l-569 717h-4v-717h-270v1536h452q172 0 303 -50t203 -143q72 -92 72 -213q0 -161 -123 -270zM608 750
q147 0 238 104q90 104 90 276q0 168 -90 271q-90 102 -238 102h-141v-753h141zM2175 442l-342 785l-326 -785h668zM1673 1632l-10 29l592 217l12 -33z" />
    <glyph glyph-name="T_T.dlig" horiz-adv-x="2385" 
d="M2365 1503h-516v-1503h-270v1503h-772v-1503h-270v1503h-517v33h2345v-33z" />
    <glyph glyph-name="T_Y.dlig" horiz-adv-x="2533" 
d="M1970 686v-686h-272v668l-531 835h-360v-1503h-270v1503h-517v33h1434l500 -803l483 803h45z" />
    <glyph glyph-name="T_Y.dlig.ss03" horiz-adv-x="2463" 
d="M2486 1536l-846 -1536h-45l220 397l-646 1106h-362v-1503h-270v1503h-517v33h1434l502 -881l485 881h45z" />
    <glyph glyph-name="T_Yacute.dlig" horiz-adv-x="2533" 
d="M1628 1632l-10 29l592 217l12 -33zM1970 686v-686h-272v668l-531 835h-360v-1503h-270v1503h-517v33h1434l500 -803l483 803h45z" />
    <glyph glyph-name="T_Yacute.dlig.ss03" horiz-adv-x="2463" 
d="M1659 1632l-10 29l592 217l12 -33zM2486 1536l-846 -1536h-45l220 397l-646 1106h-362v-1503h-270v1503h-517v33h1434l502 -881l485 881h45z" />
    <glyph glyph-name="T_h.dlig" horiz-adv-x="2445" 
d="M2206 1033q92 -93 92 -245v-788h-262v858q0 90 -46 146.5t-122 56.5q-88 0 -171 -64.5t-130 -171.5v-825h-262v1503h-498v-1503h-270v1503h-517v33h1547v-641q59 106 165.5 168.5t231.5 62.5q150 0 242 -93z" />
    <glyph glyph-name="Tcaron_T.dlig" horiz-adv-x="2385" 
d="M1022 1927l14 -16l-364 -283l-365 283l15 16l350 -244zM2365 1503h-516v-1503h-270v1503h-772v-1503h-270v1503h-517v33h2345v-33z" />
    <glyph glyph-name="U_N.dlig" horiz-adv-x="2652" 
d="M2458 1536v-1556h-31l-1081 1200v-662q0 -162 -64.5 -283.5t-185.5 -188t-287 -66.5q-184 0 -326.5 72.5t-222.5 204.5t-80 304v975h271v-1024q0 -143 50 -254t140 -171t207 -60q135 0 238.5 60t161 171t57.5 254v1044h28l1084 -1202v1182h41z" />
    <glyph glyph-name="U_Nacute.dlig" horiz-adv-x="2652" 
d="M1624 1632l-10 29l592 217l12 -33zM2458 1536v-1556h-31l-1081 1200v-662q0 -162 -65 -284t-185 -188q-121 -67 -287 -66q-184 0 -327 72q-142 73 -222 205t-80 304v975h271v-1024q0 -143 50 -254t140 -171t207 -60q135 0 238 60t161 171q57 111 58 254v1044h28
l1084 -1202v1182h41z" />
    <glyph glyph-name="U_Ncaron.dlig" horiz-adv-x="2652" 
d="M2247 1927l14 -16l-365 -283l-364 283l14 16l350 -244zM2458 1536v-1556h-31l-1081 1200v-662q0 -162 -64.5 -283.5t-185.5 -188t-287 -66.5q-184 0 -326.5 72.5t-222.5 204.5t-80 304v975h271v-1024q0 -143 50 -254t140 -171t207 -60q135 0 238.5 60t161 171t57.5 254
v1044h28l1084 -1202v1182h41z" />
    <glyph glyph-name="U_uni0145.dlig" horiz-adv-x="2652" 
d="M1977.5 -148q35.5 -42 35.5 -116q0 -88 -56 -162t-147 -109l-14 23q72 31 120 92.5t56 126.5q-37 -37 -102 -37q-51 0 -84 31t-33 80q0 51 35 82t92 31q62 0 97.5 -42zM2458 1536v-1556h-31l-1081 1200v-662q0 -162 -64.5 -283.5t-185.5 -188t-287 -66.5
q-184 0 -326.5 72.5t-222.5 204.5t-80 304v975h271v-1024q0 -143 50 -254t140 -171t207 -60q135 0 238.5 60t161 171t57.5 254v1044h28l1084 -1202v1182h41z" />
    <glyph glyph-name="U_Ntilde.dlig" horiz-adv-x="2652" 
d="M1626 1811.5q-43 -37.5 -80 -111.5l-20 10q72 172 215 172q49 0 87 -22.5t85 -65.5q41 -37 72.5 -56.5t70.5 -19.5q63 0 106.5 38t78.5 112l22 -13q-72 -172 -215 -172q-49 0 -87 23t-87 66q-43 39 -74 58t-69 19q-62 0 -105 -37.5zM2458 1536v-1556h-31l-1081 1200v-662
q0 -162 -64.5 -283.5t-185.5 -188t-287 -66.5q-184 0 -326.5 72.5t-222.5 204.5t-80 304v975h271v-1024q0 -143 50 -254t140 -171t207 -60q135 0 238.5 60t161 171t57.5 254v1044h28l1084 -1202v1182h41z" />
    <glyph glyph-name="Uacute_N.dlig" horiz-adv-x="2652" 
d="M580 1632l-11 29l592 217l13 -33zM2458 1536v-1556h-31l-1081 1200v-662q0 -162 -64.5 -283.5t-185.5 -188t-287 -66.5q-184 0 -326.5 72.5t-222.5 204.5t-80 304v975h271v-1024q0 -143 50 -254t140 -171t207 -60q135 0 238.5 60t161 171t57.5 254v1044h28l1084 -1202
v1182h41z" />
    <glyph glyph-name="Uacute_Ncaron.dlig" horiz-adv-x="2652" 
d="M580 1632l-11 29l592 217l13 -33zM2458 1536v-1556h-31l-1081 1200v-662q0 -162 -65 -284t-185 -188q-121 -67 -287 -66q-184 0 -327 72q-142 73 -222 205t-80 304v975h271v-1024q0 -143 50 -254t140 -171t207 -60q135 0 238 60t161 171q57 111 58 254v1044h28
l1084 -1202v1182h41zM2247 1927l14 -16l-365 -283l-364 283l14 16l350 -244z" />
    <glyph glyph-name="Uacute_Ntilde.dlig" horiz-adv-x="2652" 
d="M580 1632l-11 29l592 217l13 -33zM2458 1536v-1556h-31l-1081 1200v-662q0 -162 -65 -284t-185 -188q-121 -67 -287 -66q-184 0 -327 72q-142 73 -222 205t-80 304v975h271v-1024q0 -143 50 -254t140 -171t207 -60q135 0 238 60t161 171q57 111 58 254v1044h28
l1084 -1202v1182h41zM1626 1811q-43 -38 -80 -111l-20 10q72 172 215 172q49 0 87 -22q38 -23 85 -66q41 -37 73 -56t70 -20q63 0 107 38q43 38 78 112l22 -13q-72 -172 -215 -172q-49 0 -87 23t-87 66q-43 39 -74 58t-69 19q-62 0 -105 -38z" />
    <glyph glyph-name="Udieresis_N.dlig" horiz-adv-x="2652" 
d="M557 1701q-35 32 -35 83t35 84t90 33t89 -32t34 -85q0 -51 -34 -83t-89 -32t-90 32zM965.5 1701q-33.5 32 -33.5 83q0 53 33.5 85t89.5 32q57 0 91 -32t34 -85q0 -51 -34 -83t-91 -32q-56 0 -89.5 32zM2458 1536v-1556h-31l-1081 1200v-662q0 -162 -64.5 -283.5
t-185.5 -188t-287 -66.5q-184 0 -326.5 72.5t-222.5 204.5t-80 304v975h271v-1024q0 -143 50 -254t140 -171t207 -60q135 0 238.5 60t161 171t57.5 254v1044h28l1084 -1202v1182h41z" />
    <glyph glyph-name="Uhungarumlaut_Ntilde.dlig" horiz-adv-x="2652" 
d="M1014 2015l20 -28l-520 -359l-16 25zM1448 2015l20 -28l-520 -359l-16 25zM2458 1536v-1556h-31l-1081 1200v-662q0 -162 -65 -284t-185 -188q-121 -67 -287 -66q-184 0 -327 72q-142 73 -222 205t-80 304v975h271v-1024q0 -143 50 -254t140 -171t207 -60q135 0 238 60
t161 171q57 111 58 254v1044h28l1084 -1202v1182h41zM1626 1811q-43 -38 -80 -111l-20 10q72 172 215 172q49 0 87 -22q38 -23 85 -66q41 -37 73 -56t70 -20q63 0 107 38q43 38 78 112l22 -13q-72 -172 -215 -172q-49 0 -87 23t-87 66q-43 39 -74 58t-69 19q-62 0 -105 -38z
" />
    <glyph glyph-name="Umacron_N.dlig" horiz-adv-x="2652" 
d="M1159 1669h-616v33h616v-33zM2458 1536v-1556h-31l-1081 1200v-662q0 -162 -64.5 -283.5t-185.5 -188t-287 -66.5q-184 0 -326.5 72.5t-222.5 204.5t-80 304v975h271v-1024q0 -143 50 -254t140 -171t207 -60q135 0 238.5 60t161 171t57.5 254v1044h28l1084 -1202v1182h41
z" />
    <glyph glyph-name="Umacron_uni0145.dlig" horiz-adv-x="2652" 
d="M543 1669v33h616v-33h-616zM2458 1536v-1556h-31l-1081 1200v-662q0 -162 -65 -284t-185 -188q-121 -67 -287 -66q-184 0 -327 72q-142 73 -222 205t-80 304v975h271v-1024q0 -143 50 -254t140 -171t207 -60q135 0 238 60t161 171q57 111 58 254v1044h28l1084 -1202v1182
h41zM1977 -148q36 -42 36 -116q0 -88 -56 -162t-147 -109l-14 23q72 31 120 92t56 127q-37 -37 -102 -37q-51 0 -84 31t-33 80q0 51 35 82t92 31q61 0 97 -42z" />
    <glyph glyph-name="Uring_N.dlig" horiz-adv-x="2652" 
d="M700.5 1676.5q-57.5 54.5 -57.5 144.5t57.5 144t151.5 54t150.5 -54t56.5 -144t-56.5 -144.5t-150.5 -54.5t-151.5 54.5zM730 1941.5q-46 -45.5 -46 -120.5q0 -74 46 -120t122 -46t121 46t45 120q0 76 -45 121t-121 45t-122 -45.5zM2458 1536v-1556h-31l-1081 1200v-662
q0 -162 -64.5 -283.5t-185.5 -188t-287 -66.5q-184 0 -326.5 72.5t-222.5 204.5t-80 304v975h271v-1024q0 -143 50 -254t140 -171t207 -60q135 0 238.5 60t161 171t57.5 254v1044h28l1084 -1202v1182h41z" />
    <glyph glyph-name="f_b.dlig" horiz-adv-x="2183" 
d="M487 1106h338v-33h-338v-1073h-262v1073h-202v33h202v151q0 162 104.5 261.5t274.5 99.5q55 0 115.5 -16.5t103.5 -42.5l-8 -19q-27 12 -61.5 20.5t-63.5 8.5q-92 0 -147.5 -72t-55.5 -190v-201zM1866.5 1054.5q107.5 -71.5 166 -201.5t58.5 -300t-58.5 -300t-166 -201.5
t-246.5 -71.5q-123 0 -219 70.5t-131 185.5l-19 -236h-229v1597h262v-688q45 100 136 158.5t200 58.5q139 0 246.5 -71.5zM1685.5 106.5q61.5 63.5 95.5 179t34 267.5t-34 267.5t-95.5 179t-143.5 63.5t-152.5 -64.5t-105.5 -171.5v-548q33 -106 103.5 -171t154.5 -65
q82 0 143.5 63.5z" />
    <glyph glyph-name="f_b.dlig.salt" horiz-adv-x="2183" 
d="M487 1106h338v-33h-338v-1073h-262v1073h-202v33h202v151q0 162 104.5 261.5t274.5 99.5q55 0 115.5 -16.5t103.5 -42.5l-8 -19q-27 12 -61.5 20.5t-63.5 8.5q-92 0 -147.5 -72t-55.5 -190v-201zM1866.5 1054.5q107.5 -71.5 166 -201.5t58.5 -300t-58.5 -300t-166 -201.5
t-246.5 -71.5q-125 0 -222.5 72.5t-131.5 191.5l-224 -264h-20v1617h262v-688q45 100 136 158.5t200 58.5q139 0 246.5 -71.5zM1685.5 106.5q61.5 63.5 95.5 179t34 267.5t-34 267.5t-95.5 179t-143.5 63.5t-152.5 -64.5t-105.5 -171.5v-548q33 -106 103.5 -171t154.5 -65
q82 0 143.5 63.5z" />
    <glyph glyph-name="f_f_b.dlig" horiz-adv-x="2969" 
d="M1274 1106h338v-33h-338v-1073h-262v1073h-525v-1073h-262v1073h-202v33h202v151q0 162 104.5 261.5t274.5 99.5q68 0 139.5 -22.5t122.5 -61.5l-8 -21q-35 25 -81 40.5t-87 15.5q-92 0 -147.5 -72t-55.5 -190v-201h525v151q0 162 104.5 261.5t272.5 99.5
q57 0 116.5 -16.5t102.5 -42.5l-9 -19q-25 12 -59.5 20.5t-62.5 8.5q-92 0 -147.5 -72t-55.5 -190v-201zM2653.5 1054.5q107.5 -71.5 165.5 -201.5t58 -300t-58 -300t-165.5 -201.5t-249.5 -71.5q-121 0 -217 70.5t-131 185.5l-18 -236h-232v1597h262v-692
q45 102 135.5 161.5t200.5 59.5q142 0 249.5 -71.5zM2470.5 106.5q62.5 63.5 96.5 179t34 267.5t-34 267.5t-96.5 179t-143.5 63.5q-82 0 -153 -64.5t-106 -171.5v-548q35 -106 106 -171t153 -65q81 0 143.5 63.5z" />
    <glyph glyph-name="f_f_b.dlig.salt" horiz-adv-x="2969" 
d="M1274 1106h338v-33h-338v-1073h-262v1073h-525v-1073h-262v1073h-202v33h202v151q0 162 104.5 261.5t274.5 99.5q68 0 139.5 -22.5t122.5 -61.5l-8 -21q-35 25 -81 40.5t-87 15.5q-92 0 -147.5 -72t-55.5 -190v-201h525v151q0 162 104.5 261.5t272.5 99.5
q57 0 116.5 -16.5t102.5 -42.5l-9 -19q-25 12 -59.5 20.5t-62.5 8.5q-92 0 -147.5 -72t-55.5 -190v-201zM2653.5 1054.5q107.5 -71.5 165.5 -201.5t58 -300t-58 -300t-165.5 -201.5t-249.5 -71.5q-125 0 -221 72.5t-131 191.5l-225 -264h-21v1617h262v-692
q45 102 135.5 161.5t200.5 59.5q142 0 249.5 -71.5zM2470.5 106.5q62.5 63.5 96.5 179t34 267.5t-34 267.5t-96.5 179t-143.5 63.5q-82 0 -153 -64.5t-106 -171.5v-548q35 -106 106 -171t153 -65q81 0 143.5 63.5z" />
    <glyph glyph-name="f_f_j.dlig" horiz-adv-x="2228" 
d="M1274 1106h338v-33h-338v-1073h-262v1073h-525v-1073h-262v1073h-202v33h202v151q0 162 104.5 261.5t274.5 99.5q68 0 139.5 -22.5t122.5 -61.5l-8 -21q-35 25 -81 40.5t-87 15.5q-92 0 -147.5 -72t-55.5 -190v-201h525v151q0 162 104.5 261.5t272.5 99.5
q57 0 116.5 -16.5t102.5 -42.5l-9 -19q-25 12 -59.5 20.5t-62.5 8.5q-92 0 -147.5 -72t-55.5 -190v-201zM1829 1344.5q-41 39.5 -41 105.5t41 104.5t110 38.5q70 0 111 -38.5t41 -104.5t-41 -105.5t-111 -39.5q-69 0 -110 39.5zM1808 1106h263v-1088q0 -193 -94.5 -305
t-272.5 -184l-10 20q115 96 114 388v1169z" />
    <glyph glyph-name="f_f_k.dlig" horiz-adv-x="2838" 
d="M1274 1106h338v-33h-338v-1073h-262v1073h-525v-1073h-262v1073h-202v33h202v151q0 162 104.5 261.5t274.5 99.5q68 0 139.5 -22.5t122.5 -61.5l-8 -21q-35 25 -81 40.5t-87 15.5q-92 0 -147.5 -72t-55.5 -190v-201h525v151q0 162 104.5 261.5t272.5 99.5
q57 0 116.5 -16.5t102.5 -42.5l-9 -19q-25 12 -59.5 20.5t-62.5 8.5q-92 0 -147.5 -72t-55.5 -190v-201zM1806 1597h262v-1597h-262v1597zM2849 0h-297l-447 606l609 500h53l-447 -367z" />
    </font>
</defs>
</svg>
