<?xml version="1.0" standalone="no"?>
<!DOCTYPE svg PUBLIC "-//W3C//DTD SVG 1.1//EN" "http://www.w3.org/Graphics/SVG/1.1/DTD/svg11.dtd" >
<svg xmlns="http://www.w3.org/2000/svg" xmlns:xlink="http://www.w3.org/1999/xlink" version="1.1">
<metadata>
Created by FontForge 20201107 at Fri May 11 09:44:58 2018
 By 
Copyright (c) 2018 by Moritz Kleinsorge &#38; Alberto Romanos. All rights reserved.
</metadata>
<defs>
<font id="BwVivant-Thin" horiz-adv-x="0" >
  <font-face 
    font-family="Bw Vivant ExtLt"
    font-weight="200"
    font-stretch="normal"
    units-per-em="2048"
    panose-1="0 0 3 0 0 0 0 0 0 0"
    ascent="1597"
    descent="-451"
    x-height="1090"
    cap-height="1536"
    bbox="-1556 -487 5460 1987"
    underline-thickness="0"
    underline-position="0"
    unicode-range="U+000D-FB02"
  />
<missing-glyph horiz-adv-x="2541" 
d="M1694 -6q-14 -14 -35 -14q-27 0 -34 13t-7 34v663l-694 -696q-14 -14 -35 -14q-27 0 -34 13t-7 34v663l-696 -696q-14 -14 -35 -14q-14 0 -24.5 10t-10.5 26q0 20 10 31l701 698h-664q-47 0 -47 39q0 18 14 33l697 701h-670q-18 0 -29.5 10t-11.5 28v3q0 18 11 28t30 10
h758q20 0 33.5 -7t13.5 -34q0 -18 -17 -34l-698 -697h676q16 0 28.5 -12t12.5 -29v-669l694 692q16 16 35 16q37 0 37 -45v-663l696 692q16 16 33 16q14 0 24.5 -11t10.5 -28q0 -16 -13 -28z" />
    <glyph glyph-name="uniFB01" unicode="fi" horiz-adv-x="1261" 
d="M358 1090h398v-33h-398v-1057h-110v1057h-213v33h213v208q0 143 89 231.5t232 88.5q45 0 95.5 -14.5t85.5 -36.5l-9 -17q-29 14 -70.5 22.5t-78.5 8.5q-106 0 -170 -73.5t-64 -196.5v-221zM1074.5 1413.5q-21.5 -20.5 -54.5 -20.5t-54.5 20.5t-21.5 52.5q0 33 20.5 53.5
t55.5 20.5t55.5 -20.5t20.5 -53.5q0 -32 -21.5 -52.5zM967 1090h110v-1090h-110v1090z" />
    <glyph glyph-name="uniFB02" unicode="fl" horiz-adv-x="1261" 
d="M358 1090h398v-33h-398v-1057h-110v1057h-213v33h213v208q0 143 89 231.5t232 88.5q45 0 95.5 -14.5t85.5 -36.5l-9 -17q-29 14 -70.5 22.5t-78.5 8.5q-106 0 -170 -73.5t-64 -196.5v-221zM1077 1597v-1597h-110v1597h110z" />
    <glyph glyph-name="f_f.liga" unicode="ff" horiz-adv-x="1497" 
d="M1413.5 1590.5q67.5 -27.5 108.5 -74.5l-15 -15q-33 37 -90 58.5t-119 21.5q-106 0 -170.5 -73.5t-64.5 -196.5v-221h399v-33h-399v-1057h-111v1057h-594v-1057h-110v1057h-213v33h213v208q0 143 89 231.5t232 88.5q53 0 111.5 -19.5t101.5 -52.5l-8 -16q-37 23 -88 37
t-94 14q-106 0 -170 -73.5t-64 -196.5v-221h594v208q0 143 89 231.5t233 88.5q72 0 139.5 -27.5z" />
    <glyph glyph-name="f_f_i.liga" unicode="ffi" horiz-adv-x="1966" 
d="M1063 1090h397v-33h-397v-1057h-111v1057h-594v-1057h-110v1057h-213v33h213v208q0 143 89 231.5t232 88.5q53 0 111.5 -19.5t101.5 -52.5l-8 -16q-37 23 -88 37t-94 14q-106 0 -170 -73.5t-64 -196.5v-221h594v208q0 143 89 231.5t233 88.5q45 0 95 -14.5t85 -36.5
l-8 -17q-31 14 -73 22.5t-77 8.5q-106 0 -169.5 -73.5t-63.5 -196.5v-221zM1778.5 1413.5q-21.5 -20.5 -54.5 -20.5t-54 20.5t-21 52.5q0 33 20.5 53.5t54.5 20.5q35 0 55.5 -20.5t20.5 -53.5q0 -32 -21.5 -52.5zM1671 1090h111v-1090h-111v1090z" />
    <glyph glyph-name="f_f_l.liga" unicode="ffl" horiz-adv-x="1966" 
d="M1063 1090h397v-33h-397v-1057h-111v1057h-594v-1057h-110v1057h-213v33h213v208q0 143 89 231.5t232 88.5q53 0 111.5 -19.5t101.5 -52.5l-8 -16q-37 23 -88 37t-94 14q-106 0 -170 -73.5t-64 -196.5v-221h594v208q0 143 89 231.5t233 88.5q45 0 95 -14.5t85 -36.5
l-8 -17q-31 14 -73 22.5t-77 8.5q-106 0 -169.5 -73.5t-63.5 -196.5v-221zM1782 1597v-1597h-111v1597h111z" />
    <glyph glyph-name=".notdef" horiz-adv-x="2541" 
d="M1694 -6q-14 -14 -35 -14q-27 0 -34 13t-7 34v663l-694 -696q-14 -14 -35 -14q-27 0 -34 13t-7 34v663l-696 -696q-14 -14 -35 -14q-14 0 -24.5 10t-10.5 26q0 20 10 31l701 698h-664q-47 0 -47 39q0 18 14 33l697 701h-670q-18 0 -29.5 10t-11.5 28v3q0 18 11 28t30 10
h758q20 0 33.5 -7t13.5 -34q0 -18 -17 -34l-698 -697h676q16 0 28.5 -12t12.5 -29v-669l694 692q16 16 35 16q37 0 37 -45v-663l696 692q16 16 33 16q14 0 24.5 -11t10.5 -28q0 -16 -13 -28z" />
    <glyph glyph-name="glyph1" 
 />
    <glyph glyph-name="uni000D" unicode="&#xd;" horiz-adv-x="573" 
 />
    <glyph glyph-name="space" unicode=" " horiz-adv-x="573" 
 />
    <glyph glyph-name="exclam" unicode="!" horiz-adv-x="516" 
d="M246 360q0 305 -14.5 540t-36.5 464q-8 115 -9 109q0 37 19.5 60t52.5 23t51.5 -23.5t18.5 -59.5q0 6 -9 -109q-49 -522 -49 -1004h-24zM321.5 4.5q-24.5 -24.5 -63.5 -24.5t-63.5 24.5t-24.5 63.5q0 41 23.5 65.5t64.5 24.5q39 0 63.5 -24.5t24.5 -65.5
q0 -39 -24.5 -63.5z" />
    <glyph glyph-name="quotedbl" unicode="&#x22;" horiz-adv-x="651" 
d="M442 1153l-43 397q-4 31 15 49q18 18 45 19q29 0 46 -20q17 -19 11 -50l-45 -395h-29zM176 1153l-43 397q-4 31 14 49t46 19q29 0 46 -20q17 -19 11 -50l-45 -395h-29z" />
    <glyph glyph-name="numbersign" unicode="#" horiz-adv-x="1413" 
d="M1010 840l-86 -406h305l-6 -33h-308l-84 -401h-40l83 401h-442l-84 -401h-41l84 401h-303l6 33h305l86 406h-303l6 32h304l81 385h41l-82 -385h443l82 385h41l-82 -385h305l-6 -32h-305zM969 840h-443l-86 -406h443z" />
    <glyph glyph-name="dollar" unicode="$" horiz-adv-x="1079" 
d="M927.5 183.5q-55.5 -95.5 -153.5 -148.5t-223 -55v-185h-41v185q-133 6 -246.5 65t-185.5 156l20 20q70 -92 181.5 -147.5t230.5 -55.5q158 0 256 96.5t98 252.5q0 109 -48 182.5t-118.5 120.5t-191.5 106t-193.5 107.5t-122 124t-49.5 186.5q0 164 106.5 262t270.5 100
v185h41v-187q104 -6 197.5 -51t158.5 -121l-16 -16q-66 68 -160 110t-186 42q-129 0 -211 -81t-82 -210q0 -94 45 -162t112.5 -111t180.5 -100q127 -63 203 -113.5t129 -133.5t53 -206q0 -122 -55.5 -217.5z" />
    <glyph glyph-name="percent" unicode="%" horiz-adv-x="1771" 
d="M1636 194.5q-39 -98.5 -109.5 -152.5t-162.5 -54q-141 0 -227 119.5t-86 314.5t86 314.5t227 119.5q92 0 162.5 -54t109.5 -152.5t39 -227.5t-39 -227.5zM1205.5 124q60.5 -114 158.5 -114q96 0 156.5 114t60.5 298t-60.5 298t-156.5 114q-98 0 -158.5 -113t-60.5 -299
q0 -184 60.5 -298zM367 0l999 1536h41l-999 -1536h-41zM682 884.5q-39 -98.5 -109.5 -152.5t-162.5 -54q-141 0 -227.5 120t-86.5 314q0 195 86 314.5t228 119.5q92 0 162.5 -54t109.5 -152.5t39 -227.5t-39 -227.5zM250.5 814q60.5 -114 159.5 -114q96 0 156.5 114
t60.5 298t-60.5 298t-156.5 114q-98 0 -159 -113t-61 -299q0 -184 60.5 -298z" />
    <glyph glyph-name="ampersand" unicode="&#x26;" horiz-adv-x="1443" 
d="M1253 0l-209 223q-98 -115 -225 -179t-264 -64q-133 0 -231.5 56t-151.5 152.5t-53 212.5q0 133 74.5 246t234.5 236q-78 88 -119 166.5t-41 167.5q0 154 103.5 246.5t275.5 92.5q100 0 197.5 -47t156.5 -123l-14 -18q-63 68 -151 109t-172 41q-127 0 -202 -76t-75 -195
q0 -88 48 -172t153 -198l497 -541q80 119 126 271.5t49 324.5h28q0 -176 -47 -336t-131 -287l287 -309h-144zM830.5 107.5q103.5 50.5 187.5 142.5l-547 586l-16 18q-121 -104 -178.5 -197.5t-57.5 -205.5q0 -109 50 -199t141.5 -142.5t205.5 -52.5q111 0 214.5 50.5z" />
    <glyph glyph-name="quotesingle" unicode="'" horiz-adv-x="382" 
d="M176 1153l-43 397q-4 31 14.5 49.5t45.5 18.5q29 0 46 -19.5t11 -50.5l-45 -395h-29z" />
    <glyph glyph-name="parenleft" unicode="(" horiz-adv-x="540" 
d="M219 57q-100 301 -100 588q0 307 100 608t264 488h31q-158 -186 -254 -488.5t-96 -607.5q0 -281 96 -583t254 -513h-31q-164 207 -264 508z" />
    <glyph glyph-name="parenright" unicode=")" horiz-adv-x="540" 
d="M321.5 1253q100.5 -301 100.5 -608q0 -287 -100.5 -588t-264.5 -508h-30q158 211 254 513.5t96 582.5q0 305 -96.5 607t-253.5 489h30q164 -187 264.5 -488z" />
    <glyph glyph-name="asterisk" unicode="*" horiz-adv-x="808" 
d="M432 1430l166 -222l-33 -24l-162 229l-161 -229l-33 24l166 222l-264 83l12 39l264 -90l-4 279h41l-4 -279l264 90l12 -39z" />
    <glyph glyph-name="plus" unicode="+" horiz-adv-x="970" 
d="M844 557h-338v-332h-41v332h-338v33h338v332h41v-332h338v-33z" />
    <glyph glyph-name="comma" unicode="," horiz-adv-x="438" 
d="M284.5 133q26.5 -37 26.5 -106q0 -104 -44 -202.5t-113 -152.5l-17 23q61 51 99 137t40 176q-25 -29 -69 -28q-39 0 -62.5 26.5t-23.5 69.5t25.5 68.5t66.5 25.5q45 0 71.5 -37z" />
    <glyph glyph-name="hyphen" unicode="-" horiz-adv-x="958" 
d="M160 557v33h639v-33h-639z" />
    <glyph glyph-name="period" unicode="." horiz-adv-x="483" 
d="M309.5 6.5q-26.5 -26.5 -67.5 -26.5t-68 26.5t-27 69.5t27 68.5t68 25.5t67.5 -25.5t26.5 -68.5t-26.5 -69.5z" />
    <glyph glyph-name="slash" unicode="/" horiz-adv-x="1036" 
d="M57 -451l877 2192h43l-877 -2192h-43z" />
    <glyph glyph-name="zero" unicode="0" horiz-adv-x="1394" 
d="M1181 355q-69 -179 -194 -277t-289 -98t-289 98q-126 98 -195 277t-69 413q0 233 69 413q69 179 195 277t289 98q164 0 289 -98t194 -277t68 -413q1 -234 -68 -413zM326 373q53 -172 149 -267q96 -94 223 -94q125 0 222 94q96 94 149 267q53 172 53 395t-53 395t-149 267
q-96 94 -222 94q-127 0 -223 -94t-149 -267q-53 -172 -54 -395q1 -223 54 -395z" />
    <glyph glyph-name="one" unicode="1" horiz-adv-x="958" 
d="M727 1556v-1556h-117v1466l-542 -315l-15 27l643 378h31z" />
    <glyph glyph-name="two" unicode="2" horiz-adv-x="1185" 
d="M1067 33v-33h-1004v18q389 287 620 579q230 292 230 533q0 109 -47 197t-130 139t-189 52q-102 0 -205 -49q-102 -48 -184 -132l-17 17q84 92 197 147t242 55t234 -55t166 -155q60 -100 60 -228q0 -246 -221 -532q-221 -287 -606 -553h854z" />
    <glyph glyph-name="three" unicode="3" horiz-adv-x="1239" 
d="M976 678q124 -113 124 -281q0 -125 -66 -219t-185 -146q-120 -52 -278 -52q-131 0 -264 56t-217 148l19 21q84 -88 199 -137q116 -49 235 -50q129 0 226 49q97 48 152 134q54 86 54 198q0 119 -60 209q-59 90 -166 140q-108 49 -249 49h-45v32h26q127 0 226 47
q98 46 151 130t53 192q0 143 -94 232q-94 88 -250 88q-96 0 -206 -42t-187 -112l-16 18q82 78 200 126q119 48 228 48q133 0 236 -44t160 -124q56 -81 56 -186q0 -152 -105 -255t-290 -132q209 -24 333 -137z" />
    <glyph glyph-name="four" unicode="4" horiz-adv-x="1310" 
d="M1235 371h-248v-371h-115v371h-815v18l906 1167h24v-1153h248v-32zM872 403v975l-755 -975h755z" />
    <glyph glyph-name="five" unicode="5" horiz-adv-x="1200" 
d="M838 900q117 -60 181 -172q65 -112 64 -257q0 -145 -66 -257q-67 -112 -189 -173t-281 -61q-137 0 -260 57t-185 151l19 19q57 -84 169 -136t232 -53q129 0 228 57q98 56 152 159t54 237q0 133 -51 236q-51 102 -145 158t-217 57q-80 0 -173 -28t-167 -75l-15 21l93 696
h737v-33h-625l-80 -598q133 55 256 56q152 -1 269 -61z" />
    <glyph glyph-name="six" unicode="6" horiz-adv-x="1310" 
d="M957 881q108 -57 166 -163q58 -105 59 -243q0 -147 -64 -260q-63 -113 -180 -174t-268 -61q-156 0 -276 86t-185 242q-66 157 -66 362q0 264 82 465t232 311q150 111 344 110q102 0 197 -43t149 -112l-17 -17q-51 59 -137 96q-86 36 -172 36q-158 0 -280 -100
q-123 -99 -194 -281t-77 -422q74 104 191 165q117 60 248 60q140 0 248 -57zM871 70q87 57 136 160q48 103 48 241q0 127 -46 225t-129 152q-83 53 -192 53q-121 0 -234 -66q-114 -67 -184 -176q0 -193 51 -338q50 -146 140 -228q90 -81 209 -81q114 1 201 58z" />
    <glyph glyph-name="seven" unicode="7" horiz-adv-x="1097" 
d="M1040 1536v-18l-647 -1518h-123l637 1503h-860v33h993z" />
    <glyph glyph-name="eight" unicode="8" horiz-adv-x="1327" 
d="M1085 671q106 -112 107 -276q0 -123 -66 -217t-185 -146q-120 -52 -277 -52q-158 0 -278 52t-185 146q-66 94 -66 217q0 164 107 276q106 112 286 144q-150 31 -236 127q-87 96 -87 238q0 113 57 197q57 85 162 132q104 47 240 47q135 0 239 -47t162 -132q57 -85 57 -197
q0 -141 -87 -238q-87 -96 -236 -127q180 -32 286 -144zM423 926q91 -96 241 -97q150 0 240 97q91 96 91 254q0 156 -91 250t-240 94q-150 0 -241 -94t-91 -250q0 -158 91 -254zM954 117q111 104 111 278q0 119 -50 210t-142 141q-91 50 -209 51q-119 0 -210 -51
q-91 -50 -142 -141q-50 -91 -50 -210q0 -174 111 -278t291 -105q179 1 290 105z" />
    <glyph glyph-name="nine" unicode="9" horiz-adv-x="1310" 
d="M906 1467q124 -89 193 -252t68 -373q0 -256 -76 -452q-77 -196 -218 -303q-140 -108 -322 -107q-117 0 -222 43t-165 112l16 17q57 -59 154 -97q96 -37 192 -37q154 0 271 104q117 103 180 293q63 189 63 435v16q-72 -104 -189 -166q-118 -61 -249 -61q-141 0 -249 55
t-166 156q-58 100 -58 231q0 141 61 249t174 167q112 59 257 59q161 0 285 -89zM856 742q113 67 182 176q-8 182 -62 319t-147 212q-92 75 -208 75q-109 0 -192 -55q-83 -54 -128 -153t-45 -231q0 -184 101 -297t268 -112q118 -1 231 66z" />
    <glyph glyph-name="colon" unicode=":" horiz-adv-x="509" 
d="M322 946q-27 -27 -68 -26q-41 0 -68 26q-27 27 -26 70q0 43 26 68q27 26 68 26t68 -26t26 -68q1 -43 -26 -70zM322 6q-27 -27 -68 -26q-41 0 -68 26q-27 27 -26 70q0 43 26 68q27 26 68 26t68 -26t26 -68q1 -43 -26 -70z" />
    <glyph glyph-name="semicolon" unicode=";" horiz-adv-x="520" 
d="M328 946q-27 -27 -68 -26q-41 0 -67 26q-27 27 -27 70t27 68q27 26 67 26q41 0 68 -26t26 -68q1 -43 -26 -70zM330 133q27 -37 26 -106q0 -104 -44 -203q-44 -98 -113 -152l-17 23q61 51 100 137q38 86 40 176q-25 -29 -70 -28q-39 0 -63 26q-24 27 -23 70q0 43 25 68
q26 26 67 26q45 0 72 -37z" />
    <glyph glyph-name="less" unicode="&#x3c;" horiz-adv-x="970" 
d="M92 590l717 287v-37l-664 -267l664 -245v-37l-717 266v33z" />
    <glyph glyph-name="equal" unicode="=" horiz-adv-x="970" 
d="M127 705v32h717v-32h-717zM127 410v32h717v-32h-717z" />
    <glyph glyph-name="greater" unicode="&#x3e;" horiz-adv-x="970" 
d="M162 291v37l663 245l-663 267v37l717 -287v-33z" />
    <glyph glyph-name="question" unicode="?" horiz-adv-x="1021" 
d="M416 360v17q0 98 27.5 178t68.5 139.5t106 139.5q90 109 135.5 191.5t45.5 195.5q0 133 -92.5 215t-241.5 82q-94 0 -199.5 -50.5t-181.5 -132.5l-16 19q82 90 198.5 146t222.5 56q129 0 228.5 -43t154 -119.5t54.5 -176.5q0 -96 -34 -172t-84 -133.5t-132 -133.5
q-80 -74 -126 -126t-78 -120.5t-32 -154.5v-17h-24zM491.5 4.5q-24.5 -24.5 -63.5 -24.5q-41 0 -65.5 24.5t-24.5 63.5q0 41 25.5 65.5t64.5 24.5t63.5 -26t24.5 -64q0 -39 -24.5 -63.5z" />
    <glyph glyph-name="at" unicode="@" horiz-adv-x="2168" 
d="M1581 1445.5q221 -110.5 342 -312t121 -467.5q0 -188 -48 -333t-138.5 -223.5t-208.5 -78.5q-113 0 -186.5 69.5t-96.5 190.5q-49 -117 -148.5 -188.5t-211.5 -71.5q-121 0 -214.5 63.5t-144.5 180t-51 268.5t51 267.5t144.5 179t214.5 63.5q111 0 208 -69t148 -181
l10 229h92v-670q0 -131 55.5 -211.5t147.5 -80.5q98 0 173 74.5t117 209.5t42 312q0 256 -116 450.5t-325.5 301t-486.5 106.5q-270 0 -477 -122t-320.5 -344t-113.5 -515q0 -291 115.5 -513.5t326.5 -345t485 -122.5q139 0 287 47t252 123l10 -19q-104 -82 -255.5 -133
t-295.5 -51q-287 0 -508 127t-341.5 356.5t-120.5 530.5t119.5 531.5t335.5 356t501 125.5q289 0 510 -110.5zM1213 142.5q87 70.5 141 187.5v424q-51 117 -139.5 187.5t-180.5 70.5q-96 0 -168.5 -58.5t-112.5 -165t-40 -245.5t40 -246t113.5 -166t167.5 -59q92 0 179 70.5
z" />
    <glyph glyph-name="A" unicode="A" horiz-adv-x="1421" 
d="M1049 457h-760l-185 -457h-43l629 1556h27l641 -1556h-121zM1036 489l-370 902l-365 -902h735z" />
    <glyph glyph-name="B" unicode="B" horiz-adv-x="1239" 
d="M1008.5 680.5q109.5 -105.5 109.5 -258.5q0 -125 -67.5 -221.5t-190.5 -148.5t-285 -52h-346v1536h346q133 0 235.5 -45t159 -128t56.5 -189q0 -135 -85 -230.5t-228 -128.5q186 -29 295.5 -134.5zM805 1412q-94 91 -246 91h-215v-674h215q152 0 246 95.5t94 249.5
q0 147 -94 238zM786.5 81q98.5 48 151.5 137t53 204q0 170 -118.5 272.5t-313.5 102.5h-215v-764h215q129 0 227.5 48z" />
    <glyph glyph-name="C" unicode="C" horiz-adv-x="1474" 
d="M1167.5 40q-151.5 -60 -307.5 -60q-215 0 -380 98t-256 277.5t-91 412.5t91 412.5t256 277.5t380 98q147 0 292.5 -56t233.5 -150l-16 -17q-82 82 -217 133.5t-270 51.5q-184 0 -325.5 -94.5t-219.5 -264.5t-78 -391t78 -391t219 -264.5t326 -94.5q139 0 281.5 56.5
t230.5 148.5l16 -22q-92 -101 -243.5 -161z" />
    <glyph glyph-name="D" unicode="D" horiz-adv-x="1652" 
d="M1133.5 1439.5q183.5 -96.5 285 -270.5t101.5 -401t-101.5 -401t-285 -270.5t-424.5 -96.5h-480v1536h480q241 0 424.5 -96.5zM1060 125q159 92 247 259t88 384t-88 384t-247 259t-366 92h-350v-1470h350q207 0 366 92z" />
    <glyph glyph-name="E" unicode="E" horiz-adv-x="1075" 
d="M971 33v-33h-742v1536h725v-33h-610v-674h518v-32h-518v-764h627z" />
    <glyph glyph-name="F" unicode="F" horiz-adv-x="1040" 
d="M344 1503v-696h526v-33h-526v-774h-115v1536h750v-33h-635z" />
    <glyph glyph-name="G" unicode="G" horiz-adv-x="1605" 
d="M1456 815v-618q-100 -96 -264 -156.5t-332 -60.5q-215 0 -380 98t-256 277.5t-91 412.5t91 412.5t256 277.5t380 98q156 0 308.5 -58t242.5 -155l-14 -18q-88 88 -230.5 140.5t-283.5 52.5q-184 0 -325.5 -94.5t-219.5 -264.5t-78 -391t78 -391t219 -264.5t326 -94.5
q117 0 238.5 34t219.5 91v672h115z" />
    <glyph glyph-name="H" unicode="H" horiz-adv-x="1511" 
d="M1284 1536v-1536h-117v797h-823v-797h-115v1536h115v-707h823v707h117z" />
    <glyph glyph-name="I" unicode="I" horiz-adv-x="573" 
d="M229 0v1536h115v-1536h-115z" />
    <glyph glyph-name="J" unicode="J" horiz-adv-x="792" 
d="M491.5 61.5q-81.5 -81.5 -215.5 -81.5q-66 0 -127 23.5t-100 62.5l17 20q31 -31 79 -50.5t99 -19.5q96 0 154.5 69t58.5 181v1270h116v-1257q0 -136 -81.5 -217.5z" />
    <glyph glyph-name="K" unicode="K" horiz-adv-x="1275" 
d="M229 1536h115v-1536h-115v1536zM1264 0h-146l-721 809l731 727h54l-678 -676z" />
    <glyph glyph-name="L" unicode="L" horiz-adv-x="1026" 
d="M981 33v-33h-752v1536h115v-1503h637z" />
    <glyph glyph-name="M" unicode="M" horiz-adv-x="1923" 
d="M1640 0l-112 1317l-584 -1337h-31l-591 1335l-115 -1315h-43l139 1556h29l635 -1429l624 1429h29l139 -1556h-119z" />
    <glyph glyph-name="N" unicode="N" horiz-adv-x="1511" 
d="M229 0v1556h27l987 -1382v1362h41v-1556h-29l-985 1380v-1360h-41z" />
    <glyph glyph-name="O" unicode="O" horiz-adv-x="1798" 
d="M1571 355.5q-96 -179.5 -270.5 -277.5t-401.5 -98t-401 98t-270.5 277.5t-96.5 412.5t96.5 412.5t270.5 277.5t401 98t401.5 -98t270.5 -277.5t96 -412.5t-96 -412.5zM338 373q80 -172 225.5 -266.5t335.5 -94.5t335.5 94.5t225.5 266.5t80 395t-80 395t-225 266.5
t-336 94.5q-190 0 -335.5 -94.5t-225.5 -266.5t-80 -395t80 -395z" />
    <glyph glyph-name="P" unicode="P" horiz-adv-x="1189" 
d="M854 1483q119 -53 184.5 -148.5t65.5 -220.5t-65.5 -221t-184.5 -149.5t-274 -53.5h-236v-690h-115v1536h351q155 0 274 -53zM780 772q94 49 145.5 138t51.5 204q0 174 -113.5 281.5t-300.5 107.5h-219v-780h219q123 0 217 49z" />
    <glyph glyph-name="Q" unicode="Q" horiz-adv-x="1798" 
d="M1570 352q-97 -180 -274 -276l320 -309l-29 -29l-327 319q-160 -78 -361 -77q-227 0 -401 98t-270.5 277.5t-96.5 412.5t96.5 412.5t270.5 277.5t401 98t401.5 -98t270.5 -277.5t96 -412.5q0 -236 -97 -416zM1219 96l-340 330l28 29l346 -336q137 96 212 264t75 385
q0 223 -80 395t-225 266.5t-336 94.5q-190 0 -335.5 -94.5t-225.5 -266.5t-80 -395t80 -395t225.5 -266.5t335.5 -94.5q181 0 320 84z" />
    <glyph glyph-name="R" unicode="R" horiz-adv-x="1259" 
d="M1214 0h-145l-721 733h-4v-733h-115v1536h369q152 0 266.5 -50t177 -140.5t62.5 -206.5q0 -121 -62.5 -213t-177 -142.5t-266.5 -50.5h-109zM582 766q178 0 286.5 102.5t108.5 270.5q0 164 -108.5 264t-286.5 100h-238v-737h238z" />
    <glyph glyph-name="S" unicode="S" horiz-adv-x="1107" 
d="M941 179q-58 -95 -159.5 -147t-230.5 -52q-141 0 -262 60t-195 161l21 20q70 -92 181.5 -147.5t229.5 -55.5q158 0 256.5 96.5t98.5 252.5q0 109 -48.5 182.5t-119 120.5t-191.5 106t-193.5 107.5t-121.5 124t-49 186.5q0 166 107.5 264t275.5 98q113 0 214 -46t175 -128
l-17 -16q-63 68 -157 110t-187 42q-129 0 -211 -81t-82 -210q0 -94 45.5 -162t113 -111t179.5 -100q127 -63 203 -113.5t129 -133.5t53 -206q0 -127 -58 -222z" />
    <glyph glyph-name="T" unicode="T" horiz-adv-x="1263" 
d="M1231 1503h-541v-1503h-117v1503h-542v33h1200v-33z" />
    <glyph glyph-name="U" unicode="U" horiz-adv-x="1499" 
d="M1220.5 250q-65.5 -129 -185.5 -199.5t-279 -70.5q-162 0 -285 71.5t-191.5 202.5t-68.5 303v979h117v-989q0 -158 54 -277.5t153.5 -186.5t230.5 -67q143 0 251.5 65.5t168 186.5t59.5 279v989h41v-989q0 -168 -65.5 -297z" />
    <glyph glyph-name="V" unicode="V" horiz-adv-x="1406" 
d="M1343 1536l-620 -1556h-27l-633 1556h121l564 -1395l552 1395h43z" />
    <glyph glyph-name="W" unicode="W" horiz-adv-x="1869" 
d="M1786 1536l-434 -1556h-31l-383 1353l-373 -1353h-30l-453 1556h123l383 -1354l370 1374h35l381 -1374l369 1354h43z" />
    <glyph glyph-name="X" unicode="X" horiz-adv-x="1316" 
d="M1137 0l-514 729l-523 -729h-49l547 764l-545 772h137l494 -700l524 700h49l-550 -733l565 -803h-135z" />
    <glyph glyph-name="Y" unicode="Y" horiz-adv-x="1409" 
d="M774 688v-688h-117v684l-581 852h137l543 -803l518 803h47z" />
    <glyph glyph-name="Z" unicode="Z" horiz-adv-x="1163" 
d="M45 0v18l916 1485h-848v33h987v-18l-920 -1485h918v-33h-1053z" />
    <glyph glyph-name="bracketleft" unicode="[" horiz-adv-x="677" 
d="M258 1708v-2126h395v-33h-436v2192h436v-33h-395z" />
    <glyph glyph-name="backslash" unicode="\" horiz-adv-x="1036" 
d="M57 1741h43l877 -2192h-43z" />
    <glyph glyph-name="bracketright" unicode="]" horiz-adv-x="677" 
d="M461 1741v-2192h-436v33h395v2126h-395v33h436z" />
    <glyph glyph-name="asciicircum" unicode="^" horiz-adv-x="970" 
d="M57 870l414 666h29l413 -666h-43l-385 619l-385 -619h-43z" />
    <glyph glyph-name="underscore" unicode="_" horiz-adv-x="980" 
d="M16 -242v33h949v-33h-949z" />
    <glyph glyph-name="grave" unicode="`" horiz-adv-x="1228" 
d="M600 1212l-393 226l16 28l391 -227z" />
    <glyph glyph-name="a" unicode="a" horiz-adv-x="1142" 
d="M858.5 1012.5q110.5 -97.5 110.5 -267.5v-745h-90l-13 272q-70 -133 -188.5 -212.5t-249.5 -79.5q-156 0 -249 86t-93 229q0 135 120 217t316 82h336v156q0 154 -86 238.5t-240 84.5q-96 0 -192 -37t-166 -100l-14 14q76 76 180 118t215 42q193 0 303.5 -97.5zM683 105.5
q110 82.5 175 216.5v239h-321q-152 0 -243 -72.5t-91 -193.5q0 -123 70.5 -197.5t185.5 -74.5q114 0 224 82.5z" />
    <glyph glyph-name="b" unicode="b" horiz-adv-x="1255" 
d="M924.5 1039.5q103.5 -70.5 161 -198.5t57.5 -296t-57.5 -296t-161 -198.5t-238.5 -70.5t-242.5 79.5t-154.5 214.5l-13 -274h-90v1597h111v-759q51 125 156.5 198.5t232.5 73.5q135 0 238.5 -70.5zM853 86q83 66 128 184.5t45 274.5t-45 275.5t-128 185t-191 65.5
q-119 0 -219.5 -86t-145.5 -225v-428q45 -139 145.5 -225.5t219.5 -86.5q108 0 191 66z" />
    <glyph glyph-name="c" unicode="c" horiz-adv-x="1028" 
d="M804 20.5q-95 -40.5 -192 -40.5q-150 0 -262 70.5t-174.5 198.5t-62.5 298q0 168 62.5 295t175 197.5t261.5 70.5q94 0 182.5 -36t141.5 -95l-12 -16q-51 51 -130 80.5t-157 29.5q-121 0 -214 -65.5t-143.5 -184t-50.5 -276.5t51.5 -277.5t143.5 -186.5t213 -67
q80 0 163 36t144 95l17 -18q-62 -68 -157 -108.5z" />
    <glyph glyph-name="d" unicode="d" horiz-adv-x="1255" 
d="M1071 1597v-1597h-92l-12 272q-47 -133 -156 -212.5t-242 -79.5q-135 0 -238.5 70.5t-160.5 198.5t-57 296t57 296t160.5 198.5t238.5 70.5q131 0 236.5 -74.5t155.5 -204.5v766h110zM813 106.5q100 86.5 148 225.5v428q-47 139 -147.5 225t-219.5 86q-109 0 -192 -65.5
t-128 -185.5t-45 -275q0 -156 45 -274.5t128 -184.5t192 -66q119 0 219 86.5z" />
    <glyph glyph-name="e" unicode="e" horiz-adv-x="1175" 
d="M229 569v-24q0 -158 51.5 -278t145.5 -185.5t217 -65.5q96 0 195.5 35t167.5 96l12 -16q-70 -70 -179.5 -110.5t-220.5 -40.5q-150 0 -264 70.5t-177.5 198.5t-63.5 296t62.5 296t177 198.5t265.5 70.5q137 0 243 -66.5t164 -188.5t58 -282v-4h-854zM348.5 947
q-104.5 -130 -117.5 -345h736q0 141 -43 248.5t-122 167t-184 59.5q-165 0 -269.5 -130z" />
    <glyph glyph-name="f" unicode="f" horiz-adv-x="792" 
d="M708.5 1590.5q67.5 -27.5 108.5 -74.5l-14 -15q-33 37 -90.5 58.5t-118.5 21.5q-106 0 -171 -73.5t-65 -196.5v-221h402v-33h-402v-1057h-110v1057h-213v33h213v208q0 143 89 231.5t232 88.5q72 0 139.5 -27.5z" />
    <glyph glyph-name="g" unicode="g" horiz-adv-x="1255" 
d="M1071 1090v-1080q0 -143 -66.5 -252.5t-187.5 -169t-280 -59.5q-92 0 -192.5 36t-168.5 95l17 18q63 -51 155 -82.5t178 -31.5q129 0 227.5 54t153 152.5t54.5 227.5v260q-51 -127 -157 -202.5t-235 -75.5q-135 0 -238.5 70.5t-160.5 198.5t-57 296t57 296t160.5 198.5
t238.5 70.5t243 -80t155 -215l12 275h92zM813 106.5q100 86.5 148 225.5v428q-47 139 -147.5 225t-219.5 86q-109 0 -192 -65.5t-128 -185.5t-45 -275q0 -156 45 -274.5t128 -184.5t192 -66q119 0 219 86.5z" />
    <glyph glyph-name="h" unicode="h" horiz-adv-x="1236" 
d="M975 1021q88 -89 88 -235v-786h-111v799q0 123 -66.5 197.5t-174.5 74.5q-123 0 -238 -86t-176 -225v-760h-111v1597h111v-774q70 131 189.5 209t254.5 78q146 0 234 -89z" />
    <glyph glyph-name="i" unicode="i" horiz-adv-x="481" 
d="M293.5 1413.5q-21.5 -20.5 -53.5 -20.5q-35 0 -55.5 20.5t-20.5 52.5q0 35 20.5 54.5t55.5 19.5t55 -20.5t20 -53.5q0 -32 -21.5 -52.5zM186 0v1090h111v-1090h-111z" />
    <glyph glyph-name="j" unicode="j" horiz-adv-x="489" 
d="M302.5 1413.5q-21.5 -20.5 -54.5 -20.5q-35 0 -55.5 20.5t-20.5 52.5q0 35 20.5 54.5t55.5 19.5t55.5 -20.5t20.5 -53.5q0 -32 -21.5 -52.5zM236.5 -307.5q-66.5 -98.5 -193.5 -163.5l-10 20q78 55 119 149.5t41 223.5v1168h110v-1135q0 -164 -66.5 -262.5z" />
    <glyph glyph-name="k" unicode="k" horiz-adv-x="1046" 
d="M186 1597h111v-1597h-111v1597zM1032 0h-135l-551 604l569 486h54l-518 -441z" />
    <glyph glyph-name="l" unicode="l" horiz-adv-x="481" 
d="M186 0v1597h111v-1597h-111z" />
    <glyph glyph-name="m" unicode="m" horiz-adv-x="1961" 
d="M1703 1024q85 -86 85 -227v-797h-111v809q0 119 -63.5 190.5t-165.5 71.5q-119 0 -228.5 -81t-177.5 -218v-772h-110v809q0 119 -63.5 190.5t-168.5 71.5q-119 0 -231.5 -84t-171.5 -217v-770h-111v1090h90l13 -273q66 133 185.5 213t256.5 80q131 0 215 -77t94 -204
q66 127 184.5 204t252.5 77q141 0 226 -86z" />
    <glyph glyph-name="n" unicode="n" horiz-adv-x="1236" 
d="M975 1021q88 -89 88 -235v-786h-111v799q0 123 -66.5 197.5t-174.5 74.5q-123 0 -238 -86t-176 -225v-760h-111v1090h90l13 -281q68 137 190.5 219t261.5 82q146 0 234 -89z" />
    <glyph glyph-name="o" unicode="o" horiz-adv-x="1257" 
d="M1082.5 249q-64.5 -128 -182.5 -198.5t-271 -70.5q-154 0 -271.5 70.5t-182 198.5t-64.5 296t64.5 296t182 198.5t271.5 70.5t271.5 -70.5t182 -198.5t64.5 -296t-64.5 -296zM279.5 266q50.5 -121 141.5 -187.5t208 -66.5q119 0 210 66.5t141 187.5t50 279t-50 278.5
t-141 187t-210 66.5q-117 0 -208 -66.5t-141.5 -187.5t-50.5 -278q0 -158 50.5 -279z" />
    <glyph glyph-name="p" unicode="p" horiz-adv-x="1255" 
d="M924.5 1039.5q103.5 -70.5 161 -198.5t57.5 -296t-57.5 -296t-161 -198.5t-238.5 -70.5q-129 0 -233.5 74.5t-155.5 199.5v-705h-111v1541h90l13 -273q47 133 155.5 213t241.5 80q135 0 238.5 -70.5zM853 86q83 66 128 184.5t45 274.5t-45 275.5t-128 185t-191 65.5
q-119 0 -219.5 -86t-145.5 -225v-428q45 -139 145.5 -225.5t219.5 -86.5q108 0 191 66z" />
    <glyph glyph-name="q" unicode="q" horiz-adv-x="1255" 
d="M1071 1090v-1541h-110v709q-51 -127 -157 -202.5t-235 -75.5q-135 0 -238.5 70.5t-160.5 198.5t-57 296t57 296t160.5 198.5t238.5 70.5t243 -80t155 -215l12 275h92zM813 106.5q100 86.5 148 225.5v428q-47 139 -147.5 225t-219.5 86q-109 0 -192 -65.5t-128 -185.5
t-45 -275q0 -156 45 -274.5t128 -184.5t192 -66q119 0 219 86.5z" />
    <glyph glyph-name="r" unicode="r" horiz-adv-x="784" 
d="M470 999.5q122 90.5 265 90.5v-33q-145 0 -266 -96.5t-172 -251.5v-709h-111v1090h90l13 -328q59 147 181 237.5z" />
    <glyph glyph-name="s" unicode="s" horiz-adv-x="997" 
d="M796.5 65q-112.5 -85 -294.5 -85q-127 0 -234.5 40.5t-177.5 112.5l14 19q66 -61 168.5 -99.5t206.5 -38.5q141 0 231.5 68t90.5 174q0 74 -43 121t-106.5 75.5t-172.5 63.5q-117 39 -187.5 72t-119.5 90t-49 145q0 133 105.5 210t260.5 77q109 0 201 -38t156 -105
l-12 -15q-63 57 -148.5 90t-173.5 33q-121 0 -201 -60.5t-80 -160.5q0 -70 43 -116t105.5 -74.5t169.5 -63.5q119 -39 190.5 -71.5t120.5 -91t49 -148.5q0 -139 -112.5 -224z" />
    <glyph glyph-name="t" unicode="t" horiz-adv-x="768" 
d="M762 68q-41 -41 -104.5 -64.5t-129.5 -23.5q-127 0 -205.5 81.5t-78.5 217.5v778h-205v33h205l90 348h20v-348h381v-33h-381v-791q0 -113 59.5 -181.5t155.5 -68.5q51 0 100.5 18.5t80.5 49.5z" />
    <glyph glyph-name="u" unicode="u" horiz-adv-x="1216" 
d="M1030 1090v-1090h-90l-12 272q-66 -133 -186.5 -212.5t-256.5 -79.5q-139 0 -225 86t-86 227v797h111v-809q0 -117 63.5 -189t165.5 -72q121 0 232.5 83t173.5 219v768h110z" />
    <glyph glyph-name="v" unicode="v" horiz-adv-x="1087" 
d="M1040 1090l-483 -1110h-20l-486 1110h119l416 -953l413 953h41z" />
    <glyph glyph-name="w" unicode="w" horiz-adv-x="1531" 
d="M1473 1090l-371 -1110h-21l-311 946l-311 -946h-25l-373 1110h119l305 -918l308 938h28l312 -940l303 920h37z" />
    <glyph glyph-name="x" unicode="x" horiz-adv-x="1009" 
d="M846 0l-377 518l-373 -518h-47l397 549l-391 541h129l348 -478l363 478h45l-387 -508l424 -582h-131z" />
    <glyph glyph-name="y" unicode="y" horiz-adv-x="1089" 
d="M1040 1090l-661 -1545h-41l192 449l-477 1096h119l416 -963l411 963h41z" />
    <glyph glyph-name="z" unicode="z" horiz-adv-x="956" 
d="M51 0v16l709 1041h-666v33h797v-17l-709 -1040h709v-33h-840z" />
    <glyph glyph-name="braceleft" unicode="{" horiz-adv-x="555" 
d="M350.5 -372q59.5 -79 157.5 -79l-4 -20q-115 0 -184.5 84t-69.5 223v578q0 96 -48 155.5t-126 59.5h-10v33h10q78 0 126 59t48 156v577q0 139 69.5 223t184.5 84l4 -20q-98 0 -157.5 -79t-59.5 -208v-577q0 -90 -39 -150.5t-109 -81.5q70 -20 109 -81.5t39 -149.5v-578
q0 -129 59.5 -208z" />
    <glyph glyph-name="bar" unicode="|" horiz-adv-x="475" 
d="M217 -432v2173h41v-2173h-41z" />
    <glyph glyph-name="braceright" unicode="}" horiz-adv-x="555" 
d="M489 662v-33h-10q-78 0 -126 -59.5t-48 -155.5v-578q0 -139 -69.5 -223t-184.5 -84l-4 20q98 0 157.5 79t59.5 208v578q0 88 39 149.5t109 81.5q-70 20 -109 80.5t-39 151.5v577q0 129 -59.5 208t-157.5 79l4 20q115 0 184.5 -84t69.5 -223v-577q0 -96 48 -155.5
t126 -59.5h10z" />
    <glyph glyph-name="asciitilde" unicode="~" horiz-adv-x="970" 
d="M53 479q0 102 61.5 166t161.5 64q66 0 114 -29t110 -84q61 -53 104 -78.5t103 -25.5q84 0 136 54t52 142h29q0 -102 -61.5 -165.5t-162.5 -63.5q-66 0 -113.5 28.5t-109.5 83.5q-61 53 -104 79t-103 26q-84 0 -136 -54.5t-52 -142.5h-29z" />
    <glyph glyph-name="uni00A0" unicode="&#xa0;" horiz-adv-x="573" 
 />
    <glyph glyph-name="exclamdown" unicode="&#xa1;" horiz-adv-x="489" 
d="M309.5 957.5q-24.5 -25.5 -65.5 -25.5q-39 0 -63.5 25.5t-24.5 64.5t24.5 63.5t63.5 24.5q41 0 65.5 -24.5t24.5 -63.5t-24.5 -64.5zM297 -448.5q-18 -22.5 -53 -22.5q-33 0 -51.5 23.5t-18.5 60.5q0 -4 8 111q49 528 49 1005h25q0 -305 14.5 -538.5t36.5 -466.5
q8 -115 8 -111q0 -39 -18 -61.5z" />
    <glyph glyph-name="cent" unicode="&#xa2;" horiz-adv-x="1079" 
d="M829.5 248q-90.5 -41 -182.5 -45v-203h-41v203q-143 6 -250.5 77.5t-167 197.5t-59.5 292q0 164 59.5 289t168 196.5t249.5 77.5v203h41v-203q90 -4 174 -40t131 -91l-12 -16q-53 49 -131 79.5t-156 30.5q-121 0 -213 -65.5t-143 -185t-51 -275.5q0 -158 51 -278.5
t144.5 -186t213.5 -65.5q78 0 162 35.5t146 95.5l16 -19q-59 -63 -149.5 -104z" />
    <glyph glyph-name="sterling" unicode="&#xa3;" horiz-adv-x="1179" 
d="M1096 33v-33h-973v16q102 59 163.5 183.5t61.5 269.5q0 141 -47 287h-197v32h187q-45 129 -62.5 195t-17.5 154q0 125 54 220t153.5 147t228.5 52q106 0 223 -56t201 -146l-16 -17q-78 80 -183.5 130.5t-201.5 50.5q-150 0 -241 -96.5t-91 -252.5q0 -88 17.5 -160.5
t52.5 -174.5q4 -14 8 -24.5t6 -21.5h455v-32h-445q43 -137 43 -262q0 -145 -67.5 -269.5t-184.5 -191.5h873z" />
    <glyph glyph-name="currency" unicode="&#xa4;" horiz-adv-x="1382" 
d="M1212 223l-229 228q-106 -106 -293 -107q-182 0 -289 102l-227 -227l-29 29l228 227q-90 109 -90 291t92 291l-228 227l29 29l225 -226q106 100 289 101q182 0 291 -105l229 230l29 -29l-229 -229q88 -111 88 -289q0 -176 -86 -287l229 -227zM958.5 480.5
q96.5 103.5 96.5 285.5t-96.5 285.5t-268.5 103.5t-268 -103.5t-96 -285.5t96 -285.5t268 -103.5t268.5 103.5z" />
    <glyph glyph-name="yen" unicode="&#xa5;" horiz-adv-x="1359" 
d="M762 698h297v-32h-303v-230h303v-33h-303v-403h-117v403h-313v33h313v230h-313v32h303l-572 838h138l542 -803l516 803h47z" />
    <glyph glyph-name="brokenbar" unicode="&#xa6;" horiz-adv-x="475" 
d="M217 811v930h41v-930h-41zM217 -451v934h41v-934h-41z" />
    <glyph glyph-name="section" unicode="&#xa7;" horiz-adv-x="1181" 
d="M953.5 81q33.5 -75 33.5 -177q0 -111 -52 -196t-146.5 -132t-217.5 -47q-109 0 -219 48t-182 126l16 16q68 -68 167.5 -109.5t193.5 -41.5q145 0 233 86t88 227q0 94 -35.5 162t-103.5 125q-59 -14 -137 -14q-143 0 -252 55t-168 154.5t-59 230.5q0 127 55 224t156 153
q-129 109 -129 291q0 162 114.5 259t300.5 97q109 0 219.5 -48t182.5 -126l-17 -17q-68 68 -168 110t-196 42q-141 0 -228.5 -81t-87.5 -212q0 -164 136 -268q70 16 141 16q141 0 249.5 -55t169 -154.5t60.5 -230.5q0 -127 -56.5 -225.5t-158.5 -153.5q64 -59 97.5 -134z
M335 299q97 -113 257 -113t256 113t96 295t-96 294.5t-256 112.5t-257 -112.5t-97 -294.5t97 -295z" />
    <glyph glyph-name="dieresis" unicode="&#xa8;" horiz-adv-x="1228" 
d="M309 1372q-18 -18 -51 -18q-31 0 -49 18t-19 47q0 31 19 49q18 18 49 19q33 0 51 -19q18 -18 19 -49q-1 -29 -19 -47zM702 1372q-18 -18 -49 -18t-50 18t-19 47q0 31 19 49t50 19q31 0 49 -19q18 -18 19 -49q-1 -29 -19 -47z" />
    <glyph glyph-name="copyright" unicode="&#xa9;" horiz-adv-x="1869" 
d="M1636.5 355.5q-100.5 -179.5 -283 -277.5t-419.5 -98q-238 0 -420 98t-282.5 277.5t-100.5 412.5q0 236 100.5 414t282.5 276t420 98t420 -98t282.5 -276t100.5 -414q0 -233 -100.5 -412.5zM270.5 374q94.5 -171 266.5 -266.5t397 -95.5t397 95.5t266.5 266.5t94.5 394
q0 225 -94.5 397t-266.5 265.5t-397 93.5t-397 -93.5t-266.5 -265.5t-94.5 -397q0 -223 94.5 -394zM1115 341q-79 -34 -161 -34q-123 0 -217 57.5t-145 164t-51 245.5q0 137 51 242.5t145 164t217 58.5q78 0 153 -29.5t118 -79.5l-13 -18q-41 41 -103 64.5t-126 23.5
q-96 0 -170 -53t-115 -149.5t-41 -223.5q0 -193 90.5 -311.5t237.5 -118.5q63 0 130 28.5t118 73.5l14 -14q-53 -57 -132 -91z" />
    <glyph glyph-name="ordfeminine" unicode="&#xaa;" horiz-adv-x="794" 
d="M567.5 1499q63.5 -55 63.5 -153v-424h-64l-8 149q-39 -74 -104.5 -118t-139.5 -44q-88 0 -141 50.5t-53 132.5q0 78 68.5 124t181.5 46h184v88q0 84 -48 131t-132 47q-53 0 -106.5 -20.5t-94.5 -55.5l-12 10q45 43 106.5 67.5t124.5 24.5q111 0 174.5 -55zM460.5 987
q59.5 45 94.5 117v135h-174q-80 0 -130 -40t-50 -107q0 -68 37.5 -109t101.5 -41q61 0 120.5 45z" />
    <glyph glyph-name="guillemotleft" unicode="&#xab;" horiz-adv-x="847" 
d="M106 567v13l308 387l20 -13l-254 -381l254 -380l-20 -13zM377 567v13l307 387l21 -13l-254 -381l254 -380l-21 -13z" />
    <glyph glyph-name="logicalnot" unicode="&#xac;" horiz-adv-x="970" 
d="M848 424h-41v260h-676v33h717v-293z" />
    <glyph glyph-name="uni00AD" unicode="&#xad;" horiz-adv-x="958" 
d="M160 557v33h639v-33h-639z" />
    <glyph glyph-name="registered" unicode="&#xae;" horiz-adv-x="1122" 
d="M791.5 1588q99.5 -52 153.5 -147t54 -222q0 -125 -55 -220.5t-154.5 -148.5t-228.5 -53t-228.5 53t-154.5 148.5t-55 220.5q0 127 54 222t153.5 147t230.5 52t230.5 -52zM778 867.5q94 50.5 145.5 141.5t51.5 210q0 180 -113.5 290.5t-300.5 110.5q-186 0 -300 -110.5
t-114 -290.5q0 -119 51.5 -210t145.5 -141.5t217 -50.5t217 50.5zM695.5 1261.5q-25.5 -34.5 -70.5 -51.5l163 -247h-79l-154 231h-25h-65v-231h-74v522h139q86 0 138.5 -39t52.5 -105q0 -45 -25.5 -79.5zM609 1247q34 35 34 94q0 57 -34 91t-91 34h-53v-254h53q57 0 91 35z
" />
    <glyph glyph-name="macron" unicode="&#xaf;" horiz-adv-x="1228" 
d="M193 1323v33h552v-33h-552z" />
    <glyph glyph-name="degree" unicode="&#xb0;" horiz-adv-x="704" 
d="M524.5 1200.5q-65.5 -67.5 -172.5 -67.5q-106 0 -171.5 67.5t-65.5 175.5q0 109 65.5 175.5t171.5 66.5t172 -66.5t66 -175.5q0 -108 -65.5 -175.5zM210 1223.5q54 -58.5 142 -58.5t142.5 58.5t54.5 152.5t-54.5 151.5t-142.5 57.5t-142 -57.5t-54 -151.5t54 -152.5z" />
    <glyph glyph-name="plusminus" unicode="&#xb1;" horiz-adv-x="970" 
d="M844 725v-33h-338v-291h-41v291h-338v33h338v291h41v-291h338zM127 264h717v-33h-717v33z" />
    <glyph glyph-name="acute" unicode="&#xb4;" horiz-adv-x="1228" 
d="M207 1212l-14 27l393 227l16 -28z" />
    <glyph glyph-name="paragraph" unicode="&#xb6;" horiz-adv-x="1062" 
d="M164 1498q96 99 252 99h131v-2048h-41v1323h-90q-156 0 -252 99.5t-96 263.5t96 263zM821 1597v-2048h-41v2048h41z" />
    <glyph glyph-name="periodcentered" unicode="&#xb7;" horiz-adv-x="503" 
d="M319 590q-27 -27 -67 -27q-41 0 -68 27t-26 69q0 43 26 69q27 26 68 26t67 -26q27 -26 27 -69q0 -42 -27 -69z" />
    <glyph glyph-name="cedilla" unicode="&#xb8;" horiz-adv-x="1228" 
d="M426 -177q66 -42 66 -108q0 -84 -103 -135q-102 -51 -270 -51l4 20q125 0 202 47q77 46 76 119q0 53 -55 88t-145 37l59 174l37 -14l-45 -131q108 -4 174 -46z" />
    <glyph glyph-name="ordmasculine" unicode="&#xba;" horiz-adv-x="833" 
d="M633 997q-82 -88 -215 -88q-135 0 -217 88t-82 234q0 145 82 235t217 90q133 0 215 -90t82 -235q0 -146 -82 -234zM260 1014q59 -82 158 -82q96 0 156.5 82t60.5 217q0 137 -60.5 220t-156.5 83q-98 0 -157.5 -83t-59.5 -220q0 -135 59 -217z" />
    <glyph glyph-name="guillemotright" unicode="&#xbb;" horiz-adv-x="847" 
d="M412 193l254 380l-254 381l20 13l307 -387v-13l-307 -387zM143 193l254 380l-254 381l21 13l307 -387v-13l-307 -387z" />
    <glyph glyph-name="onequarter" unicode="&#xbc;" horiz-adv-x="1626" 
d="M1546 201h-133v-201h-88v201h-432v12l504 643h16v-633h133v-22zM1325 223v500l-391 -500h391zM227 0l1000 1536h41l-1000 -1536h-41zM446 1546v-856h-88v787l-282 -160l-10 18l364 211h16z" />
    <glyph glyph-name="onehalf" unicode="&#xbd;" horiz-adv-x="1556" 
d="M1450 23v-23h-565v10q209 162 332 323t122 283q0 94 -54 153q-54 58 -142 58q-51 0 -109 -26q-57 -27 -96 -70l-12 14q49 49 114 80q66 31 127 31q121 0 194 -68t73 -180q0 -129 -120 -284q-120 -156 -325 -301h461zM227 0l1000 1536h41l-1000 -1536h-41zM446 1546v-856
h-88v787l-282 -160l-10 18l364 211h16z" />
    <glyph glyph-name="threequarters" unicode="&#xbe;" horiz-adv-x="1705" 
d="M1634 201h-133v-201h-88v201h-432v12l504 643h16v-633h133v-22zM1413 223v500l-391 -500h391zM315 0l1000 1536h41l-1000 -1536h-41zM592 1064q68 -60 67 -153q0 -106 -81 -170q-82 -63 -216 -63q-76 0 -150 32q-75 32 -124 81l12 16q47 -47 110 -73q62 -26 126 -25
q102 0 166 56q63 56 63 148q0 96 -69 155q-70 58 -185 58h-22v23h12q102 0 166 54q63 54 63 143q0 78 -50 124q-50 47 -134 48q-51 0 -109 -24t-100 -58l-12 14q47 43 113 70t127 26q117 0 188 -54q72 -54 72 -142q0 -82 -58 -139q-57 -56 -157 -72q114 -15 182 -75z" />
    <glyph glyph-name="questiondown" unicode="&#xbf;" horiz-adv-x="1007" 
d="M651.5 957.5q-24.5 -25.5 -65.5 -25.5q-39 0 -63.5 25.5t-24.5 64.5t24.5 63.5t63.5 24.5q41 0 65.5 -24.5t24.5 -63.5t-24.5 -64.5zM747.5 -414.5q-116.5 -56.5 -223.5 -56.5q-129 0 -228 43t-153.5 120t-54.5 177q0 96 34 173t84 134t132 131q80 76 126 128t77.5 122
t31.5 156v16h25v-16q0 -100 -27.5 -180t-68.5 -140.5t-107 -140.5q-90 -109 -135 -192t-45 -195q0 -133 92 -215t242 -82q94 0 199.5 50t181.5 132l16 -18q-82 -90 -198.5 -146.5z" />
    <glyph glyph-name="Agrave" unicode="&#xc0;" horiz-adv-x="1421" 
d="M938 1645l-528 188l12 33l526 -193zM1049 457h-760l-185 -457h-43l629 1556h27l641 -1556h-121zM1036 489l-370 902l-365 -902h735z" />
    <glyph glyph-name="Aacute" unicode="&#xc1;" horiz-adv-x="1421" 
d="M469 1645l-10 28l526 193l12 -33zM1049 457h-760l-185 -457h-43l629 1556h27l641 -1556h-121zM1036 489l-370 902l-365 -902h735z" />
    <glyph glyph-name="Acircumflex" unicode="&#xc2;" horiz-adv-x="1421" 
d="M399 1624l-14 16l317 228l318 -228l-14 -16l-304 191zM1049 457h-760l-185 -457h-43l629 1556h27l641 -1556h-121zM1036 489l-370 902l-365 -902h735z" />
    <glyph glyph-name="Atilde" unicode="&#xc3;" horiz-adv-x="1421" 
d="M412 1694l-21 10q23 66 67 108.5t111 42.5q43 0 76 -18t76 -55q41 -35 66.5 -50.5t60.5 -15.5q47 0 82 32t63 97l23 -12q-20 -66 -64.5 -108t-113.5 -42q-43 0 -76 18.5t-76 55.5q-41 35 -66.5 50.5t-60.5 15.5q-94 0 -147 -129zM1049 457h-760l-185 -457h-43l629 1556
h27l641 -1556h-121zM1036 489l-370 902l-365 -902h735z" />
    <glyph glyph-name="Adieresis" unicode="&#xc4;" horiz-adv-x="1421" 
d="M557 1697.5q-18 -18.5 -51 -18.5q-31 0 -49.5 18.5t-18.5 49.5q0 29 18.5 47t49.5 18q33 0 51 -18t18 -47q0 -31 -18 -49.5zM950.5 1697.5q-18.5 -18.5 -49.5 -18.5t-50.5 18.5t-19.5 49.5q0 29 19.5 47t50.5 18t49.5 -18t18.5 -47q0 -31 -18.5 -49.5zM1049 457h-760
l-185 -457h-43l629 1556h27l641 -1556h-121zM1036 489l-370 902l-365 -902h735z" />
    <glyph glyph-name="Aring" unicode="&#xc5;" horiz-adv-x="1421" 
d="M844 1673q-53 -49 -139 -49q-88 0 -141.5 49t-53.5 131t53 132.5t142 50.5q86 0 139 -50.5t53 -132.5t-53 -131zM593 1698q42 -41 112 -41q68 0 109.5 41t41.5 106q0 68 -42 109t-109 41q-70 0 -112 -41t-42 -109q0 -65 42 -106zM1049 457h-760l-185 -457h-43l629 1556
h27l641 -1556h-121zM1036 489l-370 902l-365 -902h735z" />
    <glyph glyph-name="AE" unicode="&#xc6;" horiz-adv-x="1880" 
d="M1776 33v-33h-744l-65 489h-662l-262 -489h-45l821 1536h938v-33h-807l90 -672h627v-32h-623l103 -766h629zM963 524l-129 955l-510 -955h639z" />
    <glyph glyph-name="Ccedilla" unicode="&#xc7;" horiz-adv-x="1474" 
d="M1174.5 43q-146.5 -59 -300.5 -63l-38 -111q109 -4 174 -46t65 -108q0 -84 -102.5 -135t-270.5 -51l5 20q125 0 201.5 46.5t76.5 119.5q0 53 -55.5 88t-143.5 37l45 140q-207 6 -365.5 106t-245.5 276.5t-87 405.5q0 233 91 412.5t256 277.5t380 98q147 0 292.5 -56
t233.5 -150l-16 -17q-82 82 -217 133.5t-270 51.5q-184 0 -325.5 -94.5t-219.5 -264.5t-78 -391t78 -391t219 -264.5t326 -94.5q139 0 281.5 56.5t230.5 148.5l16 -22q-90 -99 -236.5 -158z" />
    <glyph glyph-name="Egrave" unicode="&#xc8;" horiz-adv-x="1075" 
d="M831 1645l-528 188l12 33l527 -193zM971 33v-33h-742v1536h725v-33h-610v-674h518v-32h-518v-764h627z" />
    <glyph glyph-name="Eacute" unicode="&#xc9;" horiz-adv-x="1075" 
d="M362 1645l-10 28l527 193l12 -33zM971 33v-33h-742v1536h725v-33h-610v-674h518v-32h-518v-764h627z" />
    <glyph glyph-name="Ecircumflex" unicode="&#xca;" horiz-adv-x="1075" 
d="M293 1624l-14 16l317 228l317 -228l-14 -16l-303 191zM971 33v-33h-742v1536h725v-33h-610v-674h518v-32h-518v-764h627z" />
    <glyph glyph-name="Edieresis" unicode="&#xcb;" horiz-adv-x="1075" 
d="M450.5 1697.5q-18.5 -18.5 -51.5 -18.5q-31 0 -49 18.5t-18 49.5q0 29 18.5 47t48.5 18q33 0 51.5 -18t18.5 -47q0 -31 -18.5 -49.5zM843.5 1697.5q-18.5 -18.5 -48.5 -18.5q-31 0 -50.5 18.5t-19.5 49.5q0 29 19.5 47t50.5 18t49 -18t18 -47q0 -31 -18.5 -49.5zM971 33
v-33h-742v1536h725v-33h-610v-674h518v-32h-518v-764h627z" />
    <glyph glyph-name="Igrave" unicode="&#xcc;" horiz-adv-x="573" 
d="M451 1642l-447 160l12 33l445 -164zM229 0v1536h115v-1536h-115z" />
    <glyph glyph-name="Iacute" unicode="&#xcd;" horiz-adv-x="573" 
d="M123 1642l-10 29l444 164l12 -33zM229 0v1536h115v-1536h-115z" />
    <glyph glyph-name="Icircumflex" unicode="&#xce;" horiz-adv-x="573" 
d="M66 1624l-15 16l236 228l235 -228l-14 -16l-221 188zM229 0v1536h115v-1536h-115z" />
    <glyph glyph-name="Idieresis" unicode="&#xcf;" horiz-adv-x="573" 
d="M213 1697.5q-18 -18.5 -51 -18.5q-31 0 -49.5 18.5t-18.5 49.5q0 29 18.5 47t49.5 18q33 0 51 -18t18 -47q0 -31 -18 -49.5zM461.5 1697.5q-19.5 -18.5 -49.5 -18.5q-31 0 -50.5 18.5t-19.5 49.5q0 29 19.5 47t50.5 18t50 -18t19 -47q0 -31 -19.5 -49.5zM229 0v1536h115
v-1536h-115z" />
    <glyph glyph-name="Eth" unicode="&#xd0;" horiz-adv-x="1665" 
d="M1147 1439.5q184 -96.5 285.5 -270.5t101.5 -401t-101.5 -401t-285.5 -270.5t-424 -96.5h-481v799h-174v32h174v705h481q240 0 424 -96.5zM1073 125q160 92 247 259t87 384t-87 384t-247 259t-366 92h-349v-672h424v-32h-424v-766h349q206 0 366 92z" />
    <glyph glyph-name="Ntilde" unicode="&#xd1;" horiz-adv-x="1511" 
d="M473 1694l-20 10q23 66 66.5 108.5t111.5 42.5q43 0 75.5 -18t75.5 -55q41 -35 66.5 -50.5t60.5 -15.5q47 0 82 32t64 97l22 -12q-20 -66 -64 -108t-114 -42q-43 0 -75.5 18.5t-75.5 55.5q-41 35 -67 50.5t-60 15.5q-95 0 -148 -129zM229 0v1556h27l987 -1382v1362h41
v-1556h-29l-985 1380v-1360h-41z" />
    <glyph glyph-name="Ograve" unicode="&#xd2;" horiz-adv-x="1798" 
d="M1133 1645l-529 188l12 33l527 -193zM1571 355.5q-96 -179.5 -270.5 -277.5t-401.5 -98t-401 98t-270.5 277.5t-96.5 412.5t96.5 412.5t270.5 277.5t401 98t401.5 -98t270.5 -277.5t96 -412.5t-96 -412.5zM338 373q80 -172 225.5 -266.5t335.5 -94.5t335.5 94.5
t225.5 266.5t80 395t-80 395t-225 266.5t-336 94.5q-190 0 -335.5 -94.5t-225.5 -266.5t-80 -395t80 -395z" />
    <glyph glyph-name="Oacute" unicode="&#xd3;" horiz-adv-x="1798" 
d="M666 1645l-11 28l527 193l12 -33zM1571 355.5q-96 -179.5 -270.5 -277.5t-401.5 -98t-401 98t-270.5 277.5t-96.5 412.5t96.5 412.5t270.5 277.5t401 98t401.5 -98t270.5 -277.5t96 -412.5t-96 -412.5zM338 373q80 -172 225.5 -266.5t335.5 -94.5t335.5 94.5t225.5 266.5
t80 395t-80 395t-225 266.5t-336 94.5q-190 0 -335.5 -94.5t-225.5 -266.5t-80 -395t80 -395z" />
    <glyph glyph-name="Ocircumflex" unicode="&#xd4;" horiz-adv-x="1798" 
d="M596 1624l-14 16l317 228l318 -228l-15 -16l-303 191zM1571 355.5q-96 -179.5 -270.5 -277.5t-401.5 -98t-401 98t-270.5 277.5t-96.5 412.5t96.5 412.5t270.5 277.5t401 98t401.5 -98t270.5 -277.5t96 -412.5t-96 -412.5zM338 373q80 -172 225.5 -266.5t335.5 -94.5
t335.5 94.5t225.5 266.5t80 395t-80 395t-225 266.5t-336 94.5q-190 0 -335.5 -94.5t-225.5 -266.5t-80 -395t80 -395z" />
    <glyph glyph-name="Otilde" unicode="&#xd5;" horiz-adv-x="1798" 
d="M606 1694l-20 10q23 66 66.5 108.5t111.5 42.5q43 0 75.5 -18t75.5 -55q41 -35 67 -50.5t60 -15.5q47 0 82 32t64 97l22 -12q-20 -66 -64 -108t-114 -42q-43 0 -75.5 18.5t-75.5 55.5q-41 35 -67 50.5t-60 15.5q-95 0 -148 -129zM1571 355.5q-96 -179.5 -270.5 -277.5
t-401.5 -98t-401 98t-270.5 277.5t-96.5 412.5t96.5 412.5t270.5 277.5t401 98t401.5 -98t270.5 -277.5t96 -412.5t-96 -412.5zM338 373q80 -172 225.5 -266.5t335.5 -94.5t335.5 94.5t225.5 266.5t80 395t-80 395t-225 266.5t-336 94.5q-190 0 -335.5 -94.5t-225.5 -266.5
t-80 -395t80 -395z" />
    <glyph glyph-name="Odieresis" unicode="&#xd6;" horiz-adv-x="1798" 
d="M751.5 1697.5q-18.5 -18.5 -51.5 -18.5q-31 0 -49 18.5t-18 49.5q0 29 18.5 47t48.5 18q33 0 51.5 -18t18.5 -47q0 -31 -18.5 -49.5zM1144.5 1697.5q-18.5 -18.5 -48.5 -18.5q-31 0 -50.5 18.5t-19.5 49.5q0 29 19.5 47t50.5 18t49 -18t18 -47q0 -31 -18.5 -49.5z
M1571 355.5q-96 -179.5 -270.5 -277.5t-401.5 -98t-401 98t-270.5 277.5t-96.5 412.5t96.5 412.5t270.5 277.5t401 98t401.5 -98t270.5 -277.5t96 -412.5t-96 -412.5zM338 373q80 -172 225.5 -266.5t335.5 -94.5t335.5 94.5t225.5 266.5t80 395t-80 395t-225 266.5
t-336 94.5q-190 0 -335.5 -94.5t-225.5 -266.5t-80 -395t80 -395z" />
    <glyph glyph-name="multiply" unicode="&#xd7;" horiz-adv-x="970" 
d="M754 279l-267 264l-272 -273l-29 29l273 272l-266 267l28 30l268 -266l256 256l29 -29l-256 -256l264 -266z" />
    <glyph glyph-name="Oslash" unicode="&#xd8;" horiz-adv-x="1798" 
d="M1589 1146q78 -167 78 -378q0 -233 -96 -412.5t-270.5 -277.5t-401.5 -98q-252 0 -436 118l-125 -184l-33 20l127 185q-143 104 -222 271t-79 378q0 233 96.5 412.5t270.5 277.5t401 98q250 0 436 -118l125 180l31 -23l-123 -180q143 -102 221 -269zM313.5 430.5
q55.5 -151.5 159.5 -252.5l825 1204q-168 141 -399 142q-190 0 -335.5 -94.5t-225.5 -266.5t-80 -395q0 -186 55.5 -337.5zM1235 106.5q145 94.5 225 266.5t80 395q0 186 -55 336.5t-158 251.5l-825 -1202q164 -141 397 -142q191 0 336 94.5z" />
    <glyph glyph-name="Ugrave" unicode="&#xd9;" horiz-adv-x="1499" 
d="M1018 1645l-529 188l13 33l526 -193zM1220.5 250q-65.5 -129 -185.5 -199.5t-279 -70.5q-162 0 -285 71.5t-191.5 202.5t-68.5 303v979h117v-989q0 -158 54 -277.5t153.5 -186.5t230.5 -67q143 0 251.5 65.5t168 186.5t59.5 279v989h41v-989q0 -168 -65.5 -297z" />
    <glyph glyph-name="Uacute" unicode="&#xda;" horiz-adv-x="1499" 
d="M549 1645l-10 28l526 193l12 -33zM1220.5 250q-65.5 -129 -185.5 -199.5t-279 -70.5q-162 0 -285 71.5t-191.5 202.5t-68.5 303v979h117v-989q0 -158 54 -277.5t153.5 -186.5t230.5 -67q143 0 251.5 65.5t168 186.5t59.5 279v989h41v-989q0 -168 -65.5 -297z" />
    <glyph glyph-name="Ucircumflex" unicode="&#xdb;" horiz-adv-x="1499" 
d="M481 1624l-14 16l317 228l318 -228l-15 -16l-303 191zM1220.5 250q-65.5 -129 -185.5 -199.5t-279 -70.5q-162 0 -285 71.5t-191.5 202.5t-68.5 303v979h117v-989q0 -158 54 -277.5t153.5 -186.5t230.5 -67q143 0 251.5 65.5t168 186.5t59.5 279v989h41v-989
q0 -168 -65.5 -297z" />
    <glyph glyph-name="Udieresis" unicode="&#xdc;" horiz-adv-x="1499" 
d="M636.5 1697.5q-18.5 -18.5 -50.5 -18.5q-31 0 -49.5 18.5t-18.5 49.5q0 29 18.5 47t49.5 18q33 0 51 -18t18 -47q0 -31 -18.5 -49.5zM1030.5 1697.5q-18.5 -18.5 -49.5 -18.5t-50.5 18.5t-19.5 49.5q0 29 19.5 47t50.5 18t49.5 -18t18.5 -47q0 -31 -18.5 -49.5z
M1220.5 250q-65.5 -129 -185.5 -199.5t-279 -70.5q-162 0 -285 71.5t-191.5 202.5t-68.5 303v979h117v-989q0 -158 54 -277.5t153.5 -186.5t230.5 -67q143 0 251.5 65.5t168 186.5t59.5 279v989h41v-989q0 -168 -65.5 -297z" />
    <glyph glyph-name="Yacute" unicode="&#xdd;" horiz-adv-x="1409" 
d="M496 1645l-11 28l527 193l12 -33zM774 688v-688h-117v684l-581 852h137l543 -803l518 803h47z" />
    <glyph glyph-name="Thorn" unicode="&#xde;" horiz-adv-x="1218" 
d="M854 1182.5q119 -52.5 184.5 -147.5t65.5 -220t-65.5 -221t-184.5 -148.5t-274 -52.5h-236v-393h-115v1536h115v-301h236q155 0 274 -52.5zM863.5 533.5q113.5 107.5 113.5 281.5t-113.5 280.5t-300.5 106.5h-219v-776h219q187 0 300.5 107.5z" />
    <glyph glyph-name="germandbls" unicode="&#xdf;" horiz-adv-x="1226" 
d="M1061 58.5q-94 -78.5 -244 -78.5q-86 0 -162.5 26.5t-128.5 75.5l11 16q45 -37 113.5 -59.5t137.5 -22.5q113 0 181.5 63.5t68.5 170.5q0 88 -44 143.5t-134 122.5q-63 49 -101 85t-63.5 89t-25.5 125q0 76 27.5 132.5t80.5 131.5q53 74 79 126t26 122q0 113 -77 183.5
t-204 70.5q-137 0 -221 -80t-84 -211v-1290h-111v1278q0 100 50.5 177t140.5 120t205 43q160 0 253 -79t93 -210q0 -68 -22.5 -121t-67.5 -125q-43 -66 -63.5 -114.5t-20.5 -108.5q0 -88 48 -146.5t144 -127.5q70 -51 111 -89t69.5 -94.5t28.5 -130.5q0 -135 -94 -213.5z
" />
    <glyph glyph-name="agrave" unicode="&#xe0;" horiz-adv-x="1142" 
d="M745 1264l-393 225l17 29l391 -228zM858.5 1012.5q110.5 -97.5 110.5 -267.5v-745h-90l-13 272q-70 -133 -188.5 -212.5t-249.5 -79.5q-156 0 -249 86t-93 229q0 135 120 217t316 82h336v156q0 154 -86 238.5t-240 84.5q-96 0 -192 -37t-166 -100l-14 14q76 76 180 118
t215 42q193 0 303.5 -97.5zM683 105.5q110 82.5 175 216.5v239h-321q-152 0 -243 -72.5t-91 -193.5q0 -123 70.5 -197.5t185.5 -74.5q114 0 224 82.5z" />
    <glyph glyph-name="aacute" unicode="&#xe1;" horiz-adv-x="1142" 
d="M418 1264l-15 26l394 228l16 -29zM858.5 1012.5q110.5 -97.5 110.5 -267.5v-745h-90l-13 272q-70 -133 -188.5 -212.5t-249.5 -79.5q-156 0 -249 86t-93 229q0 135 120 217t316 82h336v156q0 154 -86 238.5t-240 84.5q-96 0 -192 -37t-166 -100l-14 14q76 76 180 118
t215 42q193 0 303.5 -97.5zM683 105.5q110 82.5 175 216.5v239h-321q-152 0 -243 -72.5t-91 -193.5q0 -123 70.5 -197.5t185.5 -74.5q114 0 224 82.5z" />
    <glyph glyph-name="acircumflex" unicode="&#xe2;" horiz-adv-x="1142" 
d="M319 1255l-14 17l277 250l276 -250l-14 -17l-262 213zM858.5 1012.5q110.5 -97.5 110.5 -267.5v-745h-90l-13 272q-70 -133 -188.5 -212.5t-249.5 -79.5q-156 0 -249 86t-93 229q0 135 120 217t316 82h336v156q0 154 -86 238.5t-240 84.5q-96 0 -192 -37t-166 -100
l-14 14q76 76 180 118t215 42q193 0 303.5 -97.5zM683 105.5q110 82.5 175 216.5v239h-321q-152 0 -243 -72.5t-91 -193.5q0 -123 70.5 -197.5t185.5 -74.5q114 0 224 82.5z" />
    <glyph glyph-name="atilde" unicode="&#xe3;" horiz-adv-x="1142" 
d="M291 1321l-21 10q23 66 67 108t112 42q43 0 75.5 -18.5t75.5 -55.5q41 -35 66.5 -50.5t60.5 -15.5q47 0 82 32t63 100l23 -13q-20 -66 -64.5 -108.5t-113.5 -42.5q-43 0 -76 18.5t-76 54.5q-41 35 -66.5 50.5t-60.5 15.5q-92 0 -147 -127zM858.5 1012.5
q110.5 -97.5 110.5 -267.5v-745h-90l-13 272q-70 -133 -188.5 -212.5t-249.5 -79.5q-156 0 -249 86t-93 229q0 135 120 217t316 82h336v156q0 154 -86 238.5t-240 84.5q-96 0 -192 -37t-166 -100l-14 14q76 76 180 118t215 42q193 0 303.5 -97.5zM683 105.5
q110 82.5 175 216.5v239h-321q-152 0 -243 -72.5t-91 -193.5q0 -123 70.5 -197.5t185.5 -74.5q114 0 224 82.5z" />
    <glyph glyph-name="adieresis" unicode="&#xe4;" horiz-adv-x="1142" 
d="M436.5 1423.5q-18.5 -18.5 -51.5 -18.5q-31 0 -49.5 18.5t-18.5 46.5q0 31 18.5 49.5t49.5 18.5q33 0 51.5 -18.5t18.5 -49.5q0 -28 -18.5 -46.5zM829.5 1423.5q-18.5 -18.5 -49.5 -18.5t-50 18.5t-19 46.5q0 31 19.5 49.5t49.5 18.5q31 0 49.5 -18.5t18.5 -49.5
q0 -28 -18.5 -46.5zM858.5 1012.5q110.5 -97.5 110.5 -267.5v-745h-90l-13 272q-70 -133 -188.5 -212.5t-249.5 -79.5q-156 0 -249 86t-93 229q0 135 120 217t316 82h336v156q0 154 -86 238.5t-240 84.5q-96 0 -192 -37t-166 -100l-14 14q76 76 180 118t215 42
q193 0 303.5 -97.5zM683 105.5q110 82.5 175 216.5v239h-321q-152 0 -243 -72.5t-91 -193.5q0 -123 70.5 -197.5t185.5 -74.5q114 0 224 82.5z" />
    <glyph glyph-name="aring" unicode="&#xe5;" horiz-adv-x="1142" 
d="M723 1281q-53 -50 -139 -50q-88 0 -141.5 50t-53.5 132t53.5 131t141.5 49q86 0 139 -49t53 -131t-53 -132zM472 1305q42 -41 112 -41q68 0 109.5 41t41.5 108q0 66 -42 107t-109 41q-70 0 -112 -41t-42 -107q0 -67 42 -108zM858.5 1012.5q110.5 -97.5 110.5 -267.5v-745
h-90l-13 272q-70 -133 -188.5 -212.5t-249.5 -79.5q-156 0 -249 86t-93 229q0 135 120 217t316 82h336v156q0 154 -86 238.5t-240 84.5q-96 0 -192 -37t-166 -100l-14 14q76 76 180 118t215 42q193 0 303.5 -97.5zM683 105.5q110 82.5 175 216.5v239h-321q-152 0 -243 -72.5
t-91 -193.5q0 -123 70.5 -197.5t185.5 -74.5q114 0 224 82.5z" />
    <glyph glyph-name="ae" unicode="&#xe6;" horiz-adv-x="1929" 
d="M985 565v-20q0 -158 51 -278t145.5 -185.5t217.5 -65.5q96 0 195.5 35t166.5 96l13 -16q-70 -70 -179.5 -110.5t-218.5 -40.5q-174 0 -298 93t-173 259q-76 -162 -206 -257t-271 -95q-156 0 -249 83.5t-93 223.5q0 141 114.5 226t305.5 85h368v150q0 154 -89 239.5
t-246 85.5q-100 0 -196.5 -36t-168.5 -101l-14 14q76 76 182.5 118t220.5 42q160 0 260.5 -71.5t128.5 -200.5q59 129 168 200.5t252 71.5q139 0 244.5 -67.5t164 -190.5t58.5 -283v-4h-854zM1103.5 946q-104.5 -131 -116.5 -348h735q0 143 -43 251.5t-122.5 168
t-184.5 59.5q-164 0 -268.5 -131zM701.5 120q117.5 97 191.5 257q-18 78 -19 168v20h-356q-141 0 -228 -75.5t-87 -200.5q0 -121 70.5 -193.5t187.5 -72.5q123 0 240.5 97z" />
    <glyph glyph-name="ccedilla" unicode="&#xe7;" horiz-adv-x="1028" 
d="M608 -20l-39 -111q109 -4 175.5 -46t66.5 -108q0 -84 -103.5 -135t-271.5 -51l4 20q125 0 202 46.5t77 119.5q0 53 -54.5 88t-144.5 37l47 142q-137 10 -239.5 82.5t-158.5 196.5t-56 286q0 168 62.5 295t175 197.5t261.5 70.5q94 0 182.5 -36t141.5 -95l-12 -16
q-51 51 -130 80.5t-157 29.5q-121 0 -214 -65.5t-143.5 -184t-50.5 -276.5t51.5 -277.5t143.5 -186.5t213 -67q80 0 163 36t144 95l17 -18q-61 -68 -156.5 -108.5t-192.5 -40.5h-4z" />
    <glyph glyph-name="egrave" unicode="&#xe8;" horiz-adv-x="1175" 
d="M764 1264l-393 225l16 29l391 -228zM229 569v-24q0 -158 51.5 -278t145.5 -185.5t217 -65.5q96 0 195.5 35t167.5 96l12 -16q-70 -70 -179.5 -110.5t-220.5 -40.5q-150 0 -264 70.5t-177.5 198.5t-63.5 296t62.5 296t177 198.5t265.5 70.5q137 0 243 -66.5t164 -188.5
t58 -282v-4h-854zM348.5 947q-104.5 -130 -117.5 -345h736q0 141 -43 248.5t-122 167t-184 59.5q-165 0 -269.5 -130z" />
    <glyph glyph-name="eacute" unicode="&#xe9;" horiz-adv-x="1175" 
d="M436 1264l-14 26l393 228l16 -29zM229 569v-24q0 -158 51.5 -278t145.5 -185.5t217 -65.5q96 0 195.5 35t167.5 96l12 -16q-70 -70 -179.5 -110.5t-220.5 -40.5q-150 0 -264 70.5t-177.5 198.5t-63.5 296t62.5 296t177 198.5t265.5 70.5q137 0 243 -66.5t164 -188.5
t58 -282v-4h-854zM348.5 947q-104.5 -130 -117.5 -345h736q0 141 -43 248.5t-122 167t-184 59.5q-165 0 -269.5 -130z" />
    <glyph glyph-name="ecircumflex" unicode="&#xea;" horiz-adv-x="1175" 
d="M340 1255l-14 17l276 250l277 -250l-15 -17l-262 213zM229 569v-24q0 -158 51.5 -278t145.5 -185.5t217 -65.5q96 0 195.5 35t167.5 96l12 -16q-70 -70 -179.5 -110.5t-220.5 -40.5q-150 0 -264 70.5t-177.5 198.5t-63.5 296t62.5 296t177 198.5t265.5 70.5
q137 0 243 -66.5t164 -188.5t58 -282v-4h-854zM348.5 947q-104.5 -130 -117.5 -345h736q0 141 -43 248.5t-122 167t-184 59.5q-165 0 -269.5 -130z" />
    <glyph glyph-name="edieresis" unicode="&#xeb;" horiz-adv-x="1175" 
d="M454.5 1423.5q-18.5 -18.5 -51.5 -18.5q-31 0 -49 18.5t-18 46.5q0 31 18.5 49.5t48.5 18.5q33 0 51.5 -18.5t18.5 -49.5q0 -28 -18.5 -46.5zM847.5 1423.5q-18.5 -18.5 -48.5 -18.5q-31 0 -50.5 18.5t-19.5 46.5q0 31 19.5 49.5t50.5 18.5t49 -18.5t18 -49.5
q0 -28 -18.5 -46.5zM229 569v-24q0 -158 51.5 -278t145.5 -185.5t217 -65.5q96 0 195.5 35t167.5 96l12 -16q-70 -70 -179.5 -110.5t-220.5 -40.5q-150 0 -264 70.5t-177.5 198.5t-63.5 296t62.5 296t177 198.5t265.5 70.5q137 0 243 -66.5t164 -188.5t58 -282v-4h-854z
M348.5 947q-104.5 -130 -117.5 -345h736q0 141 -43 248.5t-122 167t-184 59.5q-165 0 -269.5 -130z" />
    <glyph glyph-name="igrave" unicode="&#xec;" horiz-adv-x="481" 
d="M389 1268l-334 219l19 26l329 -221zM186 0v1090h111v-1090h-111z" />
    <glyph glyph-name="iacute" unicode="&#xed;" horiz-adv-x="481" 
d="M92 1268l-16 24l332 221l18 -26zM186 0v1090h111v-1090h-111z" />
    <glyph glyph-name="icircumflex" unicode="&#xee;" horiz-adv-x="481" 
d="M12 1255l-14 17l242 250l243 -250l-14 -17l-229 211zM186 0v1090h111v-1090h-111z" />
    <glyph glyph-name="idieresis" unicode="&#xef;" horiz-adv-x="481" 
d="M168 1423.5q-18 -18.5 -51 -18.5q-31 0 -49.5 18.5t-18.5 46.5q0 31 18.5 49.5t49.5 18.5q33 0 51 -18.5t18 -49.5q0 -28 -18 -46.5zM416.5 1423.5q-19.5 -18.5 -49.5 -18.5q-31 0 -50.5 18.5t-19.5 46.5q0 31 19.5 49.5t50.5 18.5t50 -18.5t19 -49.5q0 -28 -19.5 -46.5z
M186 0v1090h111v-1090h-111z" />
    <glyph glyph-name="eth" unicode="&#xf0;" horiz-adv-x="1271" 
d="M1031.5 1141q111.5 -223 111.5 -516q0 -193 -64.5 -338.5t-181.5 -226t-270 -80.5q-154 0 -270.5 70.5t-180 197.5t-63.5 295t63.5 295t179 197.5t265.5 70.5q139 0 245.5 -70.5t161.5 -197.5q-39 207 -133 365.5t-233 256.5l-375 -174l-15 33l355 164q-180 111 -394 112
l3 23q246 0 446 -109l231 109l15 -33l-209 -98q201 -123 312.5 -346zM836.5 78.5q91.5 66.5 140.5 186.5t49 278q0 156 -49 275.5t-140.5 186t-209.5 66.5q-119 0 -209 -66.5t-139.5 -186.5t-49.5 -275q0 -158 49.5 -278t139.5 -186.5t209 -66.5q118 0 209.5 66.5z" />
    <glyph glyph-name="ntilde" unicode="&#xf1;" horiz-adv-x="1236" 
d="M326 1321l-21 10q23 66 67 108t111 42q43 0 76 -18.5t76 -55.5q41 -35 66.5 -50.5t60.5 -15.5q47 0 82 32t63 100l23 -13q-20 -66 -64.5 -108.5t-113.5 -42.5q-43 0 -76 18.5t-76 54.5q-41 35 -66.5 50.5t-60.5 15.5q-92 0 -147 -127zM975 1021q88 -89 88 -235v-786h-111
v799q0 123 -66.5 197.5t-174.5 74.5q-123 0 -238 -86t-176 -225v-760h-111v1090h90l13 -281q68 137 190.5 219t261.5 82q146 0 234 -89z" />
    <glyph glyph-name="ograve" unicode="&#xf2;" horiz-adv-x="1257" 
d="M793 1264l-394 225l17 29l391 -228zM1082.5 249q-64.5 -128 -182.5 -198.5t-271 -70.5q-154 0 -271.5 70.5t-182 198.5t-64.5 296t64.5 296t182 198.5t271.5 70.5t271.5 -70.5t182 -198.5t64.5 -296t-64.5 -296zM279.5 266q50.5 -121 141.5 -187.5t208 -66.5
q119 0 210 66.5t141 187.5t50 279t-50 278.5t-141 187t-210 66.5q-117 0 -208 -66.5t-141.5 -187.5t-50.5 -278q0 -158 50.5 -279z" />
    <glyph glyph-name="oacute" unicode="&#xf3;" horiz-adv-x="1257" 
d="M465 1264l-14 26l393 228l16 -29zM1082.5 249q-64.5 -128 -182.5 -198.5t-271 -70.5q-154 0 -271.5 70.5t-182 198.5t-64.5 296t64.5 296t182 198.5t271.5 70.5t271.5 -70.5t182 -198.5t64.5 -296t-64.5 -296zM279.5 266q50.5 -121 141.5 -187.5t208 -66.5
q119 0 210 66.5t141 187.5t50 279t-50 278.5t-141 187t-210 66.5q-117 0 -208 -66.5t-141.5 -187.5t-50.5 -278q0 -158 50.5 -279z" />
    <glyph glyph-name="ocircumflex" unicode="&#xf4;" horiz-adv-x="1257" 
d="M369 1255l-15 17l277 250l276 -250l-14 -17l-262 213zM1082.5 249q-64.5 -128 -182.5 -198.5t-271 -70.5q-154 0 -271.5 70.5t-182 198.5t-64.5 296t64.5 296t182 198.5t271.5 70.5t271.5 -70.5t182 -198.5t64.5 -296t-64.5 -296zM279.5 266q50.5 -121 141.5 -187.5
t208 -66.5q119 0 210 66.5t141 187.5t50 279t-50 278.5t-141 187t-210 66.5q-117 0 -208 -66.5t-141.5 -187.5t-50.5 -278q0 -158 50.5 -279z" />
    <glyph glyph-name="otilde" unicode="&#xf5;" horiz-adv-x="1257" 
d="M338 1321l-21 10q23 66 67 108t112 42q43 0 75.5 -18.5t75.5 -55.5q41 -35 66.5 -50.5t60.5 -15.5q47 0 82 32t64 100l22 -13q-20 -66 -64 -108.5t-114 -42.5q-43 0 -76 18.5t-76 54.5q-41 35 -66.5 50.5t-60.5 15.5q-92 0 -147 -127zM1082.5 249
q-64.5 -128 -182.5 -198.5t-271 -70.5q-154 0 -271.5 70.5t-182 198.5t-64.5 296t64.5 296t182 198.5t271.5 70.5t271.5 -70.5t182 -198.5t64.5 -296t-64.5 -296zM279.5 266q50.5 -121 141.5 -187.5t208 -66.5q119 0 210 66.5t141 187.5t50 279t-50 278.5t-141 187
t-210 66.5q-117 0 -208 -66.5t-141.5 -187.5t-50.5 -278q0 -158 50.5 -279z" />
    <glyph glyph-name="odieresis" unicode="&#xf6;" horiz-adv-x="1257" 
d="M483.5 1423.5q-18.5 -18.5 -51.5 -18.5q-31 0 -49 18.5t-18 46.5q0 31 18 49.5t49 18.5q33 0 51.5 -18.5t18.5 -49.5q0 -28 -18.5 -46.5zM876.5 1423.5q-18.5 -18.5 -49.5 -18.5t-50 18.5t-19 46.5q0 31 19.5 49.5t49.5 18.5q31 0 49.5 -18.5t18.5 -49.5
q0 -28 -18.5 -46.5zM1082.5 249q-64.5 -128 -182.5 -198.5t-271 -70.5q-154 0 -271.5 70.5t-182 198.5t-64.5 296t64.5 296t182 198.5t271.5 70.5t271.5 -70.5t182 -198.5t64.5 -296t-64.5 -296zM279.5 266q50.5 -121 141.5 -187.5t208 -66.5q119 0 210 66.5t141 187.5
t50 279t-50 278.5t-141 187t-210 66.5q-117 0 -208 -66.5t-141.5 -187.5t-50.5 -278q0 -158 50.5 -279z" />
    <glyph glyph-name="divide" unicode="&#xf7;" horiz-adv-x="970" 
d="M542.5 775.5q-22.5 -21.5 -57.5 -21.5t-57 21.5t-22 58.5t22.5 58t56.5 21q35 0 57.5 -21.5t22.5 -57.5q0 -37 -22.5 -58.5zM127 557v33h717v-33h-717zM542.5 256q-22.5 -23 -57.5 -23t-57 23t-22 57q0 37 22.5 58.5t56.5 21.5q35 0 57.5 -21.5t22.5 -58.5
q0 -34 -22.5 -57z" />
    <glyph glyph-name="oslash" unicode="&#xf8;" horiz-adv-x="1257" 
d="M1100 803q47 -115 47 -258q0 -168 -64.5 -296t-182.5 -198.5t-271 -70.5q-182 0 -312 98l-102 -146l-29 23l103 145q-86 74 -132 188.5t-46 256.5q0 168 64.5 296t182 198.5t271.5 70.5q180 0 311 -96l100 141l29 -20l-102 -144q86 -73 133 -188zM336 164l563 792
q-51 59 -119.5 90t-150.5 31q-117 0 -208 -66.5t-141.5 -187.5t-50.5 -278q1 -234 107 -381zM839 78.5q91 66.5 141 187.5t50 279q0 117 -27.5 215t-80.5 168l-564 -793q111 -123 271 -123q119 0 210 66.5z" />
    <glyph glyph-name="ugrave" unicode="&#xf9;" horiz-adv-x="1216" 
d="M762 1264l-393 225l16 29l391 -228zM1030 1090v-1090h-90l-12 272q-66 -133 -186.5 -212.5t-256.5 -79.5q-139 0 -225 86t-86 227v797h111v-809q0 -117 63.5 -189t165.5 -72q121 0 232.5 83t173.5 219v768h110z" />
    <glyph glyph-name="uacute" unicode="&#xfa;" horiz-adv-x="1216" 
d="M434 1264l-14 26l393 228l16 -29zM1030 1090v-1090h-90l-12 272q-66 -133 -186.5 -212.5t-256.5 -79.5q-139 0 -225 86t-86 227v797h111v-809q0 -117 63.5 -189t165.5 -72q121 0 232.5 83t173.5 219v768h110z" />
    <glyph glyph-name="ucircumflex" unicode="&#xfb;" horiz-adv-x="1216" 
d="M336 1255l-14 17l276 250l276 -250l-14 -17l-262 213zM1030 1090v-1090h-90l-12 272q-66 -133 -186.5 -212.5t-256.5 -79.5q-139 0 -225 86t-86 227v797h111v-809q0 -117 63.5 -189t165.5 -72q121 0 232.5 83t173.5 219v768h110z" />
    <glyph glyph-name="udieresis" unicode="&#xfc;" horiz-adv-x="1216" 
d="M450.5 1423.5q-18.5 -18.5 -51.5 -18.5q-31 0 -49 18.5t-18 46.5q0 31 18.5 49.5t48.5 18.5q33 0 51.5 -18.5t18.5 -49.5q0 -28 -18.5 -46.5zM843.5 1423.5q-18.5 -18.5 -48.5 -18.5q-31 0 -50.5 18.5t-19.5 46.5q0 31 19.5 49.5t50.5 18.5t49 -18.5t18 -49.5
q0 -28 -18.5 -46.5zM1030 1090v-1090h-90l-12 272q-66 -133 -186.5 -212.5t-256.5 -79.5q-139 0 -225 86t-86 227v797h111v-809q0 -117 63.5 -189t165.5 -72q121 0 232.5 83t173.5 219v768h110z" />
    <glyph glyph-name="yacute" unicode="&#xfd;" horiz-adv-x="1089" 
d="M416 1264l-15 26l394 228l16 -29zM1040 1090l-661 -1545h-41l192 449l-477 1096h119l416 -963l411 963h41z" />
    <glyph glyph-name="thorn" unicode="&#xfe;" horiz-adv-x="1255" 
d="M924.5 1039.5q103.5 -70.5 161 -198.5t57.5 -296t-57.5 -296t-161 -198.5t-238.5 -70.5q-129 0 -233.5 74.5t-155.5 199.5v-705h-111v2048h111v-759q51 125 156.5 198.5t232.5 73.5q135 0 238.5 -70.5zM853 86q83 66 128 184.5t45 274.5t-45 275.5t-128 185t-191 65.5
q-119 0 -219.5 -86t-145.5 -225v-428q45 -139 145.5 -225.5t219.5 -86.5q108 0 191 66z" />
    <glyph glyph-name="ydieresis" unicode="&#xff;" horiz-adv-x="1089" 
d="M432.5 1423.5q-18.5 -18.5 -51.5 -18.5q-31 0 -49.5 18.5t-18.5 46.5q0 31 18.5 49.5t49.5 18.5q33 0 51.5 -18.5t18.5 -49.5q0 -28 -18.5 -46.5zM825.5 1423.5q-18.5 -18.5 -49.5 -18.5t-50 18.5t-19 46.5q0 31 19 49.5t50 18.5t49.5 -18.5t18.5 -49.5
q0 -28 -18.5 -46.5zM1040 1090l-661 -1545h-41l192 449l-477 1096h119l416 -963l411 963h41z" />
    <glyph glyph-name="Amacron" unicode="&#x100;" horiz-adv-x="1421" 
d="M426 1679v33h553v-33h-553zM1049 457h-760l-185 -457h-43l629 1556h27l641 -1556h-121zM1036 489l-370 902l-365 -902h735z" />
    <glyph glyph-name="amacron" unicode="&#x101;" horiz-adv-x="1142" 
d="M305 1374v33h553v-33h-553zM858.5 1012.5q110.5 -97.5 110.5 -267.5v-745h-90l-13 272q-70 -133 -188.5 -212.5t-249.5 -79.5q-156 0 -249 86t-93 229q0 135 120 217t316 82h336v156q0 154 -86 238.5t-240 84.5q-96 0 -192 -37t-166 -100l-14 14q76 76 180 118t215 42
q193 0 303.5 -97.5zM683 105.5q110 82.5 175 216.5v239h-321q-152 0 -243 -72.5t-91 -193.5q0 -123 70.5 -197.5t185.5 -74.5q114 0 224 82.5z" />
    <glyph glyph-name="Abreve" unicode="&#x102;" horiz-adv-x="1421" 
d="M884 1735.5q-83 -56.5 -179 -56.5t-179.5 56.5t-124.5 148.5l23 10q45 -82 121 -130t160 -48q82 0 157.5 48t120.5 130l23 -10q-39 -92 -122 -148.5zM1049 457h-760l-185 -457h-43l629 1556h27l641 -1556h-121zM1036 489l-370 902l-365 -902h735z" />
    <glyph glyph-name="abreve" unicode="&#x103;" horiz-adv-x="1142" 
d="M737.5 1339.5q-71.5 -57.5 -153.5 -57.5t-155 57.5t-107 151.5l20 10q35 -82 101.5 -132t140.5 -50q72 0 138 50t101 132l21 -10q-35 -94 -106.5 -151.5zM858.5 1012.5q110.5 -97.5 110.5 -267.5v-745h-90l-13 272q-70 -133 -188.5 -212.5t-249.5 -79.5q-156 0 -249 86
t-93 229q0 135 120 217t316 82h336v156q0 154 -86 238.5t-240 84.5q-96 0 -192 -37t-166 -100l-14 14q76 76 180 118t215 42q193 0 303.5 -97.5zM683 105.5q110 82.5 175 216.5v239h-321q-152 0 -243 -72.5t-91 -193.5q0 -123 70.5 -197.5t185.5 -74.5q114 0 224 82.5z" />
    <glyph glyph-name="Aogonek" unicode="&#x104;" horiz-adv-x="1421" 
d="M1372 -434q-31 -16 -73 -26.5t-80 -10.5q-90 0 -145.5 46t-55.5 122q0 86 74.5 168t201.5 135h-57l-188 457h-760l-185 -457h-43l629 1556h27l641 -1556q-111 -53 -179.5 -135t-68.5 -164q0 -61 38 -98t99 -37q68 0 119 20zM1036 489l-370 902l-365 -902h735z" />
    <glyph glyph-name="aogonek" unicode="&#x105;" horiz-adv-x="1142" 
d="M983 -434q-31 -16 -73 -26.5t-81 -10.5q-90 0 -145 46t-55 122q0 86 74.5 168t201.5 135h-26l-13 272q-70 -133 -188.5 -212.5t-249.5 -79.5q-156 0 -249 86t-93 229q0 135 120 217t316 82h336v156q0 154 -86 238.5t-240 84.5q-96 0 -192 -37t-166 -100l-14 14
q76 76 180 118t215 42q193 0 303.5 -97.5t110.5 -267.5v-745q-111 -53 -179.5 -135t-68.5 -164q0 -61 38 -98t99 -37q70 0 117 20zM683 105.5q110 82.5 175 216.5v239h-321q-152 0 -243 -72.5t-91 -193.5q0 -123 70.5 -197.5t185.5 -74.5q114 0 224 82.5z" />
    <glyph glyph-name="Cacute" unicode="&#x106;" horiz-adv-x="1474" 
d="M625 1645l-11 28l527 193l12 -33zM1167.5 40q-151.5 -60 -307.5 -60q-215 0 -380 98t-256 277.5t-91 412.5t91 412.5t256 277.5t380 98q147 0 292.5 -56t233.5 -150l-16 -17q-82 82 -217 133.5t-270 51.5q-184 0 -325.5 -94.5t-219.5 -264.5t-78 -391t78 -391t219 -264.5
t326 -94.5q139 0 281.5 56.5t230.5 148.5l16 -22q-92 -101 -243.5 -161z" />
    <glyph glyph-name="cacute" unicode="&#x107;" horiz-adv-x="1028" 
d="M436 1264l-14 26l393 228l16 -29zM804 20.5q-95 -40.5 -192 -40.5q-150 0 -262 70.5t-174.5 198.5t-62.5 298q0 168 62.5 295t175 197.5t261.5 70.5q94 0 182.5 -36t141.5 -95l-12 -16q-51 51 -130 80.5t-157 29.5q-121 0 -214 -65.5t-143.5 -184t-50.5 -276.5
t51.5 -277.5t143.5 -186.5t213 -67q80 0 163 36t144 95l17 -18q-62 -68 -157 -108.5z" />
    <glyph glyph-name="Cdotaccent" unicode="&#x10a;" horiz-adv-x="1474" 
d="M914.5 1698.5q-21.5 -21.5 -54.5 -21.5q-35 0 -56.5 20.5t-21.5 55.5q0 33 21.5 53.5t56.5 20.5t55.5 -20.5t20.5 -53.5t-21.5 -54.5zM1167.5 40q-151.5 -60 -307.5 -60q-215 0 -380 98t-256 277.5t-91 412.5t91 412.5t256 277.5t380 98q147 0 292.5 -56t233.5 -150
l-16 -17q-82 82 -217 133.5t-270 51.5q-184 0 -325.5 -94.5t-219.5 -264.5t-78 -391t78 -391t219 -264.5t326 -94.5q139 0 281.5 56.5t230.5 148.5l16 -22q-92 -101 -243.5 -161z" />
    <glyph glyph-name="cdotaccent" unicode="&#x10b;" horiz-adv-x="1028" 
d="M654.5 1413.5q-21.5 -20.5 -54.5 -20.5q-35 0 -55.5 20.5t-20.5 52.5q0 35 20.5 54.5t55.5 19.5t55.5 -20.5t20.5 -53.5q0 -32 -21.5 -52.5zM804 20.5q-95 -40.5 -192 -40.5q-150 0 -262 70.5t-174.5 198.5t-62.5 298q0 168 62.5 295t175 197.5t261.5 70.5
q94 0 182.5 -36t141.5 -95l-12 -16q-51 51 -130 80.5t-157 29.5q-121 0 -214 -65.5t-143.5 -184t-50.5 -276.5t51.5 -277.5t143.5 -186.5t213 -67q80 0 163 36t144 95l17 -18q-62 -68 -157 -108.5z" />
    <glyph glyph-name="Ccaron" unicode="&#x10c;" horiz-adv-x="1474" 
d="M1163 1868l15 -17l-318 -227l-317 227l14 17l303 -191zM1167.5 40q-151.5 -60 -307.5 -60q-215 0 -380 98t-256 277.5t-91 412.5t91 412.5t256 277.5t380 98q147 0 292.5 -56t233.5 -150l-16 -17q-82 82 -217 133.5t-270 51.5q-184 0 -325.5 -94.5t-219.5 -264.5
t-78 -391t78 -391t219 -264.5t326 -94.5q139 0 281.5 56.5t230.5 148.5l16 -22q-92 -101 -243.5 -161z" />
    <glyph glyph-name="ccaron" unicode="&#x10d;" horiz-adv-x="1028" 
d="M862 1522l15 -17l-279 -250l-274 250l14 17l260 -211zM804 20.5q-95 -40.5 -192 -40.5q-150 0 -262 70.5t-174.5 198.5t-62.5 298q0 168 62.5 295t175 197.5t261.5 70.5q94 0 182.5 -36t141.5 -95l-12 -16q-51 51 -130 80.5t-157 29.5q-121 0 -214 -65.5t-143.5 -184
t-50.5 -276.5t51.5 -277.5t143.5 -186.5t213 -67q80 0 163 36t144 95l17 -18q-62 -68 -157 -108.5z" />
    <glyph glyph-name="Dcaron" unicode="&#x10e;" horiz-adv-x="1652" 
d="M1034 1868l15 -17l-318 -227l-317 227l14 17l303 -191zM1133.5 1439.5q183.5 -96.5 285 -270.5t101.5 -401t-101.5 -401t-285 -270.5t-424.5 -96.5h-480v1536h480q241 0 424.5 -96.5zM1060 125q159 92 247 259t88 384t-88 384t-247 259t-366 92h-350v-1470h350
q207 0 366 92z" />
    <glyph glyph-name="dcaron" unicode="&#x10f;" horiz-adv-x="1255" 
d="M1321 1597l-98 -415l-29 8l92 416zM961 1597h110v-1597h-92l-12 272q-47 -133 -156 -212.5t-242 -79.5q-135 0 -238.5 70.5t-160.5 198.5t-57 296t57 296t160.5 198.5t238.5 70.5q131 0 236.5 -74.5t155.5 -204.5v766zM813 106.5q100 86.5 148 225.5v428
q-47 139 -147.5 225t-219.5 86q-109 0 -192 -65.5t-128 -185.5t-45 -275q0 -156 45 -274.5t128 -184.5t192 -66q119 0 219 86.5z" />
    <glyph glyph-name="Dcroat" unicode="&#x110;" horiz-adv-x="1665" 
d="M1147 1439.5q184 -96.5 285.5 -270.5t101.5 -401t-101.5 -401t-285.5 -270.5t-424 -96.5h-481v799h-174v32h174v705h481q240 0 424 -96.5zM1073 125q160 92 247 259t87 384t-87 384t-247 259t-366 92h-349v-672h424v-32h-424v-766h349q206 0 366 92z" />
    <glyph glyph-name="dcroat" unicode="&#x111;" horiz-adv-x="1255" 
d="M1247 1329h-176v-1329h-92l-12 272q-47 -133 -156 -212.5t-242 -79.5q-135 0 -238.5 70.5t-160.5 198.5t-57 296t57 296t160.5 198.5t238.5 70.5q131 0 236.5 -74.5t155.5 -204.5v498h-429v33h429v235h110v-235h176v-33zM813 106.5q100 86.5 148 225.5v428
q-47 139 -147.5 225t-219.5 86q-109 0 -192 -65.5t-128 -185.5t-45 -275q0 -156 45 -274.5t128 -184.5t192 -66q119 0 219 86.5z" />
    <glyph glyph-name="Emacron" unicode="&#x112;" horiz-adv-x="1075" 
d="M322 1679v33h552v-33h-552zM971 33v-33h-742v1536h725v-33h-610v-674h518v-32h-518v-764h627z" />
    <glyph glyph-name="emacron" unicode="&#x113;" horiz-adv-x="1175" 
d="M324 1374v33h553v-33h-553zM229 569v-24q0 -158 51.5 -278t145.5 -185.5t217 -65.5q96 0 195.5 35t167.5 96l12 -16q-70 -70 -179.5 -110.5t-220.5 -40.5q-150 0 -264 70.5t-177.5 198.5t-63.5 296t62.5 296t177 198.5t265.5 70.5q137 0 243 -66.5t164 -188.5t58 -282v-4
h-854zM348.5 947q-104.5 -130 -117.5 -345h736q0 141 -43 248.5t-122 167t-184 59.5q-165 0 -269.5 -130z" />
    <glyph glyph-name="Edotaccent" unicode="&#x116;" horiz-adv-x="1075" 
d="M650.5 1698.5q-21.5 -21.5 -54.5 -21.5q-35 0 -56.5 20.5t-21.5 55.5q0 33 21.5 53.5t56.5 20.5t55.5 -20.5t20.5 -53.5t-21.5 -54.5zM971 33v-33h-742v1536h725v-33h-610v-674h518v-32h-518v-764h627z" />
    <glyph glyph-name="edotaccent" unicode="&#x117;" horiz-adv-x="1175" 
d="M654.5 1413.5q-21.5 -20.5 -54.5 -20.5q-35 0 -55.5 20.5t-20.5 52.5q0 35 20.5 54.5t55.5 19.5t55.5 -20.5t20.5 -53.5q0 -32 -21.5 -52.5zM229 569v-24q0 -158 51.5 -278t145.5 -185.5t217 -65.5q96 0 195.5 35t167.5 96l12 -16q-70 -70 -179.5 -110.5t-220.5 -40.5
q-150 0 -264 70.5t-177.5 198.5t-63.5 296t62.5 296t177 198.5t265.5 70.5q137 0 243 -66.5t164 -188.5t58 -282v-4h-854zM348.5 947q-104.5 -130 -117.5 -345h736q0 141 -43 248.5t-122 167t-184 59.5q-165 0 -269.5 -130z" />
    <glyph glyph-name="Eogonek" unicode="&#x118;" horiz-adv-x="1075" 
d="M983 -434q-31 -16 -73 -26.5t-81 -10.5q-90 0 -144 46t-54 122q0 86 73.5 168t200.5 135h-676v1536h725v-33h-610v-674h518v-32h-518v-764h627v-33q-113 -51 -181.5 -134t-68.5 -165q0 -59 38 -97t99 -38q72 0 119 20z" />
    <glyph glyph-name="eogonek" unicode="&#x119;" horiz-adv-x="1175" 
d="M229 569v-24q0 -158 51.5 -278t145.5 -185.5t217 -65.5q96 0 195.5 35t167.5 96l12 -16q-59 -59 -150 -98q-135 -76 -207.5 -162t-72.5 -168q0 -61 37 -99t96 -38q74 0 123 22l6 -22q-31 -16 -73 -26.5t-81 -10.5q-90 0 -144 46t-54 122q0 78 66.5 155.5t187.5 141.5
q-80 -14 -134 -14q-150 0 -264 70.5t-177.5 198.5t-63.5 296t62.5 296t177 198.5t265.5 70.5q137 0 243 -66.5t164 -188.5t58 -282v-4h-854zM348.5 947q-104.5 -130 -117.5 -345h736q0 141 -43 248.5t-122 167t-184 59.5q-165 0 -269.5 -130z" />
    <glyph glyph-name="Ecaron" unicode="&#x11a;" horiz-adv-x="1075" 
d="M899 1868l14 -17l-317 -227l-317 227l14 17l303 -191zM971 33v-33h-742v1536h725v-33h-610v-674h518v-32h-518v-764h627z" />
    <glyph glyph-name="ecaron" unicode="&#x11b;" horiz-adv-x="1175" 
d="M864 1522l15 -17l-279 -250l-274 250l14 17l260 -211zM229 569v-24q0 -158 51.5 -278t145.5 -185.5t217 -65.5q96 0 195.5 35t167.5 96l12 -16q-70 -70 -179.5 -110.5t-220.5 -40.5q-150 0 -264 70.5t-177.5 198.5t-63.5 296t62.5 296t177 198.5t265.5 70.5
q137 0 243 -66.5t164 -188.5t58 -282v-4h-854zM348.5 947q-104.5 -130 -117.5 -345h736q0 141 -43 248.5t-122 167t-184 59.5q-165 0 -269.5 -130z" />
    <glyph glyph-name="Gbreve" unicode="&#x11e;" horiz-adv-x="1605" 
d="M1039 1735.5q-83 -56.5 -179 -56.5t-179 56.5t-124 148.5l23 10q45 -82 120.5 -130t159.5 -48q82 0 158 48t121 130l22 -10q-39 -92 -122 -148.5zM1456 815v-618q-100 -96 -264 -156.5t-332 -60.5q-215 0 -380 98t-256 277.5t-91 412.5t91 412.5t256 277.5t380 98
q156 0 308.5 -58t242.5 -155l-14 -18q-88 88 -230.5 140.5t-283.5 52.5q-184 0 -325.5 -94.5t-219.5 -264.5t-78 -391t78 -391t219 -264.5t326 -94.5q117 0 238.5 34t219.5 91v672h115z" />
    <glyph glyph-name="gbreve" unicode="&#x11f;" horiz-adv-x="1255" 
d="M794.5 1339.5q-71.5 -57.5 -153.5 -57.5t-154.5 57.5t-107.5 151.5l20 10q35 -82 101.5 -132t140.5 -50q72 0 138.5 50t101.5 132l20 -10q-35 -94 -106.5 -151.5zM1071 1090v-1080q0 -143 -66.5 -252.5t-187.5 -169t-280 -59.5q-92 0 -192.5 36t-168.5 95l17 18
q63 -51 155 -82.5t178 -31.5q129 0 227.5 54t153 152.5t54.5 227.5v260q-51 -127 -157 -202.5t-235 -75.5q-135 0 -238.5 70.5t-160.5 198.5t-57 296t57 296t160.5 198.5t238.5 70.5t243 -80t155 -215l12 275h92zM813 106.5q100 86.5 148 225.5v428q-47 139 -147.5 225
t-219.5 86q-109 0 -192 -65.5t-128 -185.5t-45 -275q0 -156 45 -274.5t128 -184.5t192 -66q119 0 219 86.5z" />
    <glyph glyph-name="Gdotaccent" unicode="&#x120;" horiz-adv-x="1605" 
d="M912.5 1698.5q-21.5 -21.5 -54.5 -21.5q-35 0 -56.5 20.5t-21.5 55.5q0 33 21.5 53.5t56.5 20.5t55.5 -20.5t20.5 -53.5t-21.5 -54.5zM1456 815v-618q-100 -96 -264 -156.5t-332 -60.5q-215 0 -380 98t-256 277.5t-91 412.5t91 412.5t256 277.5t380 98q156 0 308.5 -58
t242.5 -155l-14 -18q-88 88 -230.5 140.5t-283.5 52.5q-184 0 -325.5 -94.5t-219.5 -264.5t-78 -391t78 -391t219 -264.5t326 -94.5q117 0 238.5 34t219.5 91v672h115z" />
    <glyph glyph-name="gdotaccent" unicode="&#x121;" horiz-adv-x="1255" 
d="M695.5 1413.5q-21.5 -20.5 -54.5 -20.5q-35 0 -55.5 20.5t-20.5 52.5q0 35 20.5 54.5t55.5 19.5t55.5 -20.5t20.5 -53.5q0 -32 -21.5 -52.5zM1071 1090v-1080q0 -143 -66.5 -252.5t-187.5 -169t-280 -59.5q-92 0 -192.5 36t-168.5 95l17 18q63 -51 155 -82.5t178 -31.5
q129 0 227.5 54t153 152.5t54.5 227.5v260q-51 -127 -157 -202.5t-235 -75.5q-135 0 -238.5 70.5t-160.5 198.5t-57 296t57 296t160.5 198.5t238.5 70.5t243 -80t155 -215l12 275h92zM813 106.5q100 86.5 148 225.5v428q-47 139 -147.5 225t-219.5 86q-109 0 -192 -65.5
t-128 -185.5t-45 -275q0 -156 45 -274.5t128 -184.5t192 -66q119 0 219 86.5z" />
    <glyph glyph-name="uni0122" unicode="&#x122;" horiz-adv-x="1605" 
d="M920.5 -159.5q23.5 -30.5 23.5 -88.5q0 -70 -39 -136.5t-102 -102.5l-17 22q53 33 87 88t38 113q-25 -20 -59 -21q-35 0 -56.5 20.5t-21.5 55.5q0 37 22.5 58.5t61.5 21.5t62.5 -30.5zM1456 815v-618q-100 -96 -264 -156.5t-332 -60.5q-215 0 -380 98t-256 277.5
t-91 412.5t91 412.5t256 277.5t380 98q156 0 308.5 -58t242.5 -155l-14 -18q-88 88 -230.5 140.5t-283.5 52.5q-184 0 -325.5 -94.5t-219.5 -264.5t-78 -391t78 -391t219 -264.5t326 -94.5q117 0 238.5 34t219.5 91v672h115z" />
    <glyph glyph-name="uni0123" unicode="&#x123;" horiz-adv-x="1255" 
d="M697.5 1375.5q21.5 -23.5 21.5 -60.5q0 -39 -23.5 -62.5t-60.5 -23.5q-39 0 -62.5 32.5t-23.5 96.5q0 98 39 188t102 142l15 -21q-53 -49 -87 -130t-36 -163q25 25 59 25q35 0 56.5 -23.5zM1071 1090v-1080q0 -143 -66.5 -252.5t-187.5 -169t-280 -59.5q-92 0 -192.5 36
t-168.5 95l17 18q63 -51 155 -82.5t178 -31.5q129 0 227.5 54t153 152.5t54.5 227.5v260q-51 -127 -157 -202.5t-235 -75.5q-135 0 -238.5 70.5t-160.5 198.5t-57 296t57 296t160.5 198.5t238.5 70.5t243 -80t155 -215l12 275h92zM813 106.5q100 86.5 148 225.5v428
q-47 139 -147.5 225t-219.5 86q-109 0 -192 -65.5t-128 -185.5t-45 -275q0 -156 45 -274.5t128 -184.5t192 -66q119 0 219 86.5z" />
    <glyph glyph-name="Hbar" unicode="&#x126;" horiz-adv-x="1513" 
d="M1421 1192h-137v-1192h-117v797h-821v-797h-117v1192h-135v33h135v311h117v-311h821v311h117v-311h137v-33zM1167 1192h-821v-363h821v363z" />
    <glyph glyph-name="hbar" unicode="&#x127;" horiz-adv-x="1236" 
d="M975 1021q88 -89 88 -235v-786h-111v799q0 123 -66.5 197.5t-174.5 74.5q-123 0 -238 -86t-176 -225v-760h-111v1329h-202v33h202v235h111v-235h401v-33h-401v-506q70 131 189.5 209t254.5 78q146 0 234 -89z" />
    <glyph glyph-name="Imacron" unicode="&#x12a;" horiz-adv-x="573" 
d="M111 1679v33h354v-33h-354zM229 0v1536h115v-1536h-115z" />
    <glyph glyph-name="imacron" unicode="&#x12b;" horiz-adv-x="481" 
d="M63 1374v33h355v-33h-355zM186 0v1090h111v-1090h-111z" />
    <glyph glyph-name="Iogonek" unicode="&#x12e;" horiz-adv-x="573" 
d="M358 -434q-31 -16 -72.5 -26.5t-80.5 -10.5q-90 0 -144.5 46t-54.5 122q0 86 74 168t201 135h-52v1536h115v-1536q-111 -53 -179.5 -135t-68.5 -164q0 -59 38 -97t99 -38q68 0 119 20z" />
    <glyph glyph-name="iogonek" unicode="&#x12f;" horiz-adv-x="481" 
d="M184.5 1413.5q-20.5 20.5 -20.5 52.5q0 35 20.5 54.5t55.5 19.5t55 -20.5t20 -53.5t-21.5 -53t-53.5 -20q-35 0 -55.5 20.5zM303 -414l6 -20q-31 -16 -72.5 -26.5t-80.5 -10.5q-90 0 -144.5 46t-54.5 122q0 86 73.5 168t200.5 135h-45v1090h111v-1090
q-113 -51 -181.5 -134t-68.5 -165q0 -59 38 -97t99 -38q72 0 119 20z" />
    <glyph glyph-name="Idotaccent" unicode="&#x130;" horiz-adv-x="573" 
d="M340.5 1698.5q-21.5 -21.5 -53.5 -21.5q-35 0 -56.5 20.5t-21.5 55.5q0 33 21.5 53.5t56.5 20.5t55 -20.5t20 -53.5t-21.5 -54.5zM229 0v1536h115v-1536h-115z" />
    <glyph glyph-name="dotlessi" unicode="&#x131;" horiz-adv-x="481" 
d="M186 0v1090h111v-1090h-111z" />
    <glyph glyph-name="uni0136" unicode="&#x136;" horiz-adv-x="1275" 
d="M750.5 -159.5q23.5 -30.5 23.5 -88.5q0 -70 -39 -136.5t-102 -102.5l-17 22q53 33 87 88t38 113q-25 -20 -59 -21q-35 0 -56.5 20.5t-21.5 55.5q0 37 22.5 58.5t61.5 21.5t62.5 -30.5zM229 1536h115v-1536h-115v1536zM1264 0h-146l-721 809l731 727h54l-678 -676z" />
    <glyph glyph-name="uni0137" unicode="&#x137;" horiz-adv-x="1046" 
d="M627.5 -159.5q23.5 -30.5 23.5 -88.5q0 -70 -39 -136.5t-102 -102.5l-16 22q53 33 86.5 88t37.5 113q-25 -20 -59 -21q-35 0 -56.5 20.5t-21.5 55.5q0 37 22.5 58.5t61.5 21.5t62.5 -30.5zM186 1597h111v-1597h-111v1597zM1032 0h-135l-551 604l569 486h54l-518 -441z
" />
    <glyph glyph-name="Lacute" unicode="&#x139;" horiz-adv-x="1026" 
d="M94 1645l-10 28l526 193l13 -33zM981 33v-33h-752v1536h115v-1503h637z" />
    <glyph glyph-name="lacute" unicode="&#x13a;" horiz-adv-x="481" 
d="M78 1704l-10 29l444 163l12 -32zM186 0v1597h111v-1597h-111z" />
    <glyph glyph-name="uni013B" unicode="&#x13b;" horiz-adv-x="1026" 
d="M672.5 -159.5q23.5 -30.5 23.5 -88.5q0 -70 -39 -136.5t-102 -102.5l-16 22q53 33 86.5 88t38.5 113q-25 -20 -60 -21q-35 0 -56.5 20.5t-21.5 55.5q0 37 22.5 58.5t61.5 21.5t62.5 -30.5zM981 33v-33h-752v1536h115v-1503h637z" />
    <glyph glyph-name="uni013C" unicode="&#x13c;" horiz-adv-x="481" 
d="M302.5 -159.5q23.5 -30.5 23.5 -88.5q0 -70 -39 -136.5t-103 -102.5l-16 22q53 33 87 88t38 113q-25 -20 -60 -21q-35 0 -56 20.5t-21 55.5q0 37 22.5 58.5t61.5 21.5t62.5 -30.5zM186 0v1597h111v-1597h-111z" />
    <glyph glyph-name="Lcaron" unicode="&#x13d;" horiz-adv-x="1032" 
d="M750 1182l-29 8l92 416l33 -9zM981 33v-33h-752v1536h115v-1503h637z" />
    <glyph glyph-name="lcaron" unicode="&#x13e;" horiz-adv-x="481" 
d="M449 1182l-29 8l92 416l35 -9zM186 0v1597h111v-1597h-111z" />
    <glyph glyph-name="Lslash" unicode="&#x141;" horiz-adv-x="1064" 
d="M1018 33v-33h-752v762l-164 -113l-20 29l184 127v731h117v-668l348 242l19 -29l-367 -256v-792h635z" />
    <glyph glyph-name="lslash" unicode="&#x142;" horiz-adv-x="573" 
d="M346 956v-956h-110v893l-162 -111l-21 29l183 125v661h110v-598l162 111l20 -29z" />
    <glyph glyph-name="Nacute" unicode="&#x143;" horiz-adv-x="1511" 
d="M530 1645l-10 28l527 193l12 -33zM229 0v1556h27l987 -1382v1362h41v-1556h-29l-985 1380v-1360h-41z" />
    <glyph glyph-name="nacute" unicode="&#x144;" horiz-adv-x="1236" 
d="M453 1264l-15 26l393 228l17 -29zM975 1021q88 -89 88 -235v-786h-111v799q0 123 -66.5 197.5t-174.5 74.5q-123 0 -238 -86t-176 -225v-760h-111v1090h90l13 -281q68 137 190.5 219t261.5 82q146 0 234 -89z" />
    <glyph glyph-name="uni0145" unicode="&#x145;" horiz-adv-x="1511" 
d="M818.5 -159.5q23.5 -30.5 23.5 -88.5q0 -70 -39 -136.5t-103 -102.5l-16 22q53 33 87 88t38 113q-25 -20 -59 -21q-35 0 -56.5 20.5t-21.5 55.5q0 37 22.5 58.5t61.5 21.5t62.5 -30.5zM229 0v1556h27l987 -1382v1362h41v-1556h-29l-985 1380v-1360h-41z" />
    <glyph glyph-name="uni0146" unicode="&#x146;" horiz-adv-x="1236" 
d="M678.5 -159.5q23.5 -30.5 23.5 -88.5q0 -70 -38.5 -136.5t-102.5 -102.5l-16 22q53 33 87 88t38 113q-25 -20 -60 -21q-35 0 -56.5 20.5t-21.5 55.5q0 37 23 58.5t61 21.5q39 0 62.5 -30.5zM975 1021q88 -89 88 -235v-786h-111v799q0 123 -66.5 197.5t-174.5 74.5
q-123 0 -238 -86t-176 -225v-760h-111v1090h90l13 -281q68 137 190.5 219t261.5 82q146 0 234 -89z" />
    <glyph glyph-name="Ncaron" unicode="&#x147;" horiz-adv-x="1511" 
d="M1069 1868l14 -17l-317 -227l-317 227l14 17l303 -191zM229 0v1556h27l987 -1382v1362h41v-1556h-29l-985 1380v-1360h-41z" />
    <glyph glyph-name="ncaron" unicode="&#x148;" horiz-adv-x="1236" 
d="M881 1522l14 -17l-279 -250l-274 250l14 17l260 -211zM975 1021q88 -89 88 -235v-786h-111v799q0 123 -66.5 197.5t-174.5 74.5q-123 0 -238 -86t-176 -225v-760h-111v1090h90l13 -281q68 137 190.5 219t261.5 82q146 0 234 -89z" />
    <glyph glyph-name="Eng" unicode="&#x14a;" horiz-adv-x="1511" 
d="M1284 1536v-1526q0 -131 -56.5 -212t-166.5 -144l-10 20q96 57 144 131t48 193l-973 1362v-1360h-41v1556h27l987 -1382v1362h41z" />
    <glyph glyph-name="eng" unicode="&#x14b;" horiz-adv-x="1236" 
d="M975 1021q88 -89 88 -235v-831q0 -164 -66.5 -262.5t-193.5 -163.5l-10 20q76 55 117.5 150.5t41.5 226.5v873q0 123 -66.5 197.5t-174.5 74.5q-123 0 -238 -86t-176 -225v-760h-111v1090h93l10 -281q68 137 190.5 219t261.5 82q146 0 234 -89z" />
    <glyph glyph-name="Omacron" unicode="&#x14c;" horiz-adv-x="1798" 
d="M623 1679v33h553v-33h-553zM1571 355.5q-96 -179.5 -270.5 -277.5t-401.5 -98t-401 98t-270.5 277.5t-96.5 412.5t96.5 412.5t270.5 277.5t401 98t401.5 -98t270.5 -277.5t96 -412.5t-96 -412.5zM338 373q80 -172 225.5 -266.5t335.5 -94.5t335.5 94.5t225.5 266.5
t80 395t-80 395t-225 266.5t-336 94.5q-190 0 -335.5 -94.5t-225.5 -266.5t-80 -395t80 -395z" />
    <glyph glyph-name="omacron" unicode="&#x14d;" horiz-adv-x="1257" 
d="M352 1374v33h553v-33h-553zM1082.5 249q-64.5 -128 -182.5 -198.5t-271 -70.5q-154 0 -271.5 70.5t-182 198.5t-64.5 296t64.5 296t182 198.5t271.5 70.5t271.5 -70.5t182 -198.5t64.5 -296t-64.5 -296zM279.5 266q50.5 -121 141.5 -187.5t208 -66.5q119 0 210 66.5
t141 187.5t50 279t-50 278.5t-141 187t-210 66.5q-117 0 -208 -66.5t-141.5 -187.5t-50.5 -278q0 -158 50.5 -279z" />
    <glyph glyph-name="Ohungarumlaut" unicode="&#x150;" horiz-adv-x="1798" 
d="M1012 1982l20 -28l-463 -318l-16 25zM1427 1982l21 -28l-463 -318l-16 25zM1571 355.5q-96 -179.5 -270.5 -277.5t-401.5 -98t-401 98t-270.5 277.5t-96.5 412.5t96.5 412.5t270.5 277.5t401 98t401.5 -98t270.5 -277.5t96 -412.5t-96 -412.5zM338 373
q80 -172 225.5 -266.5t335.5 -94.5t335.5 94.5t225.5 266.5t80 395t-80 395t-225 266.5t-336 94.5q-190 0 -335.5 -94.5t-225.5 -266.5t-80 -395t80 -395z" />
    <glyph glyph-name="ohungarumlaut" unicode="&#x151;" horiz-adv-x="1257" 
d="M725 1577l23 -23l-322 -321l-20 22zM1083 1577l25 -23l-322 -321l-20 22zM1082.5 249q-64.5 -128 -182.5 -198.5t-271 -70.5q-154 0 -271.5 70.5t-182 198.5t-64.5 296t64.5 296t182 198.5t271.5 70.5t271.5 -70.5t182 -198.5t64.5 -296t-64.5 -296zM279.5 266
q50.5 -121 141.5 -187.5t208 -66.5q119 0 210 66.5t141 187.5t50 279t-50 278.5t-141 187t-210 66.5q-117 0 -208 -66.5t-141.5 -187.5t-50.5 -278q0 -158 50.5 -279z" />
    <glyph glyph-name="OE" unicode="&#x152;" horiz-adv-x="2154" 
d="M2050 33v-33h-741v129q-84 -70 -197 -109.5t-223 -39.5q-223 0 -395 98t-267.5 277.5t-95.5 412.5t95.5 412.5t267.5 277.5t395 98q113 0 225.5 -43t194.5 -114v137h725v-33h-609v-674h517v-32h-517v-764h625zM1121.5 58q107.5 40 187.5 110v1198q-76 70 -183.5 111
t-214.5 41q-195 0 -342 -94.5t-229 -264.5t-82 -391t82 -391t229.5 -264.5t341.5 -94.5q103 0 210.5 40z" />
    <glyph glyph-name="oe" unicode="&#x153;" horiz-adv-x="2093" 
d="M1147 565v-20q0 -158 52 -278t146.5 -185.5t217.5 -65.5q94 0 193 36t167 95l12 -16q-70 -70 -178 -110.5t-219 -40.5q-166 0 -283.5 95t-167.5 261q-47 -166 -168.5 -261t-289.5 -95q-154 0 -271.5 70.5t-182 198.5t-64.5 296t64.5 296t182 198.5t271.5 70.5
q170 0 290.5 -94t167.5 -262q47 168 166 262t283 94q139 0 244.5 -67.5t163 -190.5t57.5 -283v-4h-854zM839 78.5q91 66.5 141 187.5t50 279t-50 278.5t-141 187t-210 66.5q-117 0 -208 -66.5t-141.5 -187.5t-50.5 -278q0 -158 50.5 -279t141.5 -187.5t208 -66.5
q119 0 210 66.5zM1265.5 946q-104.5 -131 -116.5 -348h735q0 143 -43 251.5t-122 168t-183 59.5q-166 0 -270.5 -131z" />
    <glyph glyph-name="Racute" unicode="&#x154;" horiz-adv-x="1259" 
d="M371 1645l-11 28l527 193l12 -33zM1214 0h-145l-721 733h-4v-733h-115v1536h369q152 0 266.5 -50t177 -140.5t62.5 -206.5q0 -121 -62.5 -213t-177 -142.5t-266.5 -50.5h-109zM582 766q178 0 286.5 102.5t108.5 270.5q0 164 -108.5 264t-286.5 100h-238v-737h238z" />
    <glyph glyph-name="racute" unicode="&#x155;" horiz-adv-x="784" 
d="M297 1264l-14 26l393 228l16 -29zM470 999.5q122 90.5 265 90.5v-33q-145 0 -266 -96.5t-172 -251.5v-709h-111v1090h90l13 -328q59 147 181 237.5z" />
    <glyph glyph-name="uni0156" unicode="&#x156;" horiz-adv-x="1259" 
d="M732.5 -159.5q23.5 -30.5 23.5 -88.5q0 -70 -39 -136.5t-103 -102.5l-16 22q53 33 87 88t38 113q-25 -20 -59 -21q-35 0 -56.5 20.5t-21.5 55.5q0 37 22.5 58.5t61.5 21.5t62.5 -30.5zM1214 0h-145l-721 733h-4v-733h-115v1536h369q152 0 266.5 -50t177 -140.5
t62.5 -206.5q0 -121 -62.5 -213t-177 -142.5t-266.5 -50.5h-109zM582 766q178 0 286.5 102.5t108.5 270.5q0 164 -108.5 264t-286.5 100h-238v-737h238z" />
    <glyph glyph-name="uni0157" unicode="&#x157;" horiz-adv-x="784" 
d="M302.5 -159.5q23.5 -30.5 23.5 -88.5q0 -70 -39 -136.5t-103 -102.5l-16 22q53 33 87 88t38 113q-25 -20 -60 -21q-35 0 -56 20.5t-21 55.5q0 37 22.5 58.5t61.5 21.5t62.5 -30.5zM470 999.5q122 90.5 265 90.5v-33q-145 0 -266 -96.5t-172 -251.5v-709h-111v1090h90
l13 -328q59 147 181 237.5z" />
    <glyph glyph-name="Rcaron" unicode="&#x158;" horiz-adv-x="1259" 
d="M907 1868l15 -17l-318 -227l-317 227l14 17l303 -191zM1214 0h-145l-721 733h-4v-733h-115v1536h369q152 0 266.5 -50t177 -140.5t62.5 -206.5q0 -121 -62.5 -213t-177 -142.5t-266.5 -50.5h-109zM582 766q178 0 286.5 102.5t108.5 270.5q0 164 -108.5 264t-286.5 100
h-238v-737h238z" />
    <glyph glyph-name="rcaron" unicode="&#x159;" horiz-adv-x="784" 
d="M723 1522l14 -17l-278 -250l-275 250l15 17l260 -211zM470 999.5q122 90.5 265 90.5v-33q-145 0 -266 -96.5t-172 -251.5v-709h-111v1090h90l13 -328q59 147 181 237.5z" />
    <glyph glyph-name="Sacute" unicode="&#x15a;" horiz-adv-x="1107" 
d="M317 1645l-10 28l527 193l12 -33zM941 179q-58 -95 -159.5 -147t-230.5 -52q-141 0 -262 60t-195 161l21 20q70 -92 181.5 -147.5t229.5 -55.5q158 0 256.5 96.5t98.5 252.5q0 109 -48.5 182.5t-119 120.5t-191.5 106t-193.5 107.5t-121.5 124t-49 186.5q0 166 107.5 264
t275.5 98q113 0 214 -46t175 -128l-17 -16q-63 68 -157 110t-187 42q-129 0 -211 -81t-82 -210q0 -94 45.5 -162t113 -111t179.5 -100q127 -63 203 -113.5t129 -133.5t53 -206q0 -127 -58 -222z" />
    <glyph glyph-name="sacute" unicode="&#x15b;" horiz-adv-x="997" 
d="M340 1264l-14 26l393 228l16 -29zM796.5 65q-112.5 -85 -294.5 -85q-127 0 -234.5 40.5t-177.5 112.5l14 19q66 -61 168.5 -99.5t206.5 -38.5q141 0 231.5 68t90.5 174q0 74 -43 121t-106.5 75.5t-172.5 63.5q-117 39 -187.5 72t-119.5 90t-49 145q0 133 105.5 210
t260.5 77q109 0 201 -38t156 -105l-12 -15q-63 57 -148.5 90t-173.5 33q-121 0 -201 -60.5t-80 -160.5q0 -70 43 -116t105.5 -74.5t169.5 -63.5q119 -39 190.5 -71.5t120.5 -91t49 -148.5q0 -139 -112.5 -224z" />
    <glyph glyph-name="Scedilla" unicode="&#x15e;" horiz-adv-x="1107" 
d="M942 179q-57 -95 -159.5 -147t-229.5 -52l-39 -111q111 -4 176.5 -46t65.5 -108q0 -84 -103.5 -135t-271.5 -51l4 20q125 0 202 46.5t77 119.5q0 53 -54.5 88t-144.5 37l47 142q-129 8 -238.5 66t-179.5 153l21 20q70 -92 181.5 -147.5t229.5 -55.5q158 0 256.5 96.5
t98.5 252.5q0 109 -48.5 182.5t-119 120.5t-191.5 106t-193.5 107.5t-121.5 124t-49 186.5q0 166 107.5 264t275.5 98q113 0 214 -46t175 -128l-17 -16q-63 68 -157 110t-187 42q-129 0 -211 -81t-82 -210q0 -94 45.5 -162t113 -111t179.5 -100q127 -63 203 -113.5
t129 -133.5t53 -206q0 -127 -57 -222z" />
    <glyph glyph-name="scedilla" unicode="&#x15f;" horiz-adv-x="997" 
d="M797.5 66q-111.5 -84 -291.5 -86l-39 -111q109 -4 174.5 -46t65.5 -108q0 -84 -102.5 -135t-270.5 -51l4 20q125 0 201.5 46.5t76.5 119.5q0 53 -55 88t-143 37l47 140q-117 8 -214 48t-161 105l14 19q66 -61 168.5 -99.5t206.5 -38.5q141 0 231.5 68t90.5 174
q0 74 -43 121t-106.5 75.5t-172.5 63.5q-117 39 -187.5 72t-119.5 90t-49 145q0 133 105.5 210t260.5 77q109 0 201 -38t156 -105l-12 -15q-63 57 -148.5 90t-173.5 33q-121 0 -201 -60.5t-80 -160.5q0 -70 43 -116t105.5 -74.5t169.5 -63.5q119 -39 190.5 -71.5t120.5 -91
t49 -148.5q0 -139 -111.5 -223z" />
    <glyph glyph-name="Scaron" unicode="&#x160;" horiz-adv-x="1107" 
d="M856 1868l14 -17l-317 -227l-317 227l14 17l303 -191zM941 179q-58 -95 -159.5 -147t-230.5 -52q-141 0 -262 60t-195 161l21 20q70 -92 181.5 -147.5t229.5 -55.5q158 0 256.5 96.5t98.5 252.5q0 109 -48.5 182.5t-119 120.5t-191.5 106t-193.5 107.5t-121.5 124
t-49 186.5q0 166 107.5 264t275.5 98q113 0 214 -46t175 -128l-17 -16q-63 68 -157 110t-187 42q-129 0 -211 -81t-82 -210q0 -94 45.5 -162t113 -111t179.5 -100q127 -63 203 -113.5t129 -133.5t53 -206q0 -127 -58 -222z" />
    <glyph glyph-name="scaron" unicode="&#x161;" horiz-adv-x="997" 
d="M768 1522l14 -17l-278 -250l-275 250l15 17l260 -211zM796.5 65q-112.5 -85 -294.5 -85q-127 0 -234.5 40.5t-177.5 112.5l14 19q66 -61 168.5 -99.5t206.5 -38.5q141 0 231.5 68t90.5 174q0 74 -43 121t-106.5 75.5t-172.5 63.5q-117 39 -187.5 72t-119.5 90t-49 145
q0 133 105.5 210t260.5 77q109 0 201 -38t156 -105l-12 -15q-63 57 -148.5 90t-173.5 33q-121 0 -201 -60.5t-80 -160.5q0 -70 43 -116t105.5 -74.5t169.5 -63.5q119 -39 190.5 -71.5t120.5 -91t49 -148.5q0 -139 -112.5 -224z" />
    <glyph glyph-name="uni0162" unicode="&#x162;" horiz-adv-x="1263" 
d="M651 0l-45 -131q111 -4 176.5 -46t65.5 -108q0 -84 -103.5 -135t-269.5 -51l4 20q125 0 201 46.5t76 119.5q0 53 -54.5 88t-144.5 37l55 160h-39v1503h-542v33h1200v-33h-541v-1503h-39z" />
    <glyph glyph-name="uni0163" unicode="&#x163;" horiz-adv-x="768" 
d="M497.5 -177q65.5 -42 65.5 -108q0 -84 -102.5 -135t-270.5 -51l5 20q125 0 201.5 46.5t76.5 119.5q0 53 -55.5 88t-143.5 37l68 203q-47 41 -72.5 101.5t-25.5 134.5v778h-205v33h205l90 348h20v-348h381v-33h-381v-791q0 -113 59.5 -181.5t155.5 -68.5q51 0 100.5 18.5
t80.5 49.5l12 -16q-41 -41 -104.5 -64.5t-129.5 -23.5q-88 0 -153 40l-51 -151q108 -4 173.5 -46z" />
    <glyph glyph-name="Tcaron" unicode="&#x164;" horiz-adv-x="1263" 
d="M934 1868l14 -17l-317 -227l-318 227l15 17l303 -191zM1231 1503h-541v-1503h-117v1503h-542v33h1200v-33z" />
    <glyph glyph-name="tcaron" unicode="&#x165;" horiz-adv-x="768" 
d="M553 1186l-29 8l92 418l35 -8zM762 68q-41 -41 -104.5 -64.5t-129.5 -23.5q-127 0 -205.5 81.5t-78.5 217.5v778h-205v33h205l90 348h20v-348h381v-33h-381v-791q0 -113 59.5 -181.5t155.5 -68.5q51 0 100.5 18.5t80.5 49.5z" />
    <glyph glyph-name="Tbar" unicode="&#x166;" horiz-adv-x="1286" 
d="M700 1503v-696h299v-33h-299v-774h-114v774h-299v33h299v696h-543v33h1200v-33h-543z" />
    <glyph glyph-name="tbar" unicode="&#x167;" horiz-adv-x="806" 
d="M784 68q-41 -41 -104.5 -64.5t-126.5 -23.5q-129 0 -208 81.5t-79 217.5v313h-203v33h203v432h-203v33h203l90 348h21v-348h381v-33h-381v-432h377v-33h-377v-326q0 -113 59.5 -181.5t155.5 -68.5q51 0 100 18.5t80 49.5z" />
    <glyph glyph-name="Umacron" unicode="&#x16a;" horiz-adv-x="1499" 
d="M508 1679v33h553v-33h-553zM1220.5 250q-65.5 -129 -185.5 -199.5t-279 -70.5q-162 0 -285 71.5t-191.5 202.5t-68.5 303v979h117v-989q0 -158 54 -277.5t153.5 -186.5t230.5 -67q143 0 251.5 65.5t168 186.5t59.5 279v989h41v-989q0 -168 -65.5 -297z" />
    <glyph glyph-name="umacron" unicode="&#x16b;" horiz-adv-x="1216" 
d="M322 1374v33h552v-33h-552zM1030 1090v-1090h-90l-12 272q-66 -133 -186.5 -212.5t-256.5 -79.5q-139 0 -225 86t-86 227v797h111v-809q0 -117 63.5 -189t165.5 -72q121 0 232.5 83t173.5 219v768h110z" />
    <glyph glyph-name="Uring" unicode="&#x16e;" horiz-adv-x="1499" 
d="M923.5 1673q-53.5 -49 -139.5 -49q-88 0 -141 49t-53 131t53 132.5t141 50.5q86 0 139.5 -50.5t53.5 -132.5t-53.5 -131zM673 1698q42 -41 111 -41q68 0 110 41t42 106q0 68 -42 109t-110 41q-70 0 -111.5 -41t-41.5 -109q0 -65 42 -106zM1220.5 250
q-65.5 -129 -185.5 -199.5t-279 -70.5q-162 0 -285 71.5t-191.5 202.5t-68.5 303v979h117v-989q0 -158 54 -277.5t153.5 -186.5t230.5 -67q143 0 251.5 65.5t168 186.5t59.5 279v989h41v-989q0 -168 -65.5 -297z" />
    <glyph glyph-name="uring" unicode="&#x16f;" horiz-adv-x="1216" 
d="M737.5 1281q-53.5 -50 -139.5 -50q-88 0 -141.5 50t-53.5 132t53.5 131t141.5 49q86 0 139.5 -49t53.5 -131t-53.5 -132zM486 1305q42 -41 112 -41q68 0 110 41t42 108q0 66 -42 107t-110 41q-70 0 -112 -41t-42 -107q0 -67 42 -108zM1030 1090v-1090h-90l-12 272
q-66 -133 -186.5 -212.5t-256.5 -79.5q-139 0 -225 86t-86 227v797h111v-809q0 -117 63.5 -189t165.5 -72q121 0 232.5 83t173.5 219v768h110z" />
    <glyph glyph-name="Uhungarumlaut" unicode="&#x170;" horiz-adv-x="1499" 
d="M897 1982l21 -28l-463 -318l-17 25zM1313 1982l20 -28l-463 -318l-16 25zM1220.5 250q-65.5 -129 -185.5 -199.5t-279 -70.5q-162 0 -285 71.5t-191.5 202.5t-68.5 303v979h117v-989q0 -158 54 -277.5t153.5 -186.5t230.5 -67q143 0 251.5 65.5t168 186.5t59.5 279v989
h41v-989q0 -168 -65.5 -297z" />
    <glyph glyph-name="uhungarumlaut" unicode="&#x171;" horiz-adv-x="1216" 
d="M694 1577l23 -23l-322 -321l-20 22zM1053 1577l24 -23l-321 -321l-21 22zM1030 1090v-1090h-90l-12 272q-66 -133 -186.5 -212.5t-256.5 -79.5q-139 0 -225 86t-86 227v797h111v-809q0 -117 63.5 -189t165.5 -72q121 0 232.5 83t173.5 219v768h110z" />
    <glyph glyph-name="Uogonek" unicode="&#x172;" horiz-adv-x="1499" 
d="M1286 1536v-989q0 -211 -99.5 -356.5t-275.5 -192.5q-111 -51 -178 -133t-67 -164q0 -61 37.5 -98t99.5 -37q70 0 117 20l8 -20q-31 -16 -73 -26.5t-81 -10.5q-90 0 -145.5 46t-55.5 122q0 78 63.5 154.5t172.5 130.5q-16 -2 -53 -2q-162 0 -285 71.5t-191.5 202.5
t-68.5 303v979h117v-989q0 -158 54 -277.5t153.5 -186.5t230.5 -67q143 0 251.5 65.5t168 186.5t59.5 279v989h41z" />
    <glyph glyph-name="uogonek" unicode="&#x173;" horiz-adv-x="1216" 
d="M1044 -434q-31 -16 -72.5 -26.5t-80.5 -10.5q-90 0 -145.5 46t-55.5 122q0 86 75 168t202 135h-27l-12 272q-66 -133 -186.5 -212.5t-256.5 -79.5q-139 0 -225 86t-86 227v797h111v-809q0 -117 63.5 -189t165.5 -72q121 0 232.5 83t173.5 219v768h110v-1090
q-111 -51 -179.5 -134t-68.5 -165q0 -61 38 -98t100 -37q70 0 116 20z" />
    <glyph glyph-name="Wcircumflex" unicode="&#x174;" horiz-adv-x="1869" 
d="M666 1624l-15 16l318 228l317 -228l-14 -16l-303 191zM1786 1536l-434 -1556h-31l-383 1353l-373 -1353h-30l-453 1556h123l383 -1354l370 1374h35l381 -1374l369 1354h43z" />
    <glyph glyph-name="wcircumflex" unicode="&#x175;" horiz-adv-x="1531" 
d="M537 1255l-15 17l277 250l276 -250l-14 -17l-262 213zM1473 1090l-371 -1110h-21l-311 946l-311 -946h-25l-373 1110h119l305 -918l308 938h28l312 -940l303 920h37z" />
    <glyph glyph-name="Ycircumflex" unicode="&#x176;" horiz-adv-x="1409" 
d="M428 1624l-14 16l317 228l318 -228l-15 -16l-303 191zM774 688v-688h-117v684l-581 852h137l543 -803l518 803h47z" />
    <glyph glyph-name="ycircumflex" unicode="&#x177;" horiz-adv-x="1089" 
d="M317 1255l-14 17l277 250l276 -250l-14 -17l-262 213zM1040 1090l-661 -1545h-41l192 449l-477 1096h119l416 -963l411 963h41z" />
    <glyph glyph-name="Ydieresis" unicode="&#x178;" horiz-adv-x="1409" 
d="M583.5 1697.5q-18.5 -18.5 -51.5 -18.5q-31 0 -49 18.5t-18 49.5q0 29 18.5 47t48.5 18q33 0 51.5 -18t18.5 -47q0 -31 -18.5 -49.5zM976.5 1697.5q-18.5 -18.5 -48.5 -18.5q-31 0 -50.5 18.5t-19.5 49.5q0 29 19.5 47t50.5 18t49 -18t18 -47q0 -31 -18.5 -49.5zM774 688
v-688h-117v684l-581 852h137l543 -803l518 803h47z" />
    <glyph glyph-name="Zacute" unicode="&#x179;" horiz-adv-x="1163" 
d="M365 1645l-11 28l527 193l12 -33zM45 0v18l916 1485h-848v33h987v-18l-920 -1485h918v-33h-1053z" />
    <glyph glyph-name="zacute" unicode="&#x17a;" horiz-adv-x="956" 
d="M334 1264l-15 26l394 228l16 -29zM51 0v16l709 1041h-666v33h797v-17l-709 -1040h709v-33h-840z" />
    <glyph glyph-name="Zdotaccent" unicode="&#x17b;" horiz-adv-x="1163" 
d="M652.5 1698.5q-21.5 -21.5 -54.5 -21.5q-35 0 -56.5 20.5t-21.5 55.5q0 33 21.5 53.5t56.5 20.5t55.5 -20.5t20.5 -53.5t-21.5 -54.5zM45 0v18l916 1485h-848v33h987v-18l-920 -1485h918v-33h-1053z" />
    <glyph glyph-name="zdotaccent" unicode="&#x17c;" horiz-adv-x="956" 
d="M551.5 1413.5q-21.5 -20.5 -53.5 -20.5q-35 0 -55.5 20.5t-20.5 52.5q0 35 20.5 54.5t55.5 19.5t55 -20.5t20 -53.5q0 -32 -21.5 -52.5zM51 0v16l709 1041h-666v33h797v-17l-709 -1040h709v-33h-840z" />
    <glyph glyph-name="Zcaron" unicode="&#x17d;" horiz-adv-x="1163" 
d="M901 1868l14 -17l-317 -227l-317 227l14 17l303 -191zM45 0v18l916 1485h-848v33h987v-18l-920 -1485h918v-33h-1053z" />
    <glyph glyph-name="zcaron" unicode="&#x17e;" horiz-adv-x="956" 
d="M762 1522l14 -17l-278 -250l-275 250l15 17l260 -211zM51 0v16l709 1041h-666v33h797v-17l-709 -1040h709v-33h-840z" />
    <glyph glyph-name="florin" unicode="&#x192;" horiz-adv-x="1103" 
d="M930.5 1528.5q62.5 -27.5 99.5 -74.5l-14 -14q-31 37 -83 57.5t-110 20.5q-98 0 -157.5 -68t-59.5 -180v-441h330v-32h-330v-516q0 -135 -86 -218t-225 -83q-68 0 -130.5 27.5t-98.5 74.5l14 14q31 -37 83 -57.5t109 -20.5q98 0 157.5 68t59.5 180v531h-286v32h286v426
q0 135 86.5 218t225.5 83q67 0 129.5 -27.5z" />
    <glyph glyph-name="uni0218" unicode="&#x218;" horiz-adv-x="1107" 
d="M601.5 -159.5q23.5 -30.5 23.5 -88.5q0 -70 -39 -136.5t-103 -102.5l-16 22q53 33 87 88t38 113q-25 -20 -60 -21q-35 0 -56 20.5t-21 55.5q0 37 22.5 58.5t61.5 21.5t62.5 -30.5zM941 179q-58 -95 -159.5 -147t-230.5 -52q-141 0 -262 60t-195 161l21 20
q70 -92 181.5 -147.5t229.5 -55.5q158 0 256.5 96.5t98.5 252.5q0 109 -48.5 182.5t-119 120.5t-191.5 106t-193.5 107.5t-121.5 124t-49 186.5q0 166 107.5 264t275.5 98q113 0 214 -46t175 -128l-17 -16q-63 68 -157 110t-187 42q-129 0 -211 -81t-82 -210
q0 -94 45.5 -162t113 -111t179.5 -100q127 -63 203 -113.5t129 -133.5t53 -206q0 -127 -58 -222z" />
    <glyph glyph-name="uni0219" unicode="&#x219;" horiz-adv-x="997" 
d="M554 -159.5q24 -30.5 24 -88.5q0 -70 -39 -136.5t-103 -102.5l-16 22q53 33 87 88t38 113q-25 -20 -60 -21q-35 0 -56 20.5t-21 55.5q0 37 22.5 58.5t61.5 21.5q38 0 62 -30.5zM796.5 65q-112.5 -85 -294.5 -85q-127 0 -234.5 40.5t-177.5 112.5l14 19
q66 -61 168.5 -99.5t206.5 -38.5q141 0 231.5 68t90.5 174q0 74 -43 121t-106.5 75.5t-172.5 63.5q-117 39 -187.5 72t-119.5 90t-49 145q0 133 105.5 210t260.5 77q109 0 201 -38t156 -105l-12 -15q-63 57 -148.5 90t-173.5 33q-121 0 -201 -60.5t-80 -160.5q0 -70 43 -116
t105.5 -74.5t169.5 -63.5q119 -39 190.5 -71.5t120.5 -91t49 -148.5q0 -139 -112.5 -224z" />
    <glyph glyph-name="uni021A" unicode="&#x21a;" horiz-adv-x="1263" 
d="M693.5 -159.5q23.5 -30.5 23.5 -88.5q0 -70 -39 -136.5t-103 -102.5l-16 22q53 33 87 88t38 113q-25 -20 -59 -21q-35 0 -56.5 20.5t-21.5 55.5q0 37 22.5 58.5t61.5 21.5t62.5 -30.5zM1231 1503h-541v-1503h-117v1503h-542v33h1200v-33z" />
    <glyph glyph-name="uni021B" unicode="&#x21b;" horiz-adv-x="768" 
d="M396.5 -159.5q23.5 -30.5 23.5 -88.5q0 -70 -39 -136.5t-102 -102.5l-17 22q53 33 87 88t38 113q-25 -20 -59 -21q-35 0 -56.5 20.5t-21.5 55.5q0 37 22.5 58.5t61.5 21.5t62.5 -30.5zM762 68q-41 -41 -104.5 -64.5t-129.5 -23.5q-127 0 -205.5 81.5t-78.5 217.5v778
h-205v33h205l90 348h20v-348h381v-33h-381v-791q0 -113 59.5 -181.5t155.5 -68.5q51 0 100.5 18.5t80.5 49.5z" />
    <glyph glyph-name="uni0237" unicode="&#x237;" horiz-adv-x="489" 
d="M236.5 -307.5q-66.5 -98.5 -193.5 -163.5l-10 20q78 55 119 149.5t41 223.5v1168h110v-1135q0 -164 -66.5 -262.5z" />
    <glyph glyph-name="circumflex" unicode="&#x2c6;" horiz-adv-x="1228" 
d="M260 1204l-14 17l276 249l277 -249l-15 -17l-262 213z" />
    <glyph glyph-name="caron" unicode="&#x2c7;" horiz-adv-x="1228" 
d="M786 1470l15 -16l-279 -250l-274 250l14 16l260 -210z" />
    <glyph glyph-name="breve" unicode="&#x2d8;" horiz-adv-x="1228" 
d="M608 1288q-72 -57 -153 -57q-82 0 -155 57t-107 152l20 10q35 -82 101 -132q67 -50 141 -50q72 0 138 50q67 50 101 132l21 -10q-35 -95 -107 -152z" />
    <glyph glyph-name="dotaccent" unicode="&#x2d9;" horiz-adv-x="1228" 
d="M292 1413q-22 -20 -54 -20q-35 0 -56 20q-20 20 -20 53q0 35 20 55q20 19 56 19q35 0 55 -20t20 -54q1 -33 -21 -53z" />
    <glyph glyph-name="ring" unicode="&#x2da;" horiz-adv-x="1228" 
d="M530 1230q-53 -50 -139 -50q-88 0 -141 50t-53 132t53 131t141 49q86 0 139 -49t54 -131q-1 -82 -54 -132zM280 1253q42 -41 111 -41q68 0 110 41t42 109q0 66 -42 106q-42 41 -110 41q-70 0 -111 -41q-42 -41 -42 -106q0 -68 42 -109z" />
    <glyph glyph-name="ogonek" unicode="&#x2db;" horiz-adv-x="1228" 
d="M415 -461q-42 -10 -81 -10q-90 0 -145 46q-54 46 -54 122q0 92 86 180t230 139l22 -16q-111 -53 -179 -135q-69 -82 -69 -164q0 -61 37 -98t100 -37q68 0 119 20l6 -20q-30 -17 -72 -27z" />
    <glyph glyph-name="tilde" unicode="&#x2dc;" horiz-adv-x="1228" 
d="M250 1270l-21 10q23 66 67 108t112 42q43 0 75 -19q33 -18 76 -55q41 -35 67 -50t60 -16q47 0 82 32t63 99l23 -12q-20 -66 -64 -109t-114 -43q-43 0 -76 19q-33 18 -76 55q-41 35 -66 50q-26 15 -61 16q-92 0 -147 -127z" />
    <glyph glyph-name="hungarumlaut" unicode="&#x2dd;" horiz-adv-x="1228" 
d="M621 1526l22 -23l-321 -321l-21 22zM979 1526l25 -23l-322 -321l-20 22z" />
    <glyph glyph-name="gravecomb" unicode="&#x300;" 
d="M-207 1212l-393 226l16 28l391 -227z" />
    <glyph glyph-name="acutecomb" unicode="&#x301;" 
d="M-600 1212l-14 27l393 227l16 -28z" />
    <glyph glyph-name="uni0302" unicode="&#x302;" 
d="M-784 1204l-15 17l277 249l276 -249l-14 -17l-262 213z" />
    <glyph glyph-name="tildecomb" unicode="&#x303;" 
d="M-834 1270l-20 10q23 66 67 108t111 42q43 0 76 -18.5t76 -55.5q41 -35 66.5 -50.5t60.5 -15.5q47 0 81.5 32t63.5 99l23 -12q-20 -66 -64.5 -109t-114.5 -43q-43 0 -75.5 18.5t-75.5 55.5q-41 35 -66.5 50.5t-60.5 15.5q-93 0 -148 -127z" />
    <glyph glyph-name="uni0304" unicode="&#x304;" 
d="M-745 1323v33h552v-33h-552z" />
    <glyph glyph-name="uni0306" unicode="&#x306;" 
d="M-299 1288.5q-72 -57.5 -154 -57.5t-154.5 57.5t-107.5 151.5l21 10q35 -82 101.5 -132t139.5 -50q72 0 138.5 50t101.5 132l20 -10q-34 -94 -106 -151.5z" />
    <glyph glyph-name="uni0307" unicode="&#x307;" 
d="M-181.5 1413.5q-21.5 -20.5 -54.5 -20.5q-35 0 -55 20.5t-20 52.5q0 35 20.5 54.5t54.5 19.5q35 0 55.5 -20.5t20.5 -53.5q0 -32 -21.5 -52.5z" />
    <glyph glyph-name="uni0308" unicode="&#x308;" 
d="M-602.5 1372.5q-18.5 -18.5 -50.5 -18.5q-31 0 -49.5 18.5t-18.5 46.5q0 31 18.5 49.5t49.5 18.5q33 0 51 -18.5t18 -49.5q0 -28 -18.5 -46.5zM-208.5 1372.5q-18.5 -18.5 -49.5 -18.5t-50.5 18.5t-19.5 46.5q0 31 19.5 49.5t50.5 18.5t49.5 -18.5t18.5 -49.5
q0 -28 -18.5 -46.5z" />
    <glyph glyph-name="uni030A" unicode="&#x30a;" 
d="M-250 1230q-53 -50 -139 -50q-88 0 -141.5 50t-53.5 132t53.5 131t141.5 49q86 0 139 -49t53 -131t-53 -132zM-501 1253q42 -41 112 -41q68 0 109.5 41t41.5 109q0 66 -42 106.5t-109 40.5q-70 0 -112 -41t-42 -106q0 -68 42 -109z" />
    <glyph glyph-name="uni030B" unicode="&#x30b;" 
d="M-608 1526l22 -23l-321 -321l-21 22zM-250 1526l25 -23l-322 -321l-20 22z" />
    <glyph glyph-name="uni030C" unicode="&#x30c;" 
d="M-406 1470l15 -16l-279 -250l-274 250l14 16l260 -210z" />
    <glyph glyph-name="uni0312" unicode="&#x312;" 
d="M-183.5 1375.5q21.5 -23.5 21.5 -60.5q0 -39 -23.5 -62.5t-60.5 -23.5q-39 0 -62.5 32.5t-23.5 96.5q0 98 39 188t103 142l14 -21q-53 -49 -87 -130t-36 -163q25 25 59 25q35 0 56.5 -23.5z" />
    <glyph glyph-name="uni0326" unicode="&#x326;" 
d="M-185.5 -159.5q23.5 -30.5 23.5 -88.5q0 -70 -39 -136.5t-102 -102.5l-16 22q53 33 86.5 88t37.5 113q-25 -20 -59 -21q-35 0 -56.5 20.5t-21.5 55.5q0 37 22.5 58.5t61.5 21.5t62.5 -30.5z" />
    <glyph glyph-name="uni0327" unicode="&#x327;" 
d="M-198.5 -177q65.5 -42 65.5 -108q0 -84 -102.5 -135t-270.5 -51l4 20q125 0 202 46.5t77 119.5q0 53 -55.5 88t-145.5 37l59 174l37 -14l-45 -131q109 -4 174.5 -46z" />
    <glyph glyph-name="uni0328" unicode="&#x328;" 
d="M-208 -461q-42 -10 -81 -10q-90 0 -144 46t-54 122q0 92 86 180t229 139l22 -16q-111 -53 -179 -135t-68 -164q0 -61 36.5 -98t100.5 -37q68 0 119 20l6 -20q-31 -17 -73 -27z" />
    <glyph glyph-name="uni0335" unicode="&#x335;" 
d="M-971 725v33h713v-33h-713z" />
    <glyph glyph-name="uni0336" unicode="&#x336;" 
d="M-1528 1110v33h1340v-33h-1340z" />
    <glyph glyph-name="uni0337" unicode="&#x337;" 
d="M-381 702v15l-217 -150l-20 29l237 164v-15l217 150l21 -29z" />
    <glyph glyph-name="uni0338" unicode="&#x338;" 
d="M-903 -94l-29 22l856 1202l29 -22z" />
    <glyph glyph-name="uni0394" unicode="&#x394;" horiz-adv-x="1415" 
d="M1348 23v-23h-1278v18l620 1538h27zM1219 35l-555 1354l-547 -1354h1102z" />
    <glyph glyph-name="uni03A9" unicode="&#x3a9;" horiz-adv-x="1675" 
d="M1502 678.5q-46 -103.5 -109.5 -178t-163.5 -172.5q-102 -98 -150.5 -162t-48.5 -133h486v-33h-527v33q0 80 43 149.5t133 173.5q84 96 134.5 167t87 168t36.5 216q0 180 -72.5 317.5t-205.5 213t-307 75.5t-307.5 -75.5t-206 -213t-72.5 -317.5q0 -119 37 -216
t87 -167.5t134 -167.5q90 -104 133 -173.5t43 -149.5v-33h-526v33h485q0 70 -48 133t-151 162q-100 98 -163.5 172.5t-109.5 178t-46 228.5q0 193 89 340.5t250 228t372 80.5t371.5 -80.5t249.5 -228t89 -340.5q0 -125 -46 -228.5z" />
    <glyph glyph-name="uni03BC" unicode="&#x3bc;" horiz-adv-x="1216" 
d="M1042 1090v-797q0 -141 -86 -227t-225 -86q-131 0 -248.5 75.5t-185.5 202.5v-709h-111v1541h111v-768q59 -135 171 -218.5t232 -83.5q104 0 168 72t64 189v809h110z" />
    <glyph glyph-name="pi" unicode="&#x3c0;" horiz-adv-x="1382" 
d="M1073 1057v-889q0 -70 35 -112t92 -42q47 0 92 13l4 -17q-25 -14 -58.5 -22t-61.5 -8q-94 0 -153.5 58t-59.5 150v869h-566v-1057h-110v1057h-250v33h1286v-33h-250z" />
    <glyph glyph-name="Wgrave" unicode="&#x1e80;" horiz-adv-x="1869" 
d="M1204 1645l-528 188l12 33l526 -193zM1786 1536l-434 -1556h-31l-383 1353l-373 -1353h-30l-453 1556h123l383 -1354l370 1374h35l381 -1374l369 1354h43z" />
    <glyph glyph-name="wgrave" unicode="&#x1e81;" horiz-adv-x="1531" 
d="M963 1264l-394 225l17 29l391 -228zM1473 1090l-371 -1110h-21l-311 946l-311 -946h-25l-373 1110h119l305 -918l308 938h28l312 -940l303 920h37z" />
    <glyph glyph-name="Wacute" unicode="&#x1e82;" horiz-adv-x="1869" 
d="M735 1645l-10 28l526 193l13 -33zM1786 1536l-434 -1556h-31l-383 1353l-373 -1353h-30l-453 1556h123l383 -1354l370 1374h35l381 -1374l369 1354h43z" />
    <glyph glyph-name="wacute" unicode="&#x1e83;" horiz-adv-x="1531" 
d="M633 1264l-15 26l394 228l16 -29zM1473 1090l-371 -1110h-21l-311 946l-311 -946h-25l-373 1110h119l305 -918l308 938h28l312 -940l303 920h37z" />
    <glyph glyph-name="Wdieresis" unicode="&#x1e84;" horiz-adv-x="1869" 
d="M823.5 1697.5q-18.5 -18.5 -51.5 -18.5q-31 0 -49 18.5t-18 49.5q0 29 18 47t49 18q33 0 51.5 -18t18.5 -47q0 -31 -18.5 -49.5zM1216.5 1697.5q-18.5 -18.5 -49.5 -18.5t-50 18.5t-19 49.5q0 29 19.5 47t49.5 18q31 0 49.5 -18t18.5 -47q0 -31 -18.5 -49.5zM1786 1536
l-434 -1556h-31l-383 1353l-373 -1353h-30l-453 1556h123l383 -1354l370 1374h35l381 -1374l369 1354h43z" />
    <glyph glyph-name="wdieresis" unicode="&#x1e85;" horiz-adv-x="1531" 
d="M651.5 1423.5q-18.5 -18.5 -51.5 -18.5q-31 0 -49.5 18.5t-18.5 46.5q0 31 18.5 49.5t49.5 18.5q33 0 51.5 -18.5t18.5 -49.5q0 -28 -18.5 -46.5zM1044.5 1423.5q-18.5 -18.5 -49.5 -18.5t-50 18.5t-19 46.5q0 31 19.5 49.5t49.5 18.5q31 0 49.5 -18.5t18.5 -49.5
q0 -28 -18.5 -46.5zM1473 1090l-371 -1110h-21l-311 946l-311 -946h-25l-373 1110h119l305 -918l308 938h28l312 -940l303 920h37z" />
    <glyph glyph-name="uni1E9E" unicode="&#x1e9e;" horiz-adv-x="1533" 
d="M1296.5 676q122.5 -119 122.5 -283q0 -123 -59.5 -217t-167 -145t-248.5 -51q-92 0 -191.5 35.5t-170.5 93.5l16 22q66 -53 155 -84t171 -31q166 0 268 103.5t102 273.5q0 104 -58 193.5t-162.5 150t-242.5 78.5l398 688h-885v-1503h-115v1536h1143v-16l-405 -686
q207 -39 329.5 -158z" />
    <glyph glyph-name="Ygrave" unicode="&#x1ef2;" horiz-adv-x="1409" 
d="M965 1645l-529 188l13 33l526 -193zM774 688v-688h-117v684l-581 852h137l543 -803l518 803h47z" />
    <glyph glyph-name="ygrave" unicode="&#x1ef3;" horiz-adv-x="1089" 
d="M743 1264l-393 225l17 29l391 -228zM1040 1090l-661 -1545h-41l192 449l-477 1096h119l416 -963l411 963h41z" />
    <glyph glyph-name="endash" unicode="&#x2013;" horiz-adv-x="1163" 
d="M160 557v33h844v-33h-844z" />
    <glyph glyph-name="emdash" unicode="&#x2014;" horiz-adv-x="1511" 
d="M160 557v33h1192v-33h-1192z" />
    <glyph glyph-name="quoteleft" unicode="&#x2018;" horiz-adv-x="456" 
d="M298 1241q24 -27 24 -67q0 -43 -26 -70t-67 -27q-45 0 -71.5 36t-26.5 104q0 100 43 193t115 146l14 -20q-59 -49 -96 -130t-41 -167q25 29 70 29q38 0 62 -27z" />
    <glyph glyph-name="quoteright" unicode="&#x2019;" horiz-adv-x="448" 
d="M305.5 1520.5q26.5 -35.5 26.5 -103.5q0 -100 -43 -193.5t-115 -146.5l-16 21q61 49 98 130t41 167q-25 -29 -70 -29q-39 0 -63.5 25.5t-24.5 68.5t27 69.5t67 26.5q46 0 72.5 -35.5z" />
    <glyph glyph-name="quotesinglbase" unicode="&#x201a;" horiz-adv-x="438" 
d="M287 134q27 -36 26 -103q0 -100 -43 -194q-43 -93 -114 -146l-17 20q61 49 99 130q37 81 41 167q-25 -29 -70 -28q-39 0 -64 25q-25 26 -24 69q0 43 26 69q27 27 68 27q45 0 72 -36z" />
    <glyph glyph-name="quotedblleft" unicode="&#x201c;" horiz-adv-x="739" 
d="M298 1241q24 -27 24 -67q0 -43 -26 -70t-67 -27q-45 0 -71 36q-27 36 -27 104q0 100 43 193t115 146l14 -20q-59 -49 -96 -130t-41 -167q25 29 70 29q38 0 62 -27zM583 1241q24 -27 23 -67q0 -43 -25 -70q-26 -27 -67 -27q-45 0 -72 36t-26 104q0 100 43 193t114 146
l15 -20q-59 -49 -96 -130t-41 -167q25 29 69 29q39 0 63 -27z" />
    <glyph glyph-name="quotedblright" unicode="&#x201d;" horiz-adv-x="733" 
d="M305.5 1520.5q26.5 -35.5 26.5 -103.5q0 -100 -43 -193.5t-115 -146.5l-16 21q61 49 98 130t41 167q-25 -29 -70 -29q-39 0 -63.5 25.5t-24.5 68.5t27 69.5t67 26.5q46 0 72.5 -35.5zM589.5 1520.5q26.5 -35.5 26.5 -103.5q0 -100 -43 -193.5t-114 -146.5l-17 21
q61 49 98.5 130t41.5 167q-25 -29 -70 -29q-41 0 -64.5 25.5t-23.5 68.5t26.5 69.5t67.5 26.5q45 0 71.5 -35.5z" />
    <glyph glyph-name="quotedblbase" unicode="&#x201e;" horiz-adv-x="720" 
d="M285 134q27 -36 26 -103q0 -100 -43 -194q-43 -93 -114 -146l-17 20q61 49 99 130q37 81 40 167q-25 -29 -69 -28q-39 0 -64 25q-25 26 -24 69q0 43 26 69q27 27 68 27q45 0 72 -36zM569 134q27 -36 27 -103q0 -100 -43 -194q-43 -93 -115 -146l-16 20q61 49 98 130
t41 167q-25 -29 -69 -28q-41 0 -65 25q-24 26 -24 69t27 69q27 27 68 27q44 0 71 -36z" />
    <glyph glyph-name="dagger" unicode="&#x2020;" horiz-adv-x="692" 
d="M571 1440h-204v-498h-41v498h-205v33h205v268h41v-268h204v-33z" />
    <glyph glyph-name="daggerdbl" unicode="&#x2021;" horiz-adv-x="724" 
d="M383 1495v-307h205v-33h-205v-213h-41v213h-205v33h205v307h-205v33h205v213h41v-213h205v-33h-205z" />
    <glyph glyph-name="bullet" unicode="&#x2022;" horiz-adv-x="712" 
d="M462 630q-40 -42 -106 -42t-105.5 42t-39.5 107q0 68 40 109t105 41q66 0 106 -41t40 -109q0 -65 -40 -107z" />
    <glyph glyph-name="ellipsis" unicode="&#x2026;" horiz-adv-x="1398" 
d="M1225 6q-27 -27 -68 -26q-41 0 -67 26q-27 27 -27 70t27 68q27 26 67 26q41 0 68 -26t26 -68q1 -43 -26 -70zM766 6q-27 -27 -68 -26q-41 0 -67 26q-27 27 -27 70t27 68q27 26 67 26q41 0 68 -26t27 -68q0 -43 -27 -70zM309 6q-27 -27 -67 -26q-41 0 -68 26
q-27 27 -27 70t27 68q27 26 68 26t67 -26q27 -26 27 -68q0 -43 -27 -70z" />
    <glyph glyph-name="perthousand" unicode="&#x2030;" horiz-adv-x="2525" 
d="M2394 195q-39 -98 -109 -153q-71 -54 -163 -54q-141 0 -228 120q-86 120 -86 314q0 195 86 314q86 120 228 120q92 0 163 -54t109 -153q39 -98 39 -227t-39 -227zM1963 124q60 -114 159 -114q96 0 156 114t61 298q0 184 -61 298q-60 114 -156 114q-98 0 -159 -113
q-60 -113 -60 -299q0 -184 60 -298zM682 885q-39 -98 -110 -153q-71 -54 -162 -54q-141 0 -228 120q-86 120 -86 314q0 195 86 314q86 120 228 120q92 0 162 -54q71 -54 110 -153q39 -98 39 -227t-39 -227zM251 814q60 -114 159 -114q96 0 156 114t61 298q0 184 -61 298
q-60 114 -156 114q-98 0 -159 -113q-60 -113 -61 -299q1 -184 61 -298zM367 0l999 1536h41l-999 -1536h-41zM1636 195q-39 -98 -109 -153q-71 -54 -163 -54q-141 0 -227 120t-86 314q0 195 86 314q86 120 227 120q92 0 163 -54t109 -153q39 -98 39 -227t-39 -227zM1205 124
q60 -114 159 -114q96 0 157 114q60 114 60 298t-60 298t-157 114q-98 0 -159 -113q-60 -113 -60 -299q0 -184 60 -298z" />
    <glyph glyph-name="guilsinglleft" unicode="&#x2039;" horiz-adv-x="579" 
d="M106 567v13l308 387l20 -13l-254 -381l254 -380l-20 -13z" />
    <glyph glyph-name="guilsinglright" unicode="&#x203a;" horiz-adv-x="579" 
d="M143 193l254 380l-254 381l21 13l307 -387v-13l-307 -387z" />
    <glyph glyph-name="fraction" unicode="&#x2044;" horiz-adv-x="225" 
d="M-410 0l1000 1536h41l-1000 -1536h-41z" />
    <glyph glyph-name="lira" unicode="&#x20a4;" horiz-adv-x="1212" 
d="M1135 698q0 -207 -91.5 -365.5t-258.5 -245.5t-386 -87h-114v813l-174 -47v35l174 47v225l-174 -47v35l174 47v428h114v-397l484 129v-35l-484 -129v-225l484 129v-35l-484 -129v-811q205 0 365 83t249 233.5t93 348.5h29z" />
    <glyph glyph-name="Euro" unicode="&#x20ac;" horiz-adv-x="1452" 
d="M1358 201q-78 -100 -208 -160.5t-263 -60.5q-168 0 -301 76.5t-218 217t-112 328.5h-172v33h168q-8 57 -8 133q0 35 4 96h-164v33h166q20 199 105 348.5t220.5 230t307.5 80.5q129 0 251.5 -56t198.5 -150l-16 -17q-68 84 -181.5 134.5t-228.5 50.5q-143 0 -256.5 -77
t-184.5 -217.5t-89 -326.5h551v-33h-553q-4 -61 -4 -96q0 -68 6 -133h551v-33h-547q35 -268 176 -426t352 -158q119 0 239 56.5t193 148.5z" />
    <glyph glyph-name="uni20B1" unicode="&#x20b1;" horiz-adv-x="1361" 
d="M1280 1167h-174q12 -55 12 -114q0 -53 -10 -115h172v-33h-180q-43 -156 -172 -247t-314 -91h-215v-567h-114v905h-179v33h179v229h-179v33h179v336h329q184 0 313.5 -90t172.5 -246h180v-33zM399 1200h574q-35 141 -134.5 222t-240.5 81h-199v-303zM981 1167h-582v-229
h582q10 61 10 115q0 53 -10 114zM838.5 682q99.5 82 134.5 223h-574v-305h199q141 0 240.5 82z" />
    <glyph glyph-name="uni20B9" unicode="&#x20b9;" horiz-adv-x="1097" 
d="M1020 1503h-584q180 -39 286.5 -134t115.5 -228h182v-33h-182q-6 -162 -147.5 -268.5t-377.5 -128.5l482 -711h-138l-497 737h16q156 0 275.5 46t187.5 130t72 195h-551v33h551q-6 109 -75 190.5t-187.5 126.5t-272.5 45h-16v33h860v-33z" />
    <glyph glyph-name="uni20BD" unicode="&#x20bd;" horiz-adv-x="1243" 
d="M403 690v-229h478v-33h-478v-428h-116v428h-176v33h176v229h-176v33h176v813h350q158 0 276.5 -53t184 -148.5t65.5 -220.5t-65.5 -221t-184 -149.5t-276.5 -53.5h-234zM922.5 1395.5q-113.5 107.5 -299.5 107.5h-220v-780h220q123 0 217 49t145 138t51 204
q0 174 -113.5 281.5z" />
    <glyph glyph-name="uni20BF" unicode="&#x20bf;" horiz-adv-x="1230" 
d="M1009.5 152.5q-108.5 -109.5 -294.5 -142.5v-215h-41v211q-45 -6 -99 -6h-114v-205h-41v205h-191v1536h191v205h41v-205h114q53 0 99 -6v211h41v-219q143 -31 227 -124t84 -224q0 -135 -85 -230.5t-228 -128.5q186 -29 295.5 -134.5t109.5 -258.5q0 -160 -108.5 -269.5z
M805 1412q-94 91 -246 91h-215v-674h215q152 0 246 95.5t94 249.5q0 147 -94 238zM786.5 81q98.5 48 151.5 137t53 204q0 170 -118.5 272.5t-313.5 102.5h-215v-764h215q129 0 227.5 48z" />
    <glyph glyph-name="trademark" unicode="&#x2122;" horiz-adv-x="1484" 
d="M1233 922l-43 471l-221 -482h-17l-225 492l-45 -481h-25l60 624h20l252 -538l246 538h20l60 -624h-82zM74 1536h501v-20h-210v-594h-80v594h-211v20z" />
    <glyph glyph-name="oneeighth" unicode="&#x215b;" horiz-adv-x="1622" 
d="M1456 369q59 -61 60 -150q0 -104 -82 -168q-82 -63 -220 -63q-133 0 -216 63t-83 168q0 88 60 150q59 61 160 80q-84 16 -133 69q-48 53 -48 129q0 94 71 152q71 57 189 57q119 0 192 -57t73 -152q0 -76 -49 -129t-136 -69q103 -19 162 -80zM1095 511q46 -52 119 -52
q76 0 123 52t47 136t-46 135t-124 52q-74 0 -119 -52q-46 -51 -46 -135t46 -136zM1364 68q57 57 57 151q0 96 -57 157q-57 60 -150 60q-92 0 -148 -60t-56 -157q0 -94 56 -151t148 -58q93 1 150 58zM227 0l1000 1536h41l-1000 -1536h-41zM446 1546v-856h-88v787l-282 -160
l-10 18l364 211h16z" />
    <glyph glyph-name="threeeighths" unicode="&#x215c;" horiz-adv-x="1695" 
d="M1538 369q59 -61 59 -150q0 -104 -81 -168q-82 -63 -220 -63q-133 0 -216 63t-83 168q0 88 60 150q59 61 160 80q-84 16 -133 69q-48 53 -48 129q0 94 71 152q71 57 189 57q119 0 192 -57t73 -152q0 -76 -50 -129q-49 -53 -135 -69q103 -19 162 -80zM1177 511
q46 -52 119 -52q76 0 123 52t47 136t-46 135t-124 52q-74 0 -119 -52q-46 -51 -47 -135q1 -84 47 -136zM1446 68q57 57 57 151q0 96 -57 157q-57 60 -150 60q-92 0 -148 -60t-56 -157q0 -94 56 -151t148 -58q93 1 150 58zM311 0l1000 1536h41l-1000 -1536h-41zM590 1064
q68 -60 67 -153q0 -106 -82 -170q-82 -63 -215 -63q-76 0 -150 32q-75 32 -124 81l12 16q47 -47 110 -73q62 -26 126 -25q102 0 166 56q63 56 63 148q0 96 -69 155q-70 58 -185 58h-22v23h12q102 0 166 54q63 54 63 143q0 78 -50 124q-50 47 -134 48q-51 0 -110 -24
q-58 -24 -99 -58l-12 14q47 43 113 70t126 26q117 0 189 -54t72 -142q0 -82 -58 -139q-57 -56 -157 -72q114 -15 182 -75z" />
    <glyph glyph-name="fiveeighths" unicode="&#x215d;" horiz-adv-x="1679" 
d="M1524 369q59 -61 59 -150q0 -104 -82 -168q-82 -63 -219 -63q-133 0 -216 63t-83 168q0 88 59 150q59 61 160 80q-84 16 -132 69t-48 129q0 94 71 152q71 57 189 57q119 0 192 -57t72 -152q0 -76 -49 -129t-135 -69q103 -19 162 -80zM1162 511q46 -52 120 -52
q76 0 123 52t47 136t-46 135t-124 52q-74 0 -120 -52q-46 -51 -46 -135t46 -136zM1432 68q57 57 57 151q0 96 -57 157q-57 60 -150 60q-92 0 -148 -60t-57 -157q0 -94 57 -151q56 -57 148 -58q93 1 150 58zM295 0l999 1536h41l-999 -1536h-41zM567 1148q80 -75 80 -198
q0 -121 -84 -196q-84 -76 -221 -76q-76 0 -144 32q-69 32 -106 83l12 14q33 -45 93 -72q59 -27 122 -26q104 0 169 66q65 67 65 175q0 109 -63 176q-62 68 -162 68q-41 0 -90 -15t-88 -40l-9 14l54 383h417v-23h-333l-46 -313q63 23 123 23q131 0 211 -75z" />
    <glyph glyph-name="seveneighths" unicode="&#x215e;" horiz-adv-x="1619" 
d="M1454 369q59 -61 59 -150q0 -104 -81 -168q-82 -63 -220 -63q-133 0 -216 63t-83 168q0 88 60 150q59 61 160 80q-84 16 -133 69q-48 53 -48 129q0 94 71 152q71 57 189 57q119 0 192 -57t73 -152q0 -76 -50 -129q-49 -53 -135 -69q103 -19 162 -80zM1093 511
q46 -52 119 -52q76 0 123 52t47 136t-46 135t-124 52q-74 0 -119 -52q-46 -51 -46 -135t46 -136zM1362 68q57 57 57 151q0 96 -57 157q-57 60 -150 60q-92 0 -148 -60t-56 -157q0 -94 56 -151t148 -58q93 1 150 58zM227 0l1000 1536h41l-1000 -1536h-41zM627 1536v-12
l-348 -834h-95l348 823h-462v23h557z" />
    <glyph glyph-name="partialdiff" unicode="&#x2202;" horiz-adv-x="1261" 
d="M707.5 1446q203.5 -139 313 -360.5t109.5 -495.5q0 -180 -65.5 -318.5t-185 -215t-275.5 -76.5q-152 0 -268.5 59t-180 166.5t-63.5 249.5q0 131 58.5 231t166 155.5t248.5 55.5q129 0 246 -59.5t188 -159.5q-16 244 -115.5 438.5t-268.5 319.5t-392 161l6 21
q275 -33 478.5 -172zM813 83q90 71 140.5 199t50.5 298v36q-70 109 -183.5 175.5t-232.5 66.5q-166 0 -267.5 -111.5t-101.5 -295.5q0 -131 48 -230.5t135 -154t202 -54.5q119 0 209 71z" />
    <glyph glyph-name="emptyset" unicode="&#x2205;" horiz-adv-x="1476" 
d="M1169 1014q68 -80 105 -188.5t37 -235.5q0 -182 -72 -320.5t-202 -214t-302 -75.5q-123 0 -226 39.5t-179 115.5l-166 -174l-33 31l168 176q-68 80 -104.5 187.5t-36.5 234.5q0 182 71.5 320.5t202.5 214t303 75.5q123 0 226.5 -40t177.5 -113l168 174l30 -33zM328 197
l784 819q-70 74 -166 112.5t-211 38.5q-158 0 -278.5 -71.5t-187 -202.5t-66.5 -303q0 -235 125 -393zM1141 983l-785 -819q147 -152 379 -152q158 0 278 72t186.5 203t66.5 303q0 235 -125 393z" />
    <glyph glyph-name="product" unicode="&#x220f;" horiz-adv-x="1650" 
d="M1583 1565h-240v-2016h-114v2016h-803v-2016h-117v2016h-239v32h1513v-32z" />
    <glyph glyph-name="summation" unicode="&#x2211;" horiz-adv-x="1185" 
d="M72 -451v17l553 1048l-533 967v16h1010v-32h-881l533 -951l-553 -1032h921v-33h-1050z" />
    <glyph glyph-name="minus" unicode="&#x2212;" horiz-adv-x="970" 
d="M127 557v33h717v-33h-717z" />
    <glyph glyph-name="radical" unicode="&#x221a;" horiz-adv-x="1402" 
d="M1423 1597l-895 -2050h-34l-478 1092h125l412 -942l829 1900h41z" />
    <glyph glyph-name="infinity" unicode="&#x221e;" horiz-adv-x="1667" 
d="M1429.5 834.5q98.5 -95.5 98.5 -250.5q0 -156 -98.5 -251t-260.5 -95q-125 0 -214 62t-121 169q-33 -106 -122 -168.5t-214 -62.5q-162 0 -260.5 95t-98.5 251t98.5 251t260.5 95q125 0 214 -62.5t122 -169.5q33 106 121.5 169t213.5 63q162 0 260.5 -95.5zM725 356
q86 86 86 228q0 141 -86 227t-227 86t-227.5 -86t-86.5 -227t86 -227.5t228 -86.5q141 0 227 86zM1397 356q86 86 86 228q0 141 -86 227t-228 86q-141 0 -227 -86t-86 -227t86 -227.5t227 -86.5q142 0 228 86z" />
    <glyph glyph-name="integral" unicode="&#x222b;" horiz-adv-x="929" 
d="M436 -388q-86 -83 -225 -83q-68 0 -130.5 27.5t-98.5 74.5l14 15q31 -37 83 -57.5t107 -20.5q100 0 160 67.5t60 180.5v1501q0 135 87 218t224 83q68 0 130 -27.5t101 -74.5l-14 -15q-31 37 -84 57.5t-111 20.5q-98 0 -157.5 -66.5t-59.5 -179.5v-1503q0 -135 -86 -218z
" />
    <glyph glyph-name="approxequal" unicode="&#x2248;" horiz-adv-x="970" 
d="M51 666q0 102 62 165q61 63 161 64q66 0 114 -29t110 -84q61 -53 104 -79t103 -25q84 0 136 54t52 142h29q0 -102 -62 -165q-61 -63 -162 -64q-66 0 -113 29q-48 29 -110 84q-61 53 -104 79t-103 25q-84 0 -136 -54t-52 -142h-29zM51 301q0 102 62 166q61 63 161 63
q66 0 114 -28q48 -29 110 -84q61 -53 104 -79t103 -26q84 0 136 55q52 54 52 142h29q0 -102 -62 -166q-61 -63 -162 -63q-66 0 -113 28q-48 29 -110 84q-61 53 -104 79t-103 26q-84 0 -136 -55q-52 -54 -52 -142h-29z" />
    <glyph glyph-name="notequal" unicode="&#x2260;" horiz-adv-x="970" 
d="M580 705l-142 -263h406v-32h-424l-121 -222h-41l121 222h-252v32h270l142 263h-412v32h430l121 221h41l-121 -221h246v-32h-264z" />
    <glyph glyph-name="lessequal" unicode="&#x2264;" horiz-adv-x="970" 
d="M125 729l711 209v-37l-643 -188l643 -189v-37l-711 209v33zM125 264h717v-33h-717v33z" />
    <glyph glyph-name="greaterequal" unicode="&#x2265;" horiz-adv-x="970" 
d="M135 487v37l643 189l-643 188v37l711 -209v-33zM129 231v33h717v-33h-717z" />
    <glyph glyph-name="lozenge" unicode="&#x25ca;" horiz-adv-x="1056" 
d="M956 666l-413 -666h-29l-414 666l414 665h29zM913 666l-385 618l-385 -618l385 -619z" />
    <glyph glyph-name="uni261E" unicode="&#x261e;" horiz-adv-x="5521" 
d="M109 324l192 90q27 10 33 10t20.5 -6t34.5 -6l320 137q20 10 36 10q12 0 19 -2q18 -6 50 5t110 50q6 2 19 11.5t28 7.5q35 -2 78 8q41 8 63 8q10 0 82 27q14 4 65.5 22.5t73.5 20.5q37 2 86 33l41 20q23 8 41 8q14 0 28.5 -3t26.5 -3q14 0 21 2q23 6 53.5 9t40.5 10
q23 10 44.5 25.5t31.5 15.5q12 0 49 -15q18 27 43 27q10 0 36 -7.5t40 -7.5t33 7q53 18 266 78.5t252 68.5l45 8l33 21l217 88q14 6 22 -2q49 -49 99.5 -84t126.5 -76l372 -201l21 -18q6 -8 16 -8l1032 -4q20 0 29.5 7t21 11t44.5 2l276 -12l57 -8l70 4l434 -4l78 -4l-4 -97
l-39 -4l-573 2q-8 0 -13.5 2t-3.5 10l-305 5q-33 0 -45 7t-35 7l-975 10l27 -35q12 -16 50 -68t48 -71q96 -197 96 -262l-2 -8q-45 -29 -59 -29q-6 0 -23.5 5t-33.5 9l-47 7q-16 2 -71.5 10t-74.5 18l-80 62l21 -72q31 -98 30 -115q0 -10 -6 -15t-14 -11l-25 -25
q-20 -20 -36 -20q-10 0 -23 6l-76 63l-67 8q-59 6 -80 50l-62 110q-4 8 -9 13.5t-13 5.5q-10 0 -78 7t-121 7q45 0 -51 -3t-205.5 -6t-181.5 -3q-27 0 -81 14t-90 26.5t-52 16.5q-111 39 -150 45h-6q-14 0 -28.5 -11t-22.5 -16q-35 -14 -61.5 -20t-43.5 -10
q-35 -12 -47 -21.5t-22 -23.5q-10 -23 -45 -45q-8 -4 -19 -4l-37 2q-39 0 -65 -27q-53 -53 -75.5 -71.5t-51.5 -32t-100 -35.5q-16 -6 -42 -11.5t-40 -19.5q-10 -10 -35 -23.5t-35 -17.5q-109 -51 -131 -90q-20 -37 -46 -50.5t-89 -27.5l-109 -76l-170 -100
q-61 -53 -94 -70.5t-113 -36.5q-25 4 -59 52q-61 80 -125.5 206.5t-108 256t-43.5 215.5q1 25 46 45zM3447 212q51 -7 74 -7q-55 20 -76 33.5t-43 35.5q-33 33 -72 62q-6 4 -8 10t0 8l33 -12q45 -45 116.5 -93t143.5 -63l-168 250q-4 6 -15 56q-57 63 -143 102l-14 -2
l98 -74l47 -45l-2 -6q-113 102 -254 186q-18 12 -27.5 21.5t-11.5 25.5q-2 12 -7 16.5t-19 6.5l-43 6l-39 33l-86 45l-23 18l-112 56q-4 2 -19.5 8t-30.5 0l-159 -64l-52 -4q-70 -27 -100 -53q-2 2 -2 6q0 12 12 19q33 18 64 28t78 13l151 61q16 4 23 4q25 0 50 -11
t50 -26.5t39 -23.5l172 -80l78 -56l14 -16l125 -78q8 8 47 -20.5t80 -69.5t55 -67l150 -250q6 -12 10 -13l21 9q12 4 15 10t1 20q-20 94 -56 167t-90.5 145.5t-164.5 203.5q-213 94 -378 190.5t-204 162.5l-270 -115q-150 -27 -480 -135q-12 -4 -61 -20.5t-74 -16.5
q-16 0 -30 8q-6 -35 -19 -84q-23 -74 -24 -151l-9 -209h-4l-8 55q-2 27 -14 27q-4 0 -25 -9q-14 -4 -19 -17t-3 -26l6 -41l-4 -2l-17 35q-14 -14 -21 -18t-18 -2q-57 10 -65 10q-20 0 -35 -8l-121 -76q-18 -12 -18 -31q0 -8 2 -16t2 -16q0 -14 -14 -23l-160 -84
q-33 -18 -98 -45q-53 -18 -138 -70q-4 -4 -12 -4q-6 0 -11 5.5t-7 9.5q-4 4 -9 4q-6 0 -11 -4t-5 -9q0 -10 -6 -15t-19 -9q-68 -33 -79 -41q-154 -76 -260.5 -132.5t-165.5 -92.5q-14 -10 -15 8l53 33l-6 6q-29 0 -69 -17q-29 -12 -41 -12q-20 0 -35 23q-49 76 -123 270
l-41 125q-25 63 -24 117q0 14 4 19t18 5q4 -59 11 -99t26 -81q10 -25 20 -64q2 -23 13 -47q47 -143 116 -245q4 -6 11 -7q4 0 12 4.5t14 6.5l72 14q4 2 12 2q16 0 19 -16l102 57l305 147q10 6 28.5 13.5t30 16.5t17.5 24q2 8 14 8q8 0 26.5 -4t29.5 2l368 186q16 8 17 21
q0 6 -4.5 18t-4.5 19q0 12 13 20l98 61q33 23 56.5 35.5t41.5 12.5q14 0 52 -11q4 -2 10 -2q18 0 18 25q0 37 -4 70q-4 41 -4 104q0 74 2 133l8 70q-27 -12 -47 -19.5t-44.5 -13.5t-45.5 -10q-41 -10 -53 -11q-25 0 -43 19l-25 -21l-176 -208l-6 2l25 49l124 145
q-27 -14 -49 -18l-47 -8q-33 -12 -94 -31q-98 -29 -121 -45q-10 -8 -24 -8l-25 2q-20 0 -35.5 -6.5t-21.5 -6.5l-47 6l-78 -38q-47 -23 -76 -35.5t-39 -12.5q-8 0 -20 7l-9 2q-8 0 -16 -15q-2 -6 -4 -18t-6 -19q-18 -35 -23.5 -78.5t-15.5 -197.5q-14 35 -14 98
q0 57 10 117.5t26 91.5q-45 -14 -217 -88q-104 -47 -112 -47q-10 0 -27.5 9t-24.5 5l-239 -112q16 -141 96 -324.5t221 -400.5l68 43l-62 90l9 6l73 -86q59 23 75.5 31t27.5 22q135 80 192.5 117t77.5 55q16 16 66 33q35 10 55 21.5t33 35.5q16 33 87.5 74t221.5 102
q84 31 127 55.5t67 65.5q63 41 129 54q31 6 48 34q8 14 18 21.5t33 9.5q20 2 40.5 10t53.5 25l76 35q10 4 26 4q14 0 38 -8.5t42 -14.5l125 -39q-2 6 -2 29q0 39 10 90q2 8 4.5 19.5t5.5 14.5t11 3q-12 -57 -12 -96t10 -60q6 -12 17.5 -17t23.5 -6t18 -3q-8 16 -19 35.5
t-14.5 34t-3.5 38.5q0 23 4 72q6 41 7 82l6 4l2 -21q10 29 23.5 47.5t33.5 32.5l-211 -2q-20 0 -51 -12t-43 -12q-23 0 -39 37q-6 12 -6 30q0 23 8 42.5t25 27.5q12 6 22 6q12 0 22.5 -7t27 -26.5t28.5 -19.5l819 10l-2 4l-96 19q-4 4 -1 9t9 5q76 0 152 -29
q29 -10 39 -26.5t14 -18.5q10 -4 40 -10t42 -14l131 -109l-2 -4l-94 72q-4 2 -14.5 10t-19.5 11t-22 3l-159 6q4 -4 13 -15t13 -21q4 -12 25 -13h10q14 0 21 -6l178 -80q45 -4 101 -31.5t56 -44.5q0 -29 -15 -61.5t-38 -48.5q57 -45 88 -72q27 -25 41 -35q17 -10 68 -17z
M1837 823q-10 0 -41 -30q-6 -6 -16 -7q-16 0 -25 9q-12 12 -16 12q-6 0 -17 -8q10 -12 11 -35l-2 -27q-4 -66 -5 -159q0 -102 5 -136q18 14 33.5 18.5t19.5 8.5t6 23l25 256l24 75h-2zM4835 690l4 17l-333 10q-6 0 -10.5 -5t-4.5 -10zM5394 623q8 0 11.5 3t5.5 11l8 53
l-465 -6q-35 0 -59.5 1t-46.5 7l-9 -63zM4481 659.5q-2 -16.5 4 -16.5l340 -8l2 29l-340 12q-4 0 -6 -16.5zM2865 631q-12 31 -45 24l57 -57zM2200 444q0 -31 10 -49t53 -73l25 -9h487q57 -4 90 -8l62 -6l143 -12v4l-262 53l-80 10q-18 6 -33 6q-14 0 -27.5 -6t-17.5 -6
q-10 0 -18 14q-4 10 -17 11q-6 0 -18 -2t-17 8l-276 29l-10 8l10 8q12 4 23 4q12 0 29.5 -3t27.5 -5l166 -23q6 -2 20.5 -7t40.5 -5q27 0 43.5 -6t28.5 -6q10 0 24.5 2t26.5 0l236 -53q61 -14 103 -23.5t58 -9.5q20 0 39 12q61 39 84 60.5t33 56.5q2 4 2 10q0 16 -12 25
q-27 23 -59.5 32t-92.5 19l-53 10l-193 8q-27 0 -45 15.5t-49 50.5q-43 49 -47 53q-8 10 -13 12t-11.5 2h-8.5h-407q-27 0 -51.5 -37.5t-24.5 -74.5q0 -80 26.5 -126t86.5 -79l4 -4l-6 -2q-14 0 -47 14q-37 18 -53.5 60.5t-26.5 105.5q-6 -43 -6 -68zM2880.5 614.5
q11.5 -28.5 7.5 -36.5l-78 69l31 -55l-5 -2q-4 6 -15 17t-15 22q-8 18 -15.5 21t-40.5 3l50 -57q10 -14 37.5 -26.5t39.5 -18.5l29 37q4 10 0 18q-12 29 -39 47q2 -10 13.5 -38.5zM2888 547q147 -20 217 -21l-129 58q-14 6 -29.5 10t-21.5 -2zM1817 453q0 2 8 47l10 47
l10 14l-14 -108q8 -4 14 2t19.5 25.5t21.5 33.5q10 12 27 12q18 0 29 -14q12 -16 18 -26.5t10 -13.5t10 3l21 23q12 14 27 14q20 0 32 -27q6 -16 21.5 -28.5t32.5 -10.5l18 3v-7l-37 -6q-16 -4 -28.5 6.5t-22.5 40.5q-6 16 -19 17q-10 0 -20 -11q-39 -39 -51 -38
q-14 0 -17 22l-6 31q-2 10 -12 10q-6 0 -11 -3t-7 -7q-6 -10 -21.5 -32.5t-24 -27t-22.5 -4.5q-16 1 -16 13zM3181 100l67 -55q10 -6 15.5 -7t13.5 7q20 18 38.5 32.5t18.5 18.5q0 37 -33.5 127t-56.5 109l-90 -53l-94 -5q66 -74 80 -102q8 -20 28 -47zM3029 176
q4 -4 11 -21.5t18 -21.5l106 -24l-121 165l-75 2z" />
    <glyph glyph-name="uniF8FF" unicode="&#xf8ff;" horiz-adv-x="2541" 
d="M1694 -6q-14 -14 -35 -14q-27 0 -34 13t-7 34v663l-694 -696q-14 -14 -35 -14q-27 0 -34 13t-7 34v663l-696 -696q-14 -14 -35 -14q-14 0 -24.5 10t-10.5 26q0 20 10 31l701 698h-664q-47 0 -47 39q0 18 14 33l697 701h-670q-18 0 -29.5 10t-11.5 28v3q0 18 11 28t30 10
h758q20 0 33.5 -7t13.5 -34q0 -18 -17 -34l-698 -697h676q16 0 28.5 -12t12.5 -29v-669l694 692q16 16 35 16q37 0 37 -45v-663l696 692q16 16 33 16q14 0 24.5 -11t10.5 -28q0 -16 -13 -28z" />
    <glyph glyph-name="G.aalt" horiz-adv-x="1613" 
d="M1456 815v-835h-20l-82 284q-84 -127 -231.5 -205.5t-301.5 -78.5q-203 0 -359.5 97t-242.5 275t-86 410q0 236 91 416t256 279t380 99q156 0 308.5 -58t242.5 -155l-14 -18q-86 86 -228.5 139.5t-285.5 53.5q-184 0 -325.5 -94.5t-219.5 -266.5t-78 -395
q0 -219 71.5 -388t203 -262.5t303.5 -93.5q143 0 281 76t222 203v518h115z" />
    <glyph glyph-name="J.aalt" horiz-adv-x="792" 
d="M352 1642l-10 29l444 164l13 -33zM491.5 61.5q-81.5 -81.5 -215.5 -81.5q-66 0 -127 23.5t-100 62.5l17 20q31 -31 79 -50.5t99 -19.5q96 0 154.5 69t58.5 181v1270h116v-1257q0 -136 -81.5 -217.5z" />
    <glyph glyph-name="W.aalt" horiz-adv-x="1837" 
d="M1769 1536l-557 -1556h-30l-262 755l-263 -755h-28l-566 1556h121l496 -1384l217 647l-256 737h119l215 -623l219 623h43l-240 -688l240 -692l489 1380h43z" />
    <glyph glyph-name="Wacute.aalt" horiz-adv-x="1837" 
d="M707 1645l-11 28l527 193l12 -33zM1769 1536l-557 -1556h-30l-262 755l-263 -755h-28l-566 1556h121l496 -1384l217 647l-256 737h119l215 -623l219 623h43l-240 -688l240 -692l489 1380h43z" />
    <glyph glyph-name="Wcircumflex.aalt" horiz-adv-x="1837" 
d="M639 1624l-14 16l317 228l318 -228l-15 -16l-303 191zM1769 1536l-557 -1556h-30l-262 755l-263 -755h-28l-566 1556h121l496 -1384l217 647l-256 737h119l215 -623l219 623h43l-240 -688l240 -692l489 1380h43z" />
    <glyph glyph-name="Wdieresis.aalt" horiz-adv-x="1837" 
d="M794.5 1697.5q-18.5 -18.5 -51.5 -18.5q-31 0 -49 18.5t-18 49.5q0 29 18.5 47t48.5 18q33 0 51.5 -18t18.5 -47q0 -31 -18.5 -49.5zM1187.5 1697.5q-18.5 -18.5 -48.5 -18.5q-31 0 -50.5 18.5t-19.5 49.5q0 29 19.5 47t50.5 18t49 -18t18 -47q0 -31 -18.5 -49.5z
M1769 1536l-557 -1556h-30l-262 755l-263 -755h-28l-566 1556h121l496 -1384l217 647l-256 737h119l215 -623l219 623h43l-240 -688l240 -692l489 1380h43z" />
    <glyph glyph-name="Wgrave.aalt" horiz-adv-x="1837" 
d="M1176 1645l-529 188l12 33l527 -193zM1769 1536l-557 -1556h-30l-262 755l-263 -755h-28l-566 1556h121l496 -1384l217 647l-256 737h119l215 -623l219 623h43l-240 -688l240 -692l489 1380h43z" />
    <glyph glyph-name="Y.aalt" horiz-adv-x="1392" 
d="M1341 1536l-813 -1536h-47l238 449l-621 1087h129l553 -973l516 973h45z" />
    <glyph glyph-name="Yacute.aalt" horiz-adv-x="1392" 
d="M530 1645l-10 28l527 193l12 -33zM1341 1536l-813 -1536h-47l238 449l-621 1087h129l553 -973l516 973h45z" />
    <glyph glyph-name="Ycircumflex.aalt" horiz-adv-x="1392" 
d="M461 1624l-15 16l318 228l317 -228l-14 -16l-303 191zM1341 1536l-813 -1536h-47l238 449l-621 1087h129l553 -973l516 973h45z" />
    <glyph glyph-name="Ydieresis.aalt" horiz-adv-x="1392" 
d="M616.5 1697.5q-18.5 -18.5 -51.5 -18.5q-31 0 -49 18.5t-18 49.5q0 29 18.5 47t48.5 18q33 0 51.5 -18t18.5 -47q0 -31 -18.5 -49.5zM1009.5 1697.5q-18.5 -18.5 -48.5 -18.5q-31 0 -50.5 18.5t-19.5 49.5q0 29 19.5 47t50.5 18t49 -18t18 -47q0 -31 -18.5 -49.5z
M1341 1536l-813 -1536h-47l238 449l-621 1087h129l553 -973l516 973h45z" />
    <glyph glyph-name="Ygrave.aalt" horiz-adv-x="1392" 
d="M997 1645l-528 188l12 33l527 -193zM1341 1536l-813 -1536h-47l238 449l-621 1087h129l553 -973l516 973h45z" />
    <glyph glyph-name="a.salt" horiz-adv-x="1142" 
d="M858.5 1012.5q110.5 -97.5 110.5 -267.5v-765h-21l-80 301q-66 -135 -187.5 -218t-252.5 -83q-156 0 -249 87t-93 232q0 133 120 214t316 81h336v156q0 154 -86 238.5t-240 84.5q-96 0 -192 -37t-166 -100l-14 14q76 76 180 118t215 42q193 0 303.5 -97.5zM683 105.5
q110 82.5 175 216.5v239h-321q-152 0 -243 -70.5t-91 -189.5q0 -125 70.5 -201.5t185.5 -76.5q114 0 224 82.5z" />
    <glyph glyph-name="aacute.aalt" horiz-adv-x="1142" 
d="M418 1264l-15 26l394 228l16 -29zM858.5 1012.5q110.5 -97.5 110.5 -267.5v-765h-21l-80 301q-66 -135 -187.5 -218t-252.5 -83q-156 0 -249 87t-93 232q0 133 120 214t316 81h336v156q0 154 -86 238.5t-240 84.5q-96 0 -192 -37t-166 -100l-14 14q76 76 180 118t215 42
q193 0 303.5 -97.5zM683 105.5q110 82.5 175 216.5v239h-321q-152 0 -243 -70.5t-91 -189.5q0 -125 70.5 -201.5t185.5 -76.5q114 0 224 82.5z" />
    <glyph glyph-name="abreve.aalt" horiz-adv-x="1142" 
d="M737.5 1339.5q-71.5 -57.5 -153.5 -57.5t-155 57.5t-107 151.5l20 10q35 -82 101.5 -132t140.5 -50q72 0 138 50t101 132l21 -10q-35 -94 -106.5 -151.5zM858.5 1012.5q110.5 -97.5 110.5 -267.5v-765h-21l-80 301q-66 -135 -187.5 -218t-252.5 -83q-156 0 -249 87
t-93 232q0 133 120 214t316 81h336v156q0 154 -86 238.5t-240 84.5q-96 0 -192 -37t-166 -100l-14 14q76 76 180 118t215 42q193 0 303.5 -97.5zM683 105.5q110 82.5 175 216.5v239h-321q-152 0 -243 -70.5t-91 -189.5q0 -125 70.5 -201.5t185.5 -76.5q114 0 224 82.5z" />
    <glyph glyph-name="acircumflex.aalt" horiz-adv-x="1142" 
d="M319 1255l-14 17l277 250l276 -250l-14 -17l-262 213zM858.5 1012.5q110.5 -97.5 110.5 -267.5v-765h-21l-80 301q-66 -135 -187.5 -218t-252.5 -83q-156 0 -249 87t-93 232q0 133 120 214t316 81h336v156q0 154 -86 238.5t-240 84.5q-96 0 -192 -37t-166 -100l-14 14
q76 76 180 118t215 42q193 0 303.5 -97.5zM683 105.5q110 82.5 175 216.5v239h-321q-152 0 -243 -70.5t-91 -189.5q0 -125 70.5 -201.5t185.5 -76.5q114 0 224 82.5z" />
    <glyph glyph-name="adieresis.aalt" horiz-adv-x="1142" 
d="M436.5 1423.5q-18.5 -18.5 -51.5 -18.5q-31 0 -49.5 18.5t-18.5 46.5q0 31 18.5 49.5t49.5 18.5q33 0 51.5 -18.5t18.5 -49.5q0 -28 -18.5 -46.5zM829.5 1423.5q-18.5 -18.5 -49.5 -18.5t-50 18.5t-19 46.5q0 31 19.5 49.5t49.5 18.5q31 0 49.5 -18.5t18.5 -49.5
q0 -28 -18.5 -46.5zM858.5 1012.5q110.5 -97.5 110.5 -267.5v-765h-21l-80 301q-66 -135 -187.5 -218t-252.5 -83q-156 0 -249 87t-93 232q0 133 120 214t316 81h336v156q0 154 -86 238.5t-240 84.5q-96 0 -192 -37t-166 -100l-14 14q76 76 180 118t215 42
q193 0 303.5 -97.5zM683 105.5q110 82.5 175 216.5v239h-321q-152 0 -243 -70.5t-91 -189.5q0 -125 70.5 -201.5t185.5 -76.5q114 0 224 82.5z" />
    <glyph glyph-name="agrave.aalt" horiz-adv-x="1142" 
d="M745 1264l-393 225l17 29l391 -228zM858.5 1012.5q110.5 -97.5 110.5 -267.5v-765h-21l-80 301q-66 -135 -187.5 -218t-252.5 -83q-156 0 -249 87t-93 232q0 133 120 214t316 81h336v156q0 154 -86 238.5t-240 84.5q-96 0 -192 -37t-166 -100l-14 14q76 76 180 118
t215 42q193 0 303.5 -97.5zM683 105.5q110 82.5 175 216.5v239h-321q-152 0 -243 -70.5t-91 -189.5q0 -125 70.5 -201.5t185.5 -76.5q114 0 224 82.5z" />
    <glyph glyph-name="amacron.aalt" horiz-adv-x="1142" 
d="M305 1374v33h553v-33h-553zM858.5 1012.5q110.5 -97.5 110.5 -267.5v-765h-21l-80 301q-66 -135 -187.5 -218t-252.5 -83q-156 0 -249 87t-93 232q0 133 120 214t316 81h336v156q0 154 -86 238.5t-240 84.5q-96 0 -192 -37t-166 -100l-14 14q76 76 180 118t215 42
q193 0 303.5 -97.5zM683 105.5q110 82.5 175 216.5v239h-321q-152 0 -243 -70.5t-91 -189.5q0 -125 70.5 -201.5t185.5 -76.5q114 0 224 82.5z" />
    <glyph glyph-name="aogonek.aalt" horiz-adv-x="1142" 
d="M983 -434q-31 -16 -73 -26.5t-81 -10.5q-90 0 -145 46t-55 122q0 84 86 166t229 131l-76 287q-66 -135 -187.5 -218t-252.5 -83q-156 0 -249 87t-93 232q0 133 120 214t316 81h336v156q0 154 -86 238.5t-240 84.5q-96 0 -192 -37t-166 -100l-14 14q76 76 180 118t215 42
q193 0 303.5 -97.5t110.5 -267.5v-765q-111 -49 -179.5 -126t-68.5 -153q0 -61 38 -98t99 -37q70 0 117 20zM683 105.5q110 82.5 175 216.5v239h-321q-152 0 -243 -70.5t-91 -189.5q0 -125 70.5 -201.5t185.5 -76.5q114 0 224 82.5z" />
    <glyph glyph-name="aring.aalt" horiz-adv-x="1142" 
d="M723 1281q-53 -50 -139 -50q-88 0 -141.5 50t-53.5 132t53.5 131t141.5 49q86 0 139 -49t53 -131t-53 -132zM472 1305q42 -41 112 -41q68 0 109.5 41t41.5 108q0 66 -42 107t-109 41q-70 0 -112 -41t-42 -107q0 -67 42 -108zM858.5 1012.5q110.5 -97.5 110.5 -267.5v-765
h-21l-80 301q-66 -135 -187.5 -218t-252.5 -83q-156 0 -249 87t-93 232q0 133 120 214t316 81h336v156q0 154 -86 238.5t-240 84.5q-96 0 -192 -37t-166 -100l-14 14q76 76 180 118t215 42q193 0 303.5 -97.5zM683 105.5q110 82.5 175 216.5v239h-321q-152 0 -243 -70.5
t-91 -189.5q0 -125 70.5 -201.5t185.5 -76.5q114 0 224 82.5z" />
    <glyph glyph-name="atilde.aalt" horiz-adv-x="1142" 
d="M291 1321l-21 10q23 66 67 108t112 42q43 0 75.5 -18.5t75.5 -55.5q41 -35 66.5 -50.5t60.5 -15.5q47 0 82 32t63 100l23 -13q-20 -66 -64.5 -108.5t-113.5 -42.5q-43 0 -76 18.5t-76 54.5q-41 35 -66.5 50.5t-60.5 15.5q-92 0 -147 -127zM858.5 1012.5
q110.5 -97.5 110.5 -267.5v-765h-21l-80 301q-66 -135 -187.5 -218t-252.5 -83q-156 0 -249 87t-93 232q0 133 120 214t316 81h336v156q0 154 -86 238.5t-240 84.5q-96 0 -192 -37t-166 -100l-14 14q76 76 180 118t215 42q193 0 303.5 -97.5zM683 105.5q110 82.5 175 216.5
v239h-321q-152 0 -243 -70.5t-91 -189.5q0 -125 70.5 -201.5t185.5 -76.5q114 0 224 82.5z" />
    <glyph glyph-name="b.aalt" horiz-adv-x="1255" 
d="M924.5 1039.5q103.5 -70.5 161 -198.5t57.5 -296t-57.5 -296t-161 -198.5t-238.5 -70.5q-137 0 -246.5 83.5t-154.5 223.5l-78 -307h-21v1617h111v-759q51 125 156.5 198.5t232.5 73.5q135 0 238.5 -70.5zM853 86q83 66 128 184.5t45 274.5t-45 275.5t-128 185t-191 65.5
q-119 0 -219.5 -86t-145.5 -225v-428q45 -139 145.5 -225.5t219.5 -86.5q108 0 191 66z" />
    <glyph glyph-name="d.aalt" horiz-adv-x="1255" 
d="M1071 1597v-1617h-20l-80 307q-47 -139 -155.5 -223t-246.5 -84q-135 0 -238.5 70.5t-160.5 198.5t-57 296t57 296t160.5 198.5t238.5 70.5q131 0 236.5 -74.5t155.5 -204.5v766h110zM813 106.5q100 86.5 148 225.5v428q-47 139 -147.5 225t-219.5 86q-109 0 -192 -65.5
t-128 -185.5t-45 -275q0 -156 45 -274.5t128 -184.5t192 -66q119 0 219 86.5z" />
    <glyph glyph-name="dcaron.aalt" horiz-adv-x="1255" 
d="M1321 1597l-98 -415l-29 8l92 416zM961 1597h110v-1617h-20l-80 307q-47 -139 -155.5 -223t-246.5 -84q-135 0 -238.5 70.5t-160.5 198.5t-57 296t57 296t160.5 198.5t238.5 70.5q131 0 236.5 -74.5t155.5 -204.5v766zM813 106.5q100 86.5 148 225.5v428
q-47 139 -147.5 225t-219.5 86q-109 0 -192 -65.5t-128 -185.5t-45 -275q0 -156 45 -274.5t128 -184.5t192 -66q119 0 219 86.5z" />
    <glyph glyph-name="dcroat.aalt" horiz-adv-x="1255" 
d="M1247 1329h-176v-1349h-20l-80 307q-47 -139 -155.5 -223t-246.5 -84q-135 0 -238.5 70.5t-160.5 198.5t-57 296t57 296t160.5 198.5t238.5 70.5q131 0 236.5 -74.5t155.5 -204.5v498h-429v33h429v235h110v-235h176v-33zM813 106.5q100 86.5 148 225.5v428
q-47 139 -147.5 225t-219.5 86q-109 0 -192 -65.5t-128 -185.5t-45 -275q0 -156 45 -274.5t128 -184.5t192 -66q119 0 219 86.5z" />
    <glyph glyph-name="g.aalt" horiz-adv-x="1255" 
d="M1071 1110v-1100q0 -143 -66.5 -252.5t-187.5 -169t-280 -59.5q-92 0 -192.5 36t-168.5 95l17 18q63 -51 155 -82.5t178 -31.5q129 0 227.5 54t153 152.5t54.5 227.5v260q-51 -127 -157 -202.5t-235 -75.5q-135 0 -238.5 70.5t-160.5 198.5t-57 296t57 296t160.5 198.5
t238.5 70.5q139 0 248 -84t154 -223l80 307h20zM813 106.5q100 86.5 148 225.5v428q-47 139 -147.5 225t-219.5 86q-109 0 -192 -65.5t-128 -185.5t-45 -275q0 -156 45 -274.5t128 -184.5t192 -66q119 0 219 86.5z" />
    <glyph glyph-name="gbreve.aalt" horiz-adv-x="1255" 
d="M794.5 1339.5q-71.5 -57.5 -153.5 -57.5t-154.5 57.5t-107.5 151.5l20 10q35 -82 101.5 -132t140.5 -50q72 0 138.5 50t101.5 132l20 -10q-35 -94 -106.5 -151.5zM1071 1110v-1100q0 -143 -66.5 -252.5t-187.5 -169t-280 -59.5q-92 0 -192.5 36t-168.5 95l17 18
q63 -51 155 -82.5t178 -31.5q129 0 227.5 54t153 152.5t54.5 227.5v260q-51 -127 -157 -202.5t-235 -75.5q-135 0 -238.5 70.5t-160.5 198.5t-57 296t57 296t160.5 198.5t238.5 70.5q139 0 248 -84t154 -223l80 307h20zM813 106.5q100 86.5 148 225.5v428
q-47 139 -147.5 225t-219.5 86q-109 0 -192 -65.5t-128 -185.5t-45 -275q0 -156 45 -274.5t128 -184.5t192 -66q119 0 219 86.5z" />
    <glyph glyph-name="uni0123.aalt" horiz-adv-x="1255" 
d="M697.5 1375.5q21.5 -23.5 21.5 -60.5q0 -39 -23.5 -62.5t-60.5 -23.5q-39 0 -62.5 32.5t-23.5 96.5q0 98 39 188t102 142l15 -21q-53 -49 -87 -130t-36 -163q25 25 59 25q35 0 56.5 -23.5zM1071 1110v-1100q0 -143 -66.5 -252.5t-187.5 -169t-280 -59.5q-92 0 -192.5 36
t-168.5 95l17 18q63 -51 155 -82.5t178 -31.5q129 0 227.5 54t153 152.5t54.5 227.5v260q-51 -127 -157 -202.5t-235 -75.5q-135 0 -238.5 70.5t-160.5 198.5t-57 296t57 296t160.5 198.5t238.5 70.5q139 0 248 -84t154 -223l80 307h20zM813 106.5q100 86.5 148 225.5v428
q-47 139 -147.5 225t-219.5 86q-109 0 -192 -65.5t-128 -185.5t-45 -275q0 -156 45 -274.5t128 -184.5t192 -66q119 0 219 86.5z" />
    <glyph glyph-name="gdotaccent.aalt" horiz-adv-x="1255" 
d="M695.5 1413.5q-21.5 -20.5 -54.5 -20.5q-35 0 -55.5 20.5t-20.5 52.5q0 35 20.5 54.5t55.5 19.5t55.5 -20.5t20.5 -53.5q0 -32 -21.5 -52.5zM1071 1110v-1100q0 -143 -66.5 -252.5t-187.5 -169t-280 -59.5q-92 0 -192.5 36t-168.5 95l17 18q63 -51 155 -82.5t178 -31.5
q129 0 227.5 54t153 152.5t54.5 227.5v260q-51 -127 -157 -202.5t-235 -75.5q-135 0 -238.5 70.5t-160.5 198.5t-57 296t57 296t160.5 198.5t238.5 70.5q139 0 248 -84t154 -223l80 307h20zM813 106.5q100 86.5 148 225.5v428q-47 139 -147.5 225t-219.5 86
q-109 0 -192 -65.5t-128 -185.5t-45 -275q0 -156 45 -274.5t128 -184.5t192 -66q119 0 219 86.5z" />
    <glyph glyph-name="i.aalt" horiz-adv-x="481" 
d="M293.5 1413.5q-21.5 -20.5 -53.5 -20.5q-35 0 -55.5 20.5t-20.5 52.5q0 35 20.5 54.5t55.5 19.5t55 -20.5t20 -53.5q0 -32 -21.5 -52.5zM186 0v1090h111v-1090h-111z" />
    <glyph glyph-name="glyph410" horiz-adv-x="489" 
d="M98 1268l-16 24l332 221l18 -26zM236.5 -307.5q-66.5 -98.5 -193.5 -163.5l-10 20q78 55 119 149.5t41 223.5v1168h110v-1135q0 -164 -66.5 -262.5z" />
    <glyph glyph-name="m.aalt" horiz-adv-x="1961" 
d="M1703 1024q85 -86 85 -227v-797h-111v809q0 119 -63.5 190.5t-165.5 71.5q-119 0 -228.5 -81t-177.5 -218v-772h-110v809q0 119 -63.5 190.5t-168.5 71.5q-119 0 -231.5 -84t-171.5 -217v-770h-111v1110h21l80 -299q63 137 184 218t260 81q131 0 215 -77t94 -204
q66 127 184.5 204t252.5 77q141 0 226 -86z" />
    <glyph glyph-name="n.aalt" horiz-adv-x="1236" 
d="M975 1021q88 -89 88 -235v-786h-111v799q0 123 -66.5 197.5t-174.5 74.5q-123 0 -238 -86t-176 -225v-760h-111v1110h21l80 -309q66 141 189.5 225t264.5 84q146 0 234 -89z" />
    <glyph glyph-name="nacute.aalt" horiz-adv-x="1236" 
d="M453 1264l-15 26l393 228l17 -29zM975 1021q88 -89 88 -235v-786h-111v799q0 123 -66.5 197.5t-174.5 74.5q-123 0 -238 -86t-176 -225v-760h-111v1110h21l80 -309q66 141 189.5 225t264.5 84q146 0 234 -89z" />
    <glyph glyph-name="ncaron.aalt" horiz-adv-x="1236" 
d="M881 1522l14 -17l-279 -250l-274 250l14 17l260 -211zM975 1021q88 -89 88 -235v-786h-111v799q0 123 -66.5 197.5t-174.5 74.5q-123 0 -238 -86t-176 -225v-760h-111v1110h21l80 -309q66 141 189.5 225t264.5 84q146 0 234 -89z" />
    <glyph glyph-name="uni0146.aalt" horiz-adv-x="1236" 
d="M678.5 -159.5q23.5 -30.5 23.5 -88.5q0 -70 -38.5 -136.5t-102.5 -102.5l-16 22q53 33 87 88t38 113q-25 -20 -60 -21q-35 0 -56.5 20.5t-21.5 55.5q0 37 23 58.5t61 21.5q39 0 62.5 -30.5zM975 1021q88 -89 88 -235v-786h-111v799q0 123 -66.5 197.5t-174.5 74.5
q-123 0 -238 -86t-176 -225v-760h-111v1110h21l80 -309q66 141 189.5 225t264.5 84q146 0 234 -89z" />
    <glyph glyph-name="eng.aalt" horiz-adv-x="1236" 
d="M975 1021q88 -89 88 -235v-831q0 -164 -66.5 -262.5t-193.5 -163.5l-10 20q76 55 117.5 150.5t41.5 226.5v873q0 123 -66.5 197.5t-174.5 74.5q-123 0 -238 -86t-176 -225v-760h-111v1110h21l80 -309q66 141 189.5 225t264.5 84q146 0 234 -89z" />
    <glyph glyph-name="ntilde.aalt" horiz-adv-x="1236" 
d="M326 1321l-21 10q23 66 67 108t111 42q43 0 76 -18.5t76 -55.5q41 -35 66.5 -50.5t60.5 -15.5q47 0 82 32t63 100l23 -13q-20 -66 -64.5 -108.5t-113.5 -42.5q-43 0 -76 18.5t-76 54.5q-41 35 -66.5 50.5t-60.5 15.5q-92 0 -147 -127zM975 1021q88 -89 88 -235v-786h-111
v799q0 123 -66.5 197.5t-174.5 74.5q-123 0 -238 -86t-176 -225v-760h-111v1110h21l80 -309q66 141 189.5 225t264.5 84q146 0 234 -89z" />
    <glyph glyph-name="p.aalt" horiz-adv-x="1255" 
d="M924.5 1039.5q103.5 -70.5 161 -198.5t57.5 -296t-57.5 -296t-161 -198.5t-238.5 -70.5q-129 0 -233.5 74.5t-155.5 199.5v-705h-111v1561h21l78 -305q47 139 155.5 222t245.5 83q135 0 238.5 -70.5zM853 86q83 66 128 184.5t45 274.5t-45 275.5t-128 185t-191 65.5
q-119 0 -219.5 -86t-145.5 -225v-428q45 -139 145.5 -225.5t219.5 -86.5q108 0 191 66z" />
    <glyph glyph-name="q.aalt" horiz-adv-x="1255" 
d="M1071 1110v-1561h-110v709q-51 -127 -157 -202.5t-235 -75.5q-135 0 -238.5 70.5t-160.5 198.5t-57 296t57 296t160.5 198.5t238.5 70.5q139 0 248 -84t154 -223l80 307h20zM813 106.5q100 86.5 148 225.5v428q-47 139 -147.5 225t-219.5 86q-109 0 -192 -65.5
t-128 -185.5t-45 -275q0 -156 45 -274.5t128 -184.5t192 -66q119 0 219 86.5z" />
    <glyph glyph-name="r.aalt" horiz-adv-x="784" 
d="M466 997.5q122 92.5 269 92.5v-33q-145 0 -266 -96.5t-172 -251.5v-709h-111v1110h21l80 -358q57 153 179 245.5z" />
    <glyph glyph-name="racute.aalt" horiz-adv-x="784" 
d="M297 1264l-14 26l393 228l16 -29zM466 997.5q122 92.5 269 92.5v-33q-145 0 -266 -96.5t-172 -251.5v-709h-111v1110h21l80 -358q57 153 179 245.5z" />
    <glyph glyph-name="rcaron.aalt" horiz-adv-x="784" 
d="M723 1522l14 -17l-278 -250l-275 250l15 17l260 -211zM466 997.5q122 92.5 269 92.5v-33q-145 0 -266 -96.5t-172 -251.5v-709h-111v1110h21l80 -358q57 153 179 245.5z" />
    <glyph glyph-name="uni0157.aalt" horiz-adv-x="784" 
d="M302.5 -159.5q23.5 -30.5 23.5 -88.5q0 -70 -39 -136.5t-103 -102.5l-16 22q53 33 87 88t38 113q-25 -20 -60 -21q-35 0 -56 20.5t-21 55.5q0 37 22.5 58.5t61.5 21.5t62.5 -30.5zM466 997.5q122 92.5 269 92.5v-33q-145 0 -266 -96.5t-172 -251.5v-709h-111v1110h21
l80 -358q57 153 179 245.5z" />
    <glyph glyph-name="u.aalt" horiz-adv-x="1216" 
d="M1030 1090v-1110h-20l-80 301q-63 -135 -185 -218t-260 -83q-139 0 -225 86t-86 227v797h111v-809q0 -117 63.5 -189t165.5 -72q121 0 232.5 83t173.5 219v768h110z" />
    <glyph glyph-name="uacute.aalt" horiz-adv-x="1216" 
d="M434 1264l-14 26l393 228l16 -29zM1030 1090v-1110h-20l-80 301q-63 -135 -185 -218t-260 -83q-139 0 -225 86t-86 227v797h111v-809q0 -117 63.5 -189t165.5 -72q121 0 232.5 83t173.5 219v768h110z" />
    <glyph glyph-name="ucircumflex.aalt" horiz-adv-x="1216" 
d="M336 1255l-14 17l276 250l276 -250l-14 -17l-262 213zM1030 1090v-1110h-20l-80 301q-63 -135 -185 -218t-260 -83q-139 0 -225 86t-86 227v797h111v-809q0 -117 63.5 -189t165.5 -72q121 0 232.5 83t173.5 219v768h110z" />
    <glyph glyph-name="udieresis.aalt" horiz-adv-x="1216" 
d="M450.5 1423.5q-18.5 -18.5 -51.5 -18.5q-31 0 -49 18.5t-18 46.5q0 31 18.5 49.5t48.5 18.5q33 0 51.5 -18.5t18.5 -49.5q0 -28 -18.5 -46.5zM843.5 1423.5q-18.5 -18.5 -48.5 -18.5q-31 0 -50.5 18.5t-19.5 46.5q0 31 19.5 49.5t50.5 18.5t49 -18.5t18 -49.5
q0 -28 -18.5 -46.5zM1030 1090v-1110h-20l-80 301q-63 -135 -185 -218t-260 -83q-139 0 -225 86t-86 227v797h111v-809q0 -117 63.5 -189t165.5 -72q121 0 232.5 83t173.5 219v768h110z" />
    <glyph glyph-name="ugrave.aalt" horiz-adv-x="1216" 
d="M762 1264l-393 225l16 29l391 -228zM1030 1090v-1110h-20l-80 301q-63 -135 -185 -218t-260 -83q-139 0 -225 86t-86 227v797h111v-809q0 -117 63.5 -189t165.5 -72q121 0 232.5 83t173.5 219v768h110z" />
    <glyph glyph-name="uhungarumlaut.aalt" horiz-adv-x="1216" 
d="M694 1577l23 -23l-322 -321l-20 22zM1053 1577l24 -23l-321 -321l-21 22zM1030 1090v-1110h-20l-80 301q-63 -135 -185 -218t-260 -83q-139 0 -225 86t-86 227v797h111v-809q0 -117 63.5 -189t165.5 -72q121 0 232.5 83t173.5 219v768h110z" />
    <glyph glyph-name="umacron.aalt" horiz-adv-x="1216" 
d="M322 1374v33h552v-33h-552zM1030 1090v-1110h-20l-80 301q-63 -135 -185 -218t-260 -83q-139 0 -225 86t-86 227v797h111v-809q0 -117 63.5 -189t165.5 -72q121 0 232.5 83t173.5 219v768h110z" />
    <glyph glyph-name="uogonek.aalt" horiz-adv-x="1216" 
d="M1044 -434q-31 -16 -72.5 -26.5t-80.5 -10.5q-90 0 -145.5 46t-55.5 122q0 84 86 166t230 131l-76 287q-63 -135 -185 -218t-260 -83q-139 0 -225 86t-86 227v797h111v-809q0 -117 63.5 -189t165.5 -72q121 0 232.5 83t173.5 219v768h110v-1110q-111 -49 -179.5 -126
t-68.5 -153q0 -61 38 -98t100 -37q70 0 116 20z" />
    <glyph glyph-name="uring.aalt" horiz-adv-x="1216" 
d="M737.5 1281q-53.5 -50 -139.5 -50q-88 0 -141.5 50t-53.5 132t53.5 131t141.5 49q86 0 139.5 -49t53.5 -131t-53.5 -132zM486 1305q42 -41 112 -41q68 0 110 41t42 108q0 66 -42 107t-110 41q-70 0 -112 -41t-42 -107q0 -67 42 -108zM1030 1090v-1110h-20l-80 301
q-63 -135 -185 -218t-260 -83q-139 0 -225 86t-86 227v797h111v-809q0 -117 63.5 -189t165.5 -72q121 0 232.5 83t173.5 219v768h110z" />
    <glyph glyph-name="w.aalt" horiz-adv-x="1525" 
d="M1470 1090l-450 -1110h-21l-231 571l-238 -571h-20l-455 1110h119l385 -955l189 465l-199 490h110l160 -398l162 398h41l-180 -449l202 -506l386 955h40z" />
    <glyph glyph-name="wacute.aalt" horiz-adv-x="1525" 
d="M631 1264l-15 26l394 228l16 -29zM1470 1090l-450 -1110h-21l-231 571l-238 -571h-20l-455 1110h119l385 -955l189 465l-199 490h110l160 -398l162 398h41l-180 -449l202 -506l386 955h40z" />
    <glyph glyph-name="wcircumflex.aalt" horiz-adv-x="1525" 
d="M532 1255l-14 17l277 250l276 -250l-14 -17l-262 213zM1470 1090l-450 -1110h-21l-231 571l-238 -571h-20l-455 1110h119l385 -955l189 465l-199 490h110l160 -398l162 398h41l-180 -449l202 -506l386 955h40z" />
    <glyph glyph-name="wdieresis.aalt" horiz-adv-x="1525" 
d="M649.5 1423.5q-18.5 -18.5 -51.5 -18.5q-31 0 -49.5 18.5t-18.5 46.5q0 31 18.5 49.5t49.5 18.5q33 0 51.5 -18.5t18.5 -49.5q0 -28 -18.5 -46.5zM1042.5 1423.5q-18.5 -18.5 -49.5 -18.5t-50 18.5t-19 46.5q0 31 19.5 49.5t49.5 18.5q31 0 49.5 -18.5t18.5 -49.5
q0 -28 -18.5 -46.5zM1470 1090l-450 -1110h-21l-231 571l-238 -571h-20l-455 1110h119l385 -955l189 465l-199 490h110l160 -398l162 398h41l-180 -449l202 -506l386 955h40z" />
    <glyph glyph-name="wgrave.aalt" horiz-adv-x="1525" 
d="M958 1264l-393 225l17 29l391 -228zM1470 1090l-450 -1110h-21l-231 571l-238 -571h-20l-455 1110h119l385 -955l189 465l-199 490h110l160 -398l162 398h41l-180 -449l202 -506l386 955h40z" />
    <glyph glyph-name="A_A.dlig" horiz-adv-x="2580" 
d="M717 1556l641 -1556h-121l-188 457h-760l-185 -457h-43l629 1556h27zM2396 0l-188 457h-803l444 1099h29l639 -1556h-121zM1036 489l-370 902l-365 -902h735zM2195 489l-370 902l-365 -902h735z" />
    <glyph glyph-name="A_Aacute.dlig" horiz-adv-x="2580" 
d="M1628 1645l-10 28l526 193l13 -33zM717 1556l641 -1556h-121l-188 457h-760l-185 -457h-43l629 1556h27zM2396 0l-188 457h-803l444 1099h29l639 -1556h-121zM1036 489l-370 902l-365 -902h735zM2195 489l-370 902l-365 -902h735z" />
    <glyph glyph-name="A_Adieresis.dlig" horiz-adv-x="2580" 
d="M1716.5 1697.5q-18.5 -18.5 -51.5 -18.5q-31 0 -49.5 18.5t-18.5 49.5q0 29 18.5 47t49.5 18q33 0 51.5 -18t18.5 -47q0 -31 -18.5 -49.5zM2109.5 1697.5q-18.5 -18.5 -49.5 -18.5t-50 18.5t-19 49.5q0 29 19.5 47t49.5 18q31 0 49.5 -18t18.5 -47q0 -31 -18.5 -49.5z
M717 1556l641 -1556h-121l-188 457h-760l-185 -457h-43l629 1556h27zM2396 0l-188 457h-803l444 1099h29l639 -1556h-121zM1036 489l-370 902l-365 -902h735zM2195 489l-370 902l-365 -902h735z" />
    <glyph glyph-name="A_Adieresis_Adieresis.dlig" horiz-adv-x="3739" 
d="M1615.5 1697.5q-18.5 18.5 -18.5 49.5t18.5 49.5t49.5 18.5q33 0 51.5 -18.5t18.5 -49.5t-18.5 -49.5t-51.5 -18.5q-31 0 -49.5 18.5zM2010.5 1697.5q-19.5 18.5 -19.5 49.5t19.5 49.5t49.5 18.5q31 0 50.5 -18.5t19.5 -49.5t-19.5 -49.5t-50.5 -18.5q-30 0 -49.5 18.5z
M2775 1697.5q-18 18.5 -18 49.5t18 49.5t51 18.5q31 0 49.5 -18.5t18.5 -49.5t-18.5 -49.5t-49.5 -18.5q-33 0 -51 18.5zM3169.5 1697.5q-19.5 18.5 -19.5 49.5t19.5 49.5t49.5 18.5q31 0 50.5 -18.5t19.5 -49.5t-19.5 -49.5t-50.5 -18.5q-30 0 -49.5 18.5zM717 1556
l641 -1556h-121l-188 457h-760l-185 -457h-43l629 1556h27zM1878 1556l639 -1556h-121l-188 457h-803l444 1099h29zM3555 0l-186 457h-805l447 1099h26l641 -1556h-123zM3355 489l-369 904l-367 -904h736zM1036 489l-370 902l-365 -902h735zM2195 489l-370 902l-365 -902
h735z" />
    <glyph glyph-name="A_Agrave.dlig" horiz-adv-x="2580" 
d="M2097 1645l-528 188l12 33l526 -193zM717 1556l641 -1556h-121l-188 457h-760l-185 -457h-43l629 1556h27zM2396 0l-188 457h-803l444 1099h29l639 -1556h-121zM1036 489l-370 902l-365 -902h735zM2195 489l-370 902l-365 -902h735z" />
    <glyph glyph-name="A_Amacron.dlig" horiz-adv-x="2580" 
d="M1587 1679v33h553v-33h-553zM717 1556l641 -1556h-121l-188 457h-760l-185 -457h-43l629 1556h27zM2396 0l-188 457h-803l444 1099h29l639 -1556h-121zM1036 489l-370 902l-365 -902h735zM2195 489l-370 902l-365 -902h735z" />
    <glyph glyph-name="A_Aogonek.dlig" horiz-adv-x="2580" 
d="M717 1556l641 -1556h-121l-188 457h-760l-185 -457h-43l629 1556h27zM2531 -434q-31 -16 -72.5 -26.5t-80.5 -10.5q-90 0 -144.5 46t-54.5 122q0 86 74 168t201 135h-58l-188 457h-803l444 1099h29l639 -1556q-111 -53 -179.5 -135t-68.5 -164q0 -59 38 -97t99 -38
q68 0 119 20zM1036 489l-370 902l-365 -902h735zM2195 489l-370 902l-365 -902h735z" />
    <glyph glyph-name="A_Aring.dlig" horiz-adv-x="2580" 
d="M2003 1673q-53 -49 -139 -49q-88 0 -141.5 49t-53.5 131t53.5 132.5t141.5 50.5q86 0 139 -50.5t53 -132.5t-53 -131zM1752 1698q42 -41 112 -41q68 0 109.5 41t41.5 106q0 68 -42 109t-109 41q-70 0 -112 -41t-42 -109q0 -65 42 -106zM717 1556l641 -1556h-121l-188 457
h-760l-185 -457h-43l629 1556h27zM2396 0l-188 457h-803l444 1099h29l639 -1556h-121zM1036 489l-370 902l-365 -902h735zM2195 489l-370 902l-365 -902h735z" />
    <glyph glyph-name="A_Atilde.dlig" horiz-adv-x="2580" 
d="M1571 1694l-21 10q23 66 67 108q44 43 112 43q43 0 75 -18q33 -18 76 -55q41 -35 67 -50t60 -16q47 0 82 32t63 97l23 -12q-20 -66 -65 -108q-44 -42 -113 -42q-43 0 -76 19q-33 18 -76 55q-41 35 -66 50q-26 15 -61 16q-94 0 -147 -129zM717 1556l641 -1556h-121
l-188 457h-760l-185 -457h-43l629 1556h27zM2396 0l-188 457h-803l444 1099h29l639 -1556h-121zM1036 489l-370 902l-365 -902h735zM2195 489l-370 902l-365 -902h735z" />
    <glyph glyph-name="A_J.dlig" horiz-adv-x="1953" 
d="M1171 457h-882l-185 -457h-43l629 1556h29zM1735 1536v-1257q0 -135 -81 -217t-216 -82q-66 0 -127.5 23.5t-100.5 62.5l17 20q33 -31 81 -50.5t97 -19.5q96 0 155.5 69t59.5 181v1270h115zM301 489h735l-370 902z" />
    <glyph glyph-name="Aacute_A.dlig" horiz-adv-x="2580" 
d="M469 1645l-10 28l526 193l12 -33zM717 1556l641 -1556h-121l-188 457h-760l-185 -457h-43l629 1556h27zM2396 0l-188 457h-803l444 1099h29l639 -1556h-121zM1036 489l-370 902l-365 -902h735zM2195 489l-370 902l-365 -902h735z" />
    <glyph glyph-name="Aacute_Aacute.dlig" horiz-adv-x="2580" 
d="M469 1645l-10 28l526 193l12 -33zM717 1556l641 -1556h-121l-188 457h-760l-185 -457h-43l629 1556h27zM2396 0l-188 457h-803l444 1099h29l639 -1556h-121zM1036 489l-370 902l-365 -902h735zM2195 489l-370 902l-365 -902h735zM1628 1645l-10 28l526 193l13 -33z" />
    <glyph glyph-name="Aacute_J.dlig" horiz-adv-x="1953" 
d="M469 1645l-10 28l526 193l12 -33zM1171 457h-882l-185 -457h-43l629 1556h29zM1735 1536v-1257q0 -135 -81 -218q-81 -82 -216 -81q-66 0 -127 23q-61 24 -101 63l17 20q33 -31 81 -50t97 -20q96 0 156 69q59 69 59 181v1270h115zM301 489h735l-370 902z" />
    <glyph glyph-name="Abreve_J.dlig" horiz-adv-x="1953" 
d="M884 1736q-83 -56 -179 -57q-96 0 -180 57q-83 56 -124 148l23 10q45 -82 121 -130t160 -48q82 0 157 48q76 48 121 130l23 -10q-39 -92 -122 -148zM1171 457h-882l-185 -457h-43l629 1556h29zM1735 1536v-1257q0 -135 -81 -218q-81 -82 -216 -81q-66 0 -127 23
q-61 24 -101 63l17 20q33 -31 81 -50t97 -20q96 0 156 69q59 69 59 181v1270h115zM301 489h735l-370 902z" />
    <glyph glyph-name="Adieresis_A.dlig" horiz-adv-x="2580" 
d="M455.5 1697.5q-19.5 18.5 -19.5 49.5t19.5 49.5t50.5 18.5t50 -18.5t19 -49.5t-19 -49.5t-50 -18.5t-50.5 18.5zM849.5 1697.5q-18.5 18.5 -18.5 49.5t18.5 49.5t51.5 18.5q31 0 49.5 -18.5t18.5 -49.5t-18.5 -49.5t-49.5 -18.5q-33 0 -51.5 18.5zM717 1556l641 -1556
h-121l-188 457h-760l-185 -457h-43l629 1556h27zM2396 0l-188 457h-803l444 1099h29l639 -1556h-121zM1036 489l-370 902l-365 -902h735zM2195 489l-370 902l-365 -902h735z" />
    <glyph glyph-name="Adieresis_Adieresis.dlig" horiz-adv-x="2580" 
d="M557 1698q-18 -18 -51 -19q-31 0 -49 19q-18 18 -19 49q0 29 19 47q18 18 49 18q33 0 51 -18t18 -47q0 -31 -18 -49zM950 1698q-18 -18 -49 -19q-31 0 -50 19q-19 18 -20 49q0 29 20 47q19 18 50 18t49 -18t19 -47q-1 -31 -19 -49zM717 1556l641 -1556h-121l-188 457
h-760l-185 -457h-43l629 1556h27zM2396 0l-188 457h-803l444 1099h29l639 -1556h-121zM1036 489l-370 902l-365 -902h735zM2195 489l-370 902l-365 -902h735zM1716 1698q-18 -18 -51 -19q-31 0 -49 19q-18 18 -19 49q0 29 19 47q18 18 49 18q33 0 51 -18t19 -47
q-1 -31 -19 -49zM2109 1698q-18 -18 -49 -19q-31 0 -50 19q-19 18 -19 49q0 29 19 47t50 18t49 -18t19 -47q-1 -31 -19 -49z" />
    <glyph glyph-name="Adieresis_Adieresis_A.dlig" horiz-adv-x="3739" 
d="M455.5 1697.5q-19.5 18.5 -19.5 49.5t19.5 49.5t50.5 18.5t50 -18.5t19 -49.5t-19 -49.5t-50 -18.5t-50.5 18.5zM849.5 1697.5q-18.5 18.5 -18.5 49.5t18.5 49.5t51.5 18.5q31 0 49.5 -18.5t18.5 -49.5t-18.5 -49.5t-49.5 -18.5q-33 0 -51.5 18.5zM1615.5 1697.5
q-18.5 18.5 -18.5 49.5t18.5 49.5t49.5 18.5q33 0 51.5 -18.5t18.5 -49.5t-18.5 -49.5t-51.5 -18.5q-31 0 -49.5 18.5zM2010.5 1697.5q-19.5 18.5 -19.5 49.5t19.5 49.5t49.5 18.5q31 0 50.5 -18.5t19.5 -49.5t-19.5 -49.5t-50.5 -18.5q-30 0 -49.5 18.5zM717 1556
l641 -1556h-121l-188 457h-760l-185 -457h-43l629 1556h27zM1878 1556l639 -1556h-121l-188 457h-803l444 1099h29zM3555 0l-186 457h-805l447 1099h26l641 -1556h-123zM3355 489l-369 904l-367 -904h736zM1036 489l-370 902l-365 -902h735zM2195 489l-370 902l-365 -902
h735z" />
    <glyph glyph-name="Adieresis_J.dlig" horiz-adv-x="1953" 
d="M557 1698q-18 -18 -51 -19q-31 0 -49 19q-18 18 -19 49q0 29 19 47q18 18 49 18q33 0 51 -18t18 -47q0 -31 -18 -49zM950 1698q-18 -18 -49 -19q-31 0 -50 19q-19 18 -20 49q0 29 20 47q19 18 50 18t49 -18t19 -47q-1 -31 -19 -49zM1171 457h-882l-185 -457h-43l629 1556
h29zM1735 1536v-1257q0 -135 -81 -218q-81 -82 -216 -81q-66 0 -127 23q-61 24 -101 63l17 20q33 -31 81 -50t97 -20q96 0 156 69q59 69 59 181v1270h115zM301 489h735l-370 902z" />
    <glyph glyph-name="Agrave_Agrave.dlig" horiz-adv-x="2580" 
d="M938 1645l-528 188l12 33l526 -193zM717 1556l641 -1556h-121l-188 457h-760l-185 -457h-43l629 1556h27zM2396 0l-188 457h-803l444 1099h29l639 -1556h-121zM1036 489l-370 902l-365 -902h735zM2195 489l-370 902l-365 -902h735zM2097 1645l-528 188l12 33l526 -193z
" />
    <glyph glyph-name="Amacron_A.dlig" horiz-adv-x="2580" 
d="M979 1679h-553v33h553v-33zM717 1556l641 -1556h-121l-188 457h-760l-185 -457h-43l629 1556h27zM2396 0l-188 457h-803l444 1099h29l639 -1556h-121zM1036 489l-370 902l-365 -902h735zM2195 489l-370 902l-365 -902h735z" />
    <glyph glyph-name="Amacron_J.dlig" horiz-adv-x="1953" 
d="M428 1679v33h553v-33h-553zM1171 457h-882l-185 -457h-43l629 1556h29zM1735 1536v-1257q0 -135 -81 -218q-81 -82 -216 -81q-66 0 -127 23q-61 24 -101 63l17 20q33 -31 81 -50t97 -20q96 0 156 69q59 69 59 181v1270h115zM301 489h735l-370 902z" />
    <glyph glyph-name="Aring_A.dlig" horiz-adv-x="2580" 
d="M563 1674q-53 50 -53 132t53 131.5t139 49.5q88 0 141.5 -49.5t53.5 -131.5t-53 -132t-142 -50q-86 0 -139 50zM593 1913q-42 -41 -42 -107q0 -68 42 -108.5t109 -40.5q70 0 112 41t42 108q0 66 -42 107t-112 41q-67 0 -109 -41zM717 1556l641 -1556h-121l-188 457h-760
l-185 -457h-43l629 1556h27zM2396 0l-188 457h-803l444 1099h29l639 -1556h-121zM1036 489l-370 902l-365 -902h735zM2195 489l-370 902l-365 -902h735z" />
    <glyph glyph-name="Aring_Aring.dlig" horiz-adv-x="2580" 
d="M844 1673q-53 -49 -139 -49q-88 0 -142 49q-53 49 -53 131t53 132t142 51q86 0 139 -51q53 -50 53 -132t-53 -131zM593 1698q42 -41 112 -41q68 0 109 41q42 41 42 106q0 68 -42 109t-109 41q-70 0 -112 -41t-42 -109q0 -65 42 -106zM717 1556l641 -1556h-121l-188 457
h-760l-185 -457h-43l629 1556h27zM2396 0l-188 457h-803l444 1099h29l639 -1556h-121zM1036 489l-370 902l-365 -902h735zM2195 489l-370 902l-365 -902h735zM2003 1673q-53 -49 -139 -49q-88 0 -142 49q-53 49 -53 131t53 132t142 51q86 0 139 -51q53 -50 53 -132t-53 -131
zM1752 1698q42 -41 112 -41q68 0 109 41q42 41 42 106q0 68 -42 109t-109 41q-70 0 -112 -41t-42 -109q0 -65 42 -106z" />
    <glyph glyph-name="Aring_J.dlig" horiz-adv-x="1953" 
d="M844 1673q-53 -49 -139 -49q-88 0 -142 49q-53 49 -53 131t53 132t142 51q86 0 139 -51q53 -50 53 -132t-53 -131zM593 1698q42 -41 112 -41q68 0 109 41q42 41 42 106q0 68 -42 109t-109 41q-70 0 -112 -41t-42 -109q0 -65 42 -106zM1171 457h-882l-185 -457h-43
l629 1556h29zM1735 1536v-1257q0 -135 -81 -218q-81 -82 -216 -81q-66 0 -127 23q-61 24 -101 63l17 20q33 -31 81 -50t97 -20q96 0 156 69q59 69 59 181v1270h115zM301 489h735l-370 902z" />
    <glyph glyph-name="H_E.dlig" horiz-adv-x="2013" 
d="M1909 33v-33h-742v797h-823v-797h-115v1536h115v-707h823v707h725v-33h-608v-674h516v-32h-516v-764h625z" />
    <glyph glyph-name="H_Eacute.dlig" horiz-adv-x="2013" 
d="M1300 1645l-10 28l527 193l12 -33zM1909 33v-33h-742v797h-823v-797h-115v1536h115v-707h823v707h725v-33h-608v-674h516v-32h-516v-764h625z" />
    <glyph glyph-name="H_Ecircumflex.dlig" horiz-adv-x="2013" 
d="M1233 1624l-14 16l317 228l317 -228l-14 -16l-303 191zM1909 33v-33h-742v797h-823v-797h-115v1536h115v-707h823v707h725v-33h-608v-674h516v-32h-516v-764h625z" />
    <glyph glyph-name="H_Edieresis.dlig" horiz-adv-x="2013" 
d="M1389 1698q-18 -18 -52 -19q-31 0 -49 19q-18 18 -18 49q0 29 18 47t49 18q33 0 52 -18q18 -18 18 -47q0 -31 -18 -49zM1782 1698q-18 -18 -49 -19q-31 0 -51 19q-19 18 -19 49q0 29 19 47t51 18q31 0 49 -18t18 -47q0 -31 -18 -49zM1909 33v-33h-742v797h-823v-797h-115
v1536h115v-707h823v707h725v-33h-608v-674h516v-32h-516v-764h625z" />
    <glyph glyph-name="H_Edotaccent.dlig" horiz-adv-x="2013" 
d="M1588 1699q-22 -22 -54 -22q-35 0 -56 21q-22 20 -22 55q0 33 22 53t56 21q35 0 55 -21q20 -20 21 -53q0 -32 -22 -54zM1909 33v-33h-742v797h-823v-797h-115v1536h115v-707h823v707h725v-33h-608v-674h516v-32h-516v-764h625z" />
    <glyph glyph-name="H_Egrave.dlig" horiz-adv-x="2013" 
d="M1769 1645l-528 188l12 33l527 -193zM1909 33v-33h-742v797h-823v-797h-115v1536h115v-707h823v707h725v-33h-608v-674h516v-32h-516v-764h625z" />
    <glyph glyph-name="H_Emacron.dlig" horiz-adv-x="2013" 
d="M1260 1679v33h552v-33h-552zM1909 33v-33h-742v797h-823v-797h-115v1536h115v-707h823v707h725v-33h-608v-674h516v-32h-516v-764h625z" />
    <glyph glyph-name="H_Eogonek.dlig" horiz-adv-x="2013" 
d="M1921 -434q-31 -16 -73 -26.5t-81 -10.5q-90 0 -144 46t-54 122q0 86 74.5 168t201.5 135h-678v797h-823v-797h-115v1536h115v-707h823v707h725v-33h-608v-674h516v-32h-516v-764h625v-33q-113 -51 -181.5 -134t-68.5 -165q0 -59 38 -97t99 -38q72 0 119 20z" />
    <glyph glyph-name="K_A.dlig" horiz-adv-x="2469" 
d="M2286 0l-187 457h-805l445 1099h28l641 -1556h-122zM229 1536h115v-1536h-115v1536zM504 860l760 -860h-146l-721 809l731 727h54zM2085 489l-369 904l-364 -904h733z" />
    <glyph glyph-name="K_A_A.dlig" horiz-adv-x="3629" 
d="M1767 1556l641 -1556h-122l-187 457h-805l445 1099h28zM3447 0l-189 457h-804l446 1099h27l641 -1556h-121zM229 1536h115v-1536h-115v1536zM504 860l760 -860h-146l-721 809l731 727h54zM3246 489l-371 904l-366 -904h737zM2085 489l-369 904l-364 -904h733z" />
    <glyph glyph-name="K_Aacute.dlig" horiz-adv-x="2469" 
d="M1518 1645l-11 28l527 193l12 -33zM2286 0l-187 457h-805l445 1099h28l641 -1556h-122zM229 1536h115v-1536h-115v1536zM504 860l760 -860h-146l-721 809l731 727h54zM2085 489l-369 904l-364 -904h733z" />
    <glyph glyph-name="K_Abreve.dlig" horiz-adv-x="2469" 
d="M1932 1736q-83 -56 -179 -57q-96 0 -179 57q-83 56 -124 148l23 10q45 -82 120 -130q76 -48 160 -48q82 0 158 48t121 130l22 -10q-39 -92 -122 -148zM2286 0l-187 457h-805l445 1099h28l641 -1556h-122zM229 1536h115v-1536h-115v1536zM504 860l760 -860h-146l-721 809
l731 727h54zM2085 489l-369 904l-364 -904h733z" />
    <glyph glyph-name="K_Acircumflex.dlig" horiz-adv-x="2469" 
d="M1450 1624l-14 16l317 228l318 -228l-15 -16l-303 191zM2286 0l-187 457h-805l445 1099h28l641 -1556h-122zM229 1536h115v-1536h-115v1536zM504 860l760 -860h-146l-721 809l731 727h54zM2085 489l-369 904l-364 -904h733z" />
    <glyph glyph-name="K_Adieresis.dlig" horiz-adv-x="2469" 
d="M1606 1698q-18 -18 -52 -19q-31 0 -49 19q-18 18 -18 49q0 29 18 47t49 18q33 0 52 -18q18 -18 18 -47q0 -31 -18 -49zM1999 1698q-18 -18 -49 -19q-31 0 -50 19q-19 18 -20 49q0 29 20 47q19 18 50 18t49 -18t18 -47q0 -31 -18 -49zM2286 0l-187 457h-805l445 1099h28
l641 -1556h-122zM229 1536h115v-1536h-115v1536zM504 860l760 -860h-146l-721 809l731 727h54zM2085 489l-369 904l-364 -904h733z" />
    <glyph glyph-name="K_Agrave.dlig" horiz-adv-x="2469" 
d="M1987 1645l-529 188l12 33l527 -193zM2286 0l-187 457h-805l445 1099h28l641 -1556h-122zM229 1536h115v-1536h-115v1536zM504 860l760 -860h-146l-721 809l731 727h54zM2085 489l-369 904l-364 -904h733z" />
    <glyph glyph-name="K_Amacron.dlig" horiz-adv-x="2469" 
d="M1477 1679v33h553v-33h-553zM2286 0l-187 457h-805l445 1099h28l641 -1556h-122zM229 1536h115v-1536h-115v1536zM504 860l760 -860h-146l-721 809l731 727h54zM2085 489l-369 904l-364 -904h733z" />
    <glyph glyph-name="K_Aogonek.dlig" horiz-adv-x="2469" 
d="M2421 -434q-31 -16 -73 -26.5t-81 -10.5q-90 0 -144.5 46t-54.5 122q0 86 74 168t201 135h-57l-187 457h-805l445 1099h28l641 -1556q-113 -51 -181 -134t-68 -165q0 -59 37.5 -97t99.5 -38q72 0 119 20zM229 1536h115v-1536h-115v1536zM504 860l760 -860h-146l-721 809
l731 727h54zM2085 489l-369 904l-364 -904h733z" />
    <glyph glyph-name="K_Aring.dlig" horiz-adv-x="2469" 
d="M1892 1673q-53 -49 -139 -49q-88 0 -141 49t-53 131t53 132t141 51q86 0 139 -51q53 -50 54 -132q-1 -82 -54 -131zM1641 1698q42 -41 112 -41q68 0 110 41t42 106q0 68 -42 109t-110 41q-70 0 -112 -41t-42 -109q0 -65 42 -106zM2286 0l-187 457h-805l445 1099h28
l641 -1556h-122zM229 1536h115v-1536h-115v1536zM504 860l760 -860h-146l-721 809l731 727h54zM2085 489l-369 904l-364 -904h733z" />
    <glyph glyph-name="uni0136_Amacron.dlig" horiz-adv-x="2469" 
d="M751 -160q24 -31 23 -88q0 -70 -39 -136q-39 -67 -102 -103l-17 22q53 33 87 88t38 113q-25 -20 -59 -21q-35 0 -56 21q-22 20 -22 55q0 37 23 58q23 22 61 22q39 0 63 -31zM2286 0l-187 457h-805l445 1099h28l641 -1556h-122zM229 1536h115v-1536h-115v1536zM504 860
l760 -860h-146l-721 809l731 727h54zM2085 489l-369 904l-364 -904h733zM1477 1679v33h553v-33h-553z" />
    <glyph glyph-name="L_A.dlig" horiz-adv-x="2027" 
d="M1843 0l-188 457h-803l444 1099h27l641 -1556h-121zM344 33h637v-33h-752v1536h115v-1503zM1642 489l-370 902l-363 -902h733z" />
    <glyph glyph-name="L_A_A.dlig" horiz-adv-x="3186" 
d="M1323 1556l641 -1556h-121l-188 457h-803l444 1099h27zM3002 0l-186 457h-805l445 1099h28l641 -1556h-123zM344 33h637v-33h-752v1536h115v-1503zM2802 489l-369 904l-365 -904h734zM1642 489l-370 902l-363 -902h733z" />
    <glyph glyph-name="L_Aacute.dlig" horiz-adv-x="2027" 
d="M1075 1645l-10 28l526 193l13 -33zM1843 0l-188 457h-803l444 1099h27l641 -1556h-121zM344 33h637v-33h-752v1536h115v-1503zM1642 489l-370 902l-363 -902h733z" />
    <glyph glyph-name="L_Abreve.dlig" horiz-adv-x="2027" 
d="M1490 1736q-83 -56 -179 -57q-96 0 -179 57q-83 56 -124 148l22 10q45 -82 121 -130t160 -48q82 0 157 48q76 48 121 130l23 -10q-39 -92 -122 -148zM1843 0l-188 457h-803l444 1099h27l641 -1556h-121zM344 33h637v-33h-752v1536h115v-1503zM1642 489l-370 902
l-363 -902h733z" />
    <glyph glyph-name="L_Acircumflex.dlig" horiz-adv-x="2027" 
d="M1006 1624l-15 16l318 228l317 -228l-14 -16l-303 191zM1843 0l-188 457h-803l444 1099h27l641 -1556h-121zM344 33h637v-33h-752v1536h115v-1503zM1642 489l-370 902l-363 -902h733z" />
    <glyph glyph-name="L_Adieresis.dlig" horiz-adv-x="2027" 
d="M1163 1698q-18 -18 -51 -19q-31 0 -49 19q-18 18 -19 49q0 29 19 47q18 18 49 18q33 0 51 -18t19 -47q-1 -31 -19 -49zM1556 1698q-18 -18 -49 -19q-31 0 -50 19q-19 18 -19 49q0 29 19 47t50 18t49 -18t19 -47q-1 -31 -19 -49zM1843 0l-188 457h-803l444 1099h27
l641 -1556h-121zM344 33h637v-33h-752v1536h115v-1503zM1642 489l-370 902l-363 -902h733z" />
    <glyph glyph-name="L_Adieresis_A.dlig" horiz-adv-x="3186" 
d="M1062.5 1697.5q-18.5 18.5 -18.5 49.5t18.5 49.5t49.5 18.5t50.5 -18.5t19.5 -49.5t-19.5 -49.5t-50.5 -18.5t-49.5 18.5zM1456.5 1697.5q-18.5 18.5 -18.5 49.5t18.5 49.5t50.5 18.5q31 0 49.5 -18.5t18.5 -49.5t-18.5 -49.5t-49.5 -18.5q-32 0 -50.5 18.5zM1323 1556
l641 -1556h-121l-188 457h-803l444 1099h27zM3002 0l-186 457h-805l445 1099h28l641 -1556h-123zM344 33h637v-33h-752v1536h115v-1503zM2802 489l-369 904l-365 -904h734zM1642 489l-370 902l-363 -902h733z" />
    <glyph glyph-name="L_Agrave.dlig" horiz-adv-x="2027" 
d="M1544 1645l-528 188l12 33l526 -193zM1843 0l-188 457h-803l444 1099h27l641 -1556h-121zM344 33h637v-33h-752v1536h115v-1503zM1642 489l-370 902l-363 -902h733z" />
    <glyph glyph-name="L_Amacron.dlig" horiz-adv-x="2027" 
d="M1034 1679v33h553v-33h-553zM1843 0l-188 457h-803l444 1099h27l641 -1556h-121zM344 33h637v-33h-752v1536h115v-1503zM1642 489l-370 902l-363 -902h733z" />
    <glyph glyph-name="L_Aogonek.dlig" horiz-adv-x="2027" 
d="M1978 -434q-31 -16 -72.5 -26.5t-80.5 -10.5q-90 0 -144.5 46t-54.5 122q0 86 74 168t201 135h-58l-188 457h-803l444 1099h27l641 -1556q-111 -53 -179.5 -135t-68.5 -164q0 -61 38 -98t99 -37q68 0 119 20zM344 33h637v-33h-752v1536h115v-1503zM1642 489l-370 902
l-363 -902h733z" />
    <glyph glyph-name="L_Aring.dlig" horiz-adv-x="2027" 
d="M1450 1673q-53 -49 -139 -49q-88 0 -142 49q-53 49 -53 131t53 132t142 51q86 0 139 -51q53 -50 53 -132t-53 -131zM1199 1698q42 -41 112 -41q68 0 109 41q42 41 42 106q0 68 -42 109t-109 41q-70 0 -112 -41t-42 -109q0 -65 42 -106zM1843 0l-188 457h-803l444 1099h27
l641 -1556h-121zM344 33h637v-33h-752v1536h115v-1503zM1642 489l-370 902l-363 -902h733z" />
    <glyph glyph-name="L_Atilde.dlig" horiz-adv-x="2027" 
d="M1018 1694l-21 10q23 66 67 108q44 43 112 43q43 0 75 -18q33 -18 76 -55q41 -35 67 -50t60 -16q47 0 82 32t63 97l23 -12q-20 -66 -64 -108t-114 -42q-43 0 -76 19q-33 18 -76 55q-41 35 -66 50q-26 15 -61 16q-94 0 -147 -129zM1843 0l-188 457h-803l444 1099h27
l641 -1556h-121zM344 33h637v-33h-752v1536h115v-1503zM1642 489l-370 902l-363 -902h733z" />
    <glyph glyph-name="L_L.dlig" horiz-adv-x="1447" 
d="M344 33h881v-33h-996v1536h115v-1503zM1434 428v-33h-635v1141h116v-1108h519z" />
    <glyph glyph-name="uni013B_Amacron.dlig" horiz-adv-x="2027" 
d="M673 -160q24 -31 23 -88q0 -70 -39 -136q-39 -67 -102 -103l-16 22q53 33 87 88t38 113q-25 -20 -60 -21q-35 0 -56 21q-22 20 -22 55q0 37 23 58q23 22 61 22q39 0 63 -31zM1843 0l-188 457h-803l444 1099h27l641 -1556h-121zM344 33h637v-33h-752v1536h115v-1503z
M1642 489l-370 902l-363 -902h733zM1034 1679v33h553v-33h-553z" />
    <glyph glyph-name="uni013B_L.dlig" horiz-adv-x="1447" 
d="M759 -160q24 -31 23 -88q0 -70 -39 -136q-39 -67 -102 -103l-16 22q53 33 87 88t38 113q-25 -20 -60 -21q-35 0 -56 21q-22 20 -22 55q0 37 23 58q23 22 61 22q39 0 63 -31zM344 33h881v-33h-996v1536h115v-1503zM1434 428v-33h-635v1141h116v-1108h519z" />
    <glyph glyph-name="N_N.dlig" horiz-adv-x="2525" 
d="M2296 1536v-1556h-27l-985 1382v-1382h-29l-985 1382v-1362h-41v1556h27l987 -1384v1384h27l985 -1384v1364h41z" />
    <glyph glyph-name="uni0145_N.dlig" horiz-adv-x="2525" 
d="M818.5 -159.5q23.5 -30.5 23.5 -88.5q0 -70 -39 -136.5t-103 -102.5l-16 22q53 33 87 88t38 113q-25 -20 -59 -21q-35 0 -56.5 20.5t-21.5 55.5q0 37 22.5 58.5t61.5 21.5t62.5 -30.5zM2296 1536v-1556h-27l-985 1382v-1382h-29l-985 1382v-1362h-41v1556h27l987 -1384
v1384h27l985 -1384v1364h41z" />
    <glyph glyph-name="uni0145_uni0145.dlig" horiz-adv-x="2525" 
d="M1832 -160q24 -31 23 -88q0 -70 -38 -136q-39 -67 -103 -103l-16 22q53 33 87 88t38 113q-25 -20 -60 -21q-35 0 -56 21q-22 20 -21 55q0 37 22 58q23 22 61 22q39 0 63 -31zM2296 1536v-1556h-27l-985 1382v-1382h-29l-985 1382v-1362h-41v1556h27l987 -1384v1384h27
l985 -1384v1364h41zM818 -160q24 -31 24 -88q0 -70 -39 -136q-39 -67 -103 -103l-16 22q53 33 87 88t38 113q-25 -20 -59 -21q-35 0 -57 21q-22 20 -21 55q0 37 22 58q23 22 62 22q38 0 62 -31z" />
    <glyph glyph-name="O_O.dlig" horiz-adv-x="2609" 
d="M2111.5 1458q174.5 -98 270.5 -277.5t96 -412.5t-96 -412.5t-270.5 -277.5t-401.5 -98t-405 106q-178 -106 -406 -106q-227 0 -401 98t-270.5 277.5t-96.5 412.5t96.5 412.5t270.5 277.5t401 98t406 -106q178 106 405 106t401.5 -98zM1268 111q-145 102 -224 272t-79 385
t78.5 385t224.5 272q-150 90 -348 91q-197 0 -346.5 -93.5t-232.5 -263.5t-83 -391t83 -391t232.5 -263.5t346.5 -93.5q198 1 348 91zM2034.5 113.5q150.5 93.5 233.5 263.5t83 391t-83 391t-233.5 263.5t-346.5 93.5q-199 0 -349 -91q145 -102 225.5 -272t80.5 -385
t-80 -385t-226 -272q150 -90 349 -91q196 0 346.5 93.5zM1086.5 1145q-76.5 -164 -76.5 -377t76.5 -377t218.5 -258q139 94 216.5 259t77.5 376t-77.5 376t-216.5 259q-142 -94 -218.5 -258z" />
    <glyph glyph-name="O_Oacute.dlig" horiz-adv-x="2609" 
d="M1475 1645l-11 28l527 193l12 -33zM2111.5 1458q174.5 -98 270.5 -277.5t96 -412.5t-96 -412.5t-270.5 -277.5t-401.5 -98t-405 106q-178 -106 -406 -106q-227 0 -401 98t-270.5 277.5t-96.5 412.5t96.5 412.5t270.5 277.5t401 98t406 -106q178 106 405 106t401.5 -98z
M1268 111q-145 102 -224 272t-79 385t78.5 385t224.5 272q-150 90 -348 91q-197 0 -346.5 -93.5t-232.5 -263.5t-83 -391t83 -391t232.5 -263.5t346.5 -93.5q198 1 348 91zM2034.5 113.5q150.5 93.5 233.5 263.5t83 391t-83 391t-233.5 263.5t-346.5 93.5q-199 0 -349 -91
q145 -102 225.5 -272t80.5 -385t-80 -385t-226 -272q150 -90 349 -91q196 0 346.5 93.5zM1086.5 1145q-76.5 -164 -76.5 -377t76.5 -377t218.5 -258q139 94 216.5 259t77.5 376t-77.5 376t-216.5 259q-142 -94 -218.5 -258z" />
    <glyph glyph-name="O_Odieresis.dlig" horiz-adv-x="2609" 
d="M1462.5 1697.5q-18.5 18.5 -18.5 49.5t18.5 49.5t50.5 18.5q31 0 49.5 -18.5t18.5 -49.5t-18.5 -49.5t-49.5 -18.5q-32 0 -50.5 18.5zM1856.5 1697.5q-19.5 18.5 -19.5 49.5t19.5 49.5t50.5 18.5t50 -18.5t19 -49.5t-19.5 -49.5t-49.5 -18.5q-31 0 -50.5 18.5z
M2111.5 1458q174.5 -98 270.5 -277.5t96 -412.5t-96 -412.5t-270.5 -277.5t-401.5 -98t-405 106q-178 -106 -406 -106q-227 0 -401 98t-270.5 277.5t-96.5 412.5t96.5 412.5t270.5 277.5t401 98t406 -106q178 106 405 106t401.5 -98zM1268 111q-145 102 -224 272t-79 385
t78.5 385t224.5 272q-150 90 -348 91q-197 0 -346.5 -93.5t-232.5 -263.5t-83 -391t83 -391t232.5 -263.5t346.5 -93.5q198 1 348 91zM2034.5 113.5q150.5 93.5 233.5 263.5t83 391t-83 391t-233.5 263.5t-346.5 93.5q-199 0 -349 -91q145 -102 225.5 -272t80.5 -385
t-80 -385t-226 -272q150 -90 349 -91q196 0 346.5 93.5zM1086.5 1145q-76.5 -164 -76.5 -377t76.5 -377t218.5 -258q139 94 216.5 259t77.5 376t-77.5 376t-216.5 259q-142 -94 -218.5 -258z" />
    <glyph glyph-name="O_Ograve.dlig" horiz-adv-x="2609" 
d="M1946 1645l-531 188l12 33l529 -193zM2111.5 1458q174.5 -98 270.5 -277.5t96 -412.5t-96 -412.5t-270.5 -277.5t-401.5 -98t-405 106q-178 -106 -406 -106q-227 0 -401 98t-270.5 277.5t-96.5 412.5t96.5 412.5t270.5 277.5t401 98t406 -106q178 106 405 106t401.5 -98z
M1268 111q-145 102 -224 272t-79 385t78.5 385t224.5 272q-150 90 -348 91q-197 0 -346.5 -93.5t-232.5 -263.5t-83 -391t83 -391t232.5 -263.5t346.5 -93.5q198 1 348 91zM2034.5 113.5q150.5 93.5 233.5 263.5t83 391t-83 391t-233.5 263.5t-346.5 93.5q-199 0 -349 -91
q145 -102 225.5 -272t80.5 -385t-80 -385t-226 -272q150 -90 349 -91q196 0 346.5 93.5zM1086.5 1145q-76.5 -164 -76.5 -377t76.5 -377t218.5 -258q139 94 216.5 259t77.5 376t-77.5 376t-216.5 259q-142 -94 -218.5 -258z" />
    <glyph glyph-name="O_Otilde.dlig" horiz-adv-x="2609" 
d="M1482 1792q-36 -31 -65 -96l-20 10q23 66 66.5 107.5t113.5 41.5q43 0 74.5 -18t74.5 -55q41 -35 67 -50.5t60 -15.5q47 0 82 32t66 97l22 -12q-23 -66 -66.5 -108t-113.5 -42q-43 0 -73.5 17.5t-77.5 56.5q-41 35 -67 50.5t-58 15.5q-49 0 -85 -31zM2111.5 1458
q174.5 -98 270.5 -277.5t96 -412.5t-96 -412.5t-270.5 -277.5t-401.5 -98t-405 106q-178 -106 -406 -106q-227 0 -401 98t-270.5 277.5t-96.5 412.5t96.5 412.5t270.5 277.5t401 98t406 -106q178 106 405 106t401.5 -98zM1268 111q-145 102 -224 272t-79 385t78.5 385
t224.5 272q-150 90 -348 91q-197 0 -346.5 -93.5t-232.5 -263.5t-83 -391t83 -391t232.5 -263.5t346.5 -93.5q198 1 348 91zM2034.5 113.5q150.5 93.5 233.5 263.5t83 391t-83 391t-233.5 263.5t-346.5 93.5q-199 0 -349 -91q145 -102 225.5 -272t80.5 -385t-80 -385
t-226 -272q150 -90 349 -91q196 0 346.5 93.5zM1086.5 1145q-76.5 -164 -76.5 -377t76.5 -377t218.5 -258q139 94 216.5 259t77.5 376t-77.5 376t-216.5 259q-142 -94 -218.5 -258z" />
    <glyph glyph-name="O_dieresis_Otilde.dlig" horiz-adv-x="2609" 
d="M1417 1694l-20 10q23 66 66 108q44 43 112 43q43 0 76 -18t75 -55q41 -35 67 -50t60 -16q47 0 82 32t64 97l22 -12q-20 -66 -64 -108t-114 -42q-43 0 -76 19q-33 18 -75 55q-41 35 -67 50t-60 16q-95 0 -148 -129zM2111 1458q174 -98 271 -277q96 -179 96 -413
q0 -233 -96 -413q-96 -179 -271 -277q-174 -98 -401 -98t-405 106q-178 -106 -406 -106q-227 0 -401 98t-271 277q-96 179 -96 413q0 233 96 413q96 179 271 277q174 98 401 98t406 -106q178 106 405 106t401 -98zM1268 111q-145 102 -225 272q-79 170 -78 385q0 215 78 385
q79 170 225 272q-150 90 -348 91q-197 0 -347 -94q-150 -93 -232 -263q-83 -170 -83 -391t83 -391t232 -263q150 -93 347 -94q198 1 348 91zM2035 114q151 93 233 263q83 170 83 391t-83 391t-233 263q-151 93 -347 94q-199 0 -349 -91q145 -102 226 -272q80 -170 80 -385
t-80 -385t-226 -272q150 -90 349 -91q196 1 347 94zM1086 1145q-77 -164 -76 -377q0 -213 76 -377q77 -164 219 -258q139 94 217 259t77 376q0 211 -77 376q-78 165 -217 259q-142 -94 -219 -258zM752 1698q-18 -18 -52 -19q-31 0 -49 19q-18 18 -18 49q0 29 18 47t49 18
q33 0 52 -18q18 -18 18 -47q0 -31 -18 -49zM1145 1698q-18 -18 -49 -19q-31 0 -50 19q-19 18 -20 49q0 29 20 47q19 18 50 18t49 -18t18 -47q0 -31 -18 -49z" />
    <glyph glyph-name="Oacute_O.dlig" horiz-adv-x="2609" 
d="M666 1645l-11 28l527 193l12 -33zM2111.5 1458q174.5 -98 270.5 -277.5t96 -412.5t-96 -412.5t-270.5 -277.5t-401.5 -98t-405 106q-178 -106 -406 -106q-227 0 -401 98t-270.5 277.5t-96.5 412.5t96.5 412.5t270.5 277.5t401 98t406 -106q178 106 405 106t401.5 -98z
M1268 111q-145 102 -224 272t-79 385t78.5 385t224.5 272q-150 90 -348 91q-197 0 -346.5 -93.5t-232.5 -263.5t-83 -391t83 -391t232.5 -263.5t346.5 -93.5q198 1 348 91zM2034.5 113.5q150.5 93.5 233.5 263.5t83 391t-83 391t-233.5 263.5t-346.5 93.5q-199 0 -349 -91
q145 -102 225.5 -272t80.5 -385t-80 -385t-226 -272q150 -90 349 -91q196 0 346.5 93.5zM1086.5 1145q-76.5 -164 -76.5 -377t76.5 -377t218.5 -258q139 94 216.5 259t77.5 376t-77.5 376t-216.5 259q-142 -94 -218.5 -258z" />
    <glyph glyph-name="Oacute_Oacute.dlig" horiz-adv-x="2609" 
d="M1475 1645l-11 28l527 193l12 -33zM2111 1458q174 -98 271 -277q96 -179 96 -413q0 -233 -96 -413q-96 -179 -271 -277q-174 -98 -401 -98t-405 106q-178 -106 -406 -106q-227 0 -401 98t-271 277q-96 179 -96 413q0 233 96 413q96 179 271 277q174 98 401 98t406 -106
q178 106 405 106t401 -98zM1268 111q-145 102 -225 272q-79 170 -78 385q0 215 78 385q79 170 225 272q-150 90 -348 91q-197 0 -347 -94q-150 -93 -232 -263q-83 -170 -83 -391t83 -391t232 -263q150 -93 347 -94q198 1 348 91zM2035 114q151 93 233 263q83 170 83 391
t-83 391t-233 263q-151 93 -347 94q-199 0 -349 -91q145 -102 226 -272q80 -170 80 -385t-80 -385t-226 -272q150 -90 349 -91q196 1 347 94zM1086 1145q-77 -164 -76 -377q0 -213 76 -377q77 -164 219 -258q139 94 217 259t77 376q0 211 -77 376q-78 165 -217 259
q-142 -94 -219 -258zM666 1645l-11 28l527 193l12 -33z" />
    <glyph glyph-name="Oacute_Odieresis.dlig" horiz-adv-x="2609" 
d="M1563 1698q-18 -18 -52 -19q-31 0 -49 19q-18 18 -18 49q0 29 18 47t49 18q33 0 52 -18q18 -18 18 -47q0 -31 -18 -49zM1956 1698q-18 -18 -49 -19q-31 0 -50 19q-19 18 -20 49q0 29 20 47q19 18 50 18t49 -18t18 -47q0 -31 -18 -49zM2111 1458q174 -98 271 -277
q96 -179 96 -413q0 -233 -96 -413q-96 -179 -271 -277q-174 -98 -401 -98t-405 106q-178 -106 -406 -106q-227 0 -401 98t-271 277q-96 179 -96 413q0 233 96 413q96 179 271 277q174 98 401 98t406 -106q178 106 405 106t401 -98zM1268 111q-145 102 -225 272
q-79 170 -78 385q0 215 78 385q79 170 225 272q-150 90 -348 91q-197 0 -347 -94q-150 -93 -232 -263q-83 -170 -83 -391t83 -391t232 -263q150 -93 347 -94q198 1 348 91zM2035 114q151 93 233 263q83 170 83 391t-83 391t-233 263q-151 93 -347 94q-199 0 -349 -91
q145 -102 226 -272q80 -170 80 -385t-80 -385t-226 -272q150 -90 349 -91q196 1 347 94zM1086 1145q-77 -164 -76 -377q0 -213 76 -377q77 -164 219 -258q139 94 217 259t77 376q0 211 -77 376q-78 165 -217 259q-142 -94 -219 -258zM666 1645l-11 28l527 193l12 -33z" />
    <glyph glyph-name="Ocircumflex_O.dlig" horiz-adv-x="2609" 
d="M596 1624l-14 16l317 228l318 -228l-15 -16l-303 191zM2111 1458q174 -98 271 -277q96 -179 96 -413q0 -233 -96 -413q-96 -179 -271 -277q-174 -98 -401 -98t-405 106q-178 -106 -406 -106q-227 0 -401 98t-271 277q-96 179 -96 413q0 233 96 413q96 179 271 277
q174 98 401 98t406 -106q178 106 405 106t401 -98zM1268 111q-145 102 -225 272q-79 170 -78 385q0 215 78 385q79 170 225 272q-150 90 -348 91q-197 0 -347 -94q-150 -93 -232 -263q-83 -170 -83 -391t83 -391t232 -263q150 -93 347 -94q198 1 348 91zM2035 114
q151 93 233 263q83 170 83 391t-83 391t-233 263q-151 93 -347 94q-199 0 -349 -91q145 -102 226 -272q80 -170 80 -385t-80 -385t-226 -272q150 -90 349 -91q196 1 347 94zM1086 1145q-77 -164 -76 -377q0 -213 76 -377q77 -164 219 -258q139 94 217 259t77 376
q0 211 -77 376q-78 165 -217 259q-142 -94 -219 -258z" />
    <glyph glyph-name="Odieresis_O.dlig" horiz-adv-x="2609" 
d="M751.5 1697.5q-18.5 -18.5 -51.5 -18.5q-31 0 -49 18.5t-18 49.5q0 29 18.5 47t48.5 18q33 0 51.5 -18t18.5 -47q0 -31 -18.5 -49.5zM1144.5 1697.5q-18.5 -18.5 -48.5 -18.5q-31 0 -50.5 18.5t-19.5 49.5q0 29 19.5 47t50.5 18t49 -18t18 -47q0 -31 -18.5 -49.5z
M2111.5 1458q174.5 -98 270.5 -277.5t96 -412.5t-96 -412.5t-270.5 -277.5t-401.5 -98t-405 106q-178 -106 -406 -106q-227 0 -401 98t-270.5 277.5t-96.5 412.5t96.5 412.5t270.5 277.5t401 98t406 -106q178 106 405 106t401.5 -98zM1268 111q-145 102 -224 272t-79 385
t78.5 385t224.5 272q-150 90 -348 91q-197 0 -346.5 -93.5t-232.5 -263.5t-83 -391t83 -391t232.5 -263.5t346.5 -93.5q198 1 348 91zM2034.5 113.5q150.5 93.5 233.5 263.5t83 391t-83 391t-233.5 263.5t-346.5 93.5q-199 0 -349 -91q145 -102 225.5 -272t80.5 -385
t-80 -385t-226 -272q150 -90 349 -91q196 0 346.5 93.5zM1086.5 1145q-76.5 -164 -76.5 -377t76.5 -377t218.5 -258q139 94 216.5 259t77.5 376t-77.5 376t-216.5 259q-142 -94 -218.5 -258z" />
    <glyph glyph-name="Odieresis_Odieresis.dlig" horiz-adv-x="2609" 
d="M1563 1698q-18 -18 -52 -19q-31 0 -49 19q-18 18 -18 49q0 29 18 47t49 18q33 0 52 -18q18 -18 18 -47q0 -31 -18 -49zM1956 1698q-18 -18 -49 -19q-31 0 -50 19q-19 18 -20 49q0 29 20 47q19 18 50 18t49 -18t18 -47q0 -31 -18 -49zM2111 1458q174 -98 271 -277
q96 -179 96 -413q0 -233 -96 -413q-96 -179 -271 -277q-174 -98 -401 -98t-405 106q-178 -106 -406 -106q-227 0 -401 98t-271 277q-96 179 -96 413q0 233 96 413q96 179 271 277q174 98 401 98t406 -106q178 106 405 106t401 -98zM1268 111q-145 102 -225 272
q-79 170 -78 385q0 215 78 385q79 170 225 272q-150 90 -348 91q-197 0 -347 -94q-150 -93 -232 -263q-83 -170 -83 -391t83 -391t232 -263q150 -93 347 -94q198 1 348 91zM2035 114q151 93 233 263q83 170 83 391t-83 391t-233 263q-151 93 -347 94q-199 0 -349 -91
q145 -102 226 -272q80 -170 80 -385t-80 -385t-226 -272q150 -90 349 -91q196 1 347 94zM1086 1145q-77 -164 -76 -377q0 -213 76 -377q77 -164 219 -258q139 94 217 259t77 376q0 211 -77 376q-78 165 -217 259q-142 -94 -219 -258zM752 1698q-18 -18 -52 -19q-31 0 -49 19
q-18 18 -18 49q0 29 18 47t49 18q33 0 52 -18q18 -18 18 -47q0 -31 -18 -49zM1145 1698q-18 -18 -49 -19q-31 0 -50 19q-19 18 -20 49q0 29 20 47q19 18 50 18t49 -18t18 -47q0 -31 -18 -49z" />
    <glyph glyph-name="Ohungarumlaut_O.dlig" horiz-adv-x="2609" 
d="M1012 1982l20 -28l-463 -318l-16 25zM1427 1982l21 -28l-463 -318l-16 25zM2111.5 1458q174.5 -98 270.5 -277.5t96 -412.5t-96 -412.5t-270.5 -277.5t-401.5 -98t-405 106q-178 -106 -406 -106q-227 0 -401 98t-270.5 277.5t-96.5 412.5t96.5 412.5t270.5 277.5t401 98
t406 -106q178 106 405 106t401.5 -98zM1268 111q-145 102 -224 272t-79 385t78.5 385t224.5 272q-150 90 -348 91q-197 0 -346.5 -93.5t-232.5 -263.5t-83 -391t83 -391t232.5 -263.5t346.5 -93.5q198 1 348 91zM2034.5 113.5q150.5 93.5 233.5 263.5t83 391t-83 391
t-233.5 263.5t-346.5 93.5q-199 0 -349 -91q145 -102 225.5 -272t80.5 -385t-80 -385t-226 -272q150 -90 349 -91q196 0 346.5 93.5zM1086.5 1145q-76.5 -164 -76.5 -377t76.5 -377t218.5 -258q139 94 216.5 259t77.5 376t-77.5 376t-216.5 259q-142 -94 -218.5 -258z" />
    <glyph glyph-name="Ohungarumlaut_Oacute.dlig" horiz-adv-x="2609" 
d="M1475 1645l-11 28l527 193l12 -33zM2111 1458q174 -98 271 -277q96 -179 96 -413q0 -233 -96 -413q-96 -179 -271 -277q-174 -98 -401 -98t-405 106q-178 -106 -406 -106q-227 0 -401 98t-271 277q-96 179 -96 413q0 233 96 413q96 179 271 277q174 98 401 98t406 -106
q178 106 405 106t401 -98zM1268 111q-145 102 -225 272q-79 170 -78 385q0 215 78 385q79 170 225 272q-150 90 -348 91q-197 0 -347 -94q-150 -93 -232 -263q-83 -170 -83 -391t83 -391t232 -263q150 -93 347 -94q198 1 348 91zM2035 114q151 93 233 263q83 170 83 391
t-83 391t-233 263q-151 93 -347 94q-199 0 -349 -91q145 -102 226 -272q80 -170 80 -385t-80 -385t-226 -272q150 -90 349 -91q196 1 347 94zM1086 1145q-77 -164 -76 -377q0 -213 76 -377q77 -164 219 -258q139 94 217 259t77 376q0 211 -77 376q-78 165 -217 259
q-142 -94 -219 -258zM1012 1982l20 -28l-463 -318l-16 25zM1427 1982l21 -28l-463 -318l-16 25z" />
    <glyph glyph-name="Ohungarumlaut_Ohungarumlaut.dlig" horiz-adv-x="2609" 
d="M1823 1982l20 -28l-463 -318l-16 25zM2238 1982l21 -28l-463 -318l-16 25zM2111 1458q174 -98 271 -277q96 -179 96 -413q0 -233 -96 -413q-96 -179 -271 -277q-174 -98 -401 -98t-405 106q-178 -106 -406 -106q-227 0 -401 98t-271 277q-96 179 -96 413q0 233 96 413
q96 179 271 277q174 98 401 98t406 -106q178 106 405 106t401 -98zM1268 111q-145 102 -225 272q-79 170 -78 385q0 215 78 385q79 170 225 272q-150 90 -348 91q-197 0 -347 -94q-150 -93 -232 -263q-83 -170 -83 -391t83 -391t232 -263q150 -93 347 -94q198 1 348 91z
M2035 114q151 93 233 263q83 170 83 391t-83 391t-233 263q-151 93 -347 94q-199 0 -349 -91q145 -102 226 -272q80 -170 80 -385t-80 -385t-226 -272q150 -90 349 -91q196 1 347 94zM1086 1145q-77 -164 -76 -377q0 -213 76 -377q77 -164 219 -258q139 94 217 259t77 376
q0 211 -77 376q-78 165 -217 259q-142 -94 -219 -258zM1012 1982l20 -28l-463 -318l-16 25zM1427 1982l21 -28l-463 -318l-16 25z" />
    <glyph glyph-name="Otilde_O.dlig" horiz-adv-x="2609" 
d="M606 1694l-20 10q23 66 66.5 108.5t111.5 42.5q43 0 75.5 -18t75.5 -55q41 -35 67 -50.5t60 -15.5q47 0 82 32t64 97l22 -12q-20 -66 -64 -108t-114 -42q-43 0 -75.5 18.5t-75.5 55.5q-41 35 -67 50.5t-60 15.5q-95 0 -148 -129zM2111.5 1458q174.5 -98 270.5 -277.5
t96 -412.5t-96 -412.5t-270.5 -277.5t-401.5 -98t-405 106q-178 -106 -406 -106q-227 0 -401 98t-270.5 277.5t-96.5 412.5t96.5 412.5t270.5 277.5t401 98t406 -106q178 106 405 106t401.5 -98zM1268 111q-145 102 -224 272t-79 385t78.5 385t224.5 272q-150 90 -348 91
q-197 0 -346.5 -93.5t-232.5 -263.5t-83 -391t83 -391t232.5 -263.5t346.5 -93.5q198 1 348 91zM2034.5 113.5q150.5 93.5 233.5 263.5t83 391t-83 391t-233.5 263.5t-346.5 93.5q-199 0 -349 -91q145 -102 225.5 -272t80.5 -385t-80 -385t-226 -272q150 -90 349 -91
q196 0 346.5 93.5zM1086.5 1145q-76.5 -164 -76.5 -377t76.5 -377t218.5 -258q139 94 216.5 259t77.5 376t-77.5 376t-216.5 259q-142 -94 -218.5 -258z" />
    <glyph glyph-name="Otilde_Otilde.dlig" horiz-adv-x="2609" 
d="M1417 1694l-20 10q23 66 66 108q44 43 112 43q43 0 76 -18t75 -55q41 -35 67 -50t60 -16q47 0 82 32t64 97l22 -12q-20 -66 -64 -108t-114 -42q-43 0 -76 19q-33 18 -75 55q-41 35 -67 50t-60 16q-95 0 -148 -129zM2111 1458q174 -98 271 -277q96 -179 96 -413
q0 -233 -96 -413q-96 -179 -271 -277q-174 -98 -401 -98t-405 106q-178 -106 -406 -106q-227 0 -401 98t-271 277q-96 179 -96 413q0 233 96 413q96 179 271 277q174 98 401 98t406 -106q178 106 405 106t401 -98zM1268 111q-145 102 -225 272q-79 170 -78 385q0 215 78 385
q79 170 225 272q-150 90 -348 91q-197 0 -347 -94q-150 -93 -232 -263q-83 -170 -83 -391t83 -391t232 -263q150 -93 347 -94q198 1 348 91zM2035 114q151 93 233 263q83 170 83 391t-83 391t-233 263q-151 93 -347 94q-199 0 -349 -91q145 -102 226 -272q80 -170 80 -385
t-80 -385t-226 -272q150 -90 349 -91q196 1 347 94zM1086 1145q-77 -164 -76 -377q0 -213 76 -377q77 -164 219 -258q139 94 217 259t77 376q0 211 -77 376q-78 165 -217 259q-142 -94 -219 -258zM606 1694l-20 10q23 66 66 108q44 43 112 43q43 0 76 -18t75 -55
q41 -35 67 -50t60 -16q47 0 82 32t64 97l22 -12q-20 -66 -64 -108t-114 -42q-43 0 -76 19q-33 18 -75 55q-41 35 -67 50t-60 16q-95 0 -148 -129z" />
    <glyph glyph-name="R_A.dlig" horiz-adv-x="2572" 
d="M2388 0l-188 457h-803l444 1099h27l641 -1556h-121zM489 733l725 -733h-145l-721 733h-4v-733h-115v1536h369q152 0 266.5 -50t177 -140.5t62.5 -206.5q0 -121 -62.5 -213t-177 -142.5t-266.5 -50.5h-109zM582 766q178 0 286.5 102.5t108.5 270.5q0 164 -108.5 264
t-286.5 100h-238v-737h238zM2187 489l-370 902l-365 -902h735z" />
    <glyph glyph-name="R_A_A.dlig" horiz-adv-x="3731" 
d="M1868 1556l641 -1556h-121l-188 457h-803l444 1099h27zM3547 0l-188 457h-799v2l-4 -2l444 1099h29l639 -1556h-121zM489 733l725 -733h-145l-721 733h-4v-733h-115v1536h369q152 0 266.5 -50t177 -140.5t62.5 -206.5q0 -121 -62.5 -213t-177 -142.5t-266.5 -50.5h-109z
M582 766q178 0 286.5 102.5t108.5 270.5q0 164 -108.5 264t-286.5 100h-238v-737h238zM2187 489l-370 902l-365 -902h735zM3346 489l-370 902l-363 -902h733z" />
    <glyph glyph-name="R_A_Aring.dlig" horiz-adv-x="3731" 
d="M3154 1673q-53 -49 -139 -49q-88 0 -142 49q-53 49 -53 131t53 132t142 51q86 0 139 -51q53 -50 53 -132t-53 -131zM2903 1698q42 -41 112 -41q68 0 109 41q42 41 42 106q0 68 -42 109t-109 41q-70 0 -112 -41t-42 -109q0 -65 42 -106zM1868 1556l641 -1556h-121
l-188 457h-803l444 1099h27zM3547 0l-188 457h-799v2l-4 -2l444 1099h29l639 -1556h-121zM489 733l725 -733h-145l-721 733h-4v-733h-115v1536h369q152 0 266 -50q115 -50 177 -140t63 -207q0 -121 -63 -213q-62 -92 -177 -143q-115 -50 -266 -50h-109zM582 766
q178 0 286 102q109 102 109 271q0 164 -109 264t-286 100h-238v-737h238zM2187 489l-370 902l-365 -902h735zM3346 489l-370 902l-363 -902h733z" />
    <glyph glyph-name="R_A_Atilde.dlig" horiz-adv-x="3731" 
d="M2722 1694l-21 10q23 66 67 108q44 43 111 43q43 0 76 -18t76 -55q41 -35 67 -50t60 -16q47 0 82 32t63 97l23 -12q-20 -66 -65 -108q-44 -42 -113 -42q-43 0 -76 19q-33 18 -76 55q-41 35 -66 50q-26 15 -61 16q-94 0 -147 -129zM1868 1556l641 -1556h-121l-188 457
h-803l444 1099h27zM3547 0l-188 457h-799v2l-4 -2l444 1099h29l639 -1556h-121zM489 733l725 -733h-145l-721 733h-4v-733h-115v1536h369q152 0 266 -50q115 -50 177 -140t63 -207q0 -121 -63 -213q-62 -92 -177 -143q-115 -50 -266 -50h-109zM582 766q178 0 286 102
q109 102 109 271q0 164 -109 264t-286 100h-238v-737h238zM2187 489l-370 902l-365 -902h735zM3346 489l-370 902l-363 -902h733z" />
    <glyph glyph-name="R_Aacute.dlig" horiz-adv-x="2572" 
d="M1620 1645l-10 28l526 193l12 -33zM2388 0l-188 457h-803l444 1099h27l641 -1556h-121zM489 733l725 -733h-145l-721 733h-4v-733h-115v1536h369q152 0 266.5 -50t177 -140.5t62.5 -206.5q0 -121 -62.5 -213t-177 -142.5t-266.5 -50.5h-109zM582 766q178 0 286.5 102.5
t108.5 270.5q0 164 -108.5 264t-286.5 100h-238v-737h238zM2187 489l-370 902l-365 -902h735z" />
    <glyph glyph-name="R_Abreve.dlig" horiz-adv-x="2572" 
d="M2035 1736q-83 -56 -180 -57q-96 0 -179 57q-83 56 -124 148l23 10q45 -82 121 -130t159 -48q82 0 158 48t121 130l23 -10q-39 -92 -122 -148zM2388 0l-188 457h-803l444 1099h27l641 -1556h-121zM489 733l725 -733h-145l-721 733h-4v-733h-115v1536h369q152 0 266 -50
q115 -50 177 -140t63 -207q0 -121 -63 -213q-62 -92 -177 -143q-115 -50 -266 -50h-109zM582 766q178 0 286 102q109 102 109 271q0 164 -109 264t-286 100h-238v-737h238zM2187 489l-370 902l-365 -902h735z" />
    <glyph glyph-name="R_Acircumflex.dlig" horiz-adv-x="2572" 
d="M1550 1624l-14 16l317 228l318 -228l-14 -16l-304 191zM2388 0l-188 457h-803l444 1099h27l641 -1556h-121zM489 733l725 -733h-145l-721 733h-4v-733h-115v1536h369q152 0 266 -50q115 -50 177 -140t63 -207q0 -121 -63 -213q-62 -92 -177 -143q-115 -50 -266 -50h-109z
M582 766q178 0 286 102q109 102 109 271q0 164 -109 264t-286 100h-238v-737h238zM2187 489l-370 902l-365 -902h735z" />
    <glyph glyph-name="R_Adieresis.dlig" horiz-adv-x="2572" 
d="M1708 1698q-18 -18 -51 -19q-31 0 -49 19q-18 18 -19 49q0 29 19 47q18 18 49 18q33 0 51 -18t18 -47q0 -31 -18 -49zM2101 1698q-18 -18 -49 -19q-31 0 -50 19q-19 18 -20 49q0 29 20 47q19 18 50 18t49 -18t19 -47q-1 -31 -19 -49zM2388 0l-188 457h-803l444 1099h27
l641 -1556h-121zM489 733l725 -733h-145l-721 733h-4v-733h-115v1536h369q152 0 266 -50q115 -50 177 -140t63 -207q0 -121 -63 -213q-62 -92 -177 -143q-115 -50 -266 -50h-109zM582 766q178 0 286 102q109 102 109 271q0 164 -109 264t-286 100h-238v-737h238zM2187 489
l-370 902l-365 -902h735z" />
    <glyph glyph-name="R_Adieresis_Adieresis.dlig" horiz-adv-x="3731" 
d="M1606.5 1697.5q-19.5 18.5 -19.5 49.5t19.5 49.5t50.5 18.5t50 -18.5t19 -49.5t-19 -49.5t-50 -18.5t-50.5 18.5zM2000.5 1697.5q-18.5 18.5 -18.5 49.5t18.5 49.5t51.5 18.5q31 0 49.5 -18.5t18.5 -49.5t-18.5 -49.5t-49.5 -18.5q-33 0 -51.5 18.5zM2766.5 1697.5
q-18.5 18.5 -18.5 49.5t18.5 49.5t49.5 18.5q33 0 51.5 -18.5t18.5 -49.5t-18.5 -49.5t-51.5 -18.5q-31 0 -49.5 18.5zM3161.5 1697.5q-19.5 18.5 -19.5 49.5t19.5 49.5t49.5 18.5q31 0 50.5 -18.5t19.5 -49.5t-19.5 -49.5t-50.5 -18.5q-30 0 -49.5 18.5zM1868 1556
l641 -1556h-121l-188 457h-803l444 1099h27zM3547 0l-188 457h-799v2l-4 -2l444 1099h29l639 -1556h-121zM489 733l725 -733h-145l-721 733h-4v-733h-115v1536h369q152 0 266.5 -50t177 -140.5t62.5 -206.5q0 -121 -62.5 -213t-177 -142.5t-266.5 -50.5h-109zM582 766
q178 0 286.5 102.5t108.5 270.5q0 164 -108.5 264t-286.5 100h-238v-737h238zM2187 489l-370 902l-365 -902h735zM3346 489l-370 902l-363 -902h733z" />
    <glyph glyph-name="R_Agrave.dlig" horiz-adv-x="2572" 
d="M2089 1645l-528 188l12 33l526 -193zM2388 0l-188 457h-803l444 1099h27l641 -1556h-121zM489 733l725 -733h-145l-721 733h-4v-733h-115v1536h369q152 0 266 -50q115 -50 177 -140t63 -207q0 -121 -63 -213q-62 -92 -177 -143q-115 -50 -266 -50h-109zM582 766
q178 0 286 102q109 102 109 271q0 164 -109 264t-286 100h-238v-737h238zM2187 489l-370 902l-365 -902h735z" />
    <glyph glyph-name="R_Amacron.dlig" horiz-adv-x="2572" 
d="M1577 1679v33h553v-33h-553zM2388 0l-188 457h-803l444 1099h27l641 -1556h-121zM489 733l725 -733h-145l-721 733h-4v-733h-115v1536h369q152 0 266 -50q115 -50 177 -140t63 -207q0 -121 -63 -213q-62 -92 -177 -143q-115 -50 -266 -50h-109zM582 766q178 0 286 102
q109 102 109 271q0 164 -109 264t-286 100h-238v-737h238zM2187 489l-370 902l-365 -902h735z" />
    <glyph glyph-name="R_Aogonek.dlig" horiz-adv-x="2572" 
d="M2523 -434q-31 -16 -73 -26.5t-80 -10.5q-90 0 -145.5 46t-55.5 122q0 86 74.5 168t201.5 135h-57l-188 457h-803l444 1099h27l641 -1556q-111 -53 -179.5 -135t-68.5 -164q0 -61 38 -98t99 -37q68 0 119 20zM489 733l725 -733h-145l-721 733h-4v-733h-115v1536h369
q152 0 266.5 -50t177 -140.5t62.5 -206.5q0 -121 -62.5 -213t-177 -142.5t-266.5 -50.5h-109zM582 766q178 0 286.5 102.5t108.5 270.5q0 164 -108.5 264t-286.5 100h-238v-737h238zM2187 489l-370 902l-365 -902h735z" />
    <glyph glyph-name="R_Aring.dlig" horiz-adv-x="2572" 
d="M1995 1673q-53 -49 -140 -49q-88 0 -141 49t-53 131t53 132t141 51q86 0 140 -51q53 -50 53 -132t-53 -131zM1744 1698q42 -41 111 -41q68 0 110 41t42 106q0 68 -42 109t-110 41q-70 0 -111 -41q-42 -41 -42 -109q0 -65 42 -106zM2388 0l-188 457h-803l444 1099h27
l641 -1556h-121zM489 733l725 -733h-145l-721 733h-4v-733h-115v1536h369q152 0 266 -50q115 -50 177 -140t63 -207q0 -121 -63 -213q-62 -92 -177 -143q-115 -50 -266 -50h-109zM582 766q178 0 286 102q109 102 109 271q0 164 -109 264t-286 100h-238v-737h238zM2187 489
l-370 902l-365 -902h735z" />
    <glyph glyph-name="R_Atilde.dlig" horiz-adv-x="2572" 
d="M1563 1694l-21 10q23 66 67 108q44 43 111 43q43 0 76 -18t76 -55q41 -35 66 -50q26 -15 61 -16q47 0 82 32t63 97l23 -12q-20 -66 -65 -108q-44 -42 -113 -42q-43 0 -76 19q-33 18 -76 55q-41 35 -67 50t-60 16q-94 0 -147 -129zM2388 0l-188 457h-803l444 1099h27
l641 -1556h-121zM489 733l725 -733h-145l-721 733h-4v-733h-115v1536h369q152 0 266 -50q115 -50 177 -140t63 -207q0 -121 -63 -213q-62 -92 -177 -143q-115 -50 -266 -50h-109zM582 766q178 0 286 102q109 102 109 271q0 164 -109 264t-286 100h-238v-737h238zM2187 489
l-370 902l-365 -902h735z" />
    <glyph glyph-name="Rcaron_Aacute.dlig" horiz-adv-x="2572" 
d="M907 1868l15 -17l-318 -227l-317 227l14 17l303 -191zM2388 0l-188 457h-803l444 1099h27l641 -1556h-121zM489 733l725 -733h-145l-721 733h-4v-733h-115v1536h369q152 0 266 -50q115 -50 177 -140t63 -207q0 -121 -63 -213q-62 -92 -177 -143q-115 -50 -266 -50h-109z
M582 766q178 0 286 102q109 102 109 271q0 164 -109 264t-286 100h-238v-737h238zM2187 489l-370 902l-365 -902h735zM1620 1645l-10 28l526 193l12 -33z" />
    <glyph glyph-name="T_T.dlig" horiz-adv-x="2254" 
d="M2224 1503h-543v-1503h-116v1503h-875v-1503h-117v1503h-542v33h2193v-33z" />
    <glyph glyph-name="T_Y.dlig" horiz-adv-x="2461" 
d="M1825 688v-688h-117v684l-559 819h-459v-1503h-117v1503h-542v33h1233l542 -803l518 803h48z" />
    <glyph glyph-name="T_Y.dlig.ss03" horiz-adv-x="2377" 
d="M2378 1536l-815 -1536h-47l237 449l-600 1054h-463v-1503h-117v1503h-542v33h1233l553 -971l514 971h47z" />
    <glyph glyph-name="T_Yacute.dlig" horiz-adv-x="2461" 
d="M1546 1645l-10 28l526 193l13 -33zM1825 688v-688h-117v684l-559 819h-459v-1503h-117v1503h-542v33h1233l542 -803l518 803h48z" />
    <glyph glyph-name="T_Yacute.dlig.ss03" horiz-adv-x="2377" 
d="M1565 1645l-11 28l527 193l12 -33zM2378 1536l-815 -1536h-47l237 449l-600 1054h-463v-1503h-117v1503h-542v33h1233l553 -971l514 971h47z" />
    <glyph glyph-name="T_h.dlig" horiz-adv-x="2351" 
d="M2089 1021q88 -89 88 -235v-786h-111v799q0 123 -65.5 197.5t-173.5 74.5q-125 0 -239.5 -86t-176.5 -225v-760h-111v1503h-610v-1503h-117v1503h-542v33h1380v-713q70 131 189.5 209t254.5 78q146 0 234 -89z" />
    <glyph glyph-name="Tcaron_T.dlig" horiz-adv-x="2254" 
d="M934 1868l14 -17l-317 -227l-318 227l15 17l303 -191zM2224 1503h-543v-1503h-116v1503h-875v-1503h-117v1503h-542v33h2193v-33z" />
    <glyph glyph-name="U_N.dlig" horiz-adv-x="2529" 
d="M2300 1536v-1556h-29l-985 1380v-813q0 -168 -65.5 -297t-185.5 -199.5t-279 -70.5q-162 0 -285 71.5t-191.5 202.5t-68.5 303v979h117v-989q0 -158 54 -277.5t153.5 -186.5t230.5 -67q143 0 251.5 65.5t168 186.5t59.5 279v1009h29l985 -1382v1362h41z" />
    <glyph glyph-name="U_Nacute.dlig" horiz-adv-x="2529" 
d="M1548 1645l-10 28l526 193l13 -33zM2300 1536v-1556h-29l-985 1380v-813q0 -168 -65 -297q-66 -129 -186 -200t-279 -70q-162 0 -285 71q-123 72 -191 203q-69 131 -69 303v979h117v-989q0 -158 54 -278t154 -186q99 -67 230 -67q143 0 252 66t168 186q59 121 59 279
v1009h29l985 -1382v1362h41z" />
    <glyph glyph-name="U_Ncaron.dlig" horiz-adv-x="2529" 
d="M2085 1868l14 -17l-317 -227l-318 227l15 17l303 -191zM2300 1536v-1556h-29l-985 1380v-813q0 -168 -65.5 -297t-185.5 -199.5t-279 -70.5q-162 0 -285 71.5t-191.5 202.5t-68.5 303v979h117v-989q0 -158 54 -277.5t153.5 -186.5t230.5 -67q143 0 251.5 65.5t168 186.5
t59.5 279v1009h29l985 -1382v1362h41z" />
    <glyph glyph-name="U_uni0145.dlig" horiz-adv-x="2529" 
d="M1836 -159.5q24 -30.5 24 -88.5q0 -70 -39 -136.5t-103 -102.5l-16 22q53 33 87 88t38 113q-25 -20 -60 -21q-35 0 -56 20.5t-21 55.5q0 37 22.5 58.5t61.5 21.5q38 0 62 -30.5zM2300 1536v-1556h-29l-985 1380v-813q0 -168 -65.5 -297t-185.5 -199.5t-279 -70.5
q-162 0 -285 71.5t-191.5 202.5t-68.5 303v979h117v-989q0 -158 54 -277.5t153.5 -186.5t230.5 -67q143 0 251.5 65.5t168 186.5t59.5 279v1009h29l985 -1382v1362h41z" />
    <glyph glyph-name="U_Ntilde.dlig" horiz-adv-x="2529" 
d="M1491 1694l-21 10q23 66 67 108.5t112 42.5q43 0 75.5 -18t75.5 -55q41 -35 66.5 -50.5t60.5 -15.5q47 0 82 32t64 97l22 -12q-20 -66 -64 -108t-114 -42q-43 0 -76 18.5t-76 55.5q-41 35 -66.5 50.5t-60.5 15.5q-94 0 -147 -129zM2300 1536v-1556h-29l-985 1380v-813
q0 -168 -65.5 -297t-185.5 -199.5t-279 -70.5q-162 0 -285 71.5t-191.5 202.5t-68.5 303v979h117v-989q0 -158 54 -277.5t153.5 -186.5t230.5 -67q143 0 251.5 65.5t168 186.5t59.5 279v1009h29l985 -1382v1362h41z" />
    <glyph glyph-name="Uacute_N.dlig" horiz-adv-x="2529" 
d="M549 1645l-10 28l526 193l12 -33zM2300 1536v-1556h-29l-985 1380v-813q0 -168 -65.5 -297t-185.5 -199.5t-279 -70.5q-162 0 -285 71.5t-191.5 202.5t-68.5 303v979h117v-989q0 -158 54 -277.5t153.5 -186.5t230.5 -67q143 0 251.5 65.5t168 186.5t59.5 279v1009h29
l985 -1382v1362h41z" />
    <glyph glyph-name="Uacute_Ncaron.dlig" horiz-adv-x="2529" 
d="M549 1645l-10 28l526 193l12 -33zM2300 1536v-1556h-29l-985 1380v-813q0 -168 -65 -297q-66 -129 -186 -200t-279 -70q-162 0 -285 71q-123 72 -191 203q-69 131 -69 303v979h117v-989q0 -158 54 -278t154 -186q99 -67 230 -67q143 0 252 66t168 186q59 121 59 279v1009
h29l985 -1382v1362h41zM2085 1868l14 -17l-317 -227l-318 227l15 17l303 -191z" />
    <glyph glyph-name="Uacute_Ntilde.dlig" horiz-adv-x="2529" 
d="M549 1645l-10 28l526 193l12 -33zM2300 1536v-1556h-29l-985 1380v-813q0 -168 -65 -297q-66 -129 -186 -200t-279 -70q-162 0 -285 71q-123 72 -191 203q-69 131 -69 303v979h117v-989q0 -158 54 -278t154 -186q99 -67 230 -67q143 0 252 66t168 186q59 121 59 279v1009
h29l985 -1382v1362h41zM1491 1694l-21 10q23 66 67 108q44 43 112 43q43 0 75 -18q33 -18 76 -55q41 -35 67 -50t60 -16q47 0 82 32t64 97l22 -12q-20 -66 -64 -108t-114 -42q-43 0 -76 19q-33 18 -76 55q-41 35 -66 50q-26 15 -61 16q-94 0 -147 -129z" />
    <glyph glyph-name="Udieresis_N.dlig" horiz-adv-x="2529" 
d="M536.5 1697.5q-18.5 18.5 -18.5 49.5t18.5 49.5t49.5 18.5q33 0 51 -18.5t18 -49.5t-18.5 -49.5t-50.5 -18.5q-31 0 -49.5 18.5zM930.5 1697.5q-19.5 18.5 -19.5 49.5t19.5 49.5t50.5 18.5t50.5 -18.5t19.5 -49.5t-19.5 -49.5t-50.5 -18.5t-50.5 18.5zM2300 1536v-1556
h-29l-985 1380v-813q0 -168 -65.5 -297t-185.5 -199.5t-279 -70.5q-162 0 -285 71.5t-191.5 202.5t-68.5 303v979h117v-989q0 -158 54 -277.5t153.5 -186.5t230.5 -67q143 0 251.5 65.5t168 186.5t59.5 279v1009h29l985 -1382v1362h41z" />
    <glyph glyph-name="Uhungarumlaut_Ntilde.dlig" horiz-adv-x="2529" 
d="M897 1982l21 -28l-463 -318l-17 25zM1313 1982l20 -28l-463 -318l-16 25zM2300 1536v-1556h-29l-985 1380v-813q0 -168 -65 -297q-66 -129 -186 -200t-279 -70q-162 0 -285 71q-123 72 -191 203q-69 131 -69 303v979h117v-989q0 -158 54 -278t154 -186q99 -67 230 -67
q143 0 252 66t168 186q59 121 59 279v1009h29l985 -1382v1362h41zM1491 1694l-21 10q23 66 67 108q44 43 112 43q43 0 75 -18q33 -18 76 -55q41 -35 67 -50t60 -16q47 0 82 32t64 97l22 -12q-20 -66 -64 -108t-114 -42q-43 0 -76 19q-33 18 -76 55q-41 35 -66 50
q-26 15 -61 16q-94 0 -147 -129z" />
    <glyph glyph-name="Umacron_N.dlig" horiz-adv-x="2529" 
d="M1061 1679h-553v33h553v-33zM2300 1536v-1556h-29l-985 1380v-813q0 -168 -65.5 -297t-185.5 -199.5t-279 -70.5q-162 0 -285 71.5t-191.5 202.5t-68.5 303v979h117v-989q0 -158 54 -277.5t153.5 -186.5t230.5 -67q143 0 251.5 65.5t168 186.5t59.5 279v1009h29
l985 -1382v1362h41z" />
    </font>
</defs>
</svg>
