<?xml version="1.0" standalone="no"?>
<!DOCTYPE svg PUBLIC "-//W3C//DTD SVG 1.1//EN" "http://www.w3.org/Graphics/SVG/1.1/DTD/svg11.dtd" >
<svg xmlns="http://www.w3.org/2000/svg" xmlns:xlink="http://www.w3.org/1999/xlink" version="1.1">
<metadata>
Created by FontForge 20201107 at Wed May  9 12:14:40 2018
 By 
Copyright (c) 2018 by Moritz Kleinsorge &#38; Alberto Romanos. All rights reserved.
</metadata>
<defs>
<font id="" horiz-adv-x="0" >
  <font-face 
    font-family=""
    font-weight="300"
    font-stretch="normal"
    units-per-em="2048"
    panose-1="0 0 4 0 0 0 0 0 0 0"
    ascent="1597"
    descent="-451"
    x-height="1094"
    cap-height="1536"
    bbox="-1585 -498 5460 1995"
    underline-thickness="0"
    underline-position="0"
    unicode-range="U+000D-FB02"
  />
<missing-glyph horiz-adv-x="2541" 
d="M1694 -6q-14 -14 -35 -14q-27 0 -34 13t-7 34v663l-694 -696q-14 -14 -35 -14q-27 0 -34 13t-7 34v663l-696 -696q-14 -14 -35 -14q-14 0 -24.5 10t-10.5 26q0 20 10 31l701 698h-664q-47 0 -47 39q0 18 14 33l697 701h-670q-18 0 -29.5 10t-11.5 28v3q0 18 11 28t30 10
h758q20 0 33.5 -7t13.5 -34q0 -18 -17 -34l-698 -697h676q16 0 28.5 -12t12.5 -29v-669l694 692q16 16 35 16q37 0 37 -45v-663l696 692q16 16 33 16q14 0 24.5 -11t10.5 -28q0 -16 -13 -28z" />
    <glyph glyph-name="uniFB01" unicode="fi" horiz-adv-x="1306" 
d="M391 1094h381v-33h-381v-1061h-147v1061h-211v33h211v194q0 147 92 238.5t242 91.5q47 0 99 -14.5t91 -38.5l-8 -19q-29 14 -69 22.5t-77 8.5q-100 0 -161.5 -72.5t-61.5 -193.5v-217zM984 1396.5q-26 24.5 -26 65.5t26 66.5t69 25.5q41 0 67.5 -25.5t26.5 -66.5
t-26.5 -65.5t-67.5 -24.5q-43 0 -69 24.5zM979 1094h147v-1094h-147v1094z" />
    <glyph glyph-name="uniFB02" unicode="fl" horiz-adv-x="1306" 
d="M391 1094h381v-33h-381v-1061h-147v1061h-211v33h211v194q0 147 92 238.5t242 91.5q47 0 99 -14.5t91 -38.5l-8 -19q-29 14 -69 22.5t-77 8.5q-100 0 -161.5 -72.5t-61.5 -193.5v-217zM1126 1597v-1597h-147v1597h147z" />
    <glyph glyph-name="f_f.liga" unicode="ff" horiz-adv-x="1531" 
d="M1448 1589.5q72 -28.5 115 -76.5l-15 -14q-33 37 -89 57.5t-113 20.5q-104 0 -168 -72.5t-64 -193.5v-217h389v-33h-389v-1061h-147v1061h-576v-1061h-147v1061h-211v33h211v194q0 147 92 238.5t242 91.5q59 0 119.5 -20.5t105.5 -55.5l-8 -16q-37 23 -87.5 37t-93.5 14
q-100 0 -161.5 -72.5t-61.5 -193.5v-217h576v194q0 147 93 238.5t243 91.5q73 0 145 -28.5z" />
    <glyph glyph-name="f_f_i.liga" unicode="ffi" horiz-adv-x="2029" 
d="M1114 1094h383v-33h-383v-1061h-147v1061h-576v-1061h-147v1061h-211v33h211v194q0 147 92 238.5t242 91.5q59 0 119.5 -20.5t105.5 -55.5l-8 -16q-37 23 -87.5 37t-93.5 14q-100 0 -161.5 -72.5t-61.5 -193.5v-217h576v194q0 147 93 238.5t243 91.5q47 0 99 -14.5
t91 -38.5l-8 -19q-29 14 -69 22.5t-77 8.5q-100 0 -162.5 -72.5t-62.5 -193.5v-217zM1707 1396.5q-26 24.5 -26 65.5t26 66.5t69 25.5t68.5 -25.5t25.5 -66.5t-25.5 -65.5t-68.5 -24.5t-69 24.5zM1704 1094h147v-1094h-147v1094z" />
    <glyph glyph-name="f_f_l.liga" unicode="ffl" horiz-adv-x="2029" 
d="M1114 1094h383v-33h-383v-1061h-147v1061h-576v-1061h-147v1061h-211v33h211v194q0 147 92 238.5t242 91.5q59 0 119.5 -20.5t105.5 -55.5l-8 -16q-37 23 -87.5 37t-93.5 14q-100 0 -161.5 -72.5t-61.5 -193.5v-217h576v194q0 147 93 238.5t243 91.5q47 0 99 -14.5
t91 -38.5l-8 -19q-29 14 -69 22.5t-77 8.5q-100 0 -162.5 -72.5t-62.5 -193.5v-217zM1851 1597v-1597h-147v1597h147z" />
    <glyph glyph-name=".notdef" horiz-adv-x="2541" 
d="M1694 -6q-14 -14 -35 -14q-27 0 -34 13t-7 34v663l-694 -696q-14 -14 -35 -14q-27 0 -34 13t-7 34v663l-696 -696q-14 -14 -35 -14q-14 0 -24.5 10t-10.5 26q0 20 10 31l701 698h-664q-47 0 -47 39q0 18 14 33l697 701h-670q-18 0 -29.5 10t-11.5 28v3q0 18 11 28t30 10
h758q20 0 33.5 -7t13.5 -34q0 -18 -17 -34l-698 -697h676q16 0 28.5 -12t12.5 -29v-669l694 692q16 16 35 16q37 0 37 -45v-663l696 692q16 16 33 16q14 0 24.5 -11t10.5 -28q0 -16 -13 -28z" />
    <glyph glyph-name="glyph1" 
 />
    <glyph glyph-name="uni000D" unicode="&#xd;" horiz-adv-x="561" 
 />
    <glyph glyph-name="space" unicode=" " horiz-adv-x="561" 
 />
    <glyph glyph-name="exclam" unicode="!" horiz-adv-x="526" 
d="M252 373q0 285 -17.5 493.5t-46.5 456.5q-14 115 -14 129q0 45 24.5 74.5t65.5 29.5t65.5 -29.5t24.5 -74.5q0 -14 -14 -129q-29 -248 -46.5 -457t-17.5 -493h-24zM339 8.5q-28 -28.5 -75 -28.5t-75.5 28.5t-28.5 73.5t28.5 73.5t75.5 28.5t75 -27.5t28 -74.5
q0 -45 -28 -73.5z" />
    <glyph glyph-name="quotedbl" unicode="&#x22;" horiz-adv-x="675" 
d="M465 1143l-53 391q-2 6 -2 16q0 31 20 49t51 19q31 0 51 -19q20 -18 21 -47q0 -12 -2 -18l-57 -391h-29zM178 1143l-53 391q-2 6 -2 16q0 31 20 49t52 19q31 0 51 -19q20 -18 20 -47q0 -12 -2 -18l-57 -391h-29z" />
    <glyph glyph-name="numbersign" unicode="#" horiz-adv-x="1419" 
d="M1018 840l-86 -406h307l-6 -33h-309l-84 -401h-41l84 401h-451l-84 -401h-41l84 401h-307l6 33h309l86 406h-307l6 32h308l81 385h41l-82 -385h451l82 385h41l-82 -385h307l-6 -32h-307zM977 840h-451l-86 -406h451z" />
    <glyph glyph-name="dollar" unicode="$" horiz-adv-x="1097" 
d="M948.5 183.5q-57.5 -95.5 -159 -147.5t-228.5 -56v-185h-41v185q-135 6 -252.5 66t-191.5 157l20 20q70 -90 181.5 -145t228.5 -55q154 0 249 92t95 243q0 104 -47 177t-116 119t-187 106q-119 61 -190.5 110.5t-121 126t-49.5 187.5q0 168 108.5 268t280.5 104v185h41
v-185q106 -8 202.5 -53t166.5 -119l-16 -18q-66 66 -159 106.5t-183 40.5q-127 0 -206 -78.5t-79 -203.5q0 -92 44 -157.5t109.5 -108.5t176.5 -101q125 -66 200.5 -117t128 -135t52.5 -206q0 -127 -57.5 -222.5z" />
    <glyph glyph-name="percent" unicode="%" horiz-adv-x="1796" 
d="M1664 194.5q-40 -98.5 -112.5 -152.5t-169.5 -54q-96 0 -168.5 54t-112.5 152.5t-40 227.5t40 227.5t112.5 152.5t168.5 54t169 -54t113 -152.5t40 -227.5t-40 -227.5zM1236 124q56 -114 146 -114t146.5 114t56.5 298q0 186 -56 299t-147 113q-90 0 -146 -113t-56 -299
q0 -184 56 -298zM367 0l1019 1536h41l-1019 -1536h-41zM695 884.5q-40 -98.5 -112.5 -152.5t-168.5 -54t-169 54t-113 152.5t-40 227.5t40 227.5t112.5 152.5t169.5 54q96 0 168.5 -54t112.5 -152.5t40 -227.5t-40 -227.5zM267.5 814q56.5 -114 146.5 -114t146 114t56 298
q0 186 -56 299t-146 113t-146.5 -113t-56.5 -299q0 -184 56.5 -298z" />
    <glyph glyph-name="ampersand" unicode="&#x26;" horiz-adv-x="1464" 
d="M1241 0l-199 211q-100 -111 -227 -171t-264 -60q-133 0 -232.5 55t-152.5 149.5t-53 210.5q0 133 74.5 244t232.5 238q-78 90 -119 170.5t-41 166.5q0 156 107.5 249t287.5 93q100 0 201.5 -46t167.5 -121l-16 -19q-63 66 -151.5 106t-172.5 40q-123 0 -196.5 -75
t-73.5 -190q0 -88 51 -176t156 -203l485 -524q80 119 124 269.5t46 320.5h29q0 -174 -45.5 -331.5t-129.5 -282.5l300 -324h-189zM838.5 111q97.5 45 179.5 129l-549 583l-20 23q-109 -94 -161 -184.5t-52 -196.5q0 -109 51 -200t143 -145t209 -54q102 0 199.5 45z" />
    <glyph glyph-name="quotesingle" unicode="'" horiz-adv-x="389" 
d="M178 1143l-53 391q-2 6 -2 16q0 31 20.5 49.5t51.5 18.5t51 -18.5t20 -47.5q0 -12 -2 -18l-57 -391h-29z" />
    <glyph glyph-name="parenleft" unicode="(" horiz-adv-x="532" 
d="M213 57q-100 301 -100 588q0 307 100 608t264 488h31q-158 -186 -254 -488.5t-96 -607.5q0 -281 96 -583t254 -513h-31q-164 207 -264 508z" />
    <glyph glyph-name="parenright" unicode=")" horiz-adv-x="532" 
d="M319.5 1253q100.5 -301 100.5 -608q0 -287 -100.5 -588t-264.5 -508h-30q158 211 254 513.5t96 582.5q0 305 -96.5 607t-253.5 489h30q164 -187 264.5 -488z" />
    <glyph glyph-name="asterisk" unicode="*" horiz-adv-x="800" 
d="M428 1430l166 -222l-33 -24l-162 229l-161 -229l-33 24l166 222l-265 83l13 39l264 -90l-4 279h41l-4 -279l264 90l12 -39z" />
    <glyph glyph-name="plus" unicode="+" horiz-adv-x="970" 
d="M844 557h-338v-332h-41v332h-338v33h338v332h41v-332h338v-33z" />
    <glyph glyph-name="comma" unicode="," horiz-adv-x="464" 
d="M312.5 162q31.5 -43 31.5 -121q0 -115 -51 -219.5t-133 -159.5l-17 23q74 53 118 144t46 191q-31 -41 -88 -40q-47 0 -75.5 30.5t-28.5 81.5t30.5 82t81.5 31q54 0 85.5 -43z" />
    <glyph glyph-name="hyphen" unicode="-" horiz-adv-x="960" 
d="M152 557v33h657v-33h-657z" />
    <glyph glyph-name="period" unicode="." horiz-adv-x="501" 
d="M331.5 10.5q-30.5 -30.5 -79.5 -30.5q-51 0 -82 30.5t-31 81.5t31 82t82 31q49 0 79.5 -31t30.5 -82t-30.5 -81.5z" />
    <glyph glyph-name="slash" unicode="/" horiz-adv-x="1040" 
d="M55 -451l887 2192h45l-889 -2192h-43z" />
    <glyph glyph-name="zero" unicode="0" horiz-adv-x="1411" 
d="M1201 355q-71 -179 -199 -277t-295 -98q-168 0 -297 98t-200 277t-71 413q0 233 71 413q71 179 200 277t297 98t295 -98q128 -98 199 -277t71 -413t-71 -413zM355 373q50 -172 142 -267q91 -94 210 -94t208 94q90 94 141 267q50 172 50 395t-50 395t-141 267
q-90 94 -208 94q-119 0 -210 -94t-142 -267q-50 -172 -50 -395t50 -395z" />
    <glyph glyph-name="one" unicode="1" horiz-adv-x="964" 
d="M739 1556v-1556h-153v1446l-523 -299l-14 27l662 382h28z" />
    <glyph glyph-name="two" unicode="2" horiz-adv-x="1196" 
d="M1083 33v-33h-1024v18q381 295 606 586q224 291 224 529q0 106 -45 193t-126 136t-183 49q-100 0 -203 -47q-102 -47 -182 -127l-15 19q86 90 202 145t247 55t238 -55q108 -55 170 -156t63 -231q0 -240 -215 -526q-215 -287 -588 -555h831z" />
    <glyph glyph-name="three" unicode="3" horiz-adv-x="1251" 
d="M995 679q125 -112 125 -280q0 -125 -67 -220q-68 -95 -191 -147t-282 -52q-137 0 -273 56q-135 56 -221 148l18 21q84 -84 198 -133t230 -49q125 0 222 48q96 48 148 134t52 198q0 117 -57 206t-163 139q-105 49 -242 49h-43v32h26q188 0 303 101q115 100 115 264
q0 143 -93 231t-247 88q-94 0 -201 -42q-106 -42 -184 -109l-16 18q84 78 204 127q121 49 232 49q139 0 247 -45t165 -126q58 -81 59 -185q0 -152 -108 -253t-292 -130q211 -26 336 -138z" />
    <glyph glyph-name="four" unicode="4" horiz-adv-x="1316" 
d="M1243 367h-239v-367h-154v367h-797v20l924 1169h27v-1157h239v-32zM850 399v934l-739 -934h739z" />
    <glyph glyph-name="five" unicode="5" horiz-adv-x="1210" 
d="M849 905q120 -61 185 -173q66 -112 66 -257q0 -147 -69 -260t-193 -174q-125 -61 -289 -61q-141 0 -265 56t-188 150l17 21q61 -82 169 -132t224 -50q127 0 224 56t151 159q53 102 53 235t-51 235q-51 101 -145 157q-93 56 -214 57q-76 0 -165 -28t-160 -73l-13 21
l90 692h760v-33h-608l-78 -577q113 41 223 41q156 -1 276 -62z" />
    <glyph glyph-name="six" unicode="6" horiz-adv-x="1325" 
d="M975 885q109 -57 168 -163q59 -105 59 -245q0 -147 -65 -260q-66 -113 -185 -175t-276 -62q-160 0 -282 87t-189 245q-68 159 -68 366q0 262 84 461t236 308q152 110 350 109q106 0 205 -42q98 -42 155 -111l-16 -17q-53 55 -138 91q-85 35 -171 34q-154 0 -272 -96
t-187 -273q-70 -177 -78 -411q70 98 181 155q112 56 237 56q143 0 252 -57zM864 70q82 57 127 161t45 242q0 195 -95 311q-95 117 -251 117q-111 0 -216 -62t-171 -165v-10q0 -193 46 -341t131 -230q85 -81 196 -81q106 1 188 58z" />
    <glyph glyph-name="seven" unicode="7" horiz-adv-x="1112" 
d="M1059 1536v-18l-637 -1518h-164l631 1503h-844v33h1014z" />
    <glyph glyph-name="eight" unicode="8" horiz-adv-x="1345" 
d="M1106 672q111 -113 111 -277q0 -123 -68 -217t-191 -146t-284 -52q-162 0 -285 52t-190 146q-68 94 -68 217q0 164 111 277t299 143q-160 29 -251 126t-91 239q0 113 59 197q59 85 167 132t249 47t248 -47q106 -47 165 -133t60 -196q0 -141 -91 -239q-91 -97 -249 -126
q188 -30 299 -143zM450 926q85 -96 224 -97q139 0 223 97q84 96 84 254q0 154 -85 248q-85 95 -222 96q-139 0 -224 -96q-85 -95 -85 -248q0 -158 85 -254zM947 118q103 105 104 277q0 180 -104 291q-103 111 -273 111t-274 -110q-103 -110 -103 -292q0 -172 103 -277
t274 -106q170 1 273 106z" />
    <glyph glyph-name="nine" unicode="9" horiz-adv-x="1325" 
d="M922 1465q127 -91 196 -255q70 -164 70 -379q0 -254 -79 -446q-79 -193 -221 -299t-329 -106q-119 0 -229 42q-111 42 -172 111l16 17q59 -57 154 -93q94 -35 188 -34q150 0 264 102q115 102 177 290q62 187 63 433v4q-70 -100 -181 -159q-112 -58 -237 -58
q-143 0 -252 55t-168 156q-59 100 -59 233q0 141 62 250t177 168t267 59q166 0 293 -91zM849 738q105 62 171 165q-6 186 -57 327q-51 140 -138 217q-86 77 -196 77q-100 0 -178 -56q-78 -55 -120 -154t-42 -231q0 -184 94 -296t250 -111q111 0 216 62z" />
    <glyph glyph-name="colon" unicode=":" horiz-adv-x="530" 
d="M346 920q-31 -31 -80 -31q-51 0 -82 31t-30 81q0 51 30 82q31 31 82 31q49 0 80 -31t31 -82q0 -50 -31 -81zM346 10q-31 -31 -80 -30q-51 0 -82 30q-31 31 -30 82q0 51 30 82q31 31 82 31q49 0 80 -31t31 -82t-31 -82z" />
    <glyph glyph-name="semicolon" unicode=";" horiz-adv-x="542" 
d="M350 920q-31 -31 -80 -31q-51 0 -82 31t-30 81q0 51 30 82q31 31 82 31q49 0 80 -31t31 -82q0 -50 -31 -81zM355 162q32 -43 32 -121q0 -115 -51 -219t-133 -160l-17 23q74 53 118 144t46 191q-31 -41 -88 -40q-47 0 -76 30q-29 31 -28 82q0 51 30 82q31 31 82 31
q53 0 85 -43z" />
    <glyph glyph-name="less" unicode="&#x3c;" horiz-adv-x="970" 
d="M90 590l717 287v-37l-664 -267l664 -245v-37l-717 266v33z" />
    <glyph glyph-name="equal" unicode="=" horiz-adv-x="970" 
d="M127 705v32h717v-32h-717zM127 410v32h717v-32h-717z" />
    <glyph glyph-name="greater" unicode="&#x3e;" horiz-adv-x="970" 
d="M164 291v37l663 245l-663 267v37l717 -287v-33z" />
    <glyph glyph-name="question" unicode="?" horiz-adv-x="1040" 
d="M422 373v14q0 98 26.5 179t65.5 141.5t100 138.5q84 106 126 186t42 187q0 133 -90 213.5t-235 80.5q-94 0 -197.5 -49t-179.5 -127l-17 19q86 90 205 145t232 55q133 0 234.5 -43t157.5 -120.5t56 -178.5q0 -94 -35.5 -170.5t-87 -133t-137.5 -132.5q-80 -72 -128 -123
t-81 -118.5t-33 -149.5v-14h-24zM510 8.5q-29 -28.5 -76 -28.5q-45 0 -73.5 28.5t-28.5 73.5q0 47 28.5 74.5t73.5 27.5q47 0 76 -28.5t29 -73.5t-29 -73.5z" />
    <glyph glyph-name="at" unicode="@" horiz-adv-x="2168" 
d="M1481 1034v-684q0 -125 51 -200.5t141 -75.5q96 0 171 73.5t118 207.5t43 311q0 256 -115.5 450.5t-327.5 301t-489 106.5q-272 0 -480 -122t-322.5 -344t-114.5 -515q0 -291 116.5 -513.5t327.5 -345t487 -122.5q139 0 289 46t258 122l11 -19q-109 -82 -263.5 -132
t-300.5 -50q-287 0 -508 127t-341.5 356.5t-120.5 530.5t119.5 531.5t337.5 356t505 125.5q291 0 512 -110.5t343 -312t122 -467.5q0 -190 -49 -334t-142.5 -223.5t-218.5 -79.5q-117 0 -193.5 68.5t-100.5 187.5q-45 -115 -142.5 -185.5t-208.5 -70.5q-121 0 -215 64.5
t-146 180t-52 269.5q0 152 52 268.5t146 180t215 63.5q109 0 203 -66.5t143 -177.5l13 223h127zM1203 144.5q81 68.5 130 181.5v432q-49 115 -130 182.5t-167 67.5q-88 0 -155.5 -58.5t-104.5 -164t-37 -242.5t37 -243.5t104.5 -165t155.5 -58.5q86 0 167 68.5z" />
    <glyph glyph-name="A" unicode="A" horiz-adv-x="1421" 
d="M1024 444h-748l-180 -444h-43l635 1556h27l653 -1556h-160zM1010 477l-365 873l-354 -873h719z" />
    <glyph glyph-name="B" unicode="B" horiz-adv-x="1261" 
d="M1030 680.5q117 -105.5 117 -258.5q0 -125 -69.5 -221.5t-197.5 -148.5t-294 -52h-365v1536h365q139 0 245.5 -46t165 -128t58.5 -188q0 -139 -91.5 -234.5t-246.5 -124.5q196 -29 313 -134.5zM799 1412q-90 91 -236 91h-188v-674h188q145 0 235.5 94.5t90.5 250.5
q0 147 -90 238zM866.5 139.5q114.5 106.5 114.5 282.5q0 170 -114.5 272.5t-303.5 102.5h-188v-764h188q189 0 303.5 106.5z" />
    <glyph glyph-name="C" unicode="C" horiz-adv-x="1472" 
d="M1170.5 41q-152.5 -61 -306.5 -61q-217 0 -385 98t-260 277.5t-92 412.5t92 412.5t260 277.5t385 98q150 0 295.5 -55t235.5 -149l-17 -17q-82 80 -213 128t-262 48q-180 0 -318.5 -93t-215 -261t-76.5 -389t76.5 -389t215 -261t320.5 -93q133 0 271.5 55t224.5 145
l16 -24q-94 -99 -246.5 -160z" />
    <glyph glyph-name="D" unicode="D" horiz-adv-x="1658" 
d="M1142.5 1439.5q186.5 -96.5 289 -270.5t102.5 -401t-102.5 -401t-289 -270.5t-427.5 -96.5h-494v1536h494q241 0 427.5 -96.5zM1046.5 125q153.5 92 237.5 259t84 384t-84 384t-237.5 259t-354.5 92h-317v-1470h317q201 0 354.5 92z" />
    <glyph glyph-name="E" unicode="E" horiz-adv-x="1083" 
d="M987 33v-33h-766v1536h750v-33h-596v-674h504v-32h-504v-764h612z" />
    <glyph glyph-name="F" unicode="F" horiz-adv-x="1054" 
d="M375 1503v-696h514v-33h-514v-774h-154v1536h776v-33h-622z" />
    <glyph glyph-name="G" unicode="G" horiz-adv-x="1607" 
d="M1466 815v-620q-100 -96 -267 -155.5t-335 -59.5q-217 0 -385 98t-260 277.5t-92 412.5t92 412.5t260 277.5t385 98q160 0 312.5 -58t244.5 -155l-14 -16q-88 84 -227.5 134t-276.5 50q-180 0 -318.5 -93t-215 -261t-76.5 -389t76.5 -389t215 -261t320.5 -93
q100 0 208 25.5t200 72.5v692h153z" />
    <glyph glyph-name="H" unicode="H" horiz-adv-x="1519" 
d="M1298 1536v-1536h-153v797h-770v-797h-154v1536h154v-707h770v707h153z" />
    <glyph glyph-name="I" unicode="I" horiz-adv-x="595" 
d="M221 0v1536h154v-1536h-154z" />
    <glyph glyph-name="J" unicode="J" horiz-adv-x="815" 
d="M517 66q-87 -86 -228 -86q-72 0 -137.5 24.5t-106.5 65.5l16 20q33 -33 80 -51.5t99 -18.5q94 0 152.5 69t58.5 181v1266h153v-1245q0 -139 -87 -225z" />
    <glyph glyph-name="K" unicode="K" horiz-adv-x="1306" 
d="M221 1536h154v-1536h-154v1536zM1303 0h-187l-692 809l737 727h56l-660 -651z" />
    <glyph glyph-name="L" unicode="L" horiz-adv-x="1038" 
d="M997 33v-33h-776v1536h154v-1503h622z" />
    <glyph glyph-name="M" unicode="M" horiz-adv-x="1927" 
d="M1616 0l-111 1257l-573 -1277h-31l-590 1284l-114 -1264h-41l143 1556h29l645 -1396l626 1396h29l146 -1556h-158z" />
    <glyph glyph-name="N" unicode="N" horiz-adv-x="1519" 
d="M221 0v1556h29l1007 -1337v1317h41v-1556h-26l-1010 1335v-1315h-41z" />
    <glyph glyph-name="O" unicode="O" horiz-adv-x="1804" 
d="M1581 355.5q-96 -179.5 -272 -277.5t-408 -98q-229 0 -405.5 98t-273.5 277.5t-97 412.5t97 412.5t273.5 277.5t405.5 98q231 0 407.5 -98t272.5 -277.5t96 -412.5t-96 -412.5zM366.5 373q75.5 -172 214 -266.5t320.5 -94.5t320.5 94.5t214 266.5t75.5 395t-75.5 395
t-214 266.5t-320.5 94.5t-320.5 -94.5t-214 -266.5t-75.5 -395t75.5 -395z" />
    <glyph glyph-name="P" unicode="P" horiz-adv-x="1214" 
d="M876.5 1483q122.5 -53 190.5 -149.5t68 -221.5q0 -127 -68 -223t-190.5 -149.5t-284.5 -53.5h-217v-686h-154v1536h371q162 0 284.5 -53zM859.5 827.5q109.5 108.5 109.5 284.5t-109.5 283.5t-288.5 107.5h-196v-784h196q179 0 288.5 108.5z" />
    <glyph glyph-name="Q" unicode="Q" horiz-adv-x="1804" 
d="M1578 350q-99 -180 -278 -276l316 -307l-29 -29l-325 315q-164 -74 -361 -73q-229 0 -405.5 98t-273.5 277.5t-97 412.5t97 412.5t273.5 277.5t405.5 98q231 0 407.5 -98t272.5 -277.5t96 -412.5q0 -238 -99 -418zM1212 102l-338 328l29 29l344 -334q125 96 194.5 262
t69.5 381q0 223 -75.5 395t-214 266.5t-320.5 94.5t-320.5 -94.5t-214 -266.5t-75.5 -395t75.5 -395t214 -266.5t320.5 -94.5q178 0 311 90z" />
    <glyph glyph-name="R" unicode="R" horiz-adv-x="1288" 
d="M1247 0h-186l-682 729h-4v-729h-154v1536h389q156 0 275 -50t184.5 -140.5t65.5 -208.5q0 -121 -65.5 -214.5t-184.5 -143.5t-275 -50h-49zM588 762q170 0 275.5 103.5t105.5 271.5q0 164 -105.5 265t-275.5 101h-213v-741h213z" />
    <glyph glyph-name="S" unicode="S" horiz-adv-x="1120" 
d="M958.5 178q-59.5 -96 -165 -147t-236.5 -51q-143 0 -267 60t-202 163l21 20q70 -90 181 -145t228 -55q154 0 249 92t95 243q0 104 -47 177t-115.5 119t-187.5 106q-119 61 -190.5 110.5t-120.5 126t-49 187.5q0 170 110.5 271t286.5 101q117 0 222.5 -46t178.5 -126
l-16 -18q-66 66 -159 106.5t-183 40.5q-127 0 -206 -78.5t-79 -203.5q0 -92 44 -157.5t109.5 -108.5t176.5 -101q125 -66 200.5 -117t128 -135t52.5 -206q0 -132 -59.5 -228z" />
    <glyph glyph-name="T" unicode="T" horiz-adv-x="1282" 
d="M1253 1503h-534v-1503h-154v1503h-536v33h1224v-33z" />
    <glyph glyph-name="U" unicode="U" horiz-adv-x="1505" 
d="M1234.5 247q-65.5 -128 -185 -197.5t-279.5 -69.5q-168 0 -296 72.5t-199.5 203.5t-71.5 303v977h153v-999q0 -154 53.5 -272t151.5 -182.5t225 -64.5q141 0 249 64.5t166.5 182.5t58.5 272v999h40v-995q0 -166 -65.5 -294z" />
    <glyph glyph-name="V" unicode="V" horiz-adv-x="1404" 
d="M1350 1536l-625 -1556h-27l-645 1556h160l555 -1350l539 1350h43z" />
    <glyph glyph-name="W" unicode="W" horiz-adv-x="1873" 
d="M1800 1536l-448 -1556h-33l-375 1302l-375 -1302h-30l-467 1556h159l381 -1305l369 1325h35l377 -1320l364 1300h43z" />
    <glyph glyph-name="X" unicode="X" horiz-adv-x="1335" 
d="M1122 0l-504 719l-522 -719h-49l547 752l-549 784h178l484 -692l524 692h49l-549 -725l567 -811h-176z" />
    <glyph glyph-name="Y" unicode="Y" horiz-adv-x="1413" 
d="M797 686v-686h-154v682l-573 854h178l530 -803l510 803h47z" />
    <glyph glyph-name="Z" unicode="Z" horiz-adv-x="1179" 
d="M41 0v18l901 1485h-833v33h1011v-20l-907 -1483h905v-33h-1077z" />
    <glyph glyph-name="bracketleft" unicode="[" horiz-adv-x="665" 
d="M250 1708v-2126h395v-33h-436v2192h436v-33h-395z" />
    <glyph glyph-name="backslash" unicode="\" horiz-adv-x="1040" 
d="M55 1741h43l889 -2192h-45z" />
    <glyph glyph-name="bracketright" unicode="]" horiz-adv-x="665" 
d="M457 1741v-2192h-437v33h396v2126h-396v33h437z" />
    <glyph glyph-name="asciicircum" unicode="^" horiz-adv-x="970" 
d="M57 870l414 666h29l413 -666h-43l-385 619l-385 -619h-43z" />
    <glyph glyph-name="underscore" unicode="_" horiz-adv-x="987" 
d="M10 -242v33h965v-33h-965z" />
    <glyph glyph-name="grave" unicode="`" horiz-adv-x="1228" 
d="M612 1206l-413 240l16 29l412 -242z" />
    <glyph glyph-name="a" unicode="a" horiz-adv-x="1157" 
d="M875.5 1016q113.5 -98 113.5 -268v-748h-125l-14 260q-66 -127 -182.5 -203.5t-243.5 -76.5q-156 0 -250 87t-94 228q0 137 121 219t321 82h320v158q0 152 -85 236.5t-235 84.5q-92 0 -186 -37t-166 -100l-14 14q78 76 186.5 119t222.5 43q197 0 310.5 -98zM681 106.5
q101 77.5 161 202.5v254h-295q-139 0 -225 -72.5t-86 -191.5q0 -123 65.5 -196.5t173.5 -73.5q105 0 206 77.5z" />
    <glyph glyph-name="b" unicode="b" horiz-adv-x="1271" 
d="M944.5 1043.5q104.5 -70.5 161.5 -199.5t57 -297t-57 -297t-161.5 -199.5t-242.5 -70.5q-131 0 -235.5 76.5t-149.5 203.5l-14 -260h-125v1597h148v-745q49 119 151.5 190.5t224.5 71.5q138 0 242.5 -70.5zM845 90.5q77 65.5 120 183t43 273.5t-43 273.5t-120 183
t-179 65.5q-111 0 -204 -81t-136 -212v-459q43 -131 136 -211.5t204 -80.5q102 0 179 65.5z" />
    <glyph glyph-name="c" unicode="c" horiz-adv-x="1034" 
d="M812 20.5q-97 -40.5 -200 -40.5q-150 0 -264.5 70.5t-178 199.5t-63.5 299q0 168 63.5 296t178.5 198.5t264 70.5q96 0 188.5 -36t145.5 -95l-12 -18q-51 49 -127 79.5t-152 30.5q-117 0 -206 -65.5t-138 -185t-49 -275.5q0 -158 49 -277.5t139.5 -185.5t208.5 -66
q76 0 157 35t140 92l17 -16q-64 -70 -161 -110.5z" />
    <glyph glyph-name="d" unicode="d" horiz-adv-x="1271" 
d="M1092 1597v-1597h-123l-15 266q-45 -131 -150.5 -208.5t-236.5 -77.5q-137 0 -241.5 70.5t-162 199.5t-57.5 297t57.5 297t162 199.5t241.5 70.5q125 0 227.5 -70.5t149.5 -187.5v741h148zM808 105.5q93 80.5 136 211.5v459q-41 131 -134 212t-204 81q-102 0 -180 -65.5
t-121 -183.5t-43 -273q0 -156 43 -273.5t121 -183t180 -65.5q109 0 202 80.5z" />
    <glyph glyph-name="e" unicode="e" horiz-adv-x="1187" 
d="M262 571v-24q0 -156 50 -275.5t142.5 -185.5t213.5 -66q92 0 190 35t166 95l12 -17q-72 -70 -184.5 -111.5t-224.5 -41.5q-156 0 -273.5 70.5t-182.5 199.5t-65 297t65 297t181.5 199.5t270.5 70.5q141 0 249.5 -67.5t169 -189.5t60.5 -279v-7h-840zM373.5 951
q-97.5 -130 -109.5 -347h682q0 141 -41 250t-113.5 168t-168.5 59q-152 0 -249.5 -130z" />
    <glyph glyph-name="f" unicode="f" horiz-adv-x="808" 
d="M725 1589.5q72 -28.5 113 -76.5l-13 -14q-35 37 -91 57.5t-113 20.5q-104 0 -167 -72.5t-63 -193.5v-217h387v-33h-387v-1061h-147v1061h-211v33h211v194q0 147 92 238.5t242 91.5q75 0 147 -28.5z" />
    <glyph glyph-name="g" unicode="g" horiz-adv-x="1271" 
d="M1092 1094v-1082q0 -143 -69 -252.5t-193.5 -170t-288.5 -60.5q-94 0 -196.5 37t-172.5 96l16 19q63 -51 155.5 -83t178.5 -32q125 0 221.5 53t148.5 150.5t52 222.5v248q-49 -119 -151.5 -189.5t-225.5 -70.5q-137 0 -241.5 70.5t-162 199.5t-57.5 297t57.5 297
t162 199.5t241.5 70.5q133 0 238.5 -78t148.5 -207l15 265h123zM808 105.5q93 80.5 136 211.5v459q-41 131 -134 212t-204 81q-102 0 -180 -65.5t-121 -183.5t-43 -273q0 -156 43 -273.5t121 -183t180 -65.5q109 0 202 80.5z" />
    <glyph glyph-name="h" unicode="h" horiz-adv-x="1251" 
d="M994 1024q89 -90 89 -238v-786h-147v813q0 115 -61.5 184.5t-161.5 69.5q-115 0 -221.5 -81t-165.5 -212v-774h-148v1597h148v-757q66 125 183.5 199.5t250.5 74.5q145 0 234 -90z" />
    <glyph glyph-name="i" unicode="i" horiz-adv-x="503" 
d="M318.5 1396.5q-25.5 -24.5 -68.5 -24.5q-41 0 -67.5 24.5t-26.5 65.5t26.5 66.5t67.5 25.5q43 0 68.5 -25.5t25.5 -66.5t-25.5 -65.5zM178 0v1094h148v-1094h-148z" />
    <glyph glyph-name="j" unicode="j" horiz-adv-x="509" 
d="M324.5 1396.5q-25.5 -24.5 -68.5 -24.5q-41 0 -67.5 24.5t-26.5 65.5t26.5 66.5t67.5 25.5q43 0 68.5 -25.5t25.5 -66.5t-25.5 -65.5zM258 -302q-74 -101 -211 -169l-10 20q147 109 147 377v1168h148v-1125q0 -170 -74 -271z" />
    <glyph glyph-name="k" unicode="k" horiz-adv-x="1081" 
d="M178 1597h148v-1597h-148v1597zM1073 0h-174l-526 604l579 490h54l-502 -422z" />
    <glyph glyph-name="l" unicode="l" horiz-adv-x="503" 
d="M178 0v1597h148v-1597h-148z" />
    <glyph glyph-name="m" unicode="m" horiz-adv-x="1968" 
d="M1715 1027q87 -87 87 -230v-797h-147v823q0 111 -59.5 177.5t-155.5 66.5q-109 0 -211.5 -76t-165.5 -205v-786h-148v823q0 111 -58 177.5t-155 66.5q-111 0 -215 -78t-161 -205v-784h-148v1094h125l14 -260q63 127 180 203.5t253 76.5q129 0 211.5 -73.5t99.5 -196.5
q63 123 179 196.5t247 73.5q141 0 228 -87z" />
    <glyph glyph-name="n" unicode="n" horiz-adv-x="1251" 
d="M994 1024q89 -90 89 -238v-786h-147v813q0 115 -61.5 184.5t-161.5 69.5q-115 0 -221.5 -81t-165.5 -212v-774h-148v1094h125l14 -271q66 133 186 212t257 79q145 0 234 -90z" />
    <glyph glyph-name="o" unicode="o" horiz-adv-x="1271" 
d="M1098.5 250q-66.5 -129 -186 -199.5t-277.5 -70.5q-156 0 -275.5 70.5t-186.5 199.5t-67 297t67 297t186.5 199.5t275.5 70.5q158 0 277.5 -70.5t186 -199.5t66.5 -297t-66.5 -297zM308 267q46 -122 131 -188.5t196 -66.5t195.5 66.5t132 188.5t47.5 280t-47.5 279.5
t-132.5 188t-195 66.5q-111 0 -196 -66.5t-131 -188t-46 -279.5t46 -280z" />
    <glyph glyph-name="p" unicode="p" horiz-adv-x="1271" 
d="M944.5 1043.5q104.5 -70.5 161.5 -199.5t57 -297t-57 -297t-161.5 -199.5t-242.5 -70.5q-125 0 -227 70.5t-149 189.5v-691h-148v1545h125l14 -263q45 129 150.5 206t234.5 77q138 0 242.5 -70.5zM845 90.5q77 65.5 120 183t43 273.5t-43 273.5t-120 183t-179 65.5
q-111 0 -204 -81t-136 -212v-459q43 -131 136 -211.5t204 -80.5q102 0 179 65.5z" />
    <glyph glyph-name="q" unicode="q" horiz-adv-x="1271" 
d="M1092 1094v-1545h-148v691q-49 -119 -151.5 -189.5t-225.5 -70.5q-137 0 -241.5 70.5t-162 199.5t-57.5 297t57.5 297t162 199.5t241.5 70.5q133 0 238.5 -78t148.5 -207l15 265h123zM808 105.5q93 80.5 136 211.5v459q-41 131 -134 212t-204 81q-102 0 -180 -65.5
t-121 -183.5t-43 -273q0 -156 43 -273.5t121 -183t180 -65.5q109 0 202 80.5z" />
    <glyph glyph-name="r" unicode="r" horiz-adv-x="798" 
d="M493.5 1008q116.5 86 258.5 86v-33q-141 0 -258 -93.5t-168 -244.5v-723h-148v1094h125l14 -316q60 144 176.5 230z" />
    <glyph glyph-name="s" unicode="s" horiz-adv-x="1007" 
d="M807 67q-117 -87 -303 -87q-129 0 -238.5 41.5t-181.5 115.5l14 19q63 -63 166 -100.5t207 -37.5q135 0 222 63.5t87 166.5q0 70 -42 117t-103.5 75.5t-163.5 63.5q-115 39 -185.5 73.5t-118.5 93t-48 148.5q0 135 106.5 215t270.5 80q113 0 207 -39t159 -106l-12 -15
q-63 57 -148.5 90t-171.5 33q-115 0 -191.5 -58t-76.5 -155q0 -68 41 -112.5t99.5 -71.5t164.5 -66q115 -37 186.5 -71.5t121 -94t49.5 -151.5q0 -143 -117 -230z" />
    <glyph glyph-name="t" unicode="t" horiz-adv-x="790" 
d="M788 72q-43 -41 -109.5 -66.5t-135.5 -25.5q-137 0 -221 86t-84 225v770h-201v33h201l127 352h20v-352h375v-33h-375v-791q0 -113 58.5 -181.5t152.5 -68.5q51 0 100 18.5t80 49.5z" />
    <glyph glyph-name="u" unicode="u" horiz-adv-x="1230" 
d="M1053 1094v-1094h-125l-15 260q-63 -127 -180 -203.5t-252 -76.5q-141 0 -227 87t-86 230v797h147v-824q0 -111 58.5 -177t154.5 -66q113 0 216.5 77.5t160.5 204.5v785h148z" />
    <glyph glyph-name="v" unicode="v" horiz-adv-x="1097" 
d="M1057 1094l-494 -1114h-22l-498 1114h160l407 -920l406 920h41z" />
    <glyph glyph-name="w" unicode="w" horiz-adv-x="1540" 
d="M1487 1094l-381 -1114h-23l-309 903l-307 -903h-25l-391 1114h158l303 -879l301 899h31l307 -905l299 885h37z" />
    <glyph glyph-name="x" unicode="x" horiz-adv-x="1034" 
d="M834 0l-367 510l-377 -510h-47l399 543l-395 551h174l340 -473l363 473h45l-387 -504l424 -590h-172z" />
    <glyph glyph-name="y" unicode="y" horiz-adv-x="1097" 
d="M1057 1094l-668 -1549h-41l189 437l-492 1112h162l407 -932l402 932h41z" />
    <glyph glyph-name="z" unicode="z" horiz-adv-x="966" 
d="M45 0v18l692 1043h-647v33h817v-19l-692 -1042h690v-33h-860z" />
    <glyph glyph-name="braceleft" unicode="{" horiz-adv-x="546" 
d="M344 -372q59 -79 158 -79l-4 -20q-115 0 -184.5 84t-69.5 223v578q0 96 -48.5 155.5t-125.5 59.5h-11v33h11q78 0 126 59t48 156v577q0 139 69.5 223t184.5 84l4 -20q-98 0 -157.5 -79t-59.5 -208v-577q0 -90 -39 -150.5t-109 -81.5q70 -20 109 -81.5t39 -149.5v-578
q0 -129 59 -208z" />
    <glyph glyph-name="bar" unicode="|" horiz-adv-x="458" 
d="M209 -436v2177h41v-2177h-41z" />
    <glyph glyph-name="braceright" unicode="}" horiz-adv-x="546" 
d="M487 662v-33h-10q-78 0 -126 -59.5t-48 -155.5v-578q0 -139 -69.5 -223t-184.5 -84l-4 20q98 0 157.5 79t59.5 208v578q0 88 39 149.5t109 81.5q-70 20 -109 80.5t-39 151.5v577q0 129 -59.5 208t-157.5 79l4 20q115 0 184.5 -84t69.5 -223v-577q0 -96 48 -155.5
t126 -59.5h10z" />
    <glyph glyph-name="asciitilde" unicode="~" horiz-adv-x="970" 
d="M53 479q0 102 61.5 166t161.5 64q66 0 114 -29t110 -84q61 -53 104 -78.5t103 -25.5q84 0 136 54t52 142h29q0 -102 -61.5 -165.5t-162.5 -63.5q-66 0 -113.5 28.5t-109.5 83.5q-61 53 -104 79t-103 26q-84 0 -136 -54.5t-52 -142.5h-29z" />
    <glyph glyph-name="uni00A0" unicode="&#xa0;" horiz-adv-x="561" 
 />
    <glyph glyph-name="exclamdown" unicode="&#xa1;" horiz-adv-x="501" 
d="M326.5 939q-27.5 -28 -74.5 -28t-76 28t-29 73t29 73.5t76 28.5t74.5 -27.5t27.5 -74.5q0 -45 -27.5 -73zM316.5 -442.5q-23.5 -28.5 -64.5 -28.5q-43 0 -66.5 28.5t-23.5 75.5q0 16 14 131q27 215 45.5 441.5t18.5 515.5h24q0 -287 17.5 -501t44.5 -456q14 -115 14 -131
q0 -47 -23.5 -75.5z" />
    <glyph glyph-name="cent" unicode="&#xa2;" horiz-adv-x="1087" 
d="M838.5 246q-93.5 -41 -189.5 -45v-201h-41v201q-145 6 -254.5 77.5t-169 198.5t-59.5 293q0 164 59.5 290t169 197.5t254.5 77.5v201h41v-201q92 -4 178 -39.5t138 -91.5l-13 -18q-51 49 -127.5 78.5t-150.5 29.5q-117 0 -206 -65.5t-138 -184t-49 -274.5
q0 -158 49 -277.5t139 -185t207 -65.5q76 0 156.5 34.5t140.5 92.5l16 -17q-57 -65 -150.5 -106z" />
    <glyph glyph-name="sterling" unicode="&#xa3;" horiz-adv-x="1196" 
d="M1114 33v-33h-993v16q100 57 161.5 178t61.5 267q0 80 -12.5 149.5t-34.5 145.5h-197v32h185q-4 14 -8.5 24.5t-6.5 21.5q-33 94 -48 159.5t-15 141.5q0 125 56 220t157.5 148t234.5 53q111 0 231 -55t204 -145l-17 -19q-76 78 -179 126t-200 48q-143 0 -232 -92
t-89 -243q0 -84 15 -152t48 -172q6 -14 21 -64h442v-32h-432q43 -135 43 -264q0 -147 -71.5 -270.5t-194.5 -188.5h870z" />
    <glyph glyph-name="currency" unicode="&#xa4;" horiz-adv-x="1370" 
d="M1204 223l-229 228q-106 -106 -293 -107q-182 0 -289 102l-227 -227l-29 29l228 227q-90 109 -91 291q0 182 93 291l-228 227l29 29l225 -226q106 100 289 101q182 0 291 -105l229 230l29 -29l-230 -229q88 -111 89 -289q0 -176 -86 -287l229 -227zM950.5 480.5
q96.5 103.5 96.5 285.5t-96.5 285.5t-268.5 103.5t-268.5 -103.5t-96.5 -285.5t96.5 -285.5t268.5 -103.5t268.5 103.5z" />
    <glyph glyph-name="yen" unicode="&#xa5;" horiz-adv-x="1380" 
d="M788 696h295v-32h-301v-230h301v-33h-301v-401h-153v401h-305v33h305v230h-305v32h297l-566 840h178l531 -803l512 803h45z" />
    <glyph glyph-name="brokenbar" unicode="&#xa6;" horiz-adv-x="458" 
d="M209 813v928h41v-928h-41zM209 -451v930h41v-930h-41z" />
    <glyph glyph-name="section" unicode="&#xa7;" horiz-adv-x="1212" 
d="M1050.5 371.5q-55.5 -97.5 -155.5 -154.5q59 -61 90 -134t31 -171q0 -113 -53.5 -200t-151.5 -135t-225 -48q-113 0 -226.5 47t-187.5 125l16 18q68 -66 166.5 -106.5t190.5 -40.5q141 0 228 84t87 219q0 92 -34.5 158.5t-98.5 122.5q-61 -10 -121 -11
q-150 0 -263.5 56.5t-176 158t-62.5 234.5q0 123 54.5 220t152.5 155q-117 111 -116 284q0 109 54 192t152.5 128t225.5 45q113 0 226.5 -47t184.5 -125l-14 -19q-70 66 -169 107t-193 41q-139 0 -224.5 -79t-85.5 -206q0 -158 127 -260q61 12 127 12q147 0 261 -56
t176.5 -157.5t62.5 -234.5q0 -125 -55.5 -222.5zM363.5 293q91.5 -115 242.5 -115q150 0 242 115t92 301t-92 301t-242 115q-152 0 -243 -115t-91 -301t91.5 -301z" />
    <glyph glyph-name="dieresis" unicode="&#xa8;" horiz-adv-x="1228" 
d="M319 1360q-23 -23 -59 -23q-37 0 -59 23q-23 23 -23 57q0 35 23 57t59 21q37 0 59 -21q23 -22 23 -57q0 -34 -23 -57zM719 1360q-23 -23 -62 -23q-37 0 -59 23q-23 23 -23 57q0 35 23 57t59 21q39 0 62 -21q23 -22 22 -57q1 -34 -22 -57z" />
    <glyph glyph-name="copyright" unicode="&#xa9;" horiz-adv-x="1857" 
d="M1632.5 355.5q-100.5 -179.5 -283 -277.5t-419.5 -98q-238 0 -420 98t-282.5 277.5t-100.5 412.5q0 236 100.5 414t282.5 276t420 98t420 -98t282.5 -276t100.5 -414q0 -233 -100.5 -412.5zM266 374q94 -171 266.5 -266.5t397.5 -95.5t397 95.5t266.5 266.5t94.5 394
q0 225 -94.5 397t-266.5 265.5t-397 93.5t-397.5 -93.5t-266.5 -265.5t-94 -397q0 -223 94 -394zM1114 339q-82 -34 -168 -34q-125 0 -220 57.5t-147.5 164t-52.5 245.5t52.5 245.5t147.5 164t220 57.5q82 0 160 -29.5t123 -79.5l-12 -16q-43 37 -103.5 60.5t-120.5 23.5
q-139 0 -225 -116.5t-86 -309.5t87 -308.5t228 -115.5q61 0 125 26.5t113 69.5l14 -14q-53 -57 -135 -91z" />
    <glyph glyph-name="ordfeminine" unicode="&#xaa;" horiz-adv-x="792" 
d="M570.5 1498q64.5 -56 64.5 -155v-421h-80l-8 143q-37 -72 -101.5 -114t-136.5 -42q-88 0 -142 50.5t-54 130.5q0 76 69.5 123t184.5 47h176v90q0 84 -47 130t-131 46q-51 0 -103.5 -19.5t-93.5 -54.5l-12 10q45 43 108.5 67.5t128.5 24.5q113 0 177.5 -56zM455.5 987
q54.5 41 87.5 109v141h-160q-78 0 -124 -39t-46 -104q0 -66 36 -107t93 -41q59 0 113.5 41z" />
    <glyph glyph-name="guillemotleft" unicode="&#xab;" horiz-adv-x="843" 
d="M104 567v13l308 387l20 -13l-254 -381l254 -380l-20 -13zM375 567v13l307 387l20 -13l-253 -381l253 -380l-20 -13z" />
    <glyph glyph-name="logicalnot" unicode="&#xac;" horiz-adv-x="970" 
d="M846 422h-41v264h-676v33h717v-297z" />
    <glyph glyph-name="uni00AD" unicode="&#xad;" horiz-adv-x="960" 
d="M152 557v33h657v-33h-657z" />
    <glyph glyph-name="registered" unicode="&#xae;" horiz-adv-x="1114" 
d="M787.5 1592.5q99.5 -52.5 154.5 -149.5t55 -224q0 -125 -55 -222.5t-154.5 -150.5t-230.5 -53t-230.5 53t-154.5 150.5t-55 222.5q0 127 55 224t154.5 149.5t230.5 52.5t230.5 -52.5zM774 864q94 51 146.5 143.5t52.5 211.5q0 182 -114 293.5t-302 111.5t-302 -111.5
t-114 -293.5q0 -119 52.5 -211.5t146.5 -143.5t217 -51t217 51zM698.5 1262.5q-24.5 -33.5 -67.5 -52.5l162 -247h-93l-151 229h-23h-59v-229h-86v522h145q90 0 143.5 -40t53.5 -106q0 -43 -24.5 -76.5zM600 1246q33 36 33 93t-33 92t-86 35h-47v-256h47q53 0 86 36z" />
    <glyph glyph-name="macron" unicode="&#xaf;" horiz-adv-x="1228" 
d="M184 1323v33h568v-33h-568z" />
    <glyph glyph-name="degree" unicode="&#xb0;" horiz-adv-x="700" 
d="M525.5 1189.5q-66.5 -67.5 -175.5 -67.5t-175 67.5t-66 180.5t66.5 180.5t174.5 67.5q109 0 175.5 -67.5t66.5 -180.5t-66.5 -180.5zM205 1214.5q55 -59.5 145 -59.5t145.5 59.5t55.5 155.5t-55.5 155.5t-145.5 59.5t-145 -59.5t-55 -155.5t55 -155.5z" />
    <glyph glyph-name="plusminus" unicode="&#xb1;" horiz-adv-x="970" 
d="M844 725v-33h-338v-291h-41v291h-338v33h338v291h41v-291h338zM127 264h717v-33h-717v33z" />
    <glyph glyph-name="acute" unicode="&#xb4;" horiz-adv-x="1228" 
d="M199 1206l-15 27l410 242l16 -29z" />
    <glyph glyph-name="paragraph" unicode="&#xb6;" horiz-adv-x="1073" 
d="M162 1498q96 99 252 99h137v-2048h-41v1323h-96q-156 0 -252 99.5t-96 263.5t96 263zM838 1597v-2048h-41v2048h41z" />
    <glyph glyph-name="periodcentered" unicode="&#xb7;" horiz-adv-x="522" 
d="M342 578q-31 -31 -80 -31q-51 0 -82 31t-30 81q0 51 30 82q31 31 82 31q49 0 80 -31t31 -82q0 -50 -31 -81z" />
    <glyph glyph-name="cedilla" unicode="&#xb8;" horiz-adv-x="1228" 
d="M434 -177q68 -42 68 -108q0 -84 -107 -135q-106 -51 -278 -51l4 20q121 0 194 45q74 45 74 119q0 53 -50 88t-134 39l59 176l35 -16l-47 -131q114 -4 182 -46z" />
    <glyph glyph-name="ordmasculine" unicode="&#xba;" horiz-adv-x="831" 
d="M636 998q-83 -89 -220 -89t-220 89t-83 235q0 145 83 234t220 89t220 -89t83 -234q0 -146 -83 -235zM267.5 1014q56.5 -82 148.5 -82t148.5 82t56.5 219q0 135 -56.5 218t-148.5 83t-148.5 -83t-56.5 -218q0 -137 56.5 -219z" />
    <glyph glyph-name="guillemotright" unicode="&#xbb;" horiz-adv-x="843" 
d="M414 193l254 380l-254 381l20 13l307 -387v-13l-307 -387zM141 193l254 380l-254 381l21 13l307 -387v-13l-307 -387z" />
    <glyph glyph-name="onequarter" unicode="&#xbc;" horiz-adv-x="1634" 
d="M1556 199h-126v-199h-111v199h-422v12l516 645h17v-635h126v-22zM1319 221v475l-383 -475h383zM221 0l1020 1536h41l-1020 -1536h-41zM457 1546v-856h-111v776l-270 -151l-10 18l374 213h17z" />
    <glyph glyph-name="onehalf" unicode="&#xbd;" horiz-adv-x="1566" 
d="M1466 23v-23h-577v12q203 164 322 326q120 162 120 283q0 90 -52 146t-138 56q-49 0 -105 -24q-55 -25 -96 -66l-12 12q49 51 116 81q68 30 134 30q121 0 196 -69q76 -69 76 -181q0 -125 -117 -280q-117 -156 -313 -303h446zM221 0l1020 1536h41l-1020 -1536h-41z
M457 1546v-856h-111v776l-270 -151l-10 18l374 213h17z" />
    <glyph glyph-name="threequarters" unicode="&#xbe;" horiz-adv-x="1720" 
d="M1649 199h-127v-199h-111v199h-422v12l516 645h17v-635h127v-22zM1411 221v475l-383 -475h383zM313 0l1020 1536h41l-1020 -1536h-41zM602 1062q68 -60 68 -151q0 -104 -83 -169t-220 -64q-76 0 -155 32t-126 81l12 16q45 -43 106 -69q60 -26 122 -25q102 0 164 56
t63 146q0 94 -68 153q-68 58 -178 58h-22v23h14q98 0 159 53q60 53 60 141q0 78 -50 124t-132 46q-49 0 -106 -21q-56 -22 -97 -56l-12 12q47 45 115 72t129 26q123 0 197 -54q75 -54 75 -144q0 -82 -58 -138q-58 -55 -161 -71q116 -17 184 -77z" />
    <glyph glyph-name="questiondown" unicode="&#xbf;" horiz-adv-x="1026" 
d="M671.5 939q-28.5 -28 -73.5 -28q-47 0 -75.5 28t-28.5 73t28.5 73.5t75.5 28.5t74.5 -27.5t27.5 -74.5q0 -45 -28.5 -73zM764 -415.5q-119 -55.5 -232 -55.5q-133 0 -234 43t-157.5 121t-56.5 178q0 96 36 173t87 133t137 132q82 74 129 125t80 119t33 149v19h24v-19
q0 -98 -26.5 -179t-64.5 -141t-101 -140q-86 -111 -127 -190t-41 -185q0 -133 90 -214t235 -81q94 0 198 49t179 127l17 -18q-86 -90 -205 -145.5z" />
    <glyph glyph-name="Agrave" unicode="&#xc0;" horiz-adv-x="1421" 
d="M944 1642l-545 193l13 33l542 -197zM1024 444h-748l-180 -444h-43l635 1556h27l653 -1556h-160zM1010 477l-365 873l-354 -873h719z" />
    <glyph glyph-name="Aacute" unicode="&#xc1;" horiz-adv-x="1421" 
d="M457 1642l-11 29l543 197l12 -33zM1024 444h-748l-180 -444h-43l635 1556h27l653 -1556h-160zM1010 477l-365 873l-354 -873h719z" />
    <glyph glyph-name="Acircumflex" unicode="&#xc2;" horiz-adv-x="1421" 
d="M385 1624l-14 16l329 242l330 -242l-14 -16l-316 205zM1024 444h-748l-180 -444h-43l635 1556h27l653 -1556h-160zM1010 477l-365 873l-354 -873h719z" />
    <glyph glyph-name="Atilde" unicode="&#xc3;" horiz-adv-x="1421" 
d="M461 1796q-39 -33 -68 -100l-20 10q59 156 188 156q45 0 79 -19.5t77 -58.5q37 -33 66.5 -50.5t64.5 -17.5q51 0 88 34t68 101l22 -12q-25 -68 -71 -112t-117 -44q-45 0 -79 19.5t-77 58.5q-41 35 -68.5 51.5t-62.5 16.5q-51 0 -90 -33zM1024 444h-748l-180 -444h-43
l635 1556h27l653 -1556h-160zM1010 477l-365 873l-354 -873h719z" />
    <glyph glyph-name="Adieresis" unicode="&#xc4;" horiz-adv-x="1421" 
d="M561.5 1698.5q-22.5 -21.5 -59.5 -21.5t-59.5 21.5t-22.5 56.5q0 37 22.5 58.5t59.5 21.5t59.5 -21.5t22.5 -58.5q0 -35 -22.5 -56.5zM960.5 1698.5q-22.5 -21.5 -61.5 -21.5q-37 0 -59.5 21.5t-22.5 56.5q0 37 22.5 58.5t59.5 21.5q39 0 61.5 -21.5t22.5 -58.5
q0 -35 -22.5 -56.5zM1024 444h-748l-180 -444h-43l635 1556h27l653 -1556h-160zM1010 477l-365 873l-354 -873h719z" />
    <glyph glyph-name="Aring" unicode="&#xc5;" horiz-adv-x="1421" 
d="M845 1675q-54 -51 -143 -51q-90 0 -143 51t-53 135t54 134.5t142 50.5t142.5 -51.5t54.5 -133.5q0 -84 -54 -135zM590 1699q43 -42 112 -42q70 0 113 42t43 111q0 68 -43 110t-113 42t-112.5 -42t-42.5 -110q0 -69 43 -111zM1024 444h-748l-180 -444h-43l635 1556h27
l653 -1556h-160zM1010 477l-365 873l-354 -873h719z" />
    <glyph glyph-name="AE" unicode="&#xc6;" horiz-adv-x="1888" 
d="M1792 33v-33h-768l-63 485h-664l-256 -485h-45l815 1536h965v-33h-793l90 -672h610v-32h-606l103 -766h612zM954 520l-127 965l-512 -965h639z" />
    <glyph glyph-name="Ccedilla" unicode="&#xc7;" horiz-adv-x="1472" 
d="M1177.5 43q-147.5 -61 -298.5 -63l-41 -111q113 -4 181 -46t68 -108q0 -84 -106.5 -135t-278.5 -51l5 20q121 0 194.5 45.5t73.5 118.5q0 53 -51.5 88t-135.5 39l48 140q-211 6 -372 106t-249 276.5t-88 405.5q0 233 92 412.5t260 277.5t385 98q150 0 295.5 -55
t235.5 -149l-17 -17q-82 80 -213 128t-262 48q-180 0 -318.5 -93t-215 -261t-76.5 -389t76.5 -389t215 -261t320.5 -93q133 0 271.5 55t224.5 145l16 -24q-92 -97 -239.5 -158z" />
    <glyph glyph-name="Egrave" unicode="&#xc8;" horiz-adv-x="1083" 
d="M846 1642l-545 193l12 33l543 -197zM987 33v-33h-766v1536h750v-33h-596v-674h504v-32h-504v-764h612z" />
    <glyph glyph-name="Eacute" unicode="&#xc9;" horiz-adv-x="1083" 
d="M358 1642l-10 29l543 197l12 -33zM987 33v-33h-766v1536h750v-33h-596v-674h504v-32h-504v-764h612z" />
    <glyph glyph-name="Ecircumflex" unicode="&#xca;" horiz-adv-x="1083" 
d="M287 1624l-15 16l330 242l330 -242l-14 -16l-316 205zM987 33v-33h-766v1536h750v-33h-596v-674h504v-32h-504v-764h612z" />
    <glyph glyph-name="Edieresis" unicode="&#xcb;" horiz-adv-x="1083" 
d="M460.5 1698.5q-22.5 -21.5 -59.5 -21.5t-59.5 21.5t-22.5 56.5q0 37 23 58.5t59 21.5q37 0 59.5 -21.5t22.5 -58.5q0 -35 -22.5 -56.5zM860.5 1698.5q-22.5 -21.5 -61.5 -21.5q-37 0 -59.5 21.5t-22.5 56.5q0 37 22.5 58.5t59.5 21.5q39 0 61.5 -21.5t22.5 -58.5
q0 -35 -22.5 -56.5zM987 33v-33h-766v1536h750v-33h-596v-674h504v-32h-504v-764h612z" />
    <glyph glyph-name="Igrave" unicode="&#xcc;" horiz-adv-x="595" 
d="M477 1640l-475 170l12 31l473 -172zM221 0v1536h154v-1536h-154z" />
    <glyph glyph-name="Iacute" unicode="&#xcd;" horiz-adv-x="595" 
d="M119 1640l-10 29l471 172l12 -31zM221 0v1536h154v-1536h-154z" />
    <glyph glyph-name="Icircumflex" unicode="&#xce;" horiz-adv-x="595" 
d="M63 1624l-14 16l250 242l250 -242l-14 -16l-236 203zM221 0v1536h154v-1536h-154z" />
    <glyph glyph-name="Idieresis" unicode="&#xcf;" horiz-adv-x="595" 
d="M223.5 1698.5q-22.5 -21.5 -59.5 -21.5t-59.5 21.5t-22.5 56.5q0 37 22.5 58.5t59.5 21.5t59.5 -21.5t22.5 -58.5q0 -35 -22.5 -56.5zM491.5 1698.5q-22.5 -21.5 -59.5 -21.5q-39 0 -60.5 21.5t-21.5 56.5q0 37 21.5 58.5t60.5 21.5q37 0 59.5 -21.5t22.5 -58.5
q0 -35 -22.5 -56.5zM221 0v1536h154v-1536h-154z" />
    <glyph glyph-name="Eth" unicode="&#xd0;" horiz-adv-x="1673" 
d="M1157 1439.5q186 -96.5 288.5 -270.5t102.5 -401t-102.5 -401t-288.5 -270.5t-428 -96.5h-493v799h-177v32h177v705h493q242 0 428 -96.5zM1060.5 125q153.5 92 237.5 259t84 384t-84 384t-237.5 259t-353.5 92h-318v-672h408v-32h-408v-766h318q200 0 353.5 92z" />
    <glyph glyph-name="Ntilde" unicode="&#xd1;" horiz-adv-x="1519" 
d="M532.5 1796q-38.5 -33 -67.5 -100l-21 10q59 156 189 156q45 0 78.5 -19.5t76.5 -58.5q37 -33 67 -50.5t65 -17.5q51 0 87.5 34t67.5 101l23 -12q-25 -68 -71 -112t-118 -44q-45 0 -78.5 19.5t-76.5 58.5q-41 35 -69 51.5t-62 16.5q-52 0 -90.5 -33zM221 0v1556h29
l1007 -1337v1317h41v-1556h-26l-1010 1335v-1315h-41z" />
    <glyph glyph-name="Ograve" unicode="&#xd2;" horiz-adv-x="1804" 
d="M1145 1642l-545 193l12 33l543 -197zM1581 355.5q-96 -179.5 -272 -277.5t-408 -98q-229 0 -405.5 98t-273.5 277.5t-97 412.5t97 412.5t273.5 277.5t405.5 98q231 0 407.5 -98t272.5 -277.5t96 -412.5t-96 -412.5zM366.5 373q75.5 -172 214 -266.5t320.5 -94.5
t320.5 94.5t214 266.5t75.5 395t-75.5 395t-214 266.5t-320.5 94.5t-320.5 -94.5t-214 -266.5t-75.5 -395t75.5 -395z" />
    <glyph glyph-name="Oacute" unicode="&#xd3;" horiz-adv-x="1804" 
d="M657 1642l-10 29l543 197l12 -33zM1581 355.5q-96 -179.5 -272 -277.5t-408 -98q-229 0 -405.5 98t-273.5 277.5t-97 412.5t97 412.5t273.5 277.5t405.5 98q231 0 407.5 -98t272.5 -277.5t96 -412.5t-96 -412.5zM366.5 373q75.5 -172 214 -266.5t320.5 -94.5t320.5 94.5
t214 266.5t75.5 395t-75.5 395t-214 266.5t-320.5 94.5t-320.5 -94.5t-214 -266.5t-75.5 -395t75.5 -395z" />
    <glyph glyph-name="Ocircumflex" unicode="&#xd4;" horiz-adv-x="1804" 
d="M586 1624l-15 16l330 242l330 -242l-14 -16l-316 205zM1581 355.5q-96 -179.5 -272 -277.5t-408 -98q-229 0 -405.5 98t-273.5 277.5t-97 412.5t97 412.5t273.5 277.5t405.5 98q231 0 407.5 -98t272.5 -277.5t96 -412.5t-96 -412.5zM366.5 373q75.5 -172 214 -266.5
t320.5 -94.5t320.5 94.5t214 266.5t75.5 395t-75.5 395t-214 266.5t-320.5 94.5t-320.5 -94.5t-214 -266.5t-75.5 -395t75.5 -395z" />
    <glyph glyph-name="Otilde" unicode="&#xd5;" horiz-adv-x="1804" 
d="M663.5 1796q-38.5 -33 -67.5 -100l-21 10q59 156 189 156q45 0 79 -19.5t77 -58.5q37 -33 66.5 -50.5t64.5 -17.5q51 0 88 34t67 101l23 -12q-25 -68 -71 -112t-118 -44q-45 0 -78.5 19.5t-76.5 58.5q-41 35 -69 51.5t-62 16.5q-52 0 -90.5 -33zM1581 355.5
q-96 -179.5 -272 -277.5t-408 -98q-229 0 -405.5 98t-273.5 277.5t-97 412.5t97 412.5t273.5 277.5t405.5 98q231 0 407.5 -98t272.5 -277.5t96 -412.5t-96 -412.5zM366.5 373q75.5 -172 214 -266.5t320.5 -94.5t320.5 94.5t214 266.5t75.5 395t-75.5 395t-214 266.5
t-320.5 94.5t-320.5 -94.5t-214 -266.5t-75.5 -395t75.5 -395z" />
    <glyph glyph-name="Odieresis" unicode="&#xd6;" horiz-adv-x="1804" 
d="M761.5 1698.5q-22.5 -21.5 -59.5 -21.5t-59 21.5t-22 56.5q0 37 22.5 58.5t58.5 21.5q37 0 59.5 -21.5t22.5 -58.5q0 -35 -22.5 -56.5zM1161.5 1698.5q-22.5 -21.5 -61.5 -21.5q-37 0 -59.5 21.5t-22.5 56.5q0 37 22.5 58.5t59.5 21.5q39 0 61.5 -21.5t22.5 -58.5
q0 -35 -22.5 -56.5zM1581 355.5q-96 -179.5 -272 -277.5t-408 -98q-229 0 -405.5 98t-273.5 277.5t-97 412.5t97 412.5t273.5 277.5t405.5 98q231 0 407.5 -98t272.5 -277.5t96 -412.5t-96 -412.5zM366.5 373q75.5 -172 214 -266.5t320.5 -94.5t320.5 94.5t214 266.5
t75.5 395t-75.5 395t-214 266.5t-320.5 94.5t-320.5 -94.5t-214 -266.5t-75.5 -395t75.5 -395z" />
    <glyph glyph-name="multiply" unicode="&#xd7;" horiz-adv-x="970" 
d="M754 281l-267 264l-272 -273l-29 29l273 272l-266 267l28 30l268 -266l256 256l29 -29l-256 -256l264 -266z" />
    <glyph glyph-name="Oslash" unicode="&#xd8;" horiz-adv-x="1804" 
d="M1599.5 1143q77.5 -166 77.5 -375q0 -233 -96 -412.5t-272 -277.5t-408 -98q-252 0 -440 118l-131 -186l-33 22l131 187q-145 102 -224 269t-79 378q0 233 97 412.5t273.5 277.5t405.5 98q256 0 447 -120l127 182l32 -23l-127 -182q142 -104 219.5 -270zM340 443.5
q49 -146.5 139 -246.5l819 1169q-78 76 -179 117t-218 41q-182 0 -320.5 -94.5t-214 -266.5t-75.5 -395q0 -178 49 -324.5zM1221.5 106.5q138.5 94.5 214 266.5t75.5 395q0 176 -48 322.5t-136 246.5l-819 -1171q160 -154 393 -154q182 0 320.5 94.5z" />
    <glyph glyph-name="Ugrave" unicode="&#xd9;" horiz-adv-x="1505" 
d="M1044 1642l-544 193l12 33l543 -197zM1234.5 247q-65.5 -128 -185 -197.5t-279.5 -69.5q-168 0 -296 72.5t-199.5 203.5t-71.5 303v977h153v-999q0 -154 53.5 -272t151.5 -182.5t225 -64.5q141 0 249 64.5t166.5 182.5t58.5 272v999h40v-995q0 -166 -65.5 -294z" />
    <glyph glyph-name="Uacute" unicode="&#xda;" horiz-adv-x="1505" 
d="M555 1642l-10 29l542 197l13 -33zM1234.5 247q-65.5 -128 -185 -197.5t-279.5 -69.5q-168 0 -296 72.5t-199.5 203.5t-71.5 303v977h153v-999q0 -154 53.5 -272t151.5 -182.5t225 -64.5q141 0 249 64.5t166.5 182.5t58.5 272v999h40v-995q0 -166 -65.5 -294z" />
    <glyph glyph-name="Ucircumflex" unicode="&#xdb;" horiz-adv-x="1505" 
d="M483 1624l-14 16l330 242l329 -242l-14 -16l-315 205zM1234.5 247q-65.5 -128 -185 -197.5t-279.5 -69.5q-168 0 -296 72.5t-199.5 203.5t-71.5 303v977h153v-999q0 -154 53.5 -272t151.5 -182.5t225 -64.5q141 0 249 64.5t166.5 182.5t58.5 272v999h40v-995
q0 -166 -65.5 -294z" />
    <glyph glyph-name="Udieresis" unicode="&#xdc;" horiz-adv-x="1505" 
d="M659.5 1698.5q-22.5 -21.5 -59.5 -21.5t-59.5 21.5t-22.5 56.5q0 37 22.5 58.5t59.5 21.5t59.5 -21.5t22.5 -58.5q0 -35 -22.5 -56.5zM1058.5 1698.5q-22.5 -21.5 -61.5 -21.5q-37 0 -59.5 21.5t-22.5 56.5q0 37 23 58.5t59 21.5q39 0 61.5 -21.5t22.5 -58.5
q0 -35 -22.5 -56.5zM1234.5 247q-65.5 -128 -185 -197.5t-279.5 -69.5q-168 0 -296 72.5t-199.5 203.5t-71.5 303v977h153v-999q0 -154 53.5 -272t151.5 -182.5t225 -64.5q141 0 249 64.5t166.5 182.5t58.5 272v999h40v-995q0 -166 -65.5 -294z" />
    <glyph glyph-name="Yacute" unicode="&#xdd;" horiz-adv-x="1413" 
d="M502 1642l-10 29l542 197l13 -33zM797 686v-686h-154v682l-573 854h178l530 -803l510 803h47z" />
    <glyph glyph-name="Thorn" unicode="&#xde;" horiz-adv-x="1243" 
d="M876.5 1183.5q122.5 -53.5 190.5 -148.5t68 -220q0 -127 -68 -223t-190.5 -149.5t-284.5 -53.5h-217v-389h-154v1536h154v-299h217q162 0 284.5 -53.5zM859.5 530.5q109.5 108.5 109.5 284.5q0 174 -109.5 281.5t-288.5 107.5h-196v-782h196q179 0 288.5 108.5z" />
    <glyph glyph-name="germandbls" unicode="&#xdf;" horiz-adv-x="1249" 
d="M1084.5 61.5q-97.5 -81.5 -253.5 -81.5q-88 0 -164.5 26.5t-127.5 75.5l10 16q41 -35 107.5 -56.5t131.5 -21.5q109 0 172.5 61.5t63.5 164.5q0 88 -43 144t-129 124q-90 70 -136 130.5t-46 158.5q0 76 29.5 132t88.5 130t88 128t29 126q0 115 -76.5 186.5t-203.5 71.5
q-135 0 -217 -80t-82 -211v-1286h-148v1266q0 104 52.5 184t145.5 124t214 44q166 0 263 -81t97 -214q0 -68 -22.5 -121t-65.5 -123q-39 -68 -58.5 -111.5t-19.5 -99.5q0 -84 46.5 -139t140.5 -127q68 -51 110.5 -91t71.5 -97.5t29 -130.5q0 -140 -97.5 -221.5z" />
    <glyph glyph-name="agrave" unicode="&#xe0;" horiz-adv-x="1157" 
d="M768 1257l-414 240l17 29l411 -242zM875.5 1016q113.5 -98 113.5 -268v-748h-125l-14 260q-66 -127 -182.5 -203.5t-243.5 -76.5q-156 0 -250 87t-94 228q0 137 121 219t321 82h320v158q0 152 -85 236.5t-235 84.5q-92 0 -186 -37t-166 -100l-14 14q78 76 186.5 119
t222.5 43q197 0 310.5 -98zM681 106.5q101 77.5 161 202.5v254h-295q-139 0 -225 -72.5t-86 -191.5q0 -123 65.5 -196.5t173.5 -73.5q105 0 206 77.5z" />
    <glyph glyph-name="aacute" unicode="&#xe1;" horiz-adv-x="1157" 
d="M414 1257l-15 27l410 242l16 -29zM875.5 1016q113.5 -98 113.5 -268v-748h-125l-14 260q-66 -127 -182.5 -203.5t-243.5 -76.5q-156 0 -250 87t-94 228q0 137 121 219t321 82h320v158q0 152 -85 236.5t-235 84.5q-92 0 -186 -37t-166 -100l-14 14q78 76 186.5 119
t222.5 43q197 0 310.5 -98zM681 106.5q101 77.5 161 202.5v254h-295q-139 0 -225 -72.5t-86 -191.5q0 -123 65.5 -196.5t173.5 -73.5q105 0 206 77.5z" />
    <glyph glyph-name="acircumflex" unicode="&#xe2;" horiz-adv-x="1157" 
d="M319 1255l-14 17l285 262l287 -262l-15 -17l-272 224zM875.5 1016q113.5 -98 113.5 -268v-748h-125l-14 260q-66 -127 -182.5 -203.5t-243.5 -76.5q-156 0 -250 87t-94 228q0 137 121 219t321 82h320v158q0 152 -85 236.5t-235 84.5q-92 0 -186 -37t-166 -100l-14 14
q78 76 186.5 119t222.5 43q197 0 310.5 -98zM681 106.5q101 77.5 161 202.5v254h-295q-139 0 -225 -72.5t-86 -191.5q0 -123 65.5 -196.5t173.5 -73.5q105 0 206 77.5z" />
    <glyph glyph-name="atilde" unicode="&#xe3;" horiz-adv-x="1157" 
d="M350 1421.5q-39 -32.5 -67 -100.5l-21 10q61 156 189 156q45 0 78.5 -19.5t76.5 -58.5q37 -33 66.5 -50.5t64.5 -17.5q51 0 88 33t68 101l22 -11q-25 -68 -70.5 -111.5t-117.5 -43.5q-45 0 -79 19.5t-77 57.5q-41 35 -68.5 51.5t-62.5 16.5q-51 0 -90 -32.5zM875.5 1016
q113.5 -98 113.5 -268v-748h-125l-14 260q-66 -127 -182.5 -203.5t-243.5 -76.5q-156 0 -250 87t-94 228q0 137 121 219t321 82h320v158q0 152 -85 236.5t-235 84.5q-92 0 -186 -37t-166 -100l-14 14q78 76 186.5 119t222.5 43q197 0 310.5 -98zM681 106.5
q101 77.5 161 202.5v254h-295q-139 0 -225 -72.5t-86 -191.5q0 -123 65.5 -196.5t173.5 -73.5q105 0 206 77.5z" />
    <glyph glyph-name="adieresis" unicode="&#xe4;" horiz-adv-x="1157" 
d="M448.5 1411.5q-22.5 -22.5 -59.5 -22.5t-59.5 22.5t-22.5 56.5q0 35 22.5 56.5t59.5 21.5t59.5 -21.5t22.5 -56.5q0 -34 -22.5 -56.5zM847.5 1411.5q-22.5 -22.5 -61.5 -22.5q-37 0 -59 22.5t-22 56.5q0 35 22.5 56.5t58.5 21.5q39 0 61.5 -21.5t22.5 -56.5
q0 -34 -22.5 -56.5zM875.5 1016q113.5 -98 113.5 -268v-748h-125l-14 260q-66 -127 -182.5 -203.5t-243.5 -76.5q-156 0 -250 87t-94 228q0 137 121 219t321 82h320v158q0 152 -85 236.5t-235 84.5q-92 0 -186 -37t-166 -100l-14 14q78 76 186.5 119t222.5 43
q197 0 310.5 -98zM681 106.5q101 77.5 161 202.5v254h-295q-139 0 -225 -72.5t-86 -191.5q0 -123 65.5 -196.5t173.5 -73.5q105 0 206 77.5z" />
    <glyph glyph-name="aring" unicode="&#xe5;" horiz-adv-x="1157" 
d="M732 1284q-54 -51 -142 -51t-142.5 50t-54.5 134t53.5 135.5t143.5 51.5q88 0 142 -51.5t54 -135.5q0 -82 -54 -133zM476 1307q42 -41 114 -41q70 0 112.5 41t42.5 110q0 70 -43 112t-112 42q-70 0 -113 -42t-43 -112q0 -69 42 -110zM875.5 1016q113.5 -98 113.5 -268
v-748h-125l-14 260q-66 -127 -182.5 -203.5t-243.5 -76.5q-156 0 -250 87t-94 228q0 137 121 219t321 82h320v158q0 152 -85 236.5t-235 84.5q-92 0 -186 -37t-166 -100l-14 14q78 76 186.5 119t222.5 43q197 0 310.5 -98zM681 106.5q101 77.5 161 202.5v254h-295
q-139 0 -225 -72.5t-86 -191.5q0 -123 65.5 -196.5t173.5 -73.5q105 0 206 77.5z" />
    <glyph glyph-name="ae" unicode="&#xe6;" horiz-adv-x="1925" 
d="M1001 567v-20q0 -156 51.5 -275.5t143.5 -185.5t211 -66q92 0 189.5 35t164.5 95l13 -17q-72 -70 -184.5 -111.5t-225.5 -41.5q-172 0 -296 90t-179 247q-72 -156 -198 -246.5t-267 -90.5q-156 0 -250 86t-94 225t117.5 224t310.5 85h346v152q0 152 -87 237.5t-241 85.5
q-94 0 -189 -37t-167 -100l-14 14q76 76 187.5 119t225.5 43q150 0 250.5 -62.5t134.5 -177.5q61 115 166 177.5t240 62.5q143 0 251.5 -67.5t168 -190.5t59.5 -285v-4h-838zM1182 1022q-78 -59 -125 -169t-53 -253h679q0 143 -39.5 252t-113.5 169t-170 60q-100 0 -178 -59
zM698.5 119q108.5 90 178.5 241q-23 86 -23 185v22h-322q-133 0 -214.5 -74.5t-81.5 -199.5q0 -119 66.5 -191.5t172.5 -72.5q115 0 223.5 90z" />
    <glyph glyph-name="ccedilla" unicode="&#xe7;" horiz-adv-x="1034" 
d="M610 -20l-39 -111q115 -4 182.5 -46t67.5 -108q0 -84 -105.5 -135t-279.5 -51l4 20q121 0 195 45.5t74 118.5q0 53 -50.5 88t-134.5 39l47 142q-139 8 -244.5 81.5t-163 198.5t-57.5 287q0 168 63.5 296t178.5 198.5t264 70.5q96 0 188.5 -36t145.5 -95l-12 -18
q-51 49 -127 79.5t-152 30.5q-117 0 -206 -65.5t-138 -185t-49 -275.5q0 -158 49 -277.5t139.5 -185.5t208.5 -66q76 0 157 35t140 92l17 -16q-63 -70 -160.5 -110.5t-200.5 -40.5h-2z" />
    <glyph glyph-name="egrave" unicode="&#xe8;" horiz-adv-x="1187" 
d="M786 1257l-413 240l16 29l412 -242zM262 571v-24q0 -156 50 -275.5t142.5 -185.5t213.5 -66q92 0 190 35t166 95l12 -17q-72 -70 -184.5 -111.5t-224.5 -41.5q-156 0 -273.5 70.5t-182.5 199.5t-65 297t65 297t181.5 199.5t270.5 70.5q141 0 249.5 -67.5t169 -189.5
t60.5 -279v-7h-840zM373.5 951q-97.5 -130 -109.5 -347h682q0 141 -41 250t-113.5 168t-168.5 59q-152 0 -249.5 -130z" />
    <glyph glyph-name="eacute" unicode="&#xe9;" horiz-adv-x="1187" 
d="M430 1257l-14 27l409 242l17 -29zM262 571v-24q0 -156 50 -275.5t142.5 -185.5t213.5 -66q92 0 190 35t166 95l12 -17q-72 -70 -184.5 -111.5t-224.5 -41.5q-156 0 -273.5 70.5t-182.5 199.5t-65 297t65 297t181.5 199.5t270.5 70.5q141 0 249.5 -67.5t169 -189.5
t60.5 -279v-7h-840zM373.5 951q-97.5 -130 -109.5 -347h682q0 141 -41 250t-113.5 168t-168.5 59q-152 0 -249.5 -130z" />
    <glyph glyph-name="ecircumflex" unicode="&#xea;" horiz-adv-x="1187" 
d="M336 1255l-14 17l284 262l287 -262l-14 -17l-273 224zM262 571v-24q0 -156 50 -275.5t142.5 -185.5t213.5 -66q92 0 190 35t166 95l12 -17q-72 -70 -184.5 -111.5t-224.5 -41.5q-156 0 -273.5 70.5t-182.5 199.5t-65 297t65 297t181.5 199.5t270.5 70.5
q141 0 249.5 -67.5t169 -189.5t60.5 -279v-7h-840zM373.5 951q-97.5 -130 -109.5 -347h682q0 141 -41 250t-113.5 168t-168.5 59q-152 0 -249.5 -130z" />
    <glyph glyph-name="edieresis" unicode="&#xeb;" horiz-adv-x="1187" 
d="M466.5 1411.5q-22.5 -22.5 -58.5 -22.5q-37 0 -59.5 22.5t-22.5 56.5q0 35 22.5 56.5t59.5 21.5t59 -21.5t22 -56.5q0 -34 -22.5 -56.5zM866.5 1411.5q-22.5 -22.5 -61.5 -22.5q-37 0 -59.5 22.5t-22.5 56.5q0 35 22.5 56.5t59.5 21.5q39 0 61.5 -21.5t22.5 -56.5
q0 -34 -22.5 -56.5zM262 571v-24q0 -156 50 -275.5t142.5 -185.5t213.5 -66q92 0 190 35t166 95l12 -17q-72 -70 -184.5 -111.5t-224.5 -41.5q-156 0 -273.5 70.5t-182.5 199.5t-65 297t65 297t181.5 199.5t270.5 70.5q141 0 249.5 -67.5t169 -189.5t60.5 -279v-7h-840z
M373.5 951q-97.5 -130 -109.5 -347h682q0 141 -41 250t-113.5 168t-168.5 59q-152 0 -249.5 -130z" />
    <glyph glyph-name="igrave" unicode="&#xec;" horiz-adv-x="503" 
d="M418 1262l-361 233l17 27l360 -236zM178 0v1094h148v-1094h-148z" />
    <glyph glyph-name="iacute" unicode="&#xed;" horiz-adv-x="503" 
d="M88 1262l-14 24l358 236l17 -27zM178 0v1094h148v-1094h-148z" />
    <glyph glyph-name="icircumflex" unicode="&#xee;" horiz-adv-x="503" 
d="M10 1255l-14 17l256 262l256 -262l-14 -17l-242 222zM178 0v1094h148v-1094h-148z" />
    <glyph glyph-name="idieresis" unicode="&#xef;" horiz-adv-x="503" 
d="M178.5 1411.5q-22.5 -22.5 -59.5 -22.5t-59.5 22.5t-22.5 56.5q0 35 22.5 56.5t59.5 21.5t59.5 -21.5t22.5 -56.5q0 -34 -22.5 -56.5zM446.5 1411.5q-22.5 -22.5 -59.5 -22.5q-39 0 -60.5 22.5t-21.5 56.5q0 35 21.5 56.5t60.5 21.5q37 0 59.5 -21.5t22.5 -56.5
q0 -34 -22.5 -56.5zM178 0v1094h148v-1094h-148z" />
    <glyph glyph-name="eth" unicode="&#xf0;" horiz-adv-x="1284" 
d="M1048.5 1141q114.5 -223 114.5 -514q0 -193 -65.5 -339.5t-185 -227t-277.5 -80.5t-277.5 70.5t-185.5 197.5t-66 295q0 166 65 293t181.5 197.5t270.5 70.5q135 0 237.5 -67.5t157.5 -192.5q-39 203 -131 359.5t-228 254.5l-366 -172l-14 33l346 162q-172 109 -385 114
l2 23q254 -4 446 -109l232 109l14 -33l-207 -96q207 -125 321.5 -348zM829 78.5q84 66.5 130.5 186.5t46.5 278q0 156 -46.5 275.5t-130.5 185t-194 65.5q-111 0 -196 -65.5t-131 -185.5t-46 -275q0 -158 46 -278t131 -186.5t196 -66.5q110 0 194 66.5z" />
    <glyph glyph-name="ntilde" unicode="&#xf1;" horiz-adv-x="1251" 
d="M387 1421.5q-39 -32.5 -68 -100.5l-20 10q61 156 188 156q45 0 79 -19.5t77 -58.5q37 -33 66.5 -50.5t64.5 -17.5q51 0 88 33t68 101l22 -11q-25 -68 -70.5 -111.5t-117.5 -43.5q-45 0 -79 19.5t-77 57.5q-41 35 -68.5 51.5t-62.5 16.5q-51 0 -90 -32.5zM994 1024
q89 -90 89 -238v-786h-147v813q0 115 -61.5 184.5t-161.5 69.5q-115 0 -221.5 -81t-165.5 -212v-774h-148v1094h125l14 -271q66 133 186 212t257 79q145 0 234 -90z" />
    <glyph glyph-name="ograve" unicode="&#xf2;" horiz-adv-x="1271" 
d="M815 1257l-414 240l17 29l411 -242zM1098.5 250q-66.5 -129 -186 -199.5t-277.5 -70.5q-156 0 -275.5 70.5t-186.5 199.5t-67 297t67 297t186.5 199.5t275.5 70.5q158 0 277.5 -70.5t186 -199.5t66.5 -297t-66.5 -297zM308 267q46 -122 131 -188.5t196 -66.5t195.5 66.5
t132 188.5t47.5 280t-47.5 279.5t-132.5 188t-195 66.5q-111 0 -196 -66.5t-131 -188t-46 -279.5t46 -280z" />
    <glyph glyph-name="oacute" unicode="&#xf3;" horiz-adv-x="1271" 
d="M459 1257l-15 27l410 242l16 -29zM1098.5 250q-66.5 -129 -186 -199.5t-277.5 -70.5q-156 0 -275.5 70.5t-186.5 199.5t-67 297t67 297t186.5 199.5t275.5 70.5q158 0 277.5 -70.5t186 -199.5t66.5 -297t-66.5 -297zM308 267q46 -122 131 -188.5t196 -66.5t195.5 66.5
t132 188.5t47.5 280t-47.5 279.5t-132.5 188t-195 66.5q-111 0 -196 -66.5t-131 -188t-46 -279.5t46 -280z" />
    <glyph glyph-name="ocircumflex" unicode="&#xf4;" horiz-adv-x="1271" 
d="M365 1255l-15 17l285 262l287 -262l-15 -17l-272 224zM1098.5 250q-66.5 -129 -186 -199.5t-277.5 -70.5q-156 0 -275.5 70.5t-186.5 199.5t-67 297t67 297t186.5 199.5t275.5 70.5q158 0 277.5 -70.5t186 -199.5t66.5 -297t-66.5 -297zM308 267q46 -122 131 -188.5
t196 -66.5t195.5 66.5t132 188.5t47.5 280t-47.5 279.5t-132.5 188t-195 66.5q-111 0 -196 -66.5t-131 -188t-46 -279.5t46 -280z" />
    <glyph glyph-name="otilde" unicode="&#xf5;" horiz-adv-x="1271" 
d="M395 1421.5q-39 -32.5 -67 -100.5l-21 10q61 156 189 156q45 0 78.5 -19.5t76.5 -58.5q37 -33 67 -50.5t64 -17.5q51 0 88 33t68 101l23 -11q-25 -68 -71 -111.5t-118 -43.5q-45 0 -79 19.5t-77 57.5q-41 35 -68.5 51.5t-62.5 16.5q-51 0 -90 -32.5zM1098.5 250
q-66.5 -129 -186 -199.5t-277.5 -70.5q-156 0 -275.5 70.5t-186.5 199.5t-67 297t67 297t186.5 199.5t275.5 70.5q158 0 277.5 -70.5t186 -199.5t66.5 -297t-66.5 -297zM308 267q46 -122 131 -188.5t196 -66.5t195.5 66.5t132 188.5t47.5 280t-47.5 279.5t-132.5 188
t-195 66.5q-111 0 -196 -66.5t-131 -188t-46 -279.5t46 -280z" />
    <glyph glyph-name="odieresis" unicode="&#xf6;" horiz-adv-x="1271" 
d="M495.5 1411.5q-22.5 -22.5 -59.5 -22.5t-59.5 22.5t-22.5 56.5q0 35 22.5 56.5t59.5 21.5t59.5 -21.5t22.5 -56.5q0 -34 -22.5 -56.5zM895 1411.5q-23 -22.5 -61 -22.5q-37 0 -59.5 22.5t-22.5 56.5q0 35 22.5 56.5t59.5 21.5q39 0 61.5 -21.5t22.5 -56.5
q0 -34 -23 -56.5zM1098.5 250q-66.5 -129 -186 -199.5t-277.5 -70.5q-156 0 -275.5 70.5t-186.5 199.5t-67 297t67 297t186.5 199.5t275.5 70.5q158 0 277.5 -70.5t186 -199.5t66.5 -297t-66.5 -297zM308 267q46 -122 131 -188.5t196 -66.5t195.5 66.5t132 188.5t47.5 280
t-47.5 279.5t-132.5 188t-195 66.5q-111 0 -196 -66.5t-131 -188t-46 -279.5t46 -280z" />
    <glyph glyph-name="divide" unicode="&#xf7;" horiz-adv-x="970" 
d="M547.5 775.5q-23.5 -23.5 -62.5 -23.5t-62.5 23.5t-23.5 62.5t23.5 63.5t62.5 24.5t62.5 -24.5t23.5 -63.5t-23.5 -62.5zM127 557v33h717v-33h-717zM547.5 245.5q-23.5 -24.5 -62.5 -24.5t-62.5 24.5t-23.5 63.5t23.5 63.5t62.5 24.5t62.5 -24.5t23.5 -63.5t-23.5 -63.5z
" />
    <glyph glyph-name="oslash" unicode="&#xf8;" horiz-adv-x="1271" 
d="M1116 806q49 -116 49 -259q0 -168 -66.5 -297t-186 -199.5t-277.5 -70.5q-184 0 -318 98l-104 -148l-29 21l107 147q-88 76 -136.5 190.5t-48.5 258.5q0 168 67 297t186.5 199.5t275.5 70.5q184 0 315 -96l105 145l28 -22l-104 -146q88 -73 137 -189zM350 182l549 764
q-102 135 -264 135q-111 0 -196 -66.5t-131 -188t-46 -279.5q0 -218 88 -365zM830 78.5q85 66.5 132.5 188.5t47.5 280q0 221 -90 366l-549 -761q104 -139 264 -140q110 0 195 66.5z" />
    <glyph glyph-name="ugrave" unicode="&#xf9;" horiz-adv-x="1230" 
d="M786 1257l-413 240l16 29l412 -242zM1053 1094v-1094h-125l-15 260q-63 -127 -180 -203.5t-252 -76.5q-141 0 -227 87t-86 230v797h147v-824q0 -111 58.5 -177t154.5 -66q113 0 216.5 77.5t160.5 204.5v785h148z" />
    <glyph glyph-name="uacute" unicode="&#xfa;" horiz-adv-x="1230" 
d="M430 1257l-14 27l409 242l17 -29zM1053 1094v-1094h-125l-15 260q-63 -127 -180 -203.5t-252 -76.5q-141 0 -227 87t-86 230v797h147v-824q0 -111 58.5 -177t154.5 -66q113 0 216.5 77.5t160.5 204.5v785h148z" />
    <glyph glyph-name="ucircumflex" unicode="&#xfb;" horiz-adv-x="1230" 
d="M336 1255l-14 17l284 262l287 -262l-14 -17l-273 224zM1053 1094v-1094h-125l-15 260q-63 -127 -180 -203.5t-252 -76.5q-141 0 -227 87t-86 230v797h147v-824q0 -111 58.5 -177t154.5 -66q113 0 216.5 77.5t160.5 204.5v785h148z" />
    <glyph glyph-name="udieresis" unicode="&#xfc;" horiz-adv-x="1230" 
d="M466.5 1411.5q-22.5 -22.5 -58.5 -22.5q-37 0 -59.5 22.5t-22.5 56.5q0 35 22.5 56.5t59.5 21.5t59 -21.5t22 -56.5q0 -34 -22.5 -56.5zM866.5 1411.5q-22.5 -22.5 -61.5 -22.5q-37 0 -59.5 22.5t-22.5 56.5q0 35 22.5 56.5t59.5 21.5q39 0 61.5 -21.5t22.5 -56.5
q0 -34 -22.5 -56.5zM1053 1094v-1094h-125l-15 260q-63 -127 -180 -203.5t-252 -76.5q-141 0 -227 87t-86 230v797h147v-824q0 -111 58.5 -177t154.5 -66q113 0 216.5 77.5t160.5 204.5v785h148z" />
    <glyph glyph-name="yacute" unicode="&#xfd;" horiz-adv-x="1097" 
d="M414 1257l-15 27l410 242l16 -29zM1057 1094l-668 -1549h-41l189 437l-492 1112h162l407 -932l402 932h41z" />
    <glyph glyph-name="thorn" unicode="&#xfe;" horiz-adv-x="1271" 
d="M944.5 1043.5q104.5 -70.5 161.5 -199.5t57 -297t-57 -297t-161.5 -199.5t-242.5 -70.5q-125 0 -227 70.5t-149 189.5v-691h-148v2048h148v-745q49 119 151.5 190.5t224.5 71.5q138 0 242.5 -70.5zM845 90.5q77 65.5 120 183t43 273.5t-43 273.5t-120 183t-179 65.5
q-111 0 -204 -81t-136 -212v-459q43 -131 136 -211.5t204 -80.5q102 0 179 65.5z" />
    <glyph glyph-name="ydieresis" unicode="&#xff;" horiz-adv-x="1097" 
d="M450.5 1411.5q-22.5 -22.5 -59.5 -22.5t-59.5 22.5t-22.5 56.5q0 35 22.5 56.5t59.5 21.5t59.5 -21.5t22.5 -56.5q0 -34 -22.5 -56.5zM849.5 1411.5q-22.5 -22.5 -61.5 -22.5q-37 0 -59 22.5t-22 56.5q0 35 22.5 56.5t58.5 21.5q39 0 61.5 -21.5t22.5 -56.5
q0 -34 -22.5 -56.5zM1057 1094l-668 -1549h-41l189 437l-492 1112h162l407 -932l402 932h41z" />
    <glyph glyph-name="Amacron" unicode="&#x100;" horiz-adv-x="1421" 
d="M418 1677v33h567v-33h-567zM1024 444h-748l-180 -444h-43l635 1556h27l653 -1556h-160zM1010 477l-365 873l-354 -873h719z" />
    <glyph glyph-name="amacron" unicode="&#x101;" horiz-adv-x="1157" 
d="M305 1374v33h567v-33h-567zM875.5 1016q113.5 -98 113.5 -268v-748h-125l-14 260q-66 -127 -182.5 -203.5t-243.5 -76.5q-156 0 -250 87t-94 228q0 137 121 219t321 82h320v158q0 152 -85 236.5t-235 84.5q-92 0 -186 -37t-166 -100l-14 14q78 76 186.5 119t222.5 43
q197 0 310.5 -98zM681 106.5q101 77.5 161 202.5v254h-295q-139 0 -225 -72.5t-86 -191.5q0 -123 65.5 -196.5t173.5 -73.5q105 0 206 77.5z" />
    <glyph glyph-name="Abreve" unicode="&#x102;" horiz-adv-x="1421" 
d="M888 1735.5q-87 -58.5 -188 -58.5q-100 0 -186 58.5t-127 154.5l21 11q47 -84 127.5 -135.5t164.5 -51.5q86 0 167 51.5t126 135.5l23 -11q-41 -96 -128 -154.5zM1024 444h-748l-180 -444h-43l635 1556h27l653 -1556h-160zM1010 477l-365 873l-354 -873h719z" />
    <glyph glyph-name="abreve" unicode="&#x103;" horiz-adv-x="1157" 
d="M750.5 1340.5q-74.5 -60.5 -162.5 -60.5q-86 0 -162 60.5t-111 158.5l21 10q39 -86 107.5 -139t144.5 -53t145.5 53t108.5 139l20 -10q-37 -98 -111.5 -158.5zM875.5 1016q113.5 -98 113.5 -268v-748h-125l-14 260q-66 -127 -182.5 -203.5t-243.5 -76.5q-156 0 -250 87
t-94 228q0 137 121 219t321 82h320v158q0 152 -85 236.5t-235 84.5q-92 0 -186 -37t-166 -100l-14 14q78 76 186.5 119t222.5 43q197 0 310.5 -98zM681 106.5q101 77.5 161 202.5v254h-295q-139 0 -225 -72.5t-86 -191.5q0 -123 65.5 -196.5t173.5 -73.5q105 0 206 77.5z
" />
    <glyph glyph-name="Aogonek" unicode="&#x104;" horiz-adv-x="1421" 
d="M1382 -430q-31 -18 -75.5 -29.5t-89.5 -11.5q-90 0 -145.5 46t-55.5 122q0 88 79 169t212 134h-99l-184 444h-748l-180 -444h-43l635 1556h27l653 -1556q-109 -53 -174.5 -134t-65.5 -161q0 -61 37 -98t99 -37q66 0 110 20zM1010 477l-365 873l-354 -873h719z" />
    <glyph glyph-name="aogonek" unicode="&#x105;" horiz-adv-x="1157" 
d="M1004 -430q-31 -18 -76 -29.5t-88 -11.5q-92 0 -147.5 46t-55.5 122q0 88 79 169t212 134h-64l-14 260q-66 -127 -182.5 -203.5t-243.5 -76.5q-156 0 -250 87t-94 228q0 137 121 219t321 82h320v158q0 152 -85 236.5t-235 84.5q-92 0 -186 -37t-166 -100l-14 14
q78 76 186.5 119t222.5 43q197 0 310.5 -98t113.5 -268v-748q-109 -53 -174 -134t-65 -161q0 -61 36.5 -98t98.5 -37q66 0 112 20zM681 106.5q101 77.5 161 202.5v254h-295q-139 0 -225 -72.5t-86 -191.5q0 -123 65.5 -196.5t173.5 -73.5q105 0 206 77.5z" />
    <glyph glyph-name="Cacute" unicode="&#x106;" horiz-adv-x="1472" 
d="M621 1642l-11 29l543 197l12 -33zM1170.5 41q-152.5 -61 -306.5 -61q-217 0 -385 98t-260 277.5t-92 412.5t92 412.5t260 277.5t385 98q150 0 295.5 -55t235.5 -149l-17 -17q-82 80 -213 128t-262 48q-180 0 -318.5 -93t-215 -261t-76.5 -389t76.5 -389t215 -261
t320.5 -93q133 0 271.5 55t224.5 145l16 -24q-94 -99 -246.5 -160z" />
    <glyph glyph-name="cacute" unicode="&#x107;" horiz-adv-x="1034" 
d="M426 1257l-14 27l409 242l17 -29zM812 20.5q-97 -40.5 -200 -40.5q-150 0 -264.5 70.5t-178 199.5t-63.5 299q0 168 63.5 296t178.5 198.5t264 70.5q96 0 188.5 -36t145.5 -95l-12 -18q-51 49 -127 79.5t-152 30.5q-117 0 -206 -65.5t-138 -185t-49 -275.5
q0 -158 49 -277.5t139.5 -185.5t208.5 -66q76 0 157 35t140 92l17 -16q-64 -70 -161 -110.5z" />
    <glyph glyph-name="Cdotaccent" unicode="&#x10a;" horiz-adv-x="1472" 
d="M931.5 1696.5q-26.5 -25.5 -69.5 -25.5t-69.5 25.5t-26.5 68.5q0 41 26.5 67t69.5 26t69.5 -26t26.5 -67q0 -43 -26.5 -68.5zM1170.5 41q-152.5 -61 -306.5 -61q-217 0 -385 98t-260 277.5t-92 412.5t92 412.5t260 277.5t385 98q150 0 295.5 -55t235.5 -149l-17 -17
q-82 80 -213 128t-262 48q-180 0 -318.5 -93t-215 -261t-76.5 -389t76.5 -389t215 -261t320.5 -93q133 0 271.5 55t224.5 145l16 -24q-94 -99 -246.5 -160z" />
    <glyph glyph-name="cdotaccent" unicode="&#x10b;" horiz-adv-x="1034" 
d="M668.5 1396.5q-25.5 -24.5 -68.5 -24.5q-41 0 -67.5 24.5t-26.5 65.5t26.5 66.5t67.5 25.5q43 0 68.5 -25.5t25.5 -66.5t-25.5 -65.5zM812 20.5q-97 -40.5 -200 -40.5q-150 0 -264.5 70.5t-178 199.5t-63.5 299q0 168 63.5 296t178.5 198.5t264 70.5q96 0 188.5 -36
t145.5 -95l-12 -18q-51 49 -127 79.5t-152 30.5q-117 0 -206 -65.5t-138 -185t-49 -275.5q0 -158 49 -277.5t139.5 -185.5t208.5 -66q76 0 157 35t140 92l17 -16q-64 -70 -161 -110.5z" />
    <glyph glyph-name="Ccaron" unicode="&#x10c;" horiz-adv-x="1472" 
d="M1180 1882l14 -16l-330 -242l-329 242l14 16l315 -203zM1170.5 41q-152.5 -61 -306.5 -61q-217 0 -385 98t-260 277.5t-92 412.5t92 412.5t260 277.5t385 98q150 0 295.5 -55t235.5 -149l-17 -17q-82 80 -213 128t-262 48q-180 0 -318.5 -93t-215 -261t-76.5 -389
t76.5 -389t215 -261t320.5 -93q133 0 271.5 55t224.5 145l16 -24q-94 -99 -246.5 -160z" />
    <glyph glyph-name="ccaron" unicode="&#x10d;" horiz-adv-x="1034" 
d="M877 1534l14 -16l-287 -263l-285 263l15 16l270 -225zM812 20.5q-97 -40.5 -200 -40.5q-150 0 -264.5 70.5t-178 199.5t-63.5 299q0 168 63.5 296t178.5 198.5t264 70.5q96 0 188.5 -36t145.5 -95l-12 -18q-51 49 -127 79.5t-152 30.5q-117 0 -206 -65.5t-138 -185
t-49 -275.5q0 -158 49 -277.5t139.5 -185.5t208.5 -66q76 0 157 35t140 92l17 -16q-64 -70 -161 -110.5z" />
    <glyph glyph-name="Dcaron" unicode="&#x10e;" horiz-adv-x="1658" 
d="M1051 1882l14 -16l-330 -242l-329 242l14 16l315 -203zM1142.5 1439.5q186.5 -96.5 289 -270.5t102.5 -401t-102.5 -401t-289 -270.5t-427.5 -96.5h-494v1536h494q241 0 427.5 -96.5zM1046.5 125q153.5 92 237.5 259t84 384t-84 384t-237.5 259t-354.5 92h-317v-1470h317
q201 0 354.5 92z" />
    <glyph glyph-name="dcaron" unicode="&#x10f;" horiz-adv-x="1271" 
d="M1341 1597l-98 -417l-29 8l95 418zM944 1597h148v-1597h-123l-15 266q-45 -131 -150.5 -208.5t-236.5 -77.5q-137 0 -241.5 70.5t-162 199.5t-57.5 297t57.5 297t162 199.5t241.5 70.5q125 0 227.5 -70.5t149.5 -187.5v741zM808 105.5q93 80.5 136 211.5v459
q-41 131 -134 212t-204 81q-102 0 -180 -65.5t-121 -183.5t-43 -273q0 -156 43 -273.5t121 -183t180 -65.5q109 0 202 80.5z" />
    <glyph glyph-name="Dcroat" unicode="&#x110;" horiz-adv-x="1673" 
d="M1157 1439.5q186 -96.5 288.5 -270.5t102.5 -401t-102.5 -401t-288.5 -270.5t-428 -96.5h-493v799h-177v32h177v705h493q242 0 428 -96.5zM1060.5 125q153.5 92 237.5 259t84 384t-84 384t-237.5 259t-353.5 92h-318v-672h408v-32h-408v-766h318q200 0 353.5 92z" />
    <glyph glyph-name="dcroat" unicode="&#x111;" horiz-adv-x="1271" 
d="M1270 1329h-178v-1329h-123l-15 266q-45 -131 -150.5 -208.5t-236.5 -77.5q-137 0 -241.5 70.5t-162 199.5t-57.5 297t57.5 297t162 199.5t241.5 70.5q125 0 227.5 -70.5t149.5 -187.5v473h-412v33h412v235h148v-235h178v-33zM808 105.5q93 80.5 136 211.5v459
q-41 131 -134 212t-204 81q-102 0 -180 -65.5t-121 -183.5t-43 -273q0 -156 43 -273.5t121 -183t180 -65.5q109 0 202 80.5z" />
    <glyph glyph-name="Emacron" unicode="&#x112;" horiz-adv-x="1083" 
d="M317 1677v33h568v-33h-568zM987 33v-33h-766v1536h750v-33h-596v-674h504v-32h-504v-764h612z" />
    <glyph glyph-name="emacron" unicode="&#x113;" horiz-adv-x="1187" 
d="M324 1374v33h567v-33h-567zM262 571v-24q0 -156 50 -275.5t142.5 -185.5t213.5 -66q92 0 190 35t166 95l12 -17q-72 -70 -184.5 -111.5t-224.5 -41.5q-156 0 -273.5 70.5t-182.5 199.5t-65 297t65 297t181.5 199.5t270.5 70.5q141 0 249.5 -67.5t169 -189.5t60.5 -279v-7
h-840zM373.5 951q-97.5 -130 -109.5 -347h682q0 141 -41 250t-113.5 168t-168.5 59q-152 0 -249.5 -130z" />
    <glyph glyph-name="Edotaccent" unicode="&#x116;" horiz-adv-x="1083" 
d="M669.5 1696.5q-26.5 -25.5 -69.5 -25.5t-69.5 25.5t-26.5 68.5q0 41 26.5 67t69.5 26t69.5 -26t26.5 -67q0 -43 -26.5 -68.5zM987 33v-33h-766v1536h750v-33h-596v-674h504v-32h-504v-764h612z" />
    <glyph glyph-name="edotaccent" unicode="&#x117;" horiz-adv-x="1187" 
d="M672.5 1396.5q-25.5 -24.5 -68.5 -24.5q-41 0 -67.5 24.5t-26.5 65.5t26.5 66.5t67.5 25.5q43 0 68.5 -25.5t25.5 -66.5t-25.5 -65.5zM262 571v-24q0 -156 50 -275.5t142.5 -185.5t213.5 -66q92 0 190 35t166 95l12 -17q-72 -70 -184.5 -111.5t-224.5 -41.5
q-156 0 -273.5 70.5t-182.5 199.5t-65 297t65 297t181.5 199.5t270.5 70.5q141 0 249.5 -67.5t169 -189.5t60.5 -279v-7h-840zM373.5 951q-97.5 -130 -109.5 -347h682q0 141 -41 250t-113.5 168t-168.5 59q-152 0 -249.5 -130z" />
    <glyph glyph-name="Eogonek" unicode="&#x118;" horiz-adv-x="1083" 
d="M999 -430q-31 -18 -75.5 -29.5t-87.5 -11.5q-90 0 -146.5 46t-56.5 122q0 88 79 169t214 134h-705v1536h750v-33h-596v-674h504v-32h-504v-764h612v-33q-109 -53 -174 -134t-65 -161q0 -61 36.5 -98t96.5 -37q66 0 112 20z" />
    <glyph glyph-name="eogonek" unicode="&#x119;" horiz-adv-x="1187" 
d="M262 571v-24q0 -156 50 -275.5t142.5 -185.5t213.5 -66q92 0 190 35t166 95l12 -17q-57 -55 -151 -98h2q-135 -78 -206 -162t-71 -162q0 -66 36 -104.5t95 -38.5q68 0 117 22l6 -20q-31 -18 -76 -29.5t-88 -11.5q-90 0 -146 46t-56 122q0 80 69.5 156.5t196.5 142.5
q-72 -16 -137 -16q-156 0 -273.5 70.5t-182.5 199.5t-65 297t65 297t181.5 199.5t270.5 70.5q141 0 249.5 -67.5t169 -189.5t60.5 -279v-7h-840zM373.5 951q-97.5 -130 -109.5 -347h682q0 141 -41 250t-113.5 168t-168.5 59q-152 0 -249.5 -130z" />
    <glyph glyph-name="Ecaron" unicode="&#x11a;" horiz-adv-x="1083" 
d="M918 1882l14 -16l-330 -242l-330 242l15 16l315 -203zM987 33v-33h-766v1536h750v-33h-596v-674h504v-32h-504v-764h612z" />
    <glyph glyph-name="ecaron" unicode="&#x11b;" horiz-adv-x="1187" 
d="M881 1534l14 -16l-287 -263l-284 263l14 16l270 -225zM262 571v-24q0 -156 50 -275.5t142.5 -185.5t213.5 -66q92 0 190 35t166 95l12 -17q-72 -70 -184.5 -111.5t-224.5 -41.5q-156 0 -273.5 70.5t-182.5 199.5t-65 297t65 297t181.5 199.5t270.5 70.5
q141 0 249.5 -67.5t169 -189.5t60.5 -279v-7h-840zM373.5 951q-97.5 -130 -109.5 -347h682q0 141 -41 250t-113.5 168t-168.5 59q-152 0 -249.5 -130z" />
    <glyph glyph-name="Gbreve" unicode="&#x11e;" horiz-adv-x="1607" 
d="M1050 1735.5q-87 -58.5 -188 -58.5q-100 0 -186 58.5t-127 154.5l20 11q47 -84 128 -135.5t165 -51.5q86 0 167 51.5t126 135.5l23 -11q-41 -96 -128 -154.5zM1466 815v-620q-100 -96 -267 -155.5t-335 -59.5q-217 0 -385 98t-260 277.5t-92 412.5t92 412.5t260 277.5
t385 98q160 0 312.5 -58t244.5 -155l-14 -16q-88 84 -227.5 134t-276.5 50q-180 0 -318.5 -93t-215 -261t-76.5 -389t76.5 -389t215 -261t320.5 -93q100 0 208 25.5t200 72.5v692h153z" />
    <glyph glyph-name="gbreve" unicode="&#x11f;" horiz-adv-x="1271" 
d="M810 1340.5q-75 -60.5 -163 -60.5q-86 0 -161.5 60.5t-110.5 158.5l20 10q39 -86 107.5 -139t144.5 -53t145.5 53t108.5 139l21 -10q-37 -98 -112 -158.5zM1092 1094v-1082q0 -143 -69 -252.5t-193.5 -170t-288.5 -60.5q-94 0 -196.5 37t-172.5 96l16 19
q63 -51 155.5 -83t178.5 -32q125 0 221.5 53t148.5 150.5t52 222.5v248q-49 -119 -151.5 -189.5t-225.5 -70.5q-137 0 -241.5 70.5t-162 199.5t-57.5 297t57.5 297t162 199.5t241.5 70.5q133 0 238.5 -78t148.5 -207l15 265h123zM808 105.5q93 80.5 136 211.5v459
q-41 131 -134 212t-204 81q-102 0 -180 -65.5t-121 -183.5t-43 -273q0 -156 43 -273.5t121 -183t180 -65.5q109 0 202 80.5z" />
    <glyph glyph-name="Gdotaccent" unicode="&#x120;" horiz-adv-x="1607" 
d="M931.5 1696.5q-26.5 -25.5 -69.5 -25.5t-69.5 25.5t-26.5 68.5q0 41 26.5 67t69.5 26t69.5 -26t26.5 -67q0 -43 -26.5 -68.5zM1466 815v-620q-100 -96 -267 -155.5t-335 -59.5q-217 0 -385 98t-260 277.5t-92 412.5t92 412.5t260 277.5t385 98q160 0 312.5 -58
t244.5 -155l-14 -16q-88 84 -227.5 134t-276.5 50q-180 0 -318.5 -93t-215 -261t-76.5 -389t76.5 -389t215 -261t320.5 -93q100 0 208 25.5t200 72.5v692h153z" />
    <glyph glyph-name="gdotaccent" unicode="&#x121;" horiz-adv-x="1271" 
d="M713.5 1396.5q-25.5 -24.5 -68.5 -24.5q-41 0 -67.5 24.5t-26.5 65.5t26.5 66.5t67.5 25.5q43 0 68.5 -25.5t25.5 -66.5t-25.5 -65.5zM1092 1094v-1082q0 -143 -69 -252.5t-193.5 -170t-288.5 -60.5q-94 0 -196.5 37t-172.5 96l16 19q63 -51 155.5 -83t178.5 -32
q125 0 221.5 53t148.5 150.5t52 222.5v248q-49 -119 -151.5 -189.5t-225.5 -70.5q-137 0 -241.5 70.5t-162 199.5t-57.5 297t57.5 297t162 199.5t241.5 70.5q133 0 238.5 -78t148.5 -207l15 265h123zM808 105.5q93 80.5 136 211.5v459q-41 131 -134 212t-204 81
q-102 0 -180 -65.5t-121 -183.5t-43 -273q0 -156 43 -273.5t121 -183t180 -65.5q109 0 202 80.5z" />
    <glyph glyph-name="uni0122" unicode="&#x122;" horiz-adv-x="1607" 
d="M934 -156.5q27 -31.5 27 -95.5q0 -76 -43.5 -143.5t-112.5 -102.5l-14 21q57 35 95 91t40 116q-25 -25 -70 -25q-39 0 -63.5 22.5t-24.5 61.5t25.5 62.5t68.5 23.5q45 0 72 -31.5zM1466 815v-620q-100 -96 -267 -155.5t-335 -59.5q-217 0 -385 98t-260 277.5t-92 412.5
t92 412.5t260 277.5t385 98q160 0 312.5 -58t244.5 -155l-14 -16q-88 84 -227.5 134t-276.5 50q-180 0 -318.5 -93t-215 -261t-76.5 -389t76.5 -389t215 -261t320.5 -93q100 0 208 25.5t200 72.5v692h153z" />
    <glyph glyph-name="uni0123" unicode="&#x123;" horiz-adv-x="1271" 
d="M713.5 1392.5q23.5 -26.5 23.5 -69.5t-25.5 -68.5t-68.5 -25.5q-45 0 -71.5 35.5t-26.5 103.5q0 102 44 195.5t113 142.5l15 -23q-57 -47 -94 -128.5t-41 -165.5q27 31 69 30q39 0 62.5 -26.5zM1092 1094v-1082q0 -143 -69 -252.5t-193.5 -170t-288.5 -60.5
q-94 0 -196.5 37t-172.5 96l16 19q63 -51 155.5 -83t178.5 -32q125 0 221.5 53t148.5 150.5t52 222.5v248q-49 -119 -151.5 -189.5t-225.5 -70.5q-137 0 -241.5 70.5t-162 199.5t-57.5 297t57.5 297t162 199.5t241.5 70.5q133 0 238.5 -78t148.5 -207l15 265h123zM808 105.5
q93 80.5 136 211.5v459q-41 131 -134 212t-204 81q-102 0 -180 -65.5t-121 -183.5t-43 -273q0 -156 43 -273.5t121 -183t180 -65.5q109 0 202 80.5z" />
    <glyph glyph-name="Hbar" unicode="&#x126;" horiz-adv-x="1521" 
d="M1438 1192h-138v-1192h-153v797h-772v-797h-154v1192h-135v33h135v311h154v-311h772v311h153v-311h138v-33zM1147 1192h-772v-363h772v363z" />
    <glyph glyph-name="hbar" unicode="&#x127;" horiz-adv-x="1251" 
d="M994 1024q89 -90 89 -238v-786h-147v813q0 115 -61.5 184.5t-161.5 69.5q-115 0 -221.5 -81t-165.5 -212v-774h-148v1329h-196v33h196v235h148v-235h393v-33h-393v-489q66 125 183.5 199.5t250.5 74.5q145 0 234 -90z" />
    <glyph glyph-name="Imacron" unicode="&#x12a;" horiz-adv-x="595" 
d="M111 1677v33h372v-33h-372zM221 0v1536h154v-1536h-154z" />
    <glyph glyph-name="imacron" unicode="&#x12b;" horiz-adv-x="503" 
d="M66 1374v33h372v-33h-372zM178 0v1094h148v-1094h-148z" />
    <glyph glyph-name="Iogonek" unicode="&#x12e;" horiz-adv-x="595" 
d="M389 -430q-31 -18 -76 -29.5t-88 -11.5q-92 0 -147 46t-55 122q0 88 78.5 169t211.5 134h-92v1536h154v-1536q-109 -53 -174.5 -134t-65.5 -161q0 -61 37 -98t98 -37q66 0 111 20z" />
    <glyph glyph-name="iogonek" unicode="&#x12f;" horiz-adv-x="503" 
d="M182.5 1396.5q-26.5 24.5 -26.5 65.5t26.5 66.5t67.5 25.5q43 0 68.5 -25.5t25.5 -66.5t-25.5 -65.5t-68.5 -24.5q-41 0 -67.5 24.5zM334 -410l6 -20q-31 -18 -76 -29.5t-88 -11.5q-92 0 -147.5 46t-55.5 122q0 88 79 170t214 133h-88v1094h148v-1094
q-109 -53 -174.5 -134t-65.5 -161q0 -61 37 -98t98 -37q66 0 113 20z" />
    <glyph glyph-name="Idotaccent" unicode="&#x130;" horiz-adv-x="595" 
d="M366.5 1696.5q-26.5 -25.5 -69.5 -25.5t-69.5 25.5t-26.5 68.5q0 41 26.5 67t69.5 26t69.5 -26t26.5 -67q0 -43 -26.5 -68.5zM221 0v1536h154v-1536h-154z" />
    <glyph glyph-name="dotlessi" unicode="&#x131;" horiz-adv-x="503" 
d="M178 0v1094h148v-1094h-148z" />
    <glyph glyph-name="uni0136" unicode="&#x136;" horiz-adv-x="1306" 
d="M774.5 -156.5q26.5 -31.5 26.5 -95.5q0 -76 -43 -143.5t-113 -102.5l-14 21q57 35 95 91t40 116q-25 -25 -70 -25q-39 0 -63.5 22.5t-24.5 61.5t25.5 62.5t68.5 23.5q46 0 72.5 -31.5zM221 1536h154v-1536h-154v1536zM1303 0h-187l-692 809l737 727h56l-660 -651z" />
    <glyph glyph-name="uni0137" unicode="&#x137;" horiz-adv-x="1081" 
d="M651.5 -156.5q26.5 -31.5 26.5 -95.5q0 -76 -43 -143.5t-113 -102.5l-14 21q57 35 95 91t40 116q-25 -25 -70 -25q-39 0 -63.5 22.5t-24.5 61.5t26 62.5t69 23.5q45 0 71.5 -31.5zM178 1597h148v-1597h-148v1597zM1073 0h-174l-526 604l579 490h54l-502 -422z" />
    <glyph glyph-name="Lacute" unicode="&#x139;" horiz-adv-x="1038" 
d="M92 1642l-10 29l543 197l12 -33zM997 33v-33h-776v1536h154v-1503h622z" />
    <glyph glyph-name="lacute" unicode="&#x13a;" horiz-adv-x="503" 
d="M72 1702l-11 29l471 172l13 -31zM178 0v1597h148v-1597h-148z" />
    <glyph glyph-name="uni013B" unicode="&#x13b;" horiz-adv-x="1038" 
d="M684 -156.5q27 -31.5 27 -95.5q0 -76 -43 -143.5t-113 -102.5l-14 21q57 35 95 91t40 116q-25 -25 -70 -25q-39 0 -63.5 22.5t-24.5 61.5t25.5 62.5t68.5 23.5q45 0 72 -31.5zM997 33v-33h-776v1536h154v-1503h622z" />
    <glyph glyph-name="uni013C" unicode="&#x13c;" horiz-adv-x="503" 
d="M321.5 -156.5q26.5 -31.5 26.5 -95.5q0 -76 -43 -143.5t-112 -102.5l-15 21q57 35 95 91t40 116q-25 -25 -69 -25q-39 0 -63.5 22.5t-24.5 61.5t25.5 62.5t68.5 23.5q45 0 71.5 -31.5zM178 0v1597h148v-1597h-148z" />
    <glyph glyph-name="Lcaron" unicode="&#x13d;" horiz-adv-x="1044" 
d="M770 1180l-29 8l93 418l34 -9zM997 33v-33h-776v1536h154v-1503h622z" />
    <glyph glyph-name="lcaron" unicode="&#x13e;" horiz-adv-x="503" 
d="M477 1180l-28 8l94 418l32 -9zM178 0v1597h148v-1597h-148z" />
    <glyph glyph-name="Lslash" unicode="&#x141;" horiz-adv-x="1081" 
d="M1036 33v-33h-776v748l-162 -111l-20 29l182 125v745h154v-662l342 240l18 -29l-360 -251v-801h622z" />
    <glyph glyph-name="lslash" unicode="&#x142;" horiz-adv-x="595" 
d="M377 965v-965h-148v881l-157 -109l-21 29l178 123v673h148v-589l155 106l21 -29z" />
    <glyph glyph-name="Nacute" unicode="&#x143;" horiz-adv-x="1519" 
d="M526 1642l-10 29l543 197l12 -33zM221 0v1556h29l1007 -1337v1317h41v-1556h-26l-1010 1335v-1315h-41z" />
    <glyph glyph-name="nacute" unicode="&#x144;" horiz-adv-x="1251" 
d="M451 1257l-15 27l410 242l16 -29zM994 1024q89 -90 89 -238v-786h-147v813q0 115 -61.5 184.5t-161.5 69.5q-115 0 -221.5 -81t-165.5 -212v-774h-148v1094h125l14 -271q66 133 186 212t257 79q145 0 234 -90z" />
    <glyph glyph-name="uni0145" unicode="&#x145;" horiz-adv-x="1519" 
d="M831.5 -156.5q26.5 -31.5 26.5 -95.5q0 -76 -43 -143.5t-113 -102.5l-14 21q57 35 95 91t40 116q-25 -25 -69 -25q-39 0 -63.5 22.5t-24.5 61.5t25.5 62.5t68.5 23.5q45 0 71.5 -31.5zM221 0v1556h29l1007 -1337v1317h41v-1556h-26l-1010 1335v-1315h-41z" />
    <glyph glyph-name="uni0146" unicode="&#x146;" horiz-adv-x="1251" 
d="M696.5 -156.5q26.5 -31.5 26.5 -95.5q0 -76 -43 -143.5t-113 -102.5l-14 21q57 35 95 91t40 116q-25 -25 -70 -25q-39 0 -63.5 22.5t-24.5 61.5t26 62.5t69 23.5q45 0 71.5 -31.5zM994 1024q89 -90 89 -238v-786h-147v813q0 115 -61.5 184.5t-161.5 69.5
q-115 0 -221.5 -81t-165.5 -212v-774h-148v1094h125l14 -271q66 133 186 212t257 79q145 0 234 -90z" />
    <glyph glyph-name="Ncaron" unicode="&#x147;" horiz-adv-x="1519" 
d="M1085 1882l15 -16l-330 -242l-330 242l15 16l315 -203zM221 0v1556h29l1007 -1337v1317h41v-1556h-26l-1010 1335v-1315h-41z" />
    <glyph glyph-name="ncaron" unicode="&#x148;" horiz-adv-x="1251" 
d="M899 1534l14 -16l-286 -263l-285 263l14 16l271 -225zM994 1024q89 -90 89 -238v-786h-147v813q0 115 -61.5 184.5t-161.5 69.5q-115 0 -221.5 -81t-165.5 -212v-774h-148v1094h125l14 -271q66 133 186 212t257 79q145 0 234 -90z" />
    <glyph glyph-name="Eng" unicode="&#x14a;" horiz-adv-x="1519" 
d="M1298 1536v-1528q0 -131 -56 -211t-167 -143l-10 20q96 57 144 130t48 192l-995 1319v-1315h-41v1556h29l1007 -1337v1317h41z" />
    <glyph glyph-name="eng" unicode="&#x14b;" horiz-adv-x="1251" 
d="M994 1024q89 -90 89 -238v-817q0 -170 -73.5 -271t-210.5 -169l-11 20q147 109 148 381v883q0 115 -61.5 184.5t-161.5 69.5q-115 0 -221.5 -81t-165.5 -212v-774h-148v1094h129l10 -269q66 131 186 210t257 79q145 0 234 -90z" />
    <glyph glyph-name="Omacron" unicode="&#x14c;" horiz-adv-x="1804" 
d="M618 1677v33h568v-33h-568zM1581 355.5q-96 -179.5 -272 -277.5t-408 -98q-229 0 -405.5 98t-273.5 277.5t-97 412.5t97 412.5t273.5 277.5t405.5 98q231 0 407.5 -98t272.5 -277.5t96 -412.5t-96 -412.5zM366.5 373q75.5 -172 214 -266.5t320.5 -94.5t320.5 94.5
t214 266.5t75.5 395t-75.5 395t-214 266.5t-320.5 94.5t-320.5 -94.5t-214 -266.5t-75.5 -395t75.5 -395z" />
    <glyph glyph-name="omacron" unicode="&#x14d;" horiz-adv-x="1271" 
d="M352 1374v33h568v-33h-568zM1098.5 250q-66.5 -129 -186 -199.5t-277.5 -70.5q-156 0 -275.5 70.5t-186.5 199.5t-67 297t67 297t186.5 199.5t275.5 70.5q158 0 277.5 -70.5t186 -199.5t66.5 -297t-66.5 -297zM308 267q46 -122 131 -188.5t196 -66.5t195.5 66.5
t132 188.5t47.5 280t-47.5 279.5t-132.5 188t-195 66.5q-111 0 -196 -66.5t-131 -188t-46 -279.5t46 -280z" />
    <glyph glyph-name="Ohungarumlaut" unicode="&#x150;" horiz-adv-x="1804" 
d="M1026 1991l21 -29l-478 -328l-16 25zM1446 1991l20 -29l-475 -328l-18 25zM1581 355.5q-96 -179.5 -272 -277.5t-408 -98q-229 0 -405.5 98t-273.5 277.5t-97 412.5t97 412.5t273.5 277.5t405.5 98q231 0 407.5 -98t272.5 -277.5t96 -412.5t-96 -412.5zM366.5 373
q75.5 -172 214 -266.5t320.5 -94.5t320.5 94.5t214 266.5t75.5 395t-75.5 395t-214 266.5t-320.5 94.5t-320.5 -94.5t-214 -266.5t-75.5 -395t75.5 -395z" />
    <glyph glyph-name="ohungarumlaut" unicode="&#x151;" horiz-adv-x="1271" 
d="M731 1589l23 -22l-338 -338l-21 22zM1094 1589l22 -22l-336 -338l-22 22zM1098.5 250q-66.5 -129 -186 -199.5t-277.5 -70.5q-156 0 -275.5 70.5t-186.5 199.5t-67 297t67 297t186.5 199.5t275.5 70.5q158 0 277.5 -70.5t186 -199.5t66.5 -297t-66.5 -297zM308 267
q46 -122 131 -188.5t196 -66.5t195.5 66.5t132 188.5t47.5 280t-47.5 279.5t-132.5 188t-195 66.5q-111 0 -196 -66.5t-131 -188t-46 -279.5t46 -280z" />
    <glyph glyph-name="OE" unicode="&#x152;" horiz-adv-x="2164" 
d="M2068 33v-33h-765v125q-88 -68 -199 -106.5t-219 -38.5q-225 0 -397.5 98t-266.5 277.5t-94 412.5t94 412.5t266 277.5t398 98q113 0 223.5 -39.5t194.5 -109.5v129h749v-33h-596v-674h504v-32h-504v-764h612zM1124.5 61.5q100.5 36.5 178.5 102.5v1208
q-74 63 -175.5 101t-203.5 38q-188 0 -330.5 -92t-221.5 -261t-79 -390t79 -389t222 -261t332 -93q98 0 198.5 36.5z" />
    <glyph glyph-name="oe" unicode="&#x153;" horiz-adv-x="2088" 
d="M1165 567v-20q0 -156 51.5 -275.5t143.5 -185.5t211 -66q92 0 190.5 35t165.5 95l12 -17q-72 -70 -184.5 -111.5t-224.5 -41.5q-158 0 -273.5 85t-169.5 234q-55 -152 -172.5 -235.5t-279.5 -83.5q-156 0 -275.5 70.5t-186.5 199.5t-67 297t67 297t186.5 199.5
t275.5 70.5q162 0 279.5 -84t172.5 -233q53 150 167 233.5t270 83.5q143 0 251.5 -67.5t169 -190.5t60.5 -285v-4h-840zM830 78.5q85 66.5 132.5 188.5t47.5 280t-47.5 279.5t-132.5 188t-195 66.5q-109 0 -194 -66.5t-132 -188t-47 -279.5t47 -280t132 -188.5t194 -66.5
q110 0 195 66.5zM1345.5 1022q-77.5 -59 -124.5 -169t-54 -253h682q0 143 -40 252t-114.5 169t-170.5 60q-101 0 -178.5 -59z" />
    <glyph glyph-name="Racute" unicode="&#x154;" horiz-adv-x="1288" 
d="M371 1642l-11 29l543 197l12 -33zM1247 0h-186l-682 729h-4v-729h-154v1536h389q156 0 275 -50t184.5 -140.5t65.5 -208.5q0 -121 -65.5 -214.5t-184.5 -143.5t-275 -50h-49zM588 762q170 0 275.5 103.5t105.5 271.5q0 164 -105.5 265t-275.5 101h-213v-741h213z" />
    <glyph glyph-name="racute" unicode="&#x155;" horiz-adv-x="798" 
d="M293 1257l-14 27l409 242l17 -29zM493.5 1008q116.5 86 258.5 86v-33q-141 0 -258 -93.5t-168 -244.5v-723h-148v1094h125l14 -316q60 144 176.5 230z" />
    <glyph glyph-name="uni0156" unicode="&#x156;" horiz-adv-x="1288" 
d="M755.5 -156.5q26.5 -31.5 26.5 -95.5q0 -76 -43 -143.5t-112 -102.5l-15 21q57 35 95 91t41 116q-25 -25 -70 -25q-39 0 -63.5 22.5t-24.5 61.5t25.5 62.5t68.5 23.5q45 0 71.5 -31.5zM1247 0h-186l-682 729h-4v-729h-154v1536h389q156 0 275 -50t184.5 -140.5
t65.5 -208.5q0 -121 -65.5 -214.5t-184.5 -143.5t-275 -50h-49zM588 762q170 0 275.5 103.5t105.5 271.5q0 164 -105.5 265t-275.5 101h-213v-741h213z" />
    <glyph glyph-name="uni0157" unicode="&#x157;" horiz-adv-x="798" 
d="M321.5 -156.5q26.5 -31.5 26.5 -95.5q0 -76 -43 -143.5t-112 -102.5l-15 21q57 35 95 91t40 116q-25 -25 -69 -25q-39 0 -63.5 22.5t-24.5 61.5t25.5 62.5t68.5 23.5q45 0 71.5 -31.5zM493.5 1008q116.5 86 258.5 86v-33q-141 0 -258 -93.5t-168 -244.5v-723h-148v1094
h125l14 -316q60 144 176.5 230z" />
    <glyph glyph-name="Rcaron" unicode="&#x158;" horiz-adv-x="1288" 
d="M932 1882l14 -16l-330 -242l-329 242l14 16l315 -203zM1247 0h-186l-682 729h-4v-729h-154v1536h389q156 0 275 -50t184.5 -140.5t65.5 -208.5q0 -121 -65.5 -214.5t-184.5 -143.5t-275 -50h-49zM588 762q170 0 275.5 103.5t105.5 271.5q0 164 -105.5 265t-275.5 101
h-213v-741h213z" />
    <glyph glyph-name="rcaron" unicode="&#x159;" horiz-adv-x="798" 
d="M743 1534l15 -16l-287 -263l-285 263l15 16l270 -225zM493.5 1008q116.5 86 258.5 86v-33q-141 0 -258 -93.5t-168 -244.5v-723h-148v1094h125l14 -316q60 144 176.5 230z" />
    <glyph glyph-name="Sacute" unicode="&#x15a;" horiz-adv-x="1120" 
d="M315 1642l-10 29l543 197l12 -33zM958.5 178q-59.5 -96 -165 -147t-236.5 -51q-143 0 -267 60t-202 163l21 20q70 -90 181 -145t228 -55q154 0 249 92t95 243q0 104 -47 177t-115.5 119t-187.5 106q-119 61 -190.5 110.5t-120.5 126t-49 187.5q0 170 110.5 271t286.5 101
q117 0 222.5 -46t178.5 -126l-16 -18q-66 66 -159 106.5t-183 40.5q-127 0 -206 -78.5t-79 -203.5q0 -92 44 -157.5t109.5 -108.5t176.5 -101q125 -66 200.5 -117t128 -135t52.5 -206q0 -132 -59.5 -228z" />
    <glyph glyph-name="sacute" unicode="&#x15b;" horiz-adv-x="1007" 
d="M332 1257l-15 27l410 242l16 -29zM807 67q-117 -87 -303 -87q-129 0 -238.5 41.5t-181.5 115.5l14 19q63 -63 166 -100.5t207 -37.5q135 0 222 63.5t87 166.5q0 70 -42 117t-103.5 75.5t-163.5 63.5q-115 39 -185.5 73.5t-118.5 93t-48 148.5q0 135 106.5 215t270.5 80
q113 0 207 -39t159 -106l-12 -15q-63 57 -148.5 90t-171.5 33q-115 0 -191.5 -58t-76.5 -155q0 -68 41 -112.5t99.5 -71.5t164.5 -66q115 -37 186.5 -71.5t121 -94t49.5 -151.5q0 -143 -117 -230z" />
    <glyph glyph-name="Scedilla" unicode="&#x15e;" horiz-adv-x="1120" 
d="M958.5 180q-59.5 -96 -164 -147t-235.5 -53l-39 -111q113 -4 181.5 -46t68.5 -108q0 -84 -106.5 -135t-278.5 -51l4 20q121 0 194.5 45.5t73.5 118.5q0 53 -51 88t-135 39l47 142q-131 8 -244.5 67.5t-185.5 153.5l21 20q70 -90 181 -145t228 -55q154 0 249 92t95 243
q0 104 -47 177t-115.5 119t-187.5 106q-119 61 -190.5 110.5t-120.5 126t-49 187.5q0 170 110.5 271t286.5 101q117 0 222.5 -46t178.5 -126l-16 -18q-66 66 -159 106.5t-183 40.5q-127 0 -206 -78.5t-79 -203.5q0 -92 44 -157.5t109.5 -108.5t176.5 -101
q125 -66 200.5 -117t128 -135t52.5 -206q0 -130 -59.5 -226z" />
    <glyph glyph-name="scedilla" unicode="&#x15f;" horiz-adv-x="1007" 
d="M809 69q-115 -87 -301 -89l-39 -111q115 -4 183.5 -46t68.5 -108q0 -84 -106.5 -135t-280.5 -51l4 20q121 0 194.5 45.5t73.5 118.5q0 53 -50 88t-134 39l47 140q-119 6 -218 48t-167 109l14 19q63 -63 166 -100.5t207 -37.5q135 0 222 63.5t87 166.5q0 70 -42 117
t-103.5 75.5t-163.5 63.5q-115 39 -185.5 73.5t-118.5 93t-48 148.5q0 135 106.5 215t270.5 80q113 0 207 -39t159 -106l-12 -15q-63 57 -148.5 90t-171.5 33q-115 0 -191.5 -58t-76.5 -155q0 -68 41 -112.5t99.5 -71.5t164.5 -66q115 -37 186.5 -71.5t121 -94t49.5 -151.5
q0 -141 -115 -228z" />
    <glyph glyph-name="Scaron" unicode="&#x160;" horiz-adv-x="1120" 
d="M874 1882l15 -16l-330 -242l-330 242l15 16l315 -203zM958.5 178q-59.5 -96 -165 -147t-236.5 -51q-143 0 -267 60t-202 163l21 20q70 -90 181 -145t228 -55q154 0 249 92t95 243q0 104 -47 177t-115.5 119t-187.5 106q-119 61 -190.5 110.5t-120.5 126t-49 187.5
q0 170 110.5 271t286.5 101q117 0 222.5 -46t178.5 -126l-16 -18q-66 66 -159 106.5t-183 40.5q-127 0 -206 -78.5t-79 -203.5q0 -92 44 -157.5t109.5 -108.5t176.5 -101q125 -66 200.5 -117t128 -135t52.5 -206q0 -132 -59.5 -228z" />
    <glyph glyph-name="scaron" unicode="&#x161;" horiz-adv-x="1007" 
d="M782 1534l15 -16l-287 -263l-285 263l15 16l270 -225zM807 67q-117 -87 -303 -87q-129 0 -238.5 41.5t-181.5 115.5l14 19q63 -63 166 -100.5t207 -37.5q135 0 222 63.5t87 166.5q0 70 -42 117t-103.5 75.5t-163.5 63.5q-115 39 -185.5 73.5t-118.5 93t-48 148.5
q0 135 106.5 215t270.5 80q113 0 207 -39t159 -106l-12 -15q-63 57 -148.5 90t-171.5 33q-115 0 -191.5 -58t-76.5 -155q0 -68 41 -112.5t99.5 -71.5t164.5 -66q115 -37 186.5 -71.5t121 -94t49.5 -151.5q0 -143 -117 -230z" />
    <glyph glyph-name="uni0162" unicode="&#x162;" horiz-adv-x="1282" 
d="M662 0l-48 -131q115 -4 182.5 -46t67.5 -108q0 -84 -105.5 -135t-279.5 -51l4 20q121 0 195 45.5t74 118.5q0 53 -50.5 88t-134.5 39l54 160h-56v1503h-536v33h1224v-33h-534v-1503h-57z" />
    <glyph glyph-name="uni0163" unicode="&#x163;" horiz-adv-x="790" 
d="M507.5 -177q67.5 -42 67.5 -108q0 -84 -105 -135t-280 -51l5 20q121 0 194.5 45.5t73.5 118.5q0 53 -50.5 88t-133.5 39l67 203q-51 43 -79.5 106.5t-28.5 141.5v770h-201v33h201l127 352h20v-352h375v-33h-375v-791q0 -113 58.5 -181.5t152.5 -68.5q51 0 100 18.5
t80 49.5l12 -16q-43 -41 -109.5 -66.5t-135.5 -25.5q-92 0 -164 40l-53 -151q114 -4 181.5 -46z" />
    <glyph glyph-name="Tcaron" unicode="&#x164;" horiz-adv-x="1282" 
d="M956 1882l15 -16l-330 -242l-330 242l15 16l315 -203zM1253 1503h-534v-1503h-154v1503h-536v33h1224v-33z" />
    <glyph glyph-name="tcaron" unicode="&#x165;" horiz-adv-x="790" 
d="M582 1188l-29 8l94 418l33 -8zM788 72q-43 -41 -109.5 -66.5t-135.5 -25.5q-137 0 -221 86t-84 225v770h-201v33h201l127 352h20v-352h375v-33h-375v-791q0 -113 58.5 -181.5t152.5 -68.5q51 0 100 18.5t80 49.5z" />
    <glyph glyph-name="Tbar" unicode="&#x166;" horiz-adv-x="1304" 
d="M729 1503v-696h293v-33h-293v-774h-154v774h-290v33h290v696h-534v33h1225v-33h-537z" />
    <glyph glyph-name="tbar" unicode="&#x167;" horiz-adv-x="827" 
d="M811 72q-43 -41 -110.5 -66.5t-137.5 -25.5q-135 0 -219 86t-84 225v301h-203v33h203v436h-203v33h203l125 352h23v-352h374v-33h-374v-436h368v-33h-368v-322q0 -113 58 -181.5t152 -68.5q51 0 100.5 18.5t80.5 49.5z" />
    <glyph glyph-name="Umacron" unicode="&#x16a;" horiz-adv-x="1505" 
d="M516 1677v33h567v-33h-567zM1234.5 247q-65.5 -128 -185 -197.5t-279.5 -69.5q-168 0 -296 72.5t-199.5 203.5t-71.5 303v977h153v-999q0 -154 53.5 -272t151.5 -182.5t225 -64.5q141 0 249 64.5t166.5 182.5t58.5 272v999h40v-995q0 -166 -65.5 -294z" />
    <glyph glyph-name="umacron" unicode="&#x16b;" horiz-adv-x="1230" 
d="M324 1374v33h567v-33h-567zM1053 1094v-1094h-125l-15 260q-63 -127 -180 -203.5t-252 -76.5q-141 0 -227 87t-86 230v797h147v-824q0 -111 58.5 -177t154.5 -66q113 0 216.5 77.5t160.5 204.5v785h148z" />
    <glyph glyph-name="Uring" unicode="&#x16e;" horiz-adv-x="1505" 
d="M943 1675q-54 -51 -142 -51q-90 0 -143.5 51t-53.5 135t54.5 134.5t142.5 50.5t142 -51.5t54 -133.5q0 -84 -54 -135zM688 1699q43 -42 113 -42t112.5 42t42.5 111q0 68 -43 110t-112 42q-70 0 -113 -42t-43 -110q0 -69 43 -111zM1234.5 247q-65.5 -128 -185 -197.5
t-279.5 -69.5q-168 0 -296 72.5t-199.5 203.5t-71.5 303v977h153v-999q0 -154 53.5 -272t151.5 -182.5t225 -64.5q141 0 249 64.5t166.5 182.5t58.5 272v999h40v-995q0 -166 -65.5 -294z" />
    <glyph glyph-name="uring" unicode="&#x16f;" horiz-adv-x="1230" 
d="M750.5 1284q-54.5 -51 -142.5 -51t-142 50t-54 134t53 135.5t143 51.5q88 0 142.5 -51.5t54.5 -135.5q0 -82 -54.5 -133zM495 1307q42 -41 113 -41q70 0 113 41t43 110q0 70 -43 112t-113 42t-112.5 -42t-42.5 -112q0 -69 42 -110zM1053 1094v-1094h-125l-15 260
q-63 -127 -180 -203.5t-252 -76.5q-141 0 -227 87t-86 230v797h147v-824q0 -111 58.5 -177t154.5 -66q113 0 216.5 77.5t160.5 204.5v785h148z" />
    <glyph glyph-name="Uhungarumlaut" unicode="&#x170;" horiz-adv-x="1505" 
d="M926 1991l20 -29l-477 -328l-16 25zM1346 1991l20 -29l-475 -328l-19 25zM1234.5 247q-65.5 -128 -185 -197.5t-279.5 -69.5q-168 0 -296 72.5t-199.5 203.5t-71.5 303v977h153v-999q0 -154 53.5 -272t151.5 -182.5t225 -64.5q141 0 249 64.5t166.5 182.5t58.5 272v999
h40v-995q0 -166 -65.5 -294z" />
    <glyph glyph-name="uhungarumlaut" unicode="&#x171;" horiz-adv-x="1230" 
d="M702 1589l23 -22l-338 -338l-20 22zM1065 1589l22 -22l-335 -338l-23 22zM1053 1094v-1094h-125l-15 260q-63 -127 -180 -203.5t-252 -76.5q-141 0 -227 87t-86 230v797h147v-824q0 -111 58.5 -177t154.5 -66q113 0 216.5 77.5t160.5 204.5v785h148z" />
    <glyph glyph-name="Uogonek" unicode="&#x172;" horiz-adv-x="1505" 
d="M1300 1536v-995q0 -209 -99 -352.5t-275 -190.5q-109 -53 -173.5 -133t-64.5 -160q0 -61 37 -98t98 -37q66 0 113 20l6 -20q-31 -18 -76 -29.5t-88 -11.5q-92 0 -147.5 46t-55.5 122q0 80 67 155.5t181 129.5q-18 -2 -53 -2q-168 0 -296 72.5t-199.5 203.5t-71.5 303v977
h153v-999q0 -154 53.5 -272t151.5 -182.5t225 -64.5q141 0 249 64.5t166.5 182.5t58.5 272v999h40z" />
    <glyph glyph-name="uogonek" unicode="&#x173;" horiz-adv-x="1230" 
d="M1065 -430q-31 -18 -76 -29.5t-88 -11.5q-90 0 -146.5 46t-56.5 122q0 88 79 169t214 134h-63l-15 260q-63 -127 -180 -203.5t-252 -76.5q-141 0 -227 87t-86 230v797h147v-824q0 -111 58.5 -177t154.5 -66q113 0 216.5 77.5t160.5 204.5v785h148v-1094
q-109 -53 -175.5 -134t-66.5 -161q0 -61 38 -98t97 -37q66 0 113 20z" />
    <glyph glyph-name="Wcircumflex" unicode="&#x174;" horiz-adv-x="1873" 
d="M670 1624l-15 16l330 242l330 -242l-15 -16l-315 205zM1800 1536l-448 -1556h-33l-375 1302l-375 -1302h-30l-467 1556h159l381 -1305l369 1325h35l377 -1320l364 1300h43z" />
    <glyph glyph-name="wcircumflex" unicode="&#x175;" horiz-adv-x="1540" 
d="M543 1255l-15 17l285 262l287 -262l-15 -17l-272 224zM1487 1094l-381 -1114h-23l-309 903l-307 -903h-25l-391 1114h158l303 -879l301 899h31l307 -905l299 885h37z" />
    <glyph glyph-name="Ycircumflex" unicode="&#x176;" horiz-adv-x="1413" 
d="M430 1624l-14 16l329 242l330 -242l-14 -16l-316 205zM797 686v-686h-154v682l-573 854h178l530 -803l510 803h47z" />
    <glyph glyph-name="ycircumflex" unicode="&#x177;" horiz-adv-x="1097" 
d="M319 1255l-14 17l285 262l287 -262l-15 -17l-272 224zM1057 1094l-668 -1549h-41l189 437l-492 1112h162l407 -932l402 932h41z" />
    <glyph glyph-name="Ydieresis" unicode="&#x178;" horiz-adv-x="1413" 
d="M606.5 1698.5q-22.5 -21.5 -59.5 -21.5t-59.5 21.5t-22.5 56.5q0 37 22.5 58.5t59.5 21.5t59.5 -21.5t22.5 -58.5q0 -35 -22.5 -56.5zM1005.5 1698.5q-22.5 -21.5 -61.5 -21.5q-37 0 -59.5 21.5t-22.5 56.5q0 37 22.5 58.5t59.5 21.5q39 0 61.5 -21.5t22.5 -58.5
q0 -35 -22.5 -56.5zM797 686v-686h-154v682l-573 854h178l530 -803l510 803h47z" />
    <glyph glyph-name="Zacute" unicode="&#x179;" horiz-adv-x="1179" 
d="M367 1642l-11 29l543 197l12 -33zM41 0v18l901 1485h-833v33h1011v-20l-907 -1483h905v-33h-1077z" />
    <glyph glyph-name="zacute" unicode="&#x17a;" horiz-adv-x="966" 
d="M332 1257l-15 27l410 242l16 -29zM45 0v18l692 1043h-647v33h817v-19l-692 -1042h690v-33h-860z" />
    <glyph glyph-name="Zdotaccent" unicode="&#x17b;" horiz-adv-x="1179" 
d="M678 1696.5q-27 -25.5 -70 -25.5t-69.5 25.5t-26.5 68.5q0 41 26.5 67t69.5 26t70 -26t27 -67q0 -43 -27 -68.5zM41 0v18l901 1485h-833v33h1011v-20l-907 -1483h905v-33h-1077z" />
    <glyph glyph-name="zdotaccent" unicode="&#x17c;" horiz-adv-x="966" 
d="M572.5 1396.5q-25.5 -24.5 -68.5 -24.5q-41 0 -67.5 24.5t-26.5 65.5t26.5 66.5t67.5 25.5q43 0 68.5 -25.5t25.5 -66.5t-25.5 -65.5zM45 0v18l692 1043h-647v33h817v-19l-692 -1042h690v-33h-860z" />
    <glyph glyph-name="Zcaron" unicode="&#x17d;" horiz-adv-x="1179" 
d="M926 1882l14 -16l-330 -242l-329 242l14 16l315 -203zM41 0v18l901 1485h-833v33h1011v-20l-907 -1483h905v-33h-1077z" />
    <glyph glyph-name="zcaron" unicode="&#x17e;" horiz-adv-x="966" 
d="M780 1534l15 -16l-287 -263l-285 263l15 16l270 -225zM45 0v18l692 1043h-647v33h817v-19l-692 -1042h690v-33h-860z" />
    <glyph glyph-name="florin" unicode="&#x192;" horiz-adv-x="1126" 
d="M947.5 1527.5q66.5 -28.5 107.5 -75.5l-13 -14q-35 35 -87 56.5t-105 21.5q-96 0 -155.5 -68t-59.5 -180v-439h326v-32h-326v-504q0 -139 -91 -226t-237 -87q-70 0 -136.5 28.5t-107.5 75.5l15 16q33 -37 85 -58.5t105 -21.5q96 0 154.5 68t58.5 180v529h-282v32h282v414
q0 139 92.5 226t237.5 87q70 0 136.5 -28.5z" />
    <glyph glyph-name="uni0218" unicode="&#x218;" horiz-adv-x="1120" 
d="M614.5 -156.5q26.5 -31.5 26.5 -95.5q0 -76 -43 -143.5t-113 -102.5l-14 21q57 35 95 91t40 116q-25 -25 -69 -25q-39 0 -63.5 22.5t-24.5 61.5t25.5 62.5t68.5 23.5q45 0 71.5 -31.5zM958.5 178q-59.5 -96 -165 -147t-236.5 -51q-143 0 -267 60t-202 163l21 20
q70 -90 181 -145t228 -55q154 0 249 92t95 243q0 104 -47 177t-115.5 119t-187.5 106q-119 61 -190.5 110.5t-120.5 126t-49 187.5q0 170 110.5 271t286.5 101q117 0 222.5 -46t178.5 -126l-16 -18q-66 66 -159 106.5t-183 40.5q-127 0 -206 -78.5t-79 -203.5
q0 -92 44 -157.5t109.5 -108.5t176.5 -101q125 -66 200.5 -117t128 -135t52.5 -206q0 -132 -59.5 -228z" />
    <glyph glyph-name="uni0219" unicode="&#x219;" horiz-adv-x="1007" 
d="M565.5 -156.5q26.5 -31.5 26.5 -95.5q0 -76 -43 -143.5t-113 -102.5l-14 21q57 35 95 91t40 116q-25 -25 -70 -25q-39 0 -63.5 22.5t-24.5 61.5t26 62.5t69 23.5q45 0 71.5 -31.5zM807 67q-117 -87 -303 -87q-129 0 -238.5 41.5t-181.5 115.5l14 19q63 -63 166 -100.5
t207 -37.5q135 0 222 63.5t87 166.5q0 70 -42 117t-103.5 75.5t-163.5 63.5q-115 39 -185.5 73.5t-118.5 93t-48 148.5q0 135 106.5 215t270.5 80q113 0 207 -39t159 -106l-12 -15q-63 57 -148.5 90t-171.5 33q-115 0 -191.5 -58t-76.5 -155q0 -68 41 -112.5t99.5 -71.5
t164.5 -66q115 -37 186.5 -71.5t121 -94t49.5 -151.5q0 -143 -117 -230z" />
    <glyph glyph-name="uni021A" unicode="&#x21a;" horiz-adv-x="1282" 
d="M710.5 -156.5q26.5 -31.5 26.5 -95.5q0 -76 -43 -143.5t-112 -102.5l-15 21q57 35 95 91t40 116q-25 -25 -69 -25q-39 0 -63.5 22.5t-24.5 61.5t25.5 62.5t68.5 23.5q45 0 71.5 -31.5zM1253 1503h-534v-1503h-154v1503h-536v33h1224v-33z" />
    <glyph glyph-name="uni021B" unicode="&#x21b;" horiz-adv-x="790" 
d="M411.5 -156.5q26.5 -31.5 26.5 -95.5q0 -76 -43 -143.5t-112 -102.5l-15 21q57 35 95 91t40 116q-25 -25 -69 -25q-39 0 -63.5 22.5t-24.5 61.5t25.5 62.5t68.5 23.5q45 0 71.5 -31.5zM788 72q-43 -41 -109.5 -66.5t-135.5 -25.5q-137 0 -221 86t-84 225v770h-201v33h201
l127 352h20v-352h375v-33h-375v-791q0 -113 58.5 -181.5t152.5 -68.5q51 0 100 18.5t80 49.5z" />
    <glyph glyph-name="uni0237" unicode="&#x237;" horiz-adv-x="509" 
d="M258 -302q-74 -101 -211 -169l-10 20q147 109 147 377v1168h148v-1125q0 -170 -74 -271z" />
    <glyph glyph-name="circumflex" unicode="&#x2c6;" horiz-adv-x="1228" 
d="M244 1204l-15 17l285 262l287 -262l-15 -17l-272 223z" />
    <glyph glyph-name="caron" unicode="&#x2c7;" horiz-adv-x="1228" 
d="M788 1483l15 -17l-287 -262l-285 262l15 17l270 -226z" />
    <glyph glyph-name="breve" unicode="&#x2d8;" horiz-adv-x="1228" 
d="M620 1289q-75 -60 -163 -60q-86 0 -162 60t-111 159l21 10q39 -86 107 -139q69 -53 145 -53t145 53q70 53 109 139l20 -10q-36 -99 -111 -159z" />
    <glyph glyph-name="dotaccent" unicode="&#x2d9;" horiz-adv-x="1228" 
d="M329 1397q-26 -25 -69 -25q-41 0 -67 25q-27 25 -27 65q0 41 27 67t67 25q43 0 69 -25q26 -26 25 -67q1 -40 -25 -65z" />
    <glyph glyph-name="ring" unicode="&#x2da;" horiz-adv-x="1228" 
d="M531 1233q-54 -51 -142 -51t-142 50t-54 134t53 135t143 51q88 0 142 -51t55 -135q-1 -82 -55 -133zM275 1255q42 -41 114 -41q70 0 113 41t43 111t-43 112t-113 42t-113 -42t-43 -112t42 -111z" />
    <glyph glyph-name="ogonek" unicode="&#x2db;" horiz-adv-x="1228" 
d="M418 -460q-45 -11 -88 -11q-90 0 -147 46q-56 46 -56 122q0 94 90 180t242 137l22 -14q-109 -53 -175 -134q-67 -81 -66 -161q0 -61 38 -98t97 -37q66 0 112 20l7 -20q-31 -19 -76 -30z" />
    <glyph glyph-name="tilde" unicode="&#x2dc;" horiz-adv-x="1228" 
d="M309 1370q-39 -33 -67 -100l-21 10q61 156 189 156q45 0 78 -20q34 -19 77 -58q37 -33 67 -50t64 -18q51 0 88 33t68 100l22 -10q-25 -68 -70 -111q-46 -44 -118 -45q-45 0 -79 20q-34 19 -77 58q-41 35 -68 51q-28 16 -63 17q-51 0 -90 -33z" />
    <glyph glyph-name="hungarumlaut" unicode="&#x2dd;" horiz-adv-x="1228" 
d="M629 1538l22 -22l-338 -338l-20 22zM991 1538l23 -22l-336 -338l-23 22z" />
    <glyph glyph-name="gravecomb" unicode="&#x300;" 
d="M-197 1206l-413 240l16 29l412 -242z" />
    <glyph glyph-name="acutecomb" unicode="&#x301;" 
d="M-610 1206l-15 27l410 242l16 -29z" />
    <glyph glyph-name="uni0302" unicode="&#x302;" 
d="M-786 1204l-15 17l285 262l287 -262l-15 -17l-272 223z" />
    <glyph glyph-name="tildecomb" unicode="&#x303;" 
d="M-786.5 1370q-38.5 -33 -67.5 -100l-20 10q61 156 188 156q45 0 79 -19.5t77 -58.5q37 -33 66.5 -50.5t64.5 -17.5q51 0 88 33t67 100l23 -10q-25 -68 -71 -112t-118 -44q-45 0 -78.5 19.5t-76.5 58.5q-41 35 -69 51.5t-62 16.5q-52 0 -90.5 -33z" />
    <glyph glyph-name="uni0304" unicode="&#x304;" 
d="M-752 1323v33h568v-33h-568z" />
    <glyph glyph-name="uni0306" unicode="&#x306;" 
d="M-296 1289.5q-75 -60.5 -163 -60.5q-86 0 -161.5 60.5t-110.5 158.5l20 10q39 -86 107.5 -139t144.5 -53t145.5 53t108.5 139l21 -10q-37 -98 -112 -158.5z" />
    <glyph glyph-name="uni0307" unicode="&#x307;" 
d="M-193.5 1396.5q-25.5 -24.5 -68.5 -24.5q-41 0 -67.5 24.5t-26.5 65.5t26.5 66.5t67.5 25.5q43 0 68.5 -25.5t25.5 -66.5t-25.5 -65.5z" />
    <glyph glyph-name="uni0308" unicode="&#x308;" 
d="M-600.5 1359.5q-22.5 -22.5 -58.5 -22.5q-37 0 -59.5 22.5t-22.5 57.5t22.5 56.5t59.5 21.5t59 -21.5t22 -56.5t-22.5 -57.5zM-200.5 1359.5q-22.5 -22.5 -61.5 -22.5q-37 0 -59.5 22.5t-22.5 57.5t22.5 56.5t59.5 21.5q39 0 61.5 -21.5t22.5 -56.5t-22.5 -57.5z" />
    <glyph glyph-name="uni030A" unicode="&#x30a;" 
d="M-244.5 1233q-54.5 -51 -142.5 -51t-142.5 50t-54.5 134t53.5 135t143.5 51q88 0 142.5 -51t54.5 -135q0 -82 -54.5 -133zM-501 1255q42 -41 114 -41q70 0 113 41t43 111t-43 112t-113 42t-113 -42t-43 -112t42 -111z" />
    <glyph glyph-name="uni030B" unicode="&#x30b;" 
d="M-600 1538l22 -22l-337 -338l-21 22zM-238 1538l23 -22l-336 -338l-22 22z" />
    <glyph glyph-name="uni030C" unicode="&#x30c;" 
d="M-375 1483l15 -17l-287 -262l-285 262l14 17l271 -226z" />
    <glyph glyph-name="uni0312" unicode="&#x312;" 
d="M-191.5 1392.5q23.5 -26.5 23.5 -69.5t-25.5 -68.5t-68.5 -25.5q-45 0 -71.5 35.5t-26.5 103.5q0 102 44 195.5t113 142.5l15 -23q-57 -47 -94 -128.5t-42 -165.5q27 31 70 30q39 0 62.5 -26.5z" />
    <glyph glyph-name="uni0326" unicode="&#x326;" 
d="M-194.5 -156.5q26.5 -31.5 26.5 -95.5q0 -76 -43 -143.5t-113 -102.5l-14 21q57 35 95 91t40 116q-25 -25 -69 -25q-39 0 -63.5 22.5t-24.5 61.5t25.5 62.5t68.5 23.5q45 0 71.5 -31.5z" />
    <glyph glyph-name="uni0327" unicode="&#x327;" 
d="M-196.5 -177q67.5 -42 67.5 -108q0 -84 -106.5 -135t-278.5 -51l4 20q121 0 194.5 45.5t73.5 118.5q0 53 -50 88t-134 39l59 176l35 -16l-47 -131q115 -4 182.5 -46z" />
    <glyph glyph-name="uni0328" unicode="&#x328;" 
d="M-209 -460q-45 -11 -88 -11q-90 0 -146.5 46t-56.5 122q0 94 90.5 180t241.5 137l23 -14q-109 -53 -175.5 -134t-66.5 -161q0 -61 38 -98t97 -37q66 0 113 20l6 -20q-31 -19 -76 -30z" />
    <glyph glyph-name="uni0335" unicode="&#x335;" 
d="M-983 725v33h737v-33h-737z" />
    <glyph glyph-name="uni0336" unicode="&#x336;" 
d="M-1550 1110v33h1372v-33h-1372z" />
    <glyph glyph-name="uni0337" unicode="&#x337;" 
d="M-379 705v18l-231 -160l-21 29l252 174v-18l229 157l21 -28z" />
    <glyph glyph-name="uni0338" unicode="&#x338;" 
d="M-915 -98l-29 22l870 1211l29 -21z" />
    <glyph glyph-name="uni0394" unicode="&#x394;" horiz-adv-x="1413" 
d="M1354 23v-23h-1295v20l627 1536h27zM1186 35l-545 1313l-532 -1313h1077z" />
    <glyph glyph-name="uni03A9" unicode="&#x3a9;" horiz-adv-x="1693" 
d="M1527 675.5q-48 -104.5 -114.5 -180t-171.5 -171.5q-104 -96 -153.5 -159t-49.5 -132h492v-33h-533v33q0 82 40 149.5t128 173.5q78 92 126 164t83 169t35 218q0 178 -70.5 313.5t-197.5 210t-295 74.5q-166 0 -294 -74.5t-197.5 -210t-69.5 -313.5q0 -121 34.5 -218
t83 -168.5t125.5 -164.5q86 -102 126 -171.5t40 -151.5v-33h-530v33h489q0 70 -49 132t-153 159q-104 96 -171 171.5t-114 180t-47 231.5q0 193 91 340.5t256 228t380 80.5q217 0 382 -80.5t256 -228t91 -340.5q0 -127 -48 -231.5z" />
    <glyph glyph-name="uni03BC" unicode="&#x3bc;" horiz-adv-x="1230" 
d="M1063 1094v-797q0 -143 -86 -230t-227 -87q-131 0 -245 72.5t-179 193.5v-697h-148v1545h148v-785q57 -127 161.5 -204.5t214.5 -77.5q96 0 154.5 66.5t58.5 176.5v824h148z" />
    <glyph glyph-name="pi" unicode="&#x3c0;" horiz-adv-x="1394" 
d="M1100 1061v-895q0 -68 33.5 -109t89.5 -41q49 0 88 13l4 -17q-27 -14 -62.5 -23t-70.5 -9q-102 0 -166 62t-64 163v856h-528v-1061h-148v1061h-243v33h1310v-33h-243z" />
    <glyph glyph-name="Wgrave" unicode="&#x1e80;" horiz-adv-x="1873" 
d="M1229 1642l-545 193l12 33l543 -197zM1800 1536l-448 -1556h-33l-375 1302l-375 -1302h-30l-467 1556h159l381 -1305l369 1325h35l377 -1320l364 1300h43z" />
    <glyph glyph-name="wgrave" unicode="&#x1e81;" horiz-adv-x="1540" 
d="M991 1257l-413 240l16 29l412 -242zM1487 1094l-381 -1114h-23l-309 903l-307 -903h-25l-391 1114h158l303 -879l301 899h31l307 -905l299 885h37z" />
    <glyph glyph-name="Wacute" unicode="&#x1e82;" horiz-adv-x="1873" 
d="M741 1642l-10 29l543 197l12 -33zM1800 1536l-448 -1556h-33l-375 1302l-375 -1302h-30l-467 1556h159l381 -1305l369 1325h35l377 -1320l364 1300h43z" />
    <glyph glyph-name="wacute" unicode="&#x1e83;" horiz-adv-x="1540" 
d="M637 1257l-14 27l409 242l17 -29zM1487 1094l-381 -1114h-23l-309 903l-307 -903h-25l-391 1114h158l303 -879l301 899h31l307 -905l299 885h37z" />
    <glyph glyph-name="Wdieresis" unicode="&#x1e84;" horiz-adv-x="1873" 
d="M845.5 1698.5q-22.5 -21.5 -59.5 -21.5t-59 21.5t-22 56.5q0 37 22.5 58.5t58.5 21.5q37 0 59.5 -21.5t22.5 -58.5q0 -35 -22.5 -56.5zM1245.5 1698.5q-22.5 -21.5 -61.5 -21.5q-37 0 -59.5 21.5t-22.5 56.5q0 37 22.5 58.5t59.5 21.5q39 0 61.5 -21.5t22.5 -58.5
q0 -35 -22.5 -56.5zM1800 1536l-448 -1556h-33l-375 1302l-375 -1302h-30l-467 1556h159l381 -1305l369 1325h35l377 -1320l364 1300h43z" />
    <glyph glyph-name="wdieresis" unicode="&#x1e85;" horiz-adv-x="1540" 
d="M671.5 1411.5q-22.5 -22.5 -59.5 -22.5t-59.5 22.5t-22.5 56.5q0 35 22.5 56.5t59.5 21.5t59.5 -21.5t22.5 -56.5q0 -34 -22.5 -56.5zM1071.5 1411.5q-22.5 -22.5 -61.5 -22.5q-37 0 -59.5 22.5t-22.5 56.5q0 35 22.5 56.5t59.5 21.5q39 0 61.5 -21.5t22.5 -56.5
q0 -34 -22.5 -56.5zM1487 1094l-381 -1114h-23l-309 903l-307 -903h-25l-391 1114h158l303 -879l301 899h31l307 -905l299 885h37z" />
    <glyph glyph-name="uni1E9E" unicode="&#x1e9e;" horiz-adv-x="1554" 
d="M1325 676q121 -121 121 -283q0 -123 -60.5 -217t-171 -145t-253.5 -51q-94 0 -193.5 34.5t-169.5 89.5l14 23q63 -49 147.5 -79t162.5 -30q160 0 259 103.5t99 271.5q0 162 -124 277.5t-325 144.5l383 688h-839v-1503h-154v1536h1176v-18l-393 -680q200 -41 321 -162z
" />
    <glyph glyph-name="Ygrave" unicode="&#x1ef2;" horiz-adv-x="1413" 
d="M991 1642l-545 193l13 33l542 -197zM797 686v-686h-154v682l-573 854h178l530 -803l510 803h47z" />
    <glyph glyph-name="ygrave" unicode="&#x1ef3;" horiz-adv-x="1097" 
d="M770 1257l-414 240l17 29l411 -242zM1057 1094l-668 -1549h-41l189 437l-492 1112h162l407 -932l402 932h41z" />
    <glyph glyph-name="endash" unicode="&#x2013;" horiz-adv-x="1167" 
d="M152 557v33h862v-33h-862z" />
    <glyph glyph-name="emdash" unicode="&#x2014;" horiz-adv-x="1513" 
d="M152 557v33h1210v-33h-1210z" />
    <glyph glyph-name="quoteleft" unicode="&#x2018;" horiz-adv-x="477" 
d="M323.5 1240q28.5 -32 28.5 -83t-30.5 -82t-81.5 -31q-53 0 -85 42t-32 118q0 109 51 205t133 147l17 -22q-70 -49 -115 -132t-49 -171q31 41 88 41q47 0 75.5 -32z" />
    <glyph glyph-name="quoteright" unicode="&#x2019;" horiz-adv-x="471" 
d="M328.5 1514.5q31.5 -41.5 31.5 -117.5q0 -104 -51 -201.5t-133 -151.5l-16 23q72 49 117 133t47 172q-31 -41 -88 -41q-47 0 -76 31t-29 82t31 81.5t82 30.5q53 0 84.5 -41.5z" />
    <glyph glyph-name="quotesinglbase" unicode="&#x201a;" horiz-adv-x="464" 
d="M312 163q32 -42 32 -118q0 -104 -51 -202q-51 -97 -133 -150l-17 22q72 49 117 133t47 172q-31 -41 -88 -40q-47 0 -76 30q-29 31 -28 82q0 51 30 82q31 31 82 31q53 0 85 -42z" />
    <glyph glyph-name="quotedblleft" unicode="&#x201c;" horiz-adv-x="796" 
d="M324 1240q29 -32 28 -83q0 -51 -30 -82q-31 -31 -82 -31q-53 0 -85 42t-32 118q0 109 51 205t133 147l17 -22q-70 -49 -115 -132t-49 -171q31 41 88 41q47 0 76 -32zM643 1240q29 -32 29 -83t-31 -82t-82 -31q-53 0 -85 42t-32 118q0 109 52 205q51 96 133 147l16 -22
q-70 -49 -115 -132t-49 -171q31 41 88 41q47 0 76 -32z" />
    <glyph glyph-name="quotedblright" unicode="&#x201d;" horiz-adv-x="790" 
d="M328.5 1514.5q31.5 -41.5 31.5 -117.5q0 -104 -51 -201.5t-133 -151.5l-16 23q72 49 117 133t47 172q-31 -41 -88 -41q-47 0 -76 31t-29 82t31 81.5t82 30.5q53 0 84.5 -41.5zM648 1514.5q32 -41.5 32 -117.5q0 -106 -51 -202.5t-135 -150.5l-15 23q70 49 115 132t47 169
q-33 -37 -88 -37q-47 0 -74.5 31t-27.5 82t30.5 81.5t81.5 30.5q53 0 85 -41.5z" />
    <glyph glyph-name="quotedblbase" unicode="&#x201e;" horiz-adv-x="782" 
d="M310 163q32 -42 32 -118q0 -104 -51 -202q-51 -97 -133 -150l-17 22q72 49 117 133t47 172q-31 -41 -88 -40q-47 0 -76 30q-29 31 -28 82q0 51 30 82q31 31 82 31q53 0 85 -42zM630 163q32 -42 32 -118q0 -106 -52 -203q-51 -96 -135 -149l-14 22q70 49 114 132
q45 83 48 169q-33 -37 -88 -36q-47 0 -75 30q-28 31 -28 82t31 82t82 31q53 0 85 -42z" />
    <glyph glyph-name="dagger" unicode="&#x2020;" horiz-adv-x="684" 
d="M567 1440h-205v-498h-40v498h-205v33h205v268h40v-268h205v-33z" />
    <glyph glyph-name="daggerdbl" unicode="&#x2021;" horiz-adv-x="716" 
d="M379 1495v-307h205v-33h-205v-213h-41v213h-205v33h205v307h-205v33h205v213h41v-213h205v-33h-205z" />
    <glyph glyph-name="bullet" unicode="&#x2022;" horiz-adv-x="729" 
d="M483 618.5q-45 -45.5 -118 -45.5q-74 0 -119 45.5t-45 120.5q0 74 45 120t119 46t118.5 -46t44.5 -120q0 -75 -45 -120.5z" />
    <glyph glyph-name="ellipsis" unicode="&#x2026;" horiz-adv-x="1458" 
d="M1288 10q-31 -31 -80 -30q-51 0 -82 30q-31 31 -30 82q0 51 30 82q31 31 82 31q49 0 80 -31t31 -82t-31 -82zM809 10q-31 -31 -80 -30q-51 0 -82 30q-31 31 -31 82t31 82t82 31q49 0 80 -31t31 -82t-31 -82zM332 10q-31 -31 -80 -30q-51 0 -82 30q-31 31 -31 82t31 82
t82 31q49 0 80 -31t30 -82q1 -51 -30 -82z" />
    <glyph glyph-name="perthousand" unicode="&#x2030;" horiz-adv-x="2560" 
d="M2434 195q-40 -98 -113 -153q-73 -54 -169 -54t-169 54t-112 153q-40 98 -40 227t40 227t112 153q73 54 169 54t169 -54t113 -153q40 -98 40 -227t-40 -227zM2006 124q56 -114 146 -114t147 114q56 114 56 298q0 186 -56 299t-147 113q-90 0 -146 -113t-56 -299
q0 -184 56 -298zM695 885q-40 -98 -112 -153q-73 -54 -169 -54t-169 54t-113 153q-40 98 -40 227t40 227t113 153q73 54 169 54t169 -54t112 -153q40 -98 40 -227t-40 -227zM267 814q56 -114 147 -114q90 0 146 114t56 298q0 186 -56 299t-146 113t-147 -113
q-56 -113 -56 -299q0 -184 56 -298zM367 0l1019 1536h41l-1019 -1536h-41zM1664 195q-40 -98 -113 -153q-73 -54 -169 -54t-169 54t-112 153q-40 98 -40 227t40 227t112 153q73 54 169 54t169 -54t113 -153q40 -98 40 -227t-40 -227zM1236 124q56 -114 146 -114t147 114
q56 114 56 298q0 186 -56 299t-147 113q-90 0 -146 -113t-56 -299q0 -184 56 -298z" />
    <glyph glyph-name="guilsinglleft" unicode="&#x2039;" horiz-adv-x="571" 
d="M104 567v13l308 387l20 -13l-254 -381l254 -380l-20 -13z" />
    <glyph glyph-name="guilsinglright" unicode="&#x203a;" horiz-adv-x="571" 
d="M141 193l254 380l-254 381l21 13l307 -387v-13l-307 -387z" />
    <glyph glyph-name="fraction" unicode="&#x2044;" horiz-adv-x="225" 
d="M-420 0l1020 1536h41l-1020 -1536h-41z" />
    <glyph glyph-name="lira" unicode="&#x20a4;" horiz-adv-x="1239" 
d="M1161 698q0 -207 -91 -365.5t-256 -245.5t-380 -87h-153v807l-175 -47v35l175 47v225l-175 -47v35l175 47v434h153v-393l471 125v-35l-471 -125v-225l471 125v-35l-471 -125v-815q203 0 359.5 83t245.5 234.5t94 347.5h28z" />
    <glyph glyph-name="Euro" unicode="&#x20ac;" horiz-adv-x="1460" 
d="M1368 201q-78 -98 -208 -159.5t-263 -61.5q-170 0 -306 76.5t-224 218t-115 331.5h-172v33h168q-6 61 -6 129q0 35 4 100h-166v33h170q20 197 105 345.5t221.5 229t308.5 80.5q135 0 259 -55t202 -149l-17 -17q-70 80 -179.5 128t-219.5 48q-137 0 -248 -74.5
t-180.5 -213t-87.5 -322.5h536v-33h-538q-4 -66 -4 -100q0 -68 6 -129h536v-33h-532q35 -266 172 -423.5t342 -157.5q113 0 229.5 54t190.5 144z" />
    <glyph glyph-name="uni20B1" unicode="&#x20b1;" horiz-adv-x="1394" 
d="M1315 1165h-174q12 -55 12 -114t-12 -115h174v-33h-182q-43 -158 -176.5 -249t-325.5 -91h-197v-563h-153v903h-179v33h179v229h-179v33h179v338h350q190 0 324.5 -91t177.5 -247h182v-33zM434 1198h537q-35 141 -131.5 223t-231.5 82h-174v-305zM977 1165h-543v-229h543
q10 61 10 115q0 53 -10 114zM840.5 678q95.5 82 130.5 225h-537v-307h174q137 0 232.5 82z" />
    <glyph glyph-name="uni20B9" unicode="&#x20b9;" horiz-adv-x="1112" 
d="M1036 1503h-592q184 -39 292 -133t116 -227h184v-33h-184q-8 -156 -142.5 -259t-359.5 -132l479 -719h-180l-495 741h16q150 0 264.5 45t180 129t69.5 195h-530v33h530q-4 109 -69.5 189.5t-180.5 125.5t-264 45h-16v33h882v-33z" />
    <glyph glyph-name="uni20BD" unicode="&#x20bd;" horiz-adv-x="1273" 
d="M438 686v-229h463v-33h-463v-424h-153v424h-179v33h179v229h-179v33h179v817h370q162 0 284 -53t189.5 -149.5t67.5 -221.5q0 -127 -67.5 -223t-189.5 -149.5t-284 -53.5h-217zM920.5 1395.5q-109.5 107.5 -287.5 107.5h-195v-784h195q178 0 287.5 108.5t109.5 284.5
t-109.5 283.5z" />
    <glyph glyph-name="uni20BF" unicode="&#x20bf;" horiz-adv-x="1253" 
d="M1034.5 150.5q-112.5 -109.5 -307.5 -140.5v-215h-41v211q-49 -6 -100 -6h-113v-205h-41v205h-211v1536h211v205h41v-205h113q51 0 100 -6v211h41v-219q152 -31 240 -124t88 -224q0 -139 -91.5 -234.5t-246.5 -124.5q197 -29 313.5 -134.5t116.5 -258.5
q0 -162 -112.5 -271.5zM799 1412q-90 91 -236 91h-188v-674h188q145 0 235.5 94.5t90.5 250.5q0 147 -90 238zM866.5 139.5q114.5 106.5 114.5 282.5q0 170 -114.5 272.5t-303.5 102.5h-188v-764h188q189 0 303.5 106.5z" />
    <glyph glyph-name="trademark" unicode="&#x2122;" horiz-adv-x="1492" 
d="M1227 922l-41 444l-217 -455h-19l-223 469l-43 -458h-25l62 624h20l256 -526l248 526h21l61 -624h-100zM72 1536h514v-20h-209v-594h-96v594h-209v20z" />
    <glyph glyph-name="oneeighth" unicode="&#x215b;" horiz-adv-x="1640" 
d="M1475 369q61 -61 61 -150q0 -104 -85 -168q-85 -63 -224 -63t-225 63q-85 63 -84 168q0 88 61 150q61 61 166 80q-88 16 -139 69t-52 129q0 94 75 152q75 57 198 57t197 -57q75 -57 75 -152q0 -76 -51 -129t-139 -69q105 -19 166 -80zM1116 511q43 -52 111 -52
q70 0 111 52q42 52 42 136t-42 135t-111 52q-68 0 -111 -53q-43 -52 -43 -134q0 -84 43 -136zM1366 68q53 57 53 151q0 98 -53 158q-53 59 -139 59t-138 -59t-53 -158q0 -94 53 -151q52 -57 138 -58q86 1 139 58zM221 0l1020 1536h41l-1020 -1536h-41zM457 1546v-856h-111
v776l-270 -151l-10 18l374 213h17z" />
    <glyph glyph-name="threeeighths" unicode="&#x215c;" horiz-adv-x="1718" 
d="M1563 369q61 -61 61 -150q0 -104 -85 -168q-85 -63 -224 -63t-224 63t-85 168q0 88 61 150q61 61 166 80q-88 16 -139 69t-52 129q0 94 75 152q75 57 198 57t197 -57q75 -57 75 -152q0 -76 -51 -129t-139 -69q105 -19 166 -80zM1204 511q43 -52 111 -52q70 0 111 52
q42 52 42 136t-42 135t-111 52q-68 0 -111 -53q-43 -52 -43 -134q0 -84 43 -136zM1454 68q53 57 53 151q0 98 -53 158q-53 59 -139 59t-138 -59t-53 -158q0 -94 53 -151q52 -57 138 -58q86 1 139 58zM309 0l1020 1536h41l-1020 -1536h-41zM598 1062q68 -60 68 -151
q0 -104 -83 -169t-221 -64q-76 0 -154 32q-79 32 -126 81l12 16q45 -43 106 -69q60 -26 122 -25q102 0 164 56t63 146q0 94 -68 153q-68 58 -178 58h-22v23h14q98 0 159 53q60 53 60 141q0 78 -50 124t-132 46q-49 0 -106 -21q-56 -22 -97 -56l-12 12q47 45 114 72
q68 27 129 26q123 0 198 -54t75 -144q0 -82 -59 -138q-58 -55 -160 -71q116 -17 184 -77z" />
    <glyph glyph-name="fiveeighths" unicode="&#x215d;" horiz-adv-x="1701" 
d="M1546 369q61 -61 62 -150q0 -104 -85 -168q-85 -63 -225 -63q-139 0 -224 63t-85 168q0 88 62 150q61 61 166 80q-88 16 -140 69q-51 53 -51 129q0 94 75 152q75 57 197 57q123 0 198 -57t75 -152q0 -76 -51 -129t-140 -69q105 -19 166 -80zM1188 511q43 -52 110 -52
q70 0 112 52t42 136t-42 135t-112 52q-68 0 -110 -53q-43 -52 -43 -134q0 -84 43 -136zM1438 68q53 57 53 151q0 98 -53 158q-53 59 -140 59q-86 0 -138 -59t-52 -158q0 -94 52 -151t138 -58q87 1 140 58zM295 0l1020 1536h41l-1020 -1536h-41zM573 1151q82 -76 82 -199
t-86 -198q-86 -76 -225 -76q-78 0 -148 32q-71 32 -108 83l12 14q33 -43 89 -69t118 -25q104 0 167 65q62 66 63 174q0 109 -60 175q-59 67 -160 67q-41 0 -87 -14t-83 -37l-8 14l51 379h433v-23h-324l-41 -303q55 16 100 17q133 0 215 -76z" />
    <glyph glyph-name="seveneighths" unicode="&#x215e;" horiz-adv-x="1646" 
d="M1483 369q61 -61 61 -150q0 -104 -85 -168q-85 -63 -224 -63t-224 63t-85 168q0 88 61 150q61 61 166 80q-88 16 -139 69t-51 129q0 94 74 152q75 57 198 57t198 -57t74 -152q0 -76 -51 -129t-139 -69q105 -19 166 -80zM1124 511q43 -52 111 -52q70 0 112 52t42 136
t-42 135t-112 52q-68 0 -111 -53q-43 -52 -43 -134q0 -84 43 -136zM1374 68q53 57 53 151q0 98 -53 158q-53 59 -139 59t-138 -59t-53 -158q0 -94 53 -151q52 -57 138 -58q86 1 139 58zM229 0l1020 1536h41l-1020 -1536h-41zM639 1536v-14l-344 -832h-117l342 823h-452v23
h571z" />
    <glyph glyph-name="partialdiff" unicode="&#x2202;" horiz-adv-x="1275" 
d="M721 1448q209 -137 319.5 -355.5t110.5 -492.5q0 -184 -67.5 -324.5t-189.5 -218t-282 -77.5q-158 0 -276.5 59t-184 167.5t-65.5 250.5q0 133 59.5 233.5t168 155.5t251.5 55q121 0 231.5 -55t182.5 -150q-18 238 -114.5 427.5t-261.5 311t-384 162.5l6 21
q287 -33 496 -170zM807 83q84 71 130 200t46 297v51q-66 102 -171 164.5t-216 62.5q-156 0 -250 -111.5t-94 -293.5q0 -131 45 -230.5t127 -155t188 -55.5q111 0 195 71z" />
    <glyph glyph-name="emptyset" unicode="&#x2205;" horiz-adv-x="1462" 
d="M1163 1014q68 -80 105 -188.5t37 -235.5q0 -182 -72 -320.5t-202 -214t-302 -75.5q-123 0 -226.5 39.5t-178.5 115.5l-166 -174l-33 31l168 176q-68 80 -104.5 187.5t-36.5 234.5q0 182 71.5 320.5t202.5 214t303 75.5q123 0 226.5 -40t177.5 -113l167 174l31 -33z
M322 197l784 819q-70 74 -166 112.5t-211 38.5q-158 0 -278.5 -71.5t-187 -202.5t-66.5 -303q0 -235 125 -393zM1135 983l-785 -819q147 -152 379 -152q158 0 277.5 72t186.5 203t67 303q0 235 -125 393z" />
    <glyph glyph-name="product" unicode="&#x220f;" horiz-adv-x="1671" 
d="M1604 1565h-238v-2016h-154v2016h-751v-2016h-154v2016h-239v32h1536v-32z" />
    <glyph glyph-name="summation" unicode="&#x2211;" horiz-adv-x="1200" 
d="M72 -451v19l542 1046l-522 965v18h1026v-32h-860l528 -951l-548 -1032h901v-33h-1067z" />
    <glyph glyph-name="minus" unicode="&#x2212;" horiz-adv-x="970" 
d="M127 557v33h717v-33h-717z" />
    <glyph glyph-name="radical" unicode="&#x221a;" horiz-adv-x="1421" 
d="M1446 1597l-911 -2054h-35l-492 1100h166l404 -913l827 1867h41z" />
    <glyph glyph-name="infinity" unicode="&#x221e;" horiz-adv-x="1652" 
d="M1423.5 834.5q98.5 -95.5 98.5 -250.5q0 -156 -98.5 -251t-260.5 -95q-125 0 -214 62t-122 169q-33 -106 -122 -168.5t-213 -62.5q-162 0 -260.5 95t-98.5 251t98.5 251t260.5 95q125 0 214 -62.5t121 -169.5q33 106 122 169t214 63q162 0 260.5 -95.5zM719 356
q86 86 86 228q0 141 -86 227t-227 86t-227.5 -86t-86.5 -227t86 -227.5t228 -86.5q141 0 227 86zM1391 356q86 86 86 228q0 141 -86 227t-228 86q-141 0 -227 -86t-86 -227t86 -227.5t227 -86.5q142 0 228 86z" />
    <glyph glyph-name="integral" unicode="&#x222b;" horiz-adv-x="946" 
d="M459 -384q-92 -87 -238 -87q-70 0 -136.5 28.5t-107.5 75.5l15 17q33 -37 84 -58.5t104 -21.5q98 0 157.5 67.5t59.5 180.5v1487q0 139 91.5 226t236.5 87q70 0 136.5 -28.5t107.5 -76.5l-15 -16q-33 37 -85 58.5t-107 21.5q-96 0 -153.5 -66.5t-57.5 -175.5v-1493
q0 -139 -92 -226z" />
    <glyph glyph-name="approxequal" unicode="&#x2248;" horiz-adv-x="970" 
d="M51 664q0 102 62 165q61 63 161 64q66 0 114 -29t110 -84q61 -53 104 -79t103 -25q84 0 136 54t52 142h29q0 -102 -62 -165q-61 -63 -162 -64q-66 0 -113 29q-48 29 -110 84q-61 53 -104 79t-103 25q-84 0 -136 -54t-52 -142h-29zM51 299q0 102 62 166q61 63 161 63
q66 0 114 -28q48 -29 110 -84q61 -53 104 -79t103 -26q84 0 136 55q52 54 52 142h29q0 -102 -62 -166q-61 -63 -162 -63q-66 0 -113 28q-48 29 -110 84q-61 53 -104 79t-103 26q-84 0 -136 -55q-52 -54 -52 -142h-29z" />
    <glyph glyph-name="notequal" unicode="&#x2260;" horiz-adv-x="970" 
d="M580 705l-142 -263h406v-32h-424l-121 -222h-41l121 222h-252v32h270l142 263h-412v32h430l121 221h41l-121 -221h246v-32h-264z" />
    <glyph glyph-name="lessequal" unicode="&#x2264;" horiz-adv-x="970" 
d="M125 729l711 209v-37l-643 -188l643 -189v-37l-711 209v33zM125 264h717v-33h-717v33z" />
    <glyph glyph-name="greaterequal" unicode="&#x2265;" horiz-adv-x="970" 
d="M135 487v37l643 189l-643 188v37l711 -209v-33zM129 231v33h717v-33h-717z" />
    <glyph glyph-name="lozenge" unicode="&#x25ca;" horiz-adv-x="1048" 
d="M952 666l-413 -666h-29l-414 666l414 665h29zM909 666l-385 618l-385 -618l385 -619z" />
    <glyph glyph-name="uni261E" unicode="&#x261e;" horiz-adv-x="5521" 
d="M109 324l192 90q27 10 33 10t20.5 -6t34.5 -6l320 137q20 10 36 10q12 0 19 -2q18 -6 50 5t110 50q6 2 19 11.5t28 7.5q35 -2 78 8q41 8 63 8q10 0 82 27q14 4 65.5 22.5t73.5 20.5q37 2 86 33l41 20q23 8 41 8q14 0 28.5 -3t26.5 -3q14 0 21 2q23 6 53.5 9t40.5 10
q23 10 44.5 25.5t31.5 15.5q12 0 49 -15q18 27 43 27q10 0 36 -7.5t40 -7.5t33 7q53 18 266 78.5t252 68.5l45 8l33 21l217 88q14 6 22 -2q49 -49 99.5 -84t126.5 -76l372 -201l21 -18q6 -8 16 -8l1032 -4q20 0 29.5 7t21 11t44.5 2l276 -12l57 -8l70 4l434 -4l78 -4l-4 -97
l-39 -4l-573 2q-8 0 -13.5 2t-3.5 10l-305 5q-33 0 -45 7t-35 7l-975 10l27 -35q12 -16 50 -68t48 -71q96 -197 96 -262l-2 -8q-45 -29 -59 -29q-6 0 -23.5 5t-33.5 9l-47 7q-16 2 -71.5 10t-74.5 18l-80 62l21 -72q31 -98 30 -115q0 -10 -6 -15t-14 -11l-25 -25
q-20 -20 -36 -20q-10 0 -23 6l-76 63l-67 8q-59 6 -80 50l-62 110q-4 8 -9 13.5t-13 5.5q-10 0 -78 7t-121 7q45 0 -51 -3t-205.5 -6t-181.5 -3q-27 0 -81 14t-90 26.5t-52 16.5q-111 39 -150 45h-6q-14 0 -28.5 -11t-22.5 -16q-35 -14 -61.5 -20t-43.5 -10
q-35 -12 -47 -21.5t-22 -23.5q-10 -23 -45 -45q-8 -4 -19 -4l-37 2q-39 0 -65 -27q-53 -53 -75.5 -71.5t-51.5 -32t-100 -35.5q-16 -6 -42 -11.5t-40 -19.5q-10 -10 -35 -23.5t-35 -17.5q-109 -51 -131 -90q-20 -37 -46 -50.5t-89 -27.5l-109 -76l-170 -100
q-61 -53 -94 -70.5t-113 -36.5q-25 4 -59 52q-61 80 -125.5 206.5t-108 256t-43.5 215.5q1 25 46 45zM3447 212q51 -7 74 -7q-55 20 -76 33.5t-43 35.5q-33 33 -72 62q-6 4 -8 10t0 8l33 -12q45 -45 116.5 -93t143.5 -63l-168 250q-4 6 -15 56q-57 63 -143 102l-14 -2
l98 -74l47 -45l-2 -6q-113 102 -254 186q-18 12 -27.5 21.5t-11.5 25.5q-2 12 -7 16.5t-19 6.5l-43 6l-39 33l-86 45l-23 18l-112 56q-4 2 -19.5 8t-30.5 0l-159 -64l-52 -4q-70 -27 -100 -53q-2 2 -2 6q0 12 12 19q33 18 64 28t78 13l151 61q16 4 23 4q25 0 50 -11
t50 -26.5t39 -23.5l172 -80l78 -56l14 -16l125 -78q8 8 47 -20.5t80 -69.5t55 -67l150 -250q6 -12 10 -13l21 9q12 4 15 10t1 20q-20 94 -56 167t-90.5 145.5t-164.5 203.5q-213 94 -378 190.5t-204 162.5l-270 -115q-150 -27 -480 -135q-12 -4 -61 -20.5t-74 -16.5
q-16 0 -30 8q-6 -35 -19 -84q-23 -74 -24 -151l-9 -209h-4l-8 55q-2 27 -14 27q-4 0 -25 -9q-14 -4 -19 -17t-3 -26l6 -41l-4 -2l-17 35q-14 -14 -21 -18t-18 -2q-57 10 -65 10q-20 0 -35 -8l-121 -76q-18 -12 -18 -31q0 -8 2 -16t2 -16q0 -14 -14 -23l-160 -84
q-33 -18 -98 -45q-53 -18 -138 -70q-4 -4 -12 -4q-6 0 -11 5.5t-7 9.5q-4 4 -9 4q-6 0 -11 -4t-5 -9q0 -10 -6 -15t-19 -9q-68 -33 -79 -41q-154 -76 -260.5 -132.5t-165.5 -92.5q-14 -10 -15 8l53 33l-6 6q-29 0 -69 -17q-29 -12 -41 -12q-20 0 -35 23q-49 76 -123 270
l-41 125q-25 63 -24 117q0 14 4 19t18 5q4 -59 11 -99t26 -81q10 -25 20 -64q2 -23 13 -47q47 -143 116 -245q4 -6 11 -7q4 0 12 4.5t14 6.5l72 14q4 2 12 2q16 0 19 -16l102 57l305 147q10 6 28.5 13.5t30 16.5t17.5 24q2 8 14 8q8 0 26.5 -4t29.5 2l368 186q16 8 17 21
q0 6 -4.5 18t-4.5 19q0 12 13 20l98 61q33 23 56.5 35.5t41.5 12.5q14 0 52 -11q4 -2 10 -2q18 0 18 25q0 37 -4 70q-4 41 -4 104q0 74 2 133l8 70q-27 -12 -47 -19.5t-44.5 -13.5t-45.5 -10q-41 -10 -53 -11q-25 0 -43 19l-25 -21l-176 -208l-6 2l25 49l124 145
q-27 -14 -49 -18l-47 -8q-33 -12 -94 -31q-98 -29 -121 -45q-10 -8 -24 -8l-25 2q-20 0 -35.5 -6.5t-21.5 -6.5l-47 6l-78 -38q-47 -23 -76 -35.5t-39 -12.5q-8 0 -20 7l-9 2q-8 0 -16 -15q-2 -6 -4 -18t-6 -19q-18 -35 -23.5 -78.5t-15.5 -197.5q-14 35 -14 98
q0 57 10 117.5t26 91.5q-45 -14 -217 -88q-104 -47 -112 -47q-10 0 -27.5 9t-24.5 5l-239 -112q16 -141 96 -324.5t221 -400.5l68 43l-62 90l9 6l73 -86q59 23 75.5 31t27.5 22q135 80 192.5 117t77.5 55q16 16 66 33q35 10 55 21.5t33 35.5q16 33 87.5 74t221.5 102
q84 31 127 55.5t67 65.5q63 41 129 54q31 6 48 34q8 14 18 21.5t33 9.5q20 2 40.5 10t53.5 25l76 35q10 4 26 4q14 0 38 -8.5t42 -14.5l125 -39q-2 6 -2 29q0 39 10 90q2 8 4.5 19.5t5.5 14.5t11 3q-12 -57 -12 -96t10 -60q6 -12 17.5 -17t23.5 -6t18 -3q-8 16 -19 35.5
t-14.5 34t-3.5 38.5q0 23 4 72q6 41 7 82l6 4l2 -21q10 29 23.5 47.5t33.5 32.5l-211 -2q-20 0 -51 -12t-43 -12q-23 0 -39 37q-6 12 -6 30q0 23 8 42.5t25 27.5q12 6 22 6q12 0 22.5 -7t27 -26.5t28.5 -19.5l819 10l-2 4l-96 19q-4 4 -1 9t9 5q76 0 152 -29
q29 -10 39 -26.5t14 -18.5q10 -4 40 -10t42 -14l131 -109l-2 -4l-94 72q-4 2 -14.5 10t-19.5 11t-22 3l-159 6q4 -4 13 -15t13 -21q4 -12 25 -13h10q14 0 21 -6l178 -80q45 -4 101 -31.5t56 -44.5q0 -29 -15 -61.5t-38 -48.5q57 -45 88 -72q27 -25 41 -35q17 -10 68 -17z
M1837 823q-10 0 -41 -30q-6 -6 -16 -7q-16 0 -25 9q-12 12 -16 12q-6 0 -17 -8q10 -12 11 -35l-2 -27q-4 -66 -5 -159q0 -102 5 -136q18 14 33.5 18.5t19.5 8.5t6 23l25 256l24 75h-2zM4835 690l4 17l-333 10q-6 0 -10.5 -5t-4.5 -10zM5394 623q8 0 11.5 3t5.5 11l8 53
l-465 -6q-35 0 -59.5 1t-46.5 7l-9 -63zM4481 659.5q-2 -16.5 4 -16.5l340 -8l2 29l-340 12q-4 0 -6 -16.5zM2865 631q-12 31 -45 24l57 -57zM2200 444q0 -31 10 -49t53 -73l25 -9h487q57 -4 90 -8l62 -6l143 -12v4l-262 53l-80 10q-18 6 -33 6q-14 0 -27.5 -6t-17.5 -6
q-10 0 -18 14q-4 10 -17 11q-6 0 -18 -2t-17 8l-276 29l-10 8l10 8q12 4 23 4q12 0 29.5 -3t27.5 -5l166 -23q6 -2 20.5 -7t40.5 -5q27 0 43.5 -6t28.5 -6q10 0 24.5 2t26.5 0l236 -53q61 -14 103 -23.5t58 -9.5q20 0 39 12q61 39 84 60.5t33 56.5q2 4 2 10q0 16 -12 25
q-27 23 -59.5 32t-92.5 19l-53 10l-193 8q-27 0 -45 15.5t-49 50.5q-43 49 -47 53q-8 10 -13 12t-11.5 2h-8.5h-407q-27 0 -51.5 -37.5t-24.5 -74.5q0 -80 26.5 -126t86.5 -79l4 -4l-6 -2q-14 0 -47 14q-37 18 -53.5 60.5t-26.5 105.5q-6 -43 -6 -68zM2880.5 614.5
q11.5 -28.5 7.5 -36.5l-78 69l31 -55l-5 -2q-4 6 -15 17t-15 22q-8 18 -15.5 21t-40.5 3l50 -57q10 -14 37.5 -26.5t39.5 -18.5l29 37q4 10 0 18q-12 29 -39 47q2 -10 13.5 -38.5zM2888 547q147 -20 217 -21l-129 58q-14 6 -29.5 10t-21.5 -2zM1817 453q0 2 8 47l10 47
l10 14l-14 -108q8 -4 14 2t19.5 25.5t21.5 33.5q10 12 27 12q18 0 29 -14q12 -16 18 -26.5t10 -13.5t10 3l21 23q12 14 27 14q20 0 32 -27q6 -16 21.5 -28.5t32.5 -10.5l18 3v-7l-37 -6q-16 -4 -28.5 6.5t-22.5 40.5q-6 16 -19 17q-10 0 -20 -11q-39 -39 -51 -38
q-14 0 -17 22l-6 31q-2 10 -12 10q-6 0 -11 -3t-7 -7q-6 -10 -21.5 -32.5t-24 -27t-22.5 -4.5q-16 1 -16 13zM3181 100l67 -55q10 -6 15.5 -7t13.5 7q20 18 38.5 32.5t18.5 18.5q0 37 -33.5 127t-56.5 109l-90 -53l-94 -5q66 -74 80 -102q8 -20 28 -47zM3029 176
q4 -4 11 -21.5t18 -21.5l106 -24l-121 165l-75 2z" />
    <glyph glyph-name="uniF8FF" unicode="&#xf8ff;" horiz-adv-x="2541" 
d="M1694 -6q-14 -14 -35 -14q-27 0 -34 13t-7 34v663l-694 -696q-14 -14 -35 -14q-27 0 -34 13t-7 34v663l-696 -696q-14 -14 -35 -14q-14 0 -24.5 10t-10.5 26q0 20 10 31l701 698h-664q-47 0 -47 39q0 18 14 33l697 701h-670q-18 0 -29.5 10t-11.5 28v3q0 18 11 28t30 10
h758q20 0 33.5 -7t13.5 -34q0 -18 -17 -34l-698 -697h676q16 0 28.5 -12t12.5 -29v-669l694 692q16 16 35 16q37 0 37 -45v-663l696 692q16 16 33 16q14 0 24.5 -11t10.5 -28q0 -16 -13 -28z" />
    <glyph glyph-name="G.aalt" horiz-adv-x="1615" 
d="M1466 815v-835h-20l-119 278q-80 -125 -222 -201.5t-294 -76.5q-203 0 -358.5 97t-240.5 273t-85 408q0 238 92 419t260 280t385 99q160 0 312.5 -58t244.5 -155l-14 -16q-88 84 -226.5 134t-277.5 50q-180 0 -318.5 -94t-215 -265t-76.5 -394q0 -217 68.5 -384
t193.5 -258t287 -91q133 0 264 72.5t207 191.5v526h153z" />
    <glyph glyph-name="J.aalt" horiz-adv-x="815" 
d="M348 1640l-10 29l471 172l12 -31zM517 66q-87 -86 -228 -86q-72 0 -137.5 24.5t-106.5 65.5l16 20q33 -33 80 -51.5t99 -18.5q94 0 152.5 69t58.5 181v1266h153v-1245q0 -139 -87 -225z" />
    <glyph glyph-name="W.aalt" horiz-adv-x="1845" 
d="M1790 1536l-567 -1556h-29l-270 757l-267 -757h-28l-574 1556h160l481 -1333l207 594l-262 739h158l207 -592l213 592h43l-234 -655l238 -678l481 1333h43z" />
    <glyph glyph-name="Wacute.aalt" horiz-adv-x="1845" 
d="M707 1642l-11 29l543 197l12 -33zM1790 1536l-567 -1556h-29l-270 757l-267 -757h-28l-574 1556h160l481 -1333l207 594l-262 739h158l207 -592l213 592h43l-234 -655l238 -678l481 1333h43z" />
    <glyph glyph-name="Wcircumflex.aalt" horiz-adv-x="1845" 
d="M635 1624l-14 16l329 242l330 -242l-14 -16l-316 205zM1790 1536l-567 -1556h-29l-270 757l-267 -757h-28l-574 1556h160l481 -1333l207 594l-262 739h158l207 -592l213 592h43l-234 -655l238 -678l481 1333h43z" />
    <glyph glyph-name="Wdieresis.aalt" horiz-adv-x="1845" 
d="M811 1698.5q-23 -21.5 -59 -21.5q-37 0 -59.5 21.5t-22.5 56.5q0 37 22.5 58.5t59.5 21.5t59.5 -21.5t22.5 -58.5q0 -35 -23 -56.5zM1210.5 1698.5q-22.5 -21.5 -61.5 -21.5q-37 0 -59.5 21.5t-22.5 56.5q0 37 22.5 58.5t59.5 21.5q39 0 61.5 -21.5t22.5 -58.5
q0 -35 -22.5 -56.5zM1790 1536l-567 -1556h-29l-270 757l-267 -757h-28l-574 1556h160l481 -1333l207 594l-262 739h158l207 -592l213 592h43l-234 -655l238 -678l481 1333h43z" />
    <glyph glyph-name="Wgrave.aalt" horiz-adv-x="1845" 
d="M1196 1642l-545 193l13 33l542 -197zM1790 1536l-567 -1556h-29l-270 757l-267 -757h-28l-574 1556h160l481 -1333l207 594l-262 739h158l207 -592l213 592h43l-234 -655l238 -678l481 1333h43z" />
    <glyph glyph-name="Y.aalt" horiz-adv-x="1396" 
d="M1354 1536l-824 -1536h-45l234 436l-631 1100h172l539 -948l508 948h47z" />
    <glyph glyph-name="Yacute.aalt" horiz-adv-x="1396" 
d="M537 1642l-11 29l543 197l12 -33zM1354 1536l-824 -1536h-45l234 436l-631 1100h172l539 -948l508 948h47z" />
    <glyph glyph-name="Ycircumflex.aalt" horiz-adv-x="1396" 
d="M465 1624l-14 16l329 242l330 -242l-14 -16l-316 205zM1354 1536l-824 -1536h-45l234 436l-631 1100h172l539 -948l508 948h47z" />
    <glyph glyph-name="Ydieresis.aalt" horiz-adv-x="1396" 
d="M641 1698.5q-23 -21.5 -59 -21.5q-37 0 -59.5 21.5t-22.5 56.5q0 37 22.5 58.5t59.5 21.5t59.5 -21.5t22.5 -58.5q0 -35 -23 -56.5zM1040.5 1698.5q-22.5 -21.5 -61.5 -21.5q-37 0 -59.5 21.5t-22.5 56.5q0 37 22.5 58.5t59.5 21.5q39 0 61.5 -21.5t22.5 -58.5
q0 -35 -22.5 -56.5zM1354 1536l-824 -1536h-45l234 436l-631 1100h172l539 -948l508 948h47z" />
    <glyph glyph-name="Ygrave.aalt" horiz-adv-x="1396" 
d="M1024 1642l-545 193l13 33l542 -197zM1354 1536l-824 -1536h-45l234 436l-631 1100h172l539 -948l508 948h47z" />
    <glyph glyph-name="a.salt" horiz-adv-x="1157" 
d="M875.5 1016q113.5 -98 113.5 -268v-768h-20l-115 290q-63 -131 -181 -210.5t-249 -79.5q-156 0 -250 88t-94 231q0 133 122 215t320 82h320v158q0 152 -85 236.5t-235 84.5q-92 0 -186 -37t-166 -100l-14 14q78 76 186.5 119t222.5 43q197 0 310.5 -98zM681 106.5
q101 77.5 161 202.5v254h-295q-139 0 -225 -70.5t-86 -189.5q0 -125 65.5 -199.5t173.5 -74.5q105 0 206 77.5z" />
    <glyph glyph-name="aacute.aalt" horiz-adv-x="1157" 
d="M414 1257l-15 27l410 242l16 -29zM875.5 1016q113.5 -98 113.5 -268v-768h-20l-115 290q-63 -131 -181 -210.5t-249 -79.5q-156 0 -250 88t-94 231q0 133 122 215t320 82h320v158q0 152 -85 236.5t-235 84.5q-92 0 -186 -37t-166 -100l-14 14q78 76 186.5 119t222.5 43
q197 0 310.5 -98zM681 106.5q101 77.5 161 202.5v254h-295q-139 0 -225 -70.5t-86 -189.5q0 -125 65.5 -199.5t173.5 -74.5q105 0 206 77.5z" />
    <glyph glyph-name="abreve.aalt" horiz-adv-x="1157" 
d="M750.5 1340.5q-74.5 -60.5 -162.5 -60.5q-86 0 -162 60.5t-111 158.5l21 10q39 -86 107.5 -139t144.5 -53t145.5 53t108.5 139l20 -10q-37 -98 -111.5 -158.5zM875.5 1016q113.5 -98 113.5 -268v-768h-20l-115 290q-63 -131 -181 -210.5t-249 -79.5q-156 0 -250 88
t-94 231q0 133 122 215t320 82h320v158q0 152 -85 236.5t-235 84.5q-92 0 -186 -37t-166 -100l-14 14q78 76 186.5 119t222.5 43q197 0 310.5 -98zM681 106.5q101 77.5 161 202.5v254h-295q-139 0 -225 -70.5t-86 -189.5q0 -125 65.5 -199.5t173.5 -74.5q105 0 206 77.5z
" />
    <glyph glyph-name="acircumflex.aalt" horiz-adv-x="1157" 
d="M319 1255l-14 17l285 262l287 -262l-15 -17l-272 224zM875.5 1016q113.5 -98 113.5 -268v-768h-20l-115 290q-63 -131 -181 -210.5t-249 -79.5q-156 0 -250 88t-94 231q0 133 122 215t320 82h320v158q0 152 -85 236.5t-235 84.5q-92 0 -186 -37t-166 -100l-14 14
q78 76 186.5 119t222.5 43q197 0 310.5 -98zM681 106.5q101 77.5 161 202.5v254h-295q-139 0 -225 -70.5t-86 -189.5q0 -125 65.5 -199.5t173.5 -74.5q105 0 206 77.5z" />
    <glyph glyph-name="adieresis.aalt" horiz-adv-x="1157" 
d="M448.5 1411.5q-22.5 -22.5 -59.5 -22.5t-59.5 22.5t-22.5 56.5q0 35 22.5 56.5t59.5 21.5t59.5 -21.5t22.5 -56.5q0 -34 -22.5 -56.5zM847.5 1411.5q-22.5 -22.5 -61.5 -22.5q-37 0 -59 22.5t-22 56.5q0 35 22.5 56.5t58.5 21.5q39 0 61.5 -21.5t22.5 -56.5
q0 -34 -22.5 -56.5zM875.5 1016q113.5 -98 113.5 -268v-768h-20l-115 290q-63 -131 -181 -210.5t-249 -79.5q-156 0 -250 88t-94 231q0 133 122 215t320 82h320v158q0 152 -85 236.5t-235 84.5q-92 0 -186 -37t-166 -100l-14 14q78 76 186.5 119t222.5 43q197 0 310.5 -98z
M681 106.5q101 77.5 161 202.5v254h-295q-139 0 -225 -70.5t-86 -189.5q0 -125 65.5 -199.5t173.5 -74.5q105 0 206 77.5z" />
    <glyph glyph-name="agrave.aalt" horiz-adv-x="1157" 
d="M768 1257l-414 240l17 29l411 -242zM875.5 1016q113.5 -98 113.5 -268v-768h-20l-115 290q-63 -131 -181 -210.5t-249 -79.5q-156 0 -250 88t-94 231q0 133 122 215t320 82h320v158q0 152 -85 236.5t-235 84.5q-92 0 -186 -37t-166 -100l-14 14q78 76 186.5 119t222.5 43
q197 0 310.5 -98zM681 106.5q101 77.5 161 202.5v254h-295q-139 0 -225 -70.5t-86 -189.5q0 -125 65.5 -199.5t173.5 -74.5q105 0 206 77.5z" />
    <glyph glyph-name="amacron.aalt" horiz-adv-x="1157" 
d="M305 1374v33h567v-33h-567zM875.5 1016q113.5 -98 113.5 -268v-768h-20l-115 290q-63 -131 -181 -210.5t-249 -79.5q-156 0 -250 88t-94 231q0 133 122 215t320 82h320v158q0 152 -85 236.5t-235 84.5q-92 0 -186 -37t-166 -100l-14 14q78 76 186.5 119t222.5 43
q197 0 310.5 -98zM681 106.5q101 77.5 161 202.5v254h-295q-139 0 -225 -70.5t-86 -189.5q0 -125 65.5 -199.5t173.5 -74.5q105 0 206 77.5z" />
    <glyph glyph-name="aogonek.aalt" horiz-adv-x="1157" 
d="M1004 -430q-31 -18 -76 -29.5t-88 -11.5q-92 0 -147.5 46t-55.5 122q0 86 89 166t239 129l-111 278q-63 -131 -181 -210.5t-249 -79.5q-156 0 -250 88t-94 231q0 133 122 215t320 82h320v158q0 152 -85 236.5t-235 84.5q-92 0 -186 -37t-166 -100l-14 14q78 76 186.5 119
t222.5 43q197 0 310.5 -98t113.5 -268v-768q-106 -49 -172.5 -125t-66.5 -150q0 -61 36.5 -98t98.5 -37q66 0 112 20zM681 106.5q101 77.5 161 202.5v254h-295q-139 0 -225 -70.5t-86 -189.5q0 -125 65.5 -199.5t173.5 -74.5q105 0 206 77.5z" />
    <glyph glyph-name="aring.aalt" horiz-adv-x="1157" 
d="M732 1284q-54 -51 -142 -51t-142.5 50t-54.5 134t53.5 135.5t143.5 51.5q88 0 142 -51.5t54 -135.5q0 -82 -54 -133zM476 1307q42 -41 114 -41q70 0 112.5 41t42.5 110q0 70 -43 112t-112 42q-70 0 -113 -42t-43 -112q0 -69 42 -110zM875.5 1016q113.5 -98 113.5 -268
v-768h-20l-115 290q-63 -131 -181 -210.5t-249 -79.5q-156 0 -250 88t-94 231q0 133 122 215t320 82h320v158q0 152 -85 236.5t-235 84.5q-92 0 -186 -37t-166 -100l-14 14q78 76 186.5 119t222.5 43q197 0 310.5 -98zM681 106.5q101 77.5 161 202.5v254h-295
q-139 0 -225 -70.5t-86 -189.5q0 -125 65.5 -199.5t173.5 -74.5q105 0 206 77.5z" />
    <glyph glyph-name="atilde.aalt" horiz-adv-x="1157" 
d="M350 1421.5q-39 -32.5 -67 -100.5l-21 10q61 156 189 156q45 0 78.5 -19.5t76.5 -58.5q37 -33 66.5 -50.5t64.5 -17.5q51 0 88 33t68 101l22 -11q-25 -68 -70.5 -111.5t-117.5 -43.5q-45 0 -79 19.5t-77 57.5q-41 35 -68.5 51.5t-62.5 16.5q-51 0 -90 -32.5zM875.5 1016
q113.5 -98 113.5 -268v-768h-20l-115 290q-63 -131 -181 -210.5t-249 -79.5q-156 0 -250 88t-94 231q0 133 122 215t320 82h320v158q0 152 -85 236.5t-235 84.5q-92 0 -186 -37t-166 -100l-14 14q78 76 186.5 119t222.5 43q197 0 310.5 -98zM681 106.5q101 77.5 161 202.5
v254h-295q-139 0 -225 -70.5t-86 -189.5q0 -125 65.5 -199.5t173.5 -74.5q105 0 206 77.5z" />
    <glyph glyph-name="b.aalt" horiz-adv-x="1271" 
d="M944.5 1043.5q104.5 -70.5 161.5 -199.5t57 -297t-57 -297t-161.5 -199.5t-242.5 -70.5q-135 0 -241.5 80.5t-147.5 213.5l-114 -294h-21v1617h148v-745q49 119 151.5 190.5t224.5 71.5q138 0 242.5 -70.5zM845 90.5q77 65.5 120 183t43 273.5t-43 273.5t-120 183
t-179 65.5q-111 0 -204 -81t-136 -212v-459q43 -131 136 -211.5t204 -80.5q102 0 179 65.5z" />
    <glyph glyph-name="d.aalt" horiz-adv-x="1271" 
d="M1092 1597v-1617h-21l-113 299q-41 -135 -148.5 -217t-242.5 -82q-137 0 -241.5 70.5t-162 199.5t-57.5 297t57.5 297t162 199.5t241.5 70.5q125 0 227.5 -70.5t149.5 -187.5v741h148zM808 105.5q93 80.5 136 211.5v459q-41 131 -134 212t-204 81q-102 0 -180 -65.5
t-121 -183.5t-43 -273q0 -156 43 -273.5t121 -183t180 -65.5q109 0 202 80.5z" />
    <glyph glyph-name="dcaron.aalt" horiz-adv-x="1271" 
d="M1341 1597l-98 -417l-29 8l95 418zM944 1597h148v-1617h-21l-113 299q-41 -135 -148.5 -217t-242.5 -82q-137 0 -241.5 70.5t-162 199.5t-57.5 297t57.5 297t162 199.5t241.5 70.5q125 0 227.5 -70.5t149.5 -187.5v741zM808 105.5q93 80.5 136 211.5v459
q-41 131 -134 212t-204 81q-102 0 -180 -65.5t-121 -183.5t-43 -273q0 -156 43 -273.5t121 -183t180 -65.5q109 0 202 80.5z" />
    <glyph glyph-name="dcroat.aalt" horiz-adv-x="1271" 
d="M1270 1329h-178v-1349h-21l-113 299q-41 -135 -148.5 -217t-242.5 -82q-137 0 -241.5 70.5t-162 199.5t-57.5 297t57.5 297t162 199.5t241.5 70.5q125 0 227.5 -70.5t149.5 -187.5v473h-412v33h412v235h148v-235h178v-33zM808 105.5q93 80.5 136 211.5v459
q-41 131 -134 212t-204 81q-102 0 -180 -65.5t-121 -183.5t-43 -273q0 -156 43 -273.5t121 -183t180 -65.5q109 0 202 80.5z" />
    <glyph glyph-name="g.aalt" horiz-adv-x="1271" 
d="M1092 1114v-1102q0 -143 -69 -252.5t-193.5 -170t-288.5 -60.5q-94 0 -196.5 37t-172.5 96l16 19q63 -51 155.5 -83t178.5 -32q125 0 221.5 53t148.5 150.5t52 222.5v248q-49 -119 -151.5 -189.5t-225.5 -70.5q-137 0 -241.5 70.5t-162 199.5t-57.5 297t57.5 297
t162 199.5t241.5 70.5t245 -82t146 -217l113 299h21zM808 105.5q93 80.5 136 211.5v459q-41 131 -134 212t-204 81q-102 0 -180 -65.5t-121 -183.5t-43 -273q0 -156 43 -273.5t121 -183t180 -65.5q109 0 202 80.5z" />
    <glyph glyph-name="gbreve.aalt" horiz-adv-x="1271" 
d="M810 1340.5q-75 -60.5 -163 -60.5q-86 0 -161.5 60.5t-110.5 158.5l20 10q39 -86 107.5 -139t144.5 -53t145.5 53t108.5 139l21 -10q-37 -98 -112 -158.5zM1092 1114v-1102q0 -143 -69 -252.5t-193.5 -170t-288.5 -60.5q-94 0 -196.5 37t-172.5 96l16 19
q63 -51 155.5 -83t178.5 -32q125 0 221.5 53t148.5 150.5t52 222.5v248q-49 -119 -151.5 -189.5t-225.5 -70.5q-137 0 -241.5 70.5t-162 199.5t-57.5 297t57.5 297t162 199.5t241.5 70.5t245 -82t146 -217l113 299h21zM808 105.5q93 80.5 136 211.5v459q-41 131 -134 212
t-204 81q-102 0 -180 -65.5t-121 -183.5t-43 -273q0 -156 43 -273.5t121 -183t180 -65.5q109 0 202 80.5z" />
    <glyph glyph-name="uni0123.aalt" horiz-adv-x="1271" 
d="M713.5 1392.5q23.5 -26.5 23.5 -69.5t-25.5 -68.5t-68.5 -25.5q-45 0 -71.5 35.5t-26.5 103.5q0 102 44 195.5t113 142.5l15 -23q-57 -47 -94 -128.5t-41 -165.5q27 31 69 30q39 0 62.5 -26.5zM1092 1114v-1102q0 -143 -69 -252.5t-193.5 -170t-288.5 -60.5
q-94 0 -196.5 37t-172.5 96l16 19q63 -51 155.5 -83t178.5 -32q125 0 221.5 53t148.5 150.5t52 222.5v248q-49 -119 -151.5 -189.5t-225.5 -70.5q-137 0 -241.5 70.5t-162 199.5t-57.5 297t57.5 297t162 199.5t241.5 70.5t245 -82t146 -217l113 299h21zM808 105.5
q93 80.5 136 211.5v459q-41 131 -134 212t-204 81q-102 0 -180 -65.5t-121 -183.5t-43 -273q0 -156 43 -273.5t121 -183t180 -65.5q109 0 202 80.5z" />
    <glyph glyph-name="gdotaccent.aalt" horiz-adv-x="1271" 
d="M713.5 1396.5q-25.5 -24.5 -68.5 -24.5q-41 0 -67.5 24.5t-26.5 65.5t26.5 66.5t67.5 25.5q43 0 68.5 -25.5t25.5 -66.5t-25.5 -65.5zM1092 1114v-1102q0 -143 -69 -252.5t-193.5 -170t-288.5 -60.5q-94 0 -196.5 37t-172.5 96l16 19q63 -51 155.5 -83t178.5 -32
q125 0 221.5 53t148.5 150.5t52 222.5v248q-49 -119 -151.5 -189.5t-225.5 -70.5q-137 0 -241.5 70.5t-162 199.5t-57.5 297t57.5 297t162 199.5t241.5 70.5t245 -82t146 -217l113 299h21zM808 105.5q93 80.5 136 211.5v459q-41 131 -134 212t-204 81q-102 0 -180 -65.5
t-121 -183.5t-43 -273q0 -156 43 -273.5t121 -183t180 -65.5q109 0 202 80.5z" />
    <glyph glyph-name="i.aalt" horiz-adv-x="503" 
d="M318.5 1396.5q-25.5 -24.5 -68.5 -24.5q-41 0 -67.5 24.5t-26.5 65.5t26.5 66.5t67.5 25.5q43 0 68.5 -25.5t25.5 -66.5t-25.5 -65.5zM178 0v1094h148v-1094h-148z" />
    <glyph glyph-name="glyph410" horiz-adv-x="509" 
d="M94 1262l-14 24l358 236l17 -27zM258 -302q-74 -101 -211 -169l-10 20q147 109 147 377v1168h148v-1125q0 -170 -74 -271z" />
    <glyph glyph-name="m.aalt" horiz-adv-x="1968" 
d="M1715 1027q87 -87 87 -230v-797h-147v823q0 111 -59.5 177.5t-155.5 66.5q-109 0 -211.5 -76t-165.5 -205v-786h-148v823q0 111 -58 177.5t-155 66.5q-111 0 -215 -78t-161 -205v-784h-148v1114h21l114 -291q61 131 180 211t257 80q129 0 211.5 -73.5t99.5 -196.5
q63 123 179 196.5t247 73.5q141 0 228 -87z" />
    <glyph glyph-name="n.aalt" horiz-adv-x="1251" 
d="M994 1024q89 -90 89 -238v-786h-147v813q0 115 -61.5 184.5t-161.5 69.5q-115 0 -221.5 -81t-165.5 -212v-774h-148v1114h21l114 -299q63 135 185.5 217t261.5 82q145 0 234 -90z" />
    <glyph glyph-name="nacute.aalt" horiz-adv-x="1251" 
d="M451 1257l-15 27l410 242l16 -29zM994 1024q89 -90 89 -238v-786h-147v813q0 115 -61.5 184.5t-161.5 69.5q-115 0 -221.5 -81t-165.5 -212v-774h-148v1114h21l114 -299q63 135 185.5 217t261.5 82q145 0 234 -90z" />
    <glyph glyph-name="ncaron.aalt" horiz-adv-x="1251" 
d="M899 1534l14 -16l-286 -263l-285 263l14 16l271 -225zM994 1024q89 -90 89 -238v-786h-147v813q0 115 -61.5 184.5t-161.5 69.5q-115 0 -221.5 -81t-165.5 -212v-774h-148v1114h21l114 -299q63 135 185.5 217t261.5 82q145 0 234 -90z" />
    <glyph glyph-name="uni0146.aalt" horiz-adv-x="1251" 
d="M696.5 -156.5q26.5 -31.5 26.5 -95.5q0 -76 -43 -143.5t-113 -102.5l-14 21q57 35 95 91t40 116q-25 -25 -70 -25q-39 0 -63.5 22.5t-24.5 61.5t26 62.5t69 23.5q45 0 71.5 -31.5zM994 1024q89 -90 89 -238v-786h-147v813q0 115 -61.5 184.5t-161.5 69.5
q-115 0 -221.5 -81t-165.5 -212v-774h-148v1114h21l114 -299q63 135 185.5 217t261.5 82q145 0 234 -90z" />
    <glyph glyph-name="eng.aalt" horiz-adv-x="1251" 
d="M994 1024q89 -90 89 -238v-817q0 -170 -73.5 -271t-210.5 -169l-11 20q147 109 148 381v883q0 115 -61.5 184.5t-161.5 69.5q-115 0 -221.5 -81t-165.5 -212v-774h-148v1114h21l114 -299q63 135 185.5 217t261.5 82q145 0 234 -90z" />
    <glyph glyph-name="ntilde.aalt" horiz-adv-x="1251" 
d="M387 1421.5q-39 -32.5 -68 -100.5l-20 10q61 156 188 156q45 0 79 -19.5t77 -58.5q37 -33 66.5 -50.5t64.5 -17.5q51 0 88 33t68 101l22 -11q-25 -68 -70.5 -111.5t-117.5 -43.5q-45 0 -79 19.5t-77 57.5q-41 35 -68.5 51.5t-62.5 16.5q-51 0 -90 -32.5zM994 1024
q89 -90 89 -238v-786h-147v813q0 115 -61.5 184.5t-161.5 69.5q-115 0 -221.5 -81t-165.5 -212v-774h-148v1114h21l114 -299q63 135 185.5 217t261.5 82q145 0 234 -90z" />
    <glyph glyph-name="p.aalt" horiz-adv-x="1271" 
d="M944.5 1043.5q104.5 -70.5 161.5 -199.5t57 -297t-57 -297t-161.5 -199.5t-242.5 -70.5q-125 0 -227 70.5t-149 189.5v-691h-148v1565h21l114 -297q43 133 150.5 215t238.5 82q138 0 242.5 -70.5zM845 90.5q77 65.5 120 183t43 273.5t-43 273.5t-120 183t-179 65.5
q-111 0 -204 -81t-136 -212v-459q43 -131 136 -211.5t204 -80.5q102 0 179 65.5z" />
    <glyph glyph-name="q.aalt" horiz-adv-x="1271" 
d="M1092 1114v-1565h-148v691q-49 -119 -151.5 -189.5t-225.5 -70.5q-137 0 -241.5 70.5t-162 199.5t-57.5 297t57.5 297t162 199.5t241.5 70.5t245 -82t146 -217l113 299h21zM808 105.5q93 80.5 136 211.5v459q-41 131 -134 212t-204 81q-102 0 -180 -65.5t-121 -183.5
t-43 -273q0 -156 43 -273.5t121 -183t180 -65.5q109 0 202 80.5z" />
    <glyph glyph-name="r.aalt" horiz-adv-x="798" 
d="M488.5 1004.5q119.5 89.5 263.5 89.5v-33q-141 0 -258 -93.5t-168 -244.5v-723h-148v1114h21l114 -348q56 149 175.5 238.5z" />
    <glyph glyph-name="racute.aalt" horiz-adv-x="798" 
d="M293 1257l-14 27l409 242l17 -29zM488.5 1004.5q119.5 89.5 263.5 89.5v-33q-141 0 -258 -93.5t-168 -244.5v-723h-148v1114h21l114 -348q56 149 175.5 238.5z" />
    <glyph glyph-name="rcaron.aalt" horiz-adv-x="798" 
d="M743 1534l15 -16l-287 -263l-285 263l15 16l270 -225zM488.5 1004.5q119.5 89.5 263.5 89.5v-33q-141 0 -258 -93.5t-168 -244.5v-723h-148v1114h21l114 -348q56 149 175.5 238.5z" />
    <glyph glyph-name="uni0157.aalt" horiz-adv-x="798" 
d="M321.5 -156.5q26.5 -31.5 26.5 -95.5q0 -76 -43 -143.5t-112 -102.5l-15 21q57 35 95 91t40 116q-25 -25 -69 -25q-39 0 -63.5 22.5t-24.5 61.5t25.5 62.5t68.5 23.5q45 0 71.5 -31.5zM488.5 1004.5q119.5 89.5 263.5 89.5v-33q-141 0 -258 -93.5t-168 -244.5v-723h-148
v1114h21l114 -348q56 149 175.5 238.5z" />
    <glyph glyph-name="u.aalt" horiz-adv-x="1230" 
d="M1053 1094v-1114h-21l-114 290q-61 -133 -180.5 -211.5t-256.5 -78.5q-141 0 -227 87t-86 230v797h147v-824q0 -111 58.5 -177t154.5 -66q113 0 216.5 77.5t160.5 204.5v785h148z" />
    <glyph glyph-name="uacute.aalt" horiz-adv-x="1230" 
d="M430 1257l-14 27l409 242l17 -29zM1053 1094v-1114h-21l-114 290q-61 -133 -180.5 -211.5t-256.5 -78.5q-141 0 -227 87t-86 230v797h147v-824q0 -111 58.5 -177t154.5 -66q113 0 216.5 77.5t160.5 204.5v785h148z" />
    <glyph glyph-name="ucircumflex.aalt" horiz-adv-x="1230" 
d="M336 1255l-14 17l284 262l287 -262l-14 -17l-273 224zM1053 1094v-1114h-21l-114 290q-61 -133 -180.5 -211.5t-256.5 -78.5q-141 0 -227 87t-86 230v797h147v-824q0 -111 58.5 -177t154.5 -66q113 0 216.5 77.5t160.5 204.5v785h148z" />
    <glyph glyph-name="udieresis.aalt" horiz-adv-x="1230" 
d="M466.5 1411.5q-22.5 -22.5 -58.5 -22.5q-37 0 -59.5 22.5t-22.5 56.5q0 35 22.5 56.5t59.5 21.5t59 -21.5t22 -56.5q0 -34 -22.5 -56.5zM866.5 1411.5q-22.5 -22.5 -61.5 -22.5q-37 0 -59.5 22.5t-22.5 56.5q0 35 22.5 56.5t59.5 21.5q39 0 61.5 -21.5t22.5 -56.5
q0 -34 -22.5 -56.5zM1053 1094v-1114h-21l-114 290q-61 -133 -180.5 -211.5t-256.5 -78.5q-141 0 -227 87t-86 230v797h147v-824q0 -111 58.5 -177t154.5 -66q113 0 216.5 77.5t160.5 204.5v785h148z" />
    <glyph glyph-name="ugrave.aalt" horiz-adv-x="1230" 
d="M786 1257l-413 240l16 29l412 -242zM1053 1094v-1114h-21l-114 290q-61 -133 -180.5 -211.5t-256.5 -78.5q-141 0 -227 87t-86 230v797h147v-824q0 -111 58.5 -177t154.5 -66q113 0 216.5 77.5t160.5 204.5v785h148z" />
    <glyph glyph-name="uhungarumlaut.aalt" horiz-adv-x="1230" 
d="M702 1589l23 -22l-338 -338l-20 22zM1065 1589l22 -22l-335 -338l-23 22zM1053 1094v-1114h-21l-114 290q-61 -133 -180.5 -211.5t-256.5 -78.5q-141 0 -227 87t-86 230v797h147v-824q0 -111 58.5 -177t154.5 -66q113 0 216.5 77.5t160.5 204.5v785h148z" />
    <glyph glyph-name="umacron.aalt" horiz-adv-x="1230" 
d="M324 1374v33h567v-33h-567zM1053 1094v-1114h-21l-114 290q-61 -133 -180.5 -211.5t-256.5 -78.5q-141 0 -227 87t-86 230v797h147v-824q0 -111 58.5 -177t154.5 -66q113 0 216.5 77.5t160.5 204.5v785h148z" />
    <glyph glyph-name="uogonek.aalt" horiz-adv-x="1230" 
d="M1065 -430q-31 -18 -76 -29.5t-88 -11.5q-90 0 -146.5 46t-56.5 122q0 86 90.5 167t239.5 128l-110 278q-61 -133 -180.5 -211.5t-256.5 -78.5q-141 0 -227 87t-86 230v797h147v-824q0 -111 58.5 -177t154.5 -66q113 0 216.5 77.5t160.5 204.5v785h148v-1114
q-109 -49 -175.5 -125t-66.5 -150q0 -61 38 -98t97 -37q66 0 113 20z" />
    <glyph glyph-name="uring.aalt" horiz-adv-x="1230" 
d="M750.5 1284q-54.5 -51 -142.5 -51t-142 50t-54 134t53 135.5t143 51.5q88 0 142.5 -51.5t54.5 -135.5q0 -82 -54.5 -133zM495 1307q42 -41 113 -41q70 0 113 41t43 110q0 70 -43 112t-113 42t-112.5 -42t-42.5 -112q0 -69 42 -110zM1053 1094v-1114h-21l-114 290
q-61 -133 -180.5 -211.5t-256.5 -78.5q-141 0 -227 87t-86 230v797h147v-824q0 -111 58.5 -177t154.5 -66q113 0 216.5 77.5t160.5 204.5v785h148z" />
    <glyph glyph-name="w.aalt" horiz-adv-x="1556" 
d="M1505 1094l-463 -1114h-20l-236 571l-247 -571h-21l-467 1114h158l381 -920l178 424l-205 496h146l155 -377l156 377h41l-176 -428l202 -492l377 920h41z" />
    <glyph glyph-name="wacute.aalt" horiz-adv-x="1556" 
d="M643 1257l-14 27l409 242l17 -29zM1505 1094l-463 -1114h-20l-236 571l-247 -571h-21l-467 1114h158l381 -920l178 424l-205 496h146l155 -377l156 377h41l-176 -428l202 -492l377 920h41z" />
    <glyph glyph-name="wcircumflex.aalt" horiz-adv-x="1556" 
d="M549 1255l-14 17l284 262l287 -262l-14 -17l-273 224zM1505 1094l-463 -1114h-20l-236 571l-247 -571h-21l-467 1114h158l381 -920l178 424l-205 496h146l155 -377l156 377h41l-176 -428l202 -492l377 920h41z" />
    <glyph glyph-name="wdieresis.aalt" horiz-adv-x="1556" 
d="M677.5 1411.5q-22.5 -22.5 -59.5 -22.5t-59 22.5t-22 56.5q0 35 22.5 56.5t58.5 21.5q37 0 59.5 -21.5t22.5 -56.5q0 -34 -22.5 -56.5zM1077.5 1411.5q-22.5 -22.5 -61.5 -22.5q-37 0 -59.5 22.5t-22.5 56.5q0 35 22.5 56.5t59.5 21.5q39 0 61.5 -21.5t22.5 -56.5
q0 -34 -22.5 -56.5zM1505 1094l-463 -1114h-20l-236 571l-247 -571h-21l-467 1114h158l381 -920l178 424l-205 496h146l155 -377l156 377h41l-176 -428l202 -492l377 920h41z" />
    <glyph glyph-name="wgrave.aalt" horiz-adv-x="1556" 
d="M997 1257l-413 240l16 29l412 -242zM1505 1094l-463 -1114h-20l-236 571l-247 -571h-21l-467 1114h158l381 -920l178 424l-205 496h146l155 -377l156 377h41l-176 -428l202 -492l377 920h41z" />
    <glyph glyph-name="A_A.dlig" horiz-adv-x="2590" 
d="M715 1556l653 -1556h-160l-184 444h-748l-180 -444h-43l635 1556h27zM2378 0l-185 444h-790l455 1112h26l653 -1556h-159zM1010 477l-365 873l-354 -873h719zM2179 477l-364 873l-355 -873h719z" />
    <glyph glyph-name="A_Aacute.dlig" horiz-adv-x="2590" 
d="M1626 1642l-10 29l543 197l12 -33zM715 1556l653 -1556h-160l-184 444h-748l-180 -444h-43l635 1556h27zM2378 0l-185 444h-790l455 1112h26l653 -1556h-159zM1010 477l-365 873l-354 -873h719zM2179 477l-364 873l-355 -873h719z" />
    <glyph glyph-name="A_Adieresis.dlig" horiz-adv-x="2590" 
d="M1728.5 1698.5q-22.5 -21.5 -59.5 -21.5t-59.5 21.5t-22.5 56.5q0 37 22.5 58.5t59.5 21.5t59.5 -21.5t22.5 -58.5q0 -35 -22.5 -56.5zM2127.5 1698.5q-22.5 -21.5 -61.5 -21.5q-37 0 -59 21.5t-22 56.5q0 37 22.5 58.5t58.5 21.5q39 0 61.5 -21.5t22.5 -58.5
q0 -35 -22.5 -56.5zM715 1556l653 -1556h-160l-184 444h-748l-180 -444h-43l635 1556h27zM2378 0l-185 444h-790l455 1112h26l653 -1556h-159zM1010 477l-365 873l-354 -873h719zM2179 477l-364 873l-355 -873h719z" />
    <glyph glyph-name="A_Adieresis_Adieresis.dlig" horiz-adv-x="3760" 
d="M1611.5 1698.5q-22.5 21.5 -22.5 56.5t22.5 57.5t59.5 22.5t59.5 -22.5t22.5 -57.5t-22.5 -56.5t-59.5 -21.5t-59.5 21.5zM2009.5 1698.5q-22.5 21.5 -22.5 56.5t22.5 57.5t58.5 22.5q37 0 59.5 -22.5t22.5 -57.5t-22.5 -56.5t-59.5 -21.5q-36 0 -58.5 21.5z
M2781.5 1698.5q-22.5 21.5 -22.5 56.5t22.5 57.5t59.5 22.5t59 -22.5t22 -57.5t-22.5 -56.5t-58.5 -21.5q-37 0 -59.5 21.5zM3178.5 1698.5q-22.5 21.5 -22.5 56.5t22.5 57.5t59.5 22.5t59.5 -22.5t22.5 -57.5t-22.5 -56.5t-59.5 -21.5t-59.5 21.5zM715 1556l653 -1556h-160
l-184 444h-748l-180 -444h-43l635 1556h27zM1884 1556l653 -1556h-159l-185 444h-790l455 1112h26zM3547 0l-184 444h-791l453 1112h29l653 -1556h-160zM1010 477l-365 873l-354 -873h719zM2179 477l-364 873l-355 -873h719zM3348 477l-364 873l-354 -873h718z" />
    <glyph glyph-name="A_Agrave.dlig" horiz-adv-x="2590" 
d="M2114 1642l-545 193l12 33l543 -197zM715 1556l653 -1556h-160l-184 444h-748l-180 -444h-43l635 1556h27zM2378 0l-185 444h-790l455 1112h26l653 -1556h-159zM1010 477l-365 873l-354 -873h719zM2179 477l-364 873l-355 -873h719z" />
    <glyph glyph-name="A_Amacron.dlig" horiz-adv-x="2590" 
d="M1585 1677v33h567v-33h-567zM715 1556l653 -1556h-160l-184 444h-748l-180 -444h-43l635 1556h27zM2378 0l-185 444h-790l455 1112h26l653 -1556h-159zM1010 477l-365 873l-354 -873h719zM2179 477l-364 873l-355 -873h719z" />
    <glyph glyph-name="A_Aogonek.dlig" horiz-adv-x="2590" 
d="M715 1556l653 -1556h-160l-184 444h-748l-180 -444h-43l635 1556h27zM2552 -430q-33 -20 -78 -30.5t-88 -10.5q-90 0 -146.5 46t-56.5 122q0 88 79 169t214 134h-98l-185 444h-790l455 1112h26l653 -1556q-109 -53 -174 -134t-65 -161q0 -61 37 -98t98 -37q66 0 111 20z
M1010 477l-365 873l-354 -873h719zM2179 477l-364 873l-355 -873h719z" />
    <glyph glyph-name="A_Aring.dlig" horiz-adv-x="2590" 
d="M2014 1675q-54 -51 -142 -51q-90 0 -143.5 51t-53.5 135t54.5 134.5t142.5 50.5t142 -51.5t54 -133.5q0 -84 -54 -135zM1759 1699q43 -42 113 -42t113 42t43 111q0 68 -43 110t-113 42t-113 -42t-43 -110q0 -69 43 -111zM715 1556l653 -1556h-160l-184 444h-748
l-180 -444h-43l635 1556h27zM2378 0l-185 444h-790l455 1112h26l653 -1556h-159zM1010 477l-365 873l-354 -873h719zM2179 477l-364 873l-355 -873h719z" />
    <glyph glyph-name="A_Atilde.dlig" horiz-adv-x="2590" 
d="M1630 1796q-39 -33 -67 -100l-21 10q59 156 189 156q45 0 78 -20q34 -19 77 -58q37 -33 67 -50t64 -18q51 0 88 34t68 101l22 -12q-25 -68 -70 -112q-46 -44 -118 -44q-45 0 -79 20q-34 19 -77 58q-41 35 -68 51q-28 16 -63 17q-51 0 -90 -33zM715 1556l653 -1556h-160
l-184 444h-748l-180 -444h-43l635 1556h27zM2378 0l-185 444h-790l455 1112h26l653 -1556h-159zM1010 477l-365 873l-354 -873h719zM2179 477l-364 873l-355 -873h719z" />
    <glyph glyph-name="A_J.dlig" horiz-adv-x="1984" 
d="M1184 444h-908l-180 -444h-43l635 1556h27zM1774 1536v-1245q0 -139 -87.5 -225t-228.5 -86q-72 0 -137.5 24.5t-106.5 65.5l17 20q31 -33 79 -51.5t99 -18.5q94 0 152.5 69t58.5 181v1266h154zM291 477h719l-365 873z" />
    <glyph glyph-name="Aacute_A.dlig" horiz-adv-x="2590" 
d="M457 1642l-11 29l543 197l12 -33zM715 1556l653 -1556h-160l-184 444h-748l-180 -444h-43l635 1556h27zM2378 0l-185 444h-790l455 1112h26l653 -1556h-159zM1010 477l-365 873l-354 -873h719zM2179 477l-364 873l-355 -873h719z" />
    <glyph glyph-name="Aacute_Aacute.dlig" horiz-adv-x="2590" 
d="M457 1642l-11 29l543 197l12 -33zM715 1556l653 -1556h-160l-184 444h-748l-180 -444h-43l635 1556h27zM2378 0l-185 444h-790l455 1112h26l653 -1556h-159zM1010 477l-365 873l-354 -873h719zM2179 477l-364 873l-355 -873h719zM1626 1642l-10 29l543 197l12 -33z" />
    <glyph glyph-name="Aacute_J.dlig" horiz-adv-x="1984" 
d="M457 1642l-11 29l543 197l12 -33zM1184 444h-908l-180 -444h-43l635 1556h27zM1774 1536v-1245q0 -139 -87 -225t-229 -86q-72 0 -137 24q-66 25 -107 66l17 20q31 -33 79 -51t99 -19q94 0 153 69q58 69 58 181v1266h154zM291 477h719l-365 873z" />
    <glyph glyph-name="Abreve_J.dlig" horiz-adv-x="1984" 
d="M888 1736q-87 -58 -188 -59q-100 0 -186 59q-86 58 -127 154l21 11q47 -84 128 -136q81 -51 164 -51q86 0 167 51t126 136l23 -11q-41 -96 -128 -154zM1184 444h-908l-180 -444h-43l635 1556h27zM1774 1536v-1245q0 -139 -87 -225t-229 -86q-72 0 -137 24q-66 25 -107 66
l17 20q31 -33 79 -51t99 -19q94 0 153 69q58 69 58 181v1266h154zM291 477h719l-365 873z" />
    <glyph glyph-name="Adieresis_A.dlig" horiz-adv-x="2590" 
d="M442.5 1698.5q-22.5 21.5 -22.5 56.5t22.5 57.5t59.5 22.5t59.5 -22.5t22.5 -57.5t-22.5 -56.5t-59.5 -21.5t-59.5 21.5zM839.5 1698.5q-22.5 21.5 -22.5 56.5t22.5 57.5t59.5 22.5t60.5 -22.5t23.5 -57.5t-23.5 -56.5t-60.5 -21.5t-59.5 21.5zM715 1556l653 -1556h-160
l-184 444h-748l-180 -444h-43l635 1556h27zM2378 0l-185 444h-790l455 1112h26l653 -1556h-159zM1010 477l-365 873l-354 -873h719zM2179 477l-364 873l-355 -873h719z" />
    <glyph glyph-name="Adieresis_Adieresis.dlig" horiz-adv-x="2590" 
d="M561 1699q-23 -22 -59 -22q-37 0 -60 22t-22 56q0 37 22 59q23 22 60 21q37 0 59 -21q23 -22 23 -59q0 -34 -23 -56zM961 1699q-23 -22 -62 -22q-37 0 -59 22q-23 22 -23 56q0 37 23 59t59 21q39 0 62 -21q23 -22 22 -59q1 -34 -22 -56zM715 1556l653 -1556h-160
l-184 444h-748l-180 -444h-43l635 1556h27zM2378 0l-185 444h-790l455 1112h26l653 -1556h-159zM1010 477l-365 873l-354 -873h719zM2179 477l-364 873l-355 -873h719zM1729 1699q-23 -22 -60 -22t-59 22q-23 22 -23 56q0 37 23 59t59 21q37 0 60 -21q23 -22 22 -59
q1 -34 -22 -56zM2128 1699q-23 -22 -62 -22q-37 0 -59 22q-23 22 -22 56q0 37 22 59q23 22 59 21q39 0 62 -21q23 -22 22 -59q1 -34 -22 -56z" />
    <glyph glyph-name="Adieresis_Adieresis_A.dlig" horiz-adv-x="3760" 
d="M442.5 1698.5q-22.5 21.5 -22.5 56.5t22.5 57.5t59.5 22.5t59.5 -22.5t22.5 -57.5t-22.5 -56.5t-59.5 -21.5t-59.5 21.5zM839.5 1698.5q-22.5 21.5 -22.5 56.5t22.5 57.5t59.5 22.5t60.5 -22.5t23.5 -57.5t-23.5 -56.5t-60.5 -21.5t-59.5 21.5zM1611.5 1698.5
q-22.5 21.5 -22.5 56.5t22.5 57.5t59.5 22.5t59.5 -22.5t22.5 -57.5t-22.5 -56.5t-59.5 -21.5t-59.5 21.5zM2009.5 1698.5q-22.5 21.5 -22.5 56.5t22.5 57.5t58.5 22.5q37 0 59.5 -22.5t22.5 -57.5t-22.5 -56.5t-59.5 -21.5q-36 0 -58.5 21.5zM715 1556l653 -1556h-160
l-184 444h-748l-180 -444h-43l635 1556h27zM1884 1556l653 -1556h-159l-185 444h-790l455 1112h26zM3547 0l-184 444h-791l453 1112h29l653 -1556h-160zM1010 477l-365 873l-354 -873h719zM2179 477l-364 873l-355 -873h719zM3348 477l-364 873l-354 -873h718z" />
    <glyph glyph-name="Adieresis_J.dlig" horiz-adv-x="1984" 
d="M561 1699q-23 -22 -59 -22q-37 0 -60 22t-22 56q0 37 22 59q23 22 60 21q37 0 59 -21q23 -22 23 -59q0 -34 -23 -56zM961 1699q-23 -22 -62 -22q-37 0 -59 22q-23 22 -23 56q0 37 23 59t59 21q39 0 62 -21q23 -22 22 -59q1 -34 -22 -56zM1184 444h-908l-180 -444h-43
l635 1556h27zM1774 1536v-1245q0 -139 -87 -225t-229 -86q-72 0 -137 24q-66 25 -107 66l17 20q31 -33 79 -51t99 -19q94 0 153 69q58 69 58 181v1266h154zM291 477h719l-365 873z" />
    <glyph glyph-name="Agrave_Agrave.dlig" horiz-adv-x="2590" 
d="M944 1642l-545 193l13 33l542 -197zM715 1556l653 -1556h-160l-184 444h-748l-180 -444h-43l635 1556h27zM2378 0l-185 444h-790l455 1112h26l653 -1556h-159zM1010 477l-365 873l-354 -873h719zM2179 477l-364 873l-355 -873h719zM2114 1642l-545 193l12 33l543 -197z
" />
    <glyph glyph-name="Amacron_A.dlig" horiz-adv-x="2590" 
d="M985 1677h-569v33h569v-33zM715 1556l653 -1556h-160l-184 444h-748l-180 -444h-43l635 1556h27zM2378 0l-185 444h-790l455 1112h26l653 -1556h-159zM1010 477l-365 873l-354 -873h719zM2179 477l-364 873l-355 -873h719z" />
    <glyph glyph-name="Amacron_J.dlig" horiz-adv-x="1984" 
d="M418 1677v33h567v-33h-567zM1184 444h-908l-180 -444h-43l635 1556h27zM1774 1536v-1245q0 -139 -87 -225t-229 -86q-72 0 -137 24q-66 25 -107 66l17 20q31 -33 79 -51t99 -19q94 0 153 69q58 69 58 181v1266h154zM291 477h719l-365 873z" />
    <glyph glyph-name="Aring_A.dlig" horiz-adv-x="2590" 
d="M558 1675q-54 51 -54 133q0 84 54 135.5t142 51.5q90 0 143.5 -51.5t53.5 -135.5t-54.5 -134t-142.5 -50t-142 51zM588 1920q-43 -42 -43 -112q0 -68 43 -109.5t112 -41.5q70 0 113 42t43 109q0 70 -43 112t-113 42q-69 0 -112 -42zM715 1556l653 -1556h-160l-184 444
h-748l-180 -444h-43l635 1556h27zM2378 0l-185 444h-790l455 1112h26l653 -1556h-159zM1010 477l-365 873l-354 -873h719zM2179 477l-364 873l-355 -873h719z" />
    <glyph glyph-name="Aring_Aring.dlig" horiz-adv-x="2590" 
d="M845 1675q-54 -51 -143 -51q-90 0 -143 51t-53 135t54 135q54 50 142 50t143 -51q54 -51 54 -134q0 -84 -54 -135zM590 1699q43 -42 112 -42q70 0 113 42t43 111q0 68 -43 110t-113 42t-112 -42q-43 -42 -43 -110q0 -69 43 -111zM715 1556l653 -1556h-160l-184 444h-748
l-180 -444h-43l635 1556h27zM2378 0l-185 444h-790l455 1112h26l653 -1556h-159zM1010 477l-365 873l-354 -873h719zM2179 477l-364 873l-355 -873h719zM2014 1675q-54 -51 -142 -51q-90 0 -143 51t-54 135q0 84 55 135q54 50 142 50t142 -51t54 -134q0 -84 -54 -135z
M1759 1699q43 -42 113 -42t113 42t43 111q0 68 -43 110t-113 42t-113 -42t-43 -110q0 -69 43 -111z" />
    <glyph glyph-name="Aring_J.dlig" horiz-adv-x="1984" 
d="M845 1675q-54 -51 -143 -51q-90 0 -143 51t-53 135t54 135q54 50 142 50t143 -51q54 -51 54 -134q0 -84 -54 -135zM590 1699q43 -42 112 -42q70 0 113 42t43 111q0 68 -43 110t-113 42t-112 -42q-43 -42 -43 -110q0 -69 43 -111zM1184 444h-908l-180 -444h-43l635 1556
h27zM1774 1536v-1245q0 -139 -87 -225t-229 -86q-72 0 -137 24q-66 25 -107 66l17 20q31 -33 79 -51t99 -19q94 0 153 69q58 69 58 181v1266h154zM291 477h719l-365 873z" />
    <glyph glyph-name="H_E.dlig" horiz-adv-x="2007" 
d="M1911 33v-33h-766v797h-770v-797h-154v1536h154v-707h770v707h751v-33h-598v-674h504v-32h-504v-764h613z" />
    <glyph glyph-name="H_Eacute.dlig" horiz-adv-x="2007" 
d="M1282 1642l-10 29l543 197l12 -33zM1911 33v-33h-766v797h-770v-797h-154v1536h154v-707h770v707h751v-33h-598v-674h504v-32h-504v-764h613z" />
    <glyph glyph-name="H_Ecircumflex.dlig" horiz-adv-x="2007" 
d="M1210 1624l-14 16l330 242l329 -242l-14 -16l-315 205zM1911 33v-33h-766v797h-770v-797h-154v1536h154v-707h770v707h751v-33h-598v-674h504v-32h-504v-764h613z" />
    <glyph glyph-name="H_Edieresis.dlig" horiz-adv-x="2007" 
d="M1386 1699q-23 -22 -59 -22q-37 0 -59 22q-23 22 -23 56q0 37 23 59t59 21q37 0 59 -21q23 -22 23 -59q0 -34 -23 -56zM1786 1699q-23 -22 -62 -22q-37 0 -59 22q-23 22 -23 56q0 37 23 59t59 21q39 0 62 -21q23 -22 22 -59q1 -34 -22 -56zM1911 33v-33h-766v797h-770
v-797h-154v1536h154v-707h770v707h751v-33h-598v-674h504v-32h-504v-764h613z" />
    <glyph glyph-name="H_Edotaccent.dlig" horiz-adv-x="2007" 
d="M1595 1697q-27 -26 -69 -26q-43 0 -70 26t-26 68q0 41 26 67q27 26 70 26t69 -26q27 -26 27 -67q0 -42 -27 -68zM1911 33v-33h-766v797h-770v-797h-154v1536h154v-707h770v707h751v-33h-598v-674h504v-32h-504v-764h613z" />
    <glyph glyph-name="H_Egrave.dlig" horiz-adv-x="2007" 
d="M1769 1642l-544 193l12 33l543 -197zM1911 33v-33h-766v797h-770v-797h-154v1536h154v-707h770v707h751v-33h-598v-674h504v-32h-504v-764h613z" />
    <glyph glyph-name="H_Emacron.dlig" horiz-adv-x="2007" 
d="M1243 1677v33h567v-33h-567zM1911 33v-33h-766v797h-770v-797h-154v1536h154v-707h770v707h751v-33h-598v-674h504v-32h-504v-764h613z" />
    <glyph glyph-name="H_Eogonek.dlig" horiz-adv-x="2007" 
d="M1925 -430q-31 -18 -76 -29.5t-88 -11.5q-92 0 -147 46t-55 122q0 88 78.5 169t211.5 134h-704v797h-770v-797h-154v1536h154v-707h770v707h751v-33h-598v-674h504v-32h-504v-764h613v-33q-109 -53 -174.5 -134t-65.5 -161q0 -61 37 -98t98 -37q66 0 113 20z" />
    <glyph glyph-name="K_A.dlig" horiz-adv-x="2508" 
d="M2298 0l-184 444h-791l455 1112h26l654 -1556h-160zM221 1536h154v-1536h-154v1536zM557 885l746 -885h-187l-692 809l737 727h56zM2099 477l-364 873l-355 -873h719z" />
    <glyph glyph-name="K_A_A.dlig" horiz-adv-x="3678" 
d="M1804 1556l654 -1556h-160l-184 444h-791l455 1112h26zM3467 0l-184 444h-791l455 1112h27l653 -1556h-160zM221 1536h154v-1536h-154v1536zM557 885l746 -885h-187l-692 809l737 727h56zM3269 477l-365 873l-356 -873h721zM2099 477l-364 873l-355 -873h719z" />
    <glyph glyph-name="K_Aacute.dlig" horiz-adv-x="2508" 
d="M1546 1642l-10 29l543 197l12 -33zM2298 0l-184 444h-791l455 1112h26l654 -1556h-160zM221 1536h154v-1536h-154v1536zM557 885l746 -885h-187l-692 809l737 727h56zM2099 477l-364 873l-355 -873h719z" />
    <glyph glyph-name="K_Abreve.dlig" horiz-adv-x="2508" 
d="M1977 1736q-87 -58 -187 -59q-100 0 -186 59q-86 58 -127 154l20 11q47 -84 128 -136q81 -51 165 -51q86 0 167 51t126 136l22 -11q-41 -96 -128 -154zM2298 0l-184 444h-791l455 1112h26l654 -1556h-160zM221 1536h154v-1536h-154v1536zM557 885l746 -885h-187l-692 809
l737 727h56zM2099 477l-364 873l-355 -873h719z" />
    <glyph glyph-name="K_Acircumflex.dlig" horiz-adv-x="2508" 
d="M1475 1624l-15 16l330 242l330 -242l-15 -16l-315 205zM2298 0l-184 444h-791l455 1112h26l654 -1556h-160zM221 1536h154v-1536h-154v1536zM557 885l746 -885h-187l-692 809l737 727h56zM2099 477l-364 873l-355 -873h719z" />
    <glyph glyph-name="K_Adieresis.dlig" horiz-adv-x="2508" 
d="M1651 1699q-23 -22 -60 -22t-59 22q-23 22 -23 56q0 37 23 59t59 21q37 0 60 -21q23 -22 22 -59q1 -34 -22 -56zM2050 1699q-23 -22 -61 -22q-37 0 -60 22t-22 56q0 37 22 59q23 22 60 21q39 0 61 -21q23 -22 23 -59q0 -34 -23 -56zM2298 0l-184 444h-791l455 1112h26
l654 -1556h-160zM221 1536h154v-1536h-154v1536zM557 885l746 -885h-187l-692 809l737 727h56zM2099 477l-364 873l-355 -873h719z" />
    <glyph glyph-name="K_Agrave.dlig" horiz-adv-x="2508" 
d="M2034 1642l-545 193l12 33l543 -197zM2298 0l-184 444h-791l455 1112h26l654 -1556h-160zM221 1536h154v-1536h-154v1536zM557 885l746 -885h-187l-692 809l737 727h56zM2099 477l-364 873l-355 -873h719z" />
    <glyph glyph-name="K_Amacron.dlig" horiz-adv-x="2508" 
d="M1507 1677v33h568v-33h-568zM2298 0l-184 444h-791l455 1112h26l654 -1556h-160zM221 1536h154v-1536h-154v1536zM557 885l746 -885h-187l-692 809l737 727h56zM2099 477l-364 873l-355 -873h719z" />
    <glyph glyph-name="K_Aogonek.dlig" horiz-adv-x="2508" 
d="M2472 -430q-31 -18 -76 -29.5t-88 -11.5q-92 0 -147.5 46t-55.5 122q0 88 79 169t212 134h-98l-184 444h-791l455 1112h26l654 -1556q-109 -53 -174.5 -134t-65.5 -161q0 -61 37 -98t98 -37q66 0 113 20zM221 1536h154v-1536h-154v1536zM557 885l746 -885h-187l-692 809
l737 727h56zM2099 477l-364 873l-355 -873h719z" />
    <glyph glyph-name="K_Aring.dlig" horiz-adv-x="2508" 
d="M1934 1675q-54 -51 -142 -51q-90 0 -143 51t-54 135q0 84 55 135q54 50 142 50t142 -51t55 -134q-1 -84 -55 -135zM1679 1699q43 -42 113 -42t113 42t43 111q0 68 -43 110t-113 42t-113 -42t-43 -110q0 -69 43 -111zM2298 0l-184 444h-791l455 1112h26l654 -1556h-160z
M221 1536h154v-1536h-154v1536zM557 885l746 -885h-187l-692 809l737 727h56zM2099 477l-364 873l-355 -873h719z" />
    <glyph glyph-name="uni0136_Amacron.dlig" horiz-adv-x="2508" 
d="M774 -157q27 -32 27 -95q0 -76 -43 -143q-43 -68 -113 -103l-14 21q57 35 95 91t40 116q-25 -25 -70 -25q-39 0 -63 23q-25 23 -25 61q0 39 26 63t68 23q45 0 72 -32zM2298 0l-184 444h-791l455 1112h26l654 -1556h-160zM221 1536h154v-1536h-154v1536zM557 885l746 -885
h-187l-692 809l737 727h56zM2099 477l-364 873l-355 -873h719zM1507 1677v33h568v-33h-568z" />
    <glyph glyph-name="L_A.dlig" horiz-adv-x="2041" 
d="M1829 0l-184 444h-789l453 1112h28l654 -1556h-162zM375 33h622v-33h-776v1536h154v-1503zM1630 477l-362 873l-355 -873h717z" />
    <glyph glyph-name="L_A_A.dlig" horiz-adv-x="3211" 
d="M1337 1556l654 -1556h-162l-184 444h-789l453 1112h28zM2998 0l-184 444h-789l453 1112h29l651 -1556h-160zM375 33h622v-33h-776v1536h154v-1503zM1630 477l-362 873l-355 -873h717zM2800 477l-365 873l-352 -873h717z" />
    <glyph glyph-name="L_Aacute.dlig" horiz-adv-x="2041" 
d="M1077 1642l-10 29l543 197l12 -33zM1829 0l-184 444h-789l453 1112h28l654 -1556h-162zM375 33h622v-33h-776v1536h154v-1503zM1630 477l-362 873l-355 -873h717z" />
    <glyph glyph-name="L_Abreve.dlig" horiz-adv-x="2041" 
d="M1508 1736q-87 -58 -187 -59q-100 0 -186 59q-86 58 -127 154l20 11q47 -84 128 -136q81 -51 165 -51q86 0 167 51t126 136l22 -11q-41 -96 -128 -154zM1829 0l-184 444h-789l453 1112h28l654 -1556h-162zM375 33h622v-33h-776v1536h154v-1503zM1630 477l-362 873
l-355 -873h717z" />
    <glyph glyph-name="L_Acircumflex.dlig" horiz-adv-x="2041" 
d="M1008 1624l-15 16l330 242l330 -242l-15 -16l-315 205zM1829 0l-184 444h-789l453 1112h28l654 -1556h-162zM375 33h622v-33h-776v1536h154v-1503zM1630 477l-362 873l-355 -873h717z" />
    <glyph glyph-name="L_Adieresis.dlig" horiz-adv-x="2041" 
d="M1182 1699q-23 -22 -60 -22t-59 22q-23 22 -23 56q0 37 23 59t59 21q37 0 60 -21q23 -22 22 -59q1 -34 -22 -56zM1581 1699q-23 -22 -61 -22q-37 0 -60 22t-22 56q0 37 22 59q23 22 60 21q39 0 61 -21q23 -22 23 -59q0 -34 -23 -56zM1829 0l-184 444h-789l453 1112h28
l654 -1556h-162zM375 33h622v-33h-776v1536h154v-1503zM1630 477l-362 873l-355 -873h717z" />
    <glyph glyph-name="L_Adieresis_A.dlig" horiz-adv-x="3211" 
d="M1063.5 1698.5q-23.5 21.5 -23.5 56.5t23.5 57.5t60.5 22.5t59.5 -22.5t22.5 -57.5t-22.5 -56.5t-59.5 -21.5t-60.5 21.5zM1462.5 1698.5q-22.5 21.5 -22.5 56.5t22.5 57.5t59.5 22.5t59.5 -22.5t22.5 -57.5t-22.5 -56.5t-59.5 -21.5t-59.5 21.5zM1337 1556l654 -1556
h-162l-184 444h-789l453 1112h28zM2998 0l-184 444h-789l453 1112h29l651 -1556h-160zM375 33h622v-33h-776v1536h154v-1503zM1630 477l-362 873l-355 -873h717zM2800 477l-365 873l-352 -873h717z" />
    <glyph glyph-name="L_Agrave.dlig" horiz-adv-x="2041" 
d="M1567 1642l-545 193l12 33l543 -197zM1829 0l-184 444h-789l453 1112h28l654 -1556h-162zM375 33h622v-33h-776v1536h154v-1503zM1630 477l-362 873l-355 -873h717z" />
    <glyph glyph-name="L_Amacron.dlig" horiz-adv-x="2041" 
d="M1038 1677v33h568v-33h-568zM1829 0l-184 444h-789l453 1112h28l654 -1556h-162zM375 33h622v-33h-776v1536h154v-1503zM1630 477l-362 873l-355 -873h717z" />
    <glyph glyph-name="L_Aogonek.dlig" horiz-adv-x="2041" 
d="M2003 -430q-31 -18 -76 -29.5t-88 -11.5q-90 0 -146.5 46t-56.5 122q0 88 79 170t214 133h-100l-184 444h-789l453 1112h28l654 -1556q-109 -53 -175.5 -134t-66.5 -161q0 -61 38 -98t97 -37q66 0 113 20zM375 33h622v-33h-776v1536h154v-1503zM1630 477l-362 873
l-355 -873h717z" />
    <glyph glyph-name="L_Aring.dlig" horiz-adv-x="2041" 
d="M1465 1675q-54 -51 -142 -51q-90 0 -143 51t-54 135q0 84 55 135q54 50 142 50t142 -51t55 -134q-1 -84 -55 -135zM1210 1699q43 -42 113 -42t113 42t43 111q0 68 -43 110t-113 42t-113 -42t-43 -110q0 -69 43 -111zM1829 0l-184 444h-789l453 1112h28l654 -1556h-162z
M375 33h622v-33h-776v1536h154v-1503zM1630 477l-362 873l-355 -873h717z" />
    <glyph glyph-name="L_Atilde.dlig" horiz-adv-x="2041" 
d="M1083 1796q-39 -33 -67 -100l-21 10q59 156 189 156q45 0 79 -20q34 -19 76 -58q37 -33 67 -50t64 -18q51 0 89 34q37 34 67 101l23 -12q-25 -68 -71 -112t-118 -44q-45 0 -79 20q-34 19 -76 58q-41 35 -69 51t-62 17q-52 0 -91 -33zM1829 0l-184 444h-789l453 1112h28
l654 -1556h-162zM375 33h622v-33h-776v1536h154v-1503zM1630 477l-362 873l-355 -873h717z" />
    <glyph glyph-name="L_L.dlig" horiz-adv-x="1470" 
d="M375 33h862v-33h-1016v1536h154v-1503zM1460 416v-33h-647v1153h154v-1120h493z" />
    <glyph glyph-name="uni013B_Amacron.dlig" horiz-adv-x="2041" 
d="M684 -157q27 -32 27 -95q0 -76 -43 -143q-43 -68 -113 -103l-14 21q57 35 95 91t40 116q-25 -25 -70 -25q-39 0 -63 23q-25 23 -25 61q0 39 26 63t68 23q45 0 72 -32zM1829 0l-184 444h-789l453 1112h28l654 -1556h-162zM375 33h622v-33h-776v1536h154v-1503zM1630 477
l-362 873l-355 -873h717zM1038 1677v33h568v-33h-568z" />
    <glyph glyph-name="uni013B_L.dlig" horiz-adv-x="1470" 
d="M772 -157q27 -32 27 -95q0 -76 -43 -143q-43 -68 -113 -103l-14 21q57 35 95 91t40 116q-25 -25 -70 -25q-39 0 -63 23q-25 23 -25 61q0 39 26 63t68 23q45 0 72 -32zM375 33h862v-33h-1016v1536h154v-1503zM1460 416v-33h-647v1153h154v-1120h493z" />
    <glyph glyph-name="N_N.dlig" horiz-adv-x="2557" 
d="M2337 1536v-1556h-29l-1010 1339v-1339h-26l-1010 1339v-1319h-41v1556h29l1007 -1339v1339h29l1010 -1339v1319h41z" />
    <glyph glyph-name="uni0145_N.dlig" horiz-adv-x="2557" 
d="M831.5 -156.5q26.5 -31.5 26.5 -95.5q0 -76 -43 -143.5t-113 -102.5l-14 21q57 35 95 91t40 116q-25 -25 -69 -25q-39 0 -63.5 22.5t-24.5 61.5t25.5 62.5t68.5 23.5q45 0 71.5 -31.5zM2337 1536v-1556h-29l-1010 1339v-1339h-26l-1010 1339v-1319h-41v1556h29
l1007 -1339v1339h29l1010 -1339v1319h41z" />
    <glyph glyph-name="uni0145_uni0145.dlig" horiz-adv-x="2557" 
d="M1868 -157q27 -32 26 -95q0 -76 -43 -143q-43 -68 -112 -103l-15 21q57 35 96 91q38 56 40 116q-25 -25 -70 -25q-39 0 -64 23t-24 61q0 39 25 63q26 24 69 23q45 0 72 -32zM2337 1536v-1556h-29l-1010 1339v-1339h-26l-1010 1339v-1319h-41v1556h29l1007 -1339v1339h29
l1010 -1339v1319h41zM831 -157q27 -32 27 -95q0 -76 -43 -143q-43 -68 -113 -103l-14 21q57 35 95 91t40 116q-25 -25 -69 -25q-39 0 -64 23t-24 61q0 39 25 63q26 24 69 23q44 0 71 -32z" />
    <glyph glyph-name="O_O.dlig" horiz-adv-x="2619" 
d="M2124 1458q176 -98 273 -277.5t97 -412.5t-97 -412.5t-273 -277.5t-406 -98q-233 0 -407 110q-176 -111 -410 -110q-229 0 -405.5 98t-273.5 277.5t-97 412.5t97 412.5t273.5 277.5t405.5 98q233 0 410 -110q174 111 407 110q230 0 406 -98zM1274 113q-143 102 -221 271
t-78 384t77.5 384t221.5 271q-150 84 -334 84q-193 0 -340 -92t-228 -260t-81 -387t81 -387t228.5 -260t339.5 -92q184 0 334 84zM2020.5 121q146.5 92 227.5 260t81 387t-81 387t-227.5 260t-339.5 92q-186 0 -333 -86q143 -102 221 -270t78 -383t-78 -383t-221 -270
q147 -86 333 -86q193 0 339.5 92zM1097 1143q-77 -164 -77 -375t77 -375t214 -256q137 92 214 256t77 375t-77 375t-214 256q-137 -92 -214 -256z" />
    <glyph glyph-name="O_Oacute.dlig" horiz-adv-x="2619" 
d="M1475 1642l-11 29l543 197l12 -33zM2124 1458q176 -98 273 -277.5t97 -412.5t-97 -412.5t-273 -277.5t-406 -98q-233 0 -407 110q-176 -111 -410 -110q-229 0 -405.5 98t-273.5 277.5t-97 412.5t97 412.5t273.5 277.5t405.5 98q233 0 410 -110q174 111 407 110
q230 0 406 -98zM1274 113q-143 102 -221 271t-78 384t77.5 384t221.5 271q-150 84 -334 84q-193 0 -340 -92t-228 -260t-81 -387t81 -387t228.5 -260t339.5 -92q184 0 334 84zM2020.5 121q146.5 92 227.5 260t81 387t-81 387t-227.5 260t-339.5 92q-186 0 -333 -86
q143 -102 221 -270t78 -383t-78 -383t-221 -270q147 -86 333 -86q193 0 339.5 92zM1097 1143q-77 -164 -77 -375t77 -375t214 -256q137 92 214 256t77 375t-77 375t-214 256q-137 -92 -214 -256z" />
    <glyph glyph-name="O_Odieresis.dlig" horiz-adv-x="2619" 
d="M1460.5 1698.5q-22.5 21.5 -22.5 56.5t22.5 57.5t59.5 22.5t59.5 -22.5t22.5 -57.5t-23 -56.5t-59 -21.5q-37 0 -59.5 21.5zM1857.5 1698.5q-22.5 21.5 -22.5 56.5t22.5 57.5t59.5 22.5t59.5 -22.5t22.5 -57.5t-22.5 -56.5t-59.5 -21.5t-59.5 21.5zM2124 1458
q176 -98 273 -277.5t97 -412.5t-97 -412.5t-273 -277.5t-406 -98q-233 0 -407 110q-176 -111 -410 -110q-229 0 -405.5 98t-273.5 277.5t-97 412.5t97 412.5t273.5 277.5t405.5 98q233 0 410 -110q174 111 407 110q230 0 406 -98zM1274 113q-143 102 -221 271t-78 384
t77.5 384t221.5 271q-150 84 -334 84q-193 0 -340 -92t-228 -260t-81 -387t81 -387t228.5 -260t339.5 -92q184 0 334 84zM2020.5 121q146.5 92 227.5 260t81 387t-81 387t-227.5 260t-339.5 92q-186 0 -333 -86q143 -102 221 -270t78 -383t-78 -383t-221 -270
q147 -86 333 -86q193 0 339.5 92zM1097 1143q-77 -164 -77 -375t77 -375t214 -256q137 92 214 256t77 375t-77 375t-214 256q-137 -92 -214 -256z" />
    <glyph glyph-name="O_Ograve.dlig" horiz-adv-x="2619" 
d="M1962 1642l-545 193l13 33l542 -197zM2124 1458q176 -98 273 -277.5t97 -412.5t-97 -412.5t-273 -277.5t-406 -98q-233 0 -407 110q-176 -111 -410 -110q-229 0 -405.5 98t-273.5 277.5t-97 412.5t97 412.5t273.5 277.5t405.5 98q233 0 410 -110q174 111 407 110
q230 0 406 -98zM1274 113q-143 102 -221 271t-78 384t77.5 384t221.5 271q-150 84 -334 84q-193 0 -340 -92t-228 -260t-81 -387t81 -387t228.5 -260t339.5 -92q184 0 334 84zM2020.5 121q146.5 92 227.5 260t81 387t-81 387t-227.5 260t-339.5 92q-186 0 -333 -86
q143 -102 221 -270t78 -383t-78 -383t-221 -270q147 -86 333 -86q193 0 339.5 92zM1097 1143q-77 -164 -77 -375t77 -375t214 -256q137 92 214 256t77 375t-77 375t-214 256q-137 -92 -214 -256z" />
    <glyph glyph-name="O_Otilde.dlig" horiz-adv-x="2619" 
d="M1481 1796q-37 -33 -68 -100l-20 10q55 156 186 156q47 0 81 -19.5t77 -58.5q37 -33 65.5 -50.5t63.5 -17.5q53 0 90 34t65 101l23 -12q-23 -68 -69 -112t-117 -44q-45 0 -81 20.5t-77 57.5q-37 33 -66.5 50.5t-64.5 17.5q-51 0 -88 -33zM2124 1458q176 -98 273 -277.5
t97 -412.5t-97 -412.5t-273 -277.5t-406 -98q-233 0 -407 110q-176 -111 -410 -110q-229 0 -405.5 98t-273.5 277.5t-97 412.5t97 412.5t273.5 277.5t405.5 98q233 0 410 -110q174 111 407 110q230 0 406 -98zM1274 113q-143 102 -221 271t-78 384t77.5 384t221.5 271
q-150 84 -334 84q-193 0 -340 -92t-228 -260t-81 -387t81 -387t228.5 -260t339.5 -92q184 0 334 84zM2020.5 121q146.5 92 227.5 260t81 387t-81 387t-227.5 260t-339.5 92q-186 0 -333 -86q143 -102 221 -270t78 -383t-78 -383t-221 -270q147 -86 333 -86q193 0 339.5 92z
M1097 1143q-77 -164 -77 -375t77 -375t214 -256q137 92 214 256t77 375t-77 375t-214 256q-137 -92 -214 -256z" />
    <glyph glyph-name="O_dieresis_Otilde.dlig" horiz-adv-x="2619" 
d="M1479 1796q-39 -33 -68 -100l-20 10q59 156 188 156q45 0 79 -20q34 -19 77 -58q37 -33 66 -50q30 -17 65 -18q51 0 88 34t67 101l23 -12q-25 -68 -71 -112t-118 -44q-45 0 -78 20q-34 19 -77 58q-41 35 -69 51t-62 17q-51 0 -90 -33zM2124 1458q176 -98 273 -277
t97 -413q0 -233 -97 -413q-97 -179 -273 -277t-406 -98q-233 0 -407 110q-176 -111 -410 -110q-229 0 -405 98t-274 277q-97 179 -97 413q0 233 97 413q97 179 274 277q176 98 405 98q233 0 410 -110q174 111 407 110q230 0 406 -98zM1274 113q-143 102 -221 271t-78 384
t78 384t221 271q-150 84 -334 84q-193 0 -340 -92t-228 -260t-81 -387t81 -387t228 -260t340 -92q184 0 334 84zM2020 121q146 92 228 260q81 168 81 387t-81 387t-228 260q-146 92 -339 92q-186 0 -333 -86q143 -102 221 -270t78 -383t-78 -383t-221 -270q147 -86 333 -86
q193 0 339 92zM1097 1143q-77 -164 -77 -375t77 -375t214 -256q137 92 214 256t77 375t-77 375t-214 256q-137 -92 -214 -256zM762 1699q-23 -22 -60 -22t-59 22q-23 22 -22 56q0 37 22 59q23 22 59 21q37 0 60 -21q23 -22 22 -59q1 -34 -22 -56zM1161 1699q-23 -22 -61 -22
q-37 0 -60 22t-22 56q0 37 22 59q23 22 60 21q39 0 61 -21q23 -22 23 -59q0 -34 -23 -56z" />
    <glyph glyph-name="Oacute_O.dlig" horiz-adv-x="2619" 
d="M657 1642l-10 29l543 197l12 -33zM2124 1458q176 -98 273 -277.5t97 -412.5t-97 -412.5t-273 -277.5t-406 -98q-233 0 -407 110q-176 -111 -410 -110q-229 0 -405.5 98t-273.5 277.5t-97 412.5t97 412.5t273.5 277.5t405.5 98q233 0 410 -110q174 111 407 110
q230 0 406 -98zM1274 113q-143 102 -221 271t-78 384t77.5 384t221.5 271q-150 84 -334 84q-193 0 -340 -92t-228 -260t-81 -387t81 -387t228.5 -260t339.5 -92q184 0 334 84zM2020.5 121q146.5 92 227.5 260t81 387t-81 387t-227.5 260t-339.5 92q-186 0 -333 -86
q143 -102 221 -270t78 -383t-78 -383t-221 -270q147 -86 333 -86q193 0 339.5 92zM1097 1143q-77 -164 -77 -375t77 -375t214 -256q137 92 214 256t77 375t-77 375t-214 256q-137 -92 -214 -256z" />
    <glyph glyph-name="Oacute_Oacute.dlig" horiz-adv-x="2619" 
d="M1475 1642l-11 29l543 197l12 -33zM2124 1458q176 -98 273 -277t97 -413q0 -233 -97 -413q-97 -179 -273 -277t-406 -98q-233 0 -407 110q-176 -111 -410 -110q-229 0 -405 98t-274 277q-97 179 -97 413q0 233 97 413q97 179 274 277q176 98 405 98q233 0 410 -110
q174 111 407 110q230 0 406 -98zM1274 113q-143 102 -221 271t-78 384t78 384t221 271q-150 84 -334 84q-193 0 -340 -92t-228 -260t-81 -387t81 -387t228 -260t340 -92q184 0 334 84zM2020 121q146 92 228 260q81 168 81 387t-81 387t-228 260q-146 92 -339 92
q-186 0 -333 -86q143 -102 221 -270t78 -383t-78 -383t-221 -270q147 -86 333 -86q193 0 339 92zM1097 1143q-77 -164 -77 -375t77 -375t214 -256q137 92 214 256t77 375t-77 375t-214 256q-137 -92 -214 -256zM657 1642l-10 29l543 197l12 -33z" />
    <glyph glyph-name="Oacute_Odieresis.dlig" horiz-adv-x="2619" 
d="M1579 1699q-23 -22 -59 -22q-37 0 -60 22t-22 56q0 37 22 59q23 22 60 21q37 0 59 -21q23 -22 23 -59q0 -34 -23 -56zM1978 1699q-23 -22 -61 -22q-37 0 -59 22q-23 22 -23 56q0 37 23 59t59 21q39 0 61 -21q23 -22 23 -59q0 -34 -23 -56zM2124 1458q176 -98 273 -277
t97 -413q0 -233 -97 -413q-97 -179 -273 -277t-406 -98q-233 0 -407 110q-176 -111 -410 -110q-229 0 -405 98t-274 277q-97 179 -97 413q0 233 97 413q97 179 274 277q176 98 405 98q233 0 410 -110q174 111 407 110q230 0 406 -98zM1274 113q-143 102 -221 271t-78 384
t78 384t221 271q-150 84 -334 84q-193 0 -340 -92t-228 -260t-81 -387t81 -387t228 -260t340 -92q184 0 334 84zM2020 121q146 92 228 260q81 168 81 387t-81 387t-228 260q-146 92 -339 92q-186 0 -333 -86q143 -102 221 -270t78 -383t-78 -383t-221 -270q147 -86 333 -86
q193 0 339 92zM1097 1143q-77 -164 -77 -375t77 -375t214 -256q137 92 214 256t77 375t-77 375t-214 256q-137 -92 -214 -256zM657 1642l-10 29l543 197l12 -33z" />
    <glyph glyph-name="Ocircumflex_O.dlig" horiz-adv-x="2619" 
d="M586 1624l-15 16l330 242l330 -242l-14 -16l-316 205zM2124 1458q176 -98 273 -277t97 -413q0 -233 -97 -413q-97 -179 -273 -277t-406 -98q-233 0 -407 110q-176 -111 -410 -110q-229 0 -405 98t-274 277q-97 179 -97 413q0 233 97 413q97 179 274 277q176 98 405 98
q233 0 410 -110q174 111 407 110q230 0 406 -98zM1274 113q-143 102 -221 271t-78 384t78 384t221 271q-150 84 -334 84q-193 0 -340 -92t-228 -260t-81 -387t81 -387t228 -260t340 -92q184 0 334 84zM2020 121q146 92 228 260q81 168 81 387t-81 387t-228 260
q-146 92 -339 92q-186 0 -333 -86q143 -102 221 -270t78 -383t-78 -383t-221 -270q147 -86 333 -86q193 0 339 92zM1097 1143q-77 -164 -77 -375t77 -375t214 -256q137 92 214 256t77 375t-77 375t-214 256q-137 -92 -214 -256z" />
    <glyph glyph-name="Odieresis_O.dlig" horiz-adv-x="2619" 
d="M761.5 1698.5q-22.5 -21.5 -59.5 -21.5t-59 21.5t-22 56.5q0 37 22.5 58.5t58.5 21.5q37 0 59.5 -21.5t22.5 -58.5q0 -35 -22.5 -56.5zM1161.5 1698.5q-22.5 -21.5 -61.5 -21.5q-37 0 -59.5 21.5t-22.5 56.5q0 37 22.5 58.5t59.5 21.5q39 0 61.5 -21.5t22.5 -58.5
q0 -35 -22.5 -56.5zM2124 1458q176 -98 273 -277.5t97 -412.5t-97 -412.5t-273 -277.5t-406 -98q-233 0 -407 110q-176 -111 -410 -110q-229 0 -405.5 98t-273.5 277.5t-97 412.5t97 412.5t273.5 277.5t405.5 98q233 0 410 -110q174 111 407 110q230 0 406 -98zM1274 113
q-143 102 -221 271t-78 384t77.5 384t221.5 271q-150 84 -334 84q-193 0 -340 -92t-228 -260t-81 -387t81 -387t228.5 -260t339.5 -92q184 0 334 84zM2020.5 121q146.5 92 227.5 260t81 387t-81 387t-227.5 260t-339.5 92q-186 0 -333 -86q143 -102 221 -270t78 -383
t-78 -383t-221 -270q147 -86 333 -86q193 0 339.5 92zM1097 1143q-77 -164 -77 -375t77 -375t214 -256q137 92 214 256t77 375t-77 375t-214 256q-137 -92 -214 -256z" />
    <glyph glyph-name="Odieresis_Odieresis.dlig" horiz-adv-x="2619" 
d="M1579 1699q-23 -22 -59 -22q-37 0 -60 22t-22 56q0 37 22 59q23 22 60 21q37 0 59 -21q23 -22 23 -59q0 -34 -23 -56zM1978 1699q-23 -22 -61 -22q-37 0 -59 22q-23 22 -23 56q0 37 23 59t59 21q39 0 61 -21q23 -22 23 -59q0 -34 -23 -56zM2124 1458q176 -98 273 -277
t97 -413q0 -233 -97 -413q-97 -179 -273 -277t-406 -98q-233 0 -407 110q-176 -111 -410 -110q-229 0 -405 98t-274 277q-97 179 -97 413q0 233 97 413q97 179 274 277q176 98 405 98q233 0 410 -110q174 111 407 110q230 0 406 -98zM1274 113q-143 102 -221 271t-78 384
t78 384t221 271q-150 84 -334 84q-193 0 -340 -92t-228 -260t-81 -387t81 -387t228 -260t340 -92q184 0 334 84zM2020 121q146 92 228 260q81 168 81 387t-81 387t-228 260q-146 92 -339 92q-186 0 -333 -86q143 -102 221 -270t78 -383t-78 -383t-221 -270q147 -86 333 -86
q193 0 339 92zM1097 1143q-77 -164 -77 -375t77 -375t214 -256q137 92 214 256t77 375t-77 375t-214 256q-137 -92 -214 -256zM762 1699q-23 -22 -60 -22t-59 22q-23 22 -22 56q0 37 22 59q23 22 59 21q37 0 60 -21q23 -22 22 -59q1 -34 -22 -56zM1161 1699q-23 -22 -61 -22
q-37 0 -60 22t-22 56q0 37 22 59q23 22 60 21q39 0 61 -21q23 -22 23 -59q0 -34 -23 -56z" />
    <glyph glyph-name="Ohungarumlaut_O.dlig" horiz-adv-x="2619" 
d="M1026 1991l21 -29l-478 -328l-16 25zM1446 1991l20 -29l-475 -328l-18 25zM2124 1458q176 -98 273 -277.5t97 -412.5t-97 -412.5t-273 -277.5t-406 -98q-233 0 -407 110q-176 -111 -410 -110q-229 0 -405.5 98t-273.5 277.5t-97 412.5t97 412.5t273.5 277.5t405.5 98
q233 0 410 -110q174 111 407 110q230 0 406 -98zM1274 113q-143 102 -221 271t-78 384t77.5 384t221.5 271q-150 84 -334 84q-193 0 -340 -92t-228 -260t-81 -387t81 -387t228.5 -260t339.5 -92q184 0 334 84zM2020.5 121q146.5 92 227.5 260t81 387t-81 387t-227.5 260
t-339.5 92q-186 0 -333 -86q143 -102 221 -270t78 -383t-78 -383t-221 -270q147 -86 333 -86q193 0 339.5 92zM1097 1143q-77 -164 -77 -375t77 -375t214 -256q137 92 214 256t77 375t-77 375t-214 256q-137 -92 -214 -256z" />
    <glyph glyph-name="Ohungarumlaut_Oacute.dlig" horiz-adv-x="2619" 
d="M1475 1642l-11 29l543 197l12 -33zM2124 1458q176 -98 273 -277t97 -413q0 -233 -97 -413q-97 -179 -273 -277t-406 -98q-233 0 -407 110q-176 -111 -410 -110q-229 0 -405 98t-274 277q-97 179 -97 413q0 233 97 413q97 179 274 277q176 98 405 98q233 0 410 -110
q174 111 407 110q230 0 406 -98zM1274 113q-143 102 -221 271t-78 384t78 384t221 271q-150 84 -334 84q-193 0 -340 -92t-228 -260t-81 -387t81 -387t228 -260t340 -92q184 0 334 84zM2020 121q146 92 228 260q81 168 81 387t-81 387t-228 260q-146 92 -339 92
q-186 0 -333 -86q143 -102 221 -270t78 -383t-78 -383t-221 -270q147 -86 333 -86q193 0 339 92zM1097 1143q-77 -164 -77 -375t77 -375t214 -256q137 92 214 256t77 375t-77 375t-214 256q-137 -92 -214 -256zM1026 1991l21 -29l-478 -328l-16 25zM1446 1991l20 -29
l-475 -328l-18 25z" />
    <glyph glyph-name="Ohungarumlaut_Ohungarumlaut.dlig" horiz-adv-x="2619" 
d="M1843 1991l21 -29l-478 -328l-16 25zM2263 1991l21 -29l-476 -328l-18 25zM2124 1458q176 -98 273 -277t97 -413q0 -233 -97 -413q-97 -179 -273 -277t-406 -98q-233 0 -407 110q-176 -111 -410 -110q-229 0 -405 98t-274 277q-97 179 -97 413q0 233 97 413
q97 179 274 277q176 98 405 98q233 0 410 -110q174 111 407 110q230 0 406 -98zM1274 113q-143 102 -221 271t-78 384t78 384t221 271q-150 84 -334 84q-193 0 -340 -92t-228 -260t-81 -387t81 -387t228 -260t340 -92q184 0 334 84zM2020 121q146 92 228 260q81 168 81 387
t-81 387t-228 260q-146 92 -339 92q-186 0 -333 -86q143 -102 221 -270t78 -383t-78 -383t-221 -270q147 -86 333 -86q193 0 339 92zM1097 1143q-77 -164 -77 -375t77 -375t214 -256q137 92 214 256t77 375t-77 375t-214 256q-137 -92 -214 -256zM1026 1991l21 -29
l-478 -328l-16 25zM1446 1991l20 -29l-475 -328l-18 25z" />
    <glyph glyph-name="Otilde_O.dlig" horiz-adv-x="2619" 
d="M663.5 1796q-38.5 -33 -67.5 -100l-21 10q59 156 189 156q45 0 79 -19.5t77 -58.5q37 -33 66.5 -50.5t64.5 -17.5q51 0 88 34t67 101l23 -12q-25 -68 -71 -112t-118 -44q-45 0 -78.5 19.5t-76.5 58.5q-41 35 -69 51.5t-62 16.5q-52 0 -90.5 -33zM2124 1458
q176 -98 273 -277.5t97 -412.5t-97 -412.5t-273 -277.5t-406 -98q-233 0 -407 110q-176 -111 -410 -110q-229 0 -405.5 98t-273.5 277.5t-97 412.5t97 412.5t273.5 277.5t405.5 98q233 0 410 -110q174 111 407 110q230 0 406 -98zM1274 113q-143 102 -221 271t-78 384
t77.5 384t221.5 271q-150 84 -334 84q-193 0 -340 -92t-228 -260t-81 -387t81 -387t228.5 -260t339.5 -92q184 0 334 84zM2020.5 121q146.5 92 227.5 260t81 387t-81 387t-227.5 260t-339.5 92q-186 0 -333 -86q143 -102 221 -270t78 -383t-78 -383t-221 -270
q147 -86 333 -86q193 0 339.5 92zM1097 1143q-77 -164 -77 -375t77 -375t214 -256q137 92 214 256t77 375t-77 375t-214 256q-137 -92 -214 -256z" />
    <glyph glyph-name="Otilde_Otilde.dlig" horiz-adv-x="2619" 
d="M1479 1796q-39 -33 -68 -100l-20 10q59 156 188 156q45 0 79 -20q34 -19 77 -58q37 -33 66 -50q30 -17 65 -18q51 0 88 34t67 101l23 -12q-25 -68 -71 -112t-118 -44q-45 0 -78 20q-34 19 -77 58q-41 35 -69 51t-62 17q-51 0 -90 -33zM2124 1458q176 -98 273 -277
t97 -413q0 -233 -97 -413q-97 -179 -273 -277t-406 -98q-233 0 -407 110q-176 -111 -410 -110q-229 0 -405 98t-274 277q-97 179 -97 413q0 233 97 413q97 179 274 277q176 98 405 98q233 0 410 -110q174 111 407 110q230 0 406 -98zM1274 113q-143 102 -221 271t-78 384
t78 384t221 271q-150 84 -334 84q-193 0 -340 -92t-228 -260t-81 -387t81 -387t228 -260t340 -92q184 0 334 84zM2020 121q146 92 228 260q81 168 81 387t-81 387t-228 260q-146 92 -339 92q-186 0 -333 -86q143 -102 221 -270t78 -383t-78 -383t-221 -270q147 -86 333 -86
q193 0 339 92zM1097 1143q-77 -164 -77 -375t77 -375t214 -256q137 92 214 256t77 375t-77 375t-214 256q-137 -92 -214 -256zM664 1796q-39 -33 -68 -100l-21 10q59 156 189 156q45 0 79 -20q34 -19 77 -58q37 -33 66 -50q30 -17 65 -18q51 0 88 34t67 101l23 -12
q-25 -68 -71 -112t-118 -44q-45 0 -78 20q-34 19 -77 58q-41 35 -69 51t-62 17q-51 0 -90 -33z" />
    <glyph glyph-name="R_A.dlig" horiz-adv-x="2594" 
d="M2384 0l-184 444h-791l455 1112h26l654 -1556h-160zM561 729l686 -729h-186l-682 729h-4v-729h-154v1536h389q156 0 275 -50t184.5 -140.5t65.5 -208.5q0 -121 -65.5 -214.5t-184.5 -143.5t-275 -50h-49zM588 762q170 0 275.5 103.5t105.5 271.5q0 164 -105.5 265
t-275.5 101h-213v-741h213zM2185 477l-364 873l-355 -873h719z" />
    <glyph glyph-name="R_A_A.dlig" horiz-adv-x="3764" 
d="M1890 1556l654 -1556h-160l-184 444h-791l455 1112h26zM3553 0l-184 444h-782v2l-9 -2l455 1112h27l653 -1556h-160zM561 729l686 -729h-186l-682 729h-4v-729h-154v1536h389q156 0 275 -50t184.5 -140.5t65.5 -208.5q0 -121 -65.5 -214.5t-184.5 -143.5t-275 -50h-49z
M588 762q170 0 275.5 103.5t105.5 271.5q0 164 -105.5 265t-275.5 101h-213v-741h213zM3355 477l-365 873l-356 -873h721zM2185 477l-364 873l-355 -873h719z" />
    <glyph glyph-name="R_A_Aring.dlig" horiz-adv-x="3764" 
d="M3190 1675q-54 -51 -143 -51q-90 0 -143 51t-53 135t54 135q54 50 142 50t143 -51q54 -51 54 -134q0 -84 -54 -135zM2935 1699q43 -42 112 -42q70 0 113 42t43 111q0 68 -43 110t-113 42t-112 -42q-43 -42 -43 -110q0 -69 43 -111zM1890 1556l654 -1556h-160l-184 444
h-791l455 1112h26zM3553 0l-184 444h-782v2l-9 -2l455 1112h27l653 -1556h-160zM561 729l686 -729h-186l-682 729h-4v-729h-154v1536h389q156 0 275 -50t184 -140q66 -90 66 -209q0 -121 -66 -214t-184 -144q-119 -50 -275 -50h-49zM588 762q170 0 275 103t106 272
q0 164 -106 265q-105 101 -275 101h-213v-741h213zM3355 477l-365 873l-356 -873h721zM2185 477l-364 873l-355 -873h719z" />
    <glyph glyph-name="R_A_Atilde.dlig" horiz-adv-x="3764" 
d="M2806 1796q-39 -33 -68 -100l-20 10q59 156 188 156q45 0 79 -20q34 -19 77 -58q37 -33 66 -50q30 -17 65 -18q51 0 88 34t67 101l23 -12q-25 -68 -71 -112t-117 -44q-45 0 -79 20q-34 19 -77 58q-41 35 -69 51t-62 17q-51 0 -90 -33zM1890 1556l654 -1556h-160l-184 444
h-791l455 1112h26zM3553 0l-184 444h-782v2l-9 -2l455 1112h27l653 -1556h-160zM561 729l686 -729h-186l-682 729h-4v-729h-154v1536h389q156 0 275 -50t184 -140q66 -90 66 -209q0 -121 -66 -214t-184 -144q-119 -50 -275 -50h-49zM588 762q170 0 275 103t106 272
q0 164 -106 265q-105 101 -275 101h-213v-741h213zM3355 477l-365 873l-356 -873h721zM2185 477l-364 873l-355 -873h719z" />
    <glyph glyph-name="R_Aacute.dlig" horiz-adv-x="2594" 
d="M1632 1642l-10 29l543 197l12 -33zM2384 0l-184 444h-791l455 1112h26l654 -1556h-160zM561 729l686 -729h-186l-682 729h-4v-729h-154v1536h389q156 0 275 -50t184.5 -140.5t65.5 -208.5q0 -121 -65.5 -214.5t-184.5 -143.5t-275 -50h-49zM588 762q170 0 275.5 103.5
t105.5 271.5q0 164 -105.5 265t-275.5 101h-213v-741h213zM2185 477l-364 873l-355 -873h719z" />
    <glyph glyph-name="R_Abreve.dlig" horiz-adv-x="2594" 
d="M2063 1736q-87 -58 -187 -59q-100 0 -186 59q-86 58 -127 154l20 11q47 -84 128 -136q81 -51 165 -51q86 0 167 51t126 136l22 -11q-41 -96 -128 -154zM2384 0l-184 444h-791l455 1112h26l654 -1556h-160zM561 729l686 -729h-186l-682 729h-4v-729h-154v1536h389
q156 0 275 -50t184 -140q66 -90 66 -209q0 -121 -66 -214t-184 -144q-119 -50 -275 -50h-49zM588 762q170 0 275 103t106 272q0 164 -106 265q-105 101 -275 101h-213v-741h213zM2185 477l-364 873l-355 -873h719z" />
    <glyph glyph-name="R_Acircumflex.dlig" horiz-adv-x="2594" 
d="M1561 1624l-15 16l330 242l330 -242l-15 -16l-315 205zM2384 0l-184 444h-791l455 1112h26l654 -1556h-160zM561 729l686 -729h-186l-682 729h-4v-729h-154v1536h389q156 0 275 -50t184 -140q66 -90 66 -209q0 -121 -66 -214t-184 -144q-119 -50 -275 -50h-49zM588 762
q170 0 275 103t106 272q0 164 -106 265q-105 101 -275 101h-213v-741h213zM2185 477l-364 873l-355 -873h719z" />
    <glyph glyph-name="R_Adieresis.dlig" horiz-adv-x="2594" 
d="M1737 1699q-23 -22 -60 -22t-59 22q-23 22 -23 56q0 37 23 59t59 21q37 0 60 -21q23 -22 22 -59q1 -34 -22 -56zM2136 1699q-23 -22 -61 -22q-37 0 -60 22t-22 56q0 37 22 59q23 22 60 21q39 0 61 -21q23 -22 23 -59q0 -34 -23 -56zM2384 0l-184 444h-791l455 1112h26
l654 -1556h-160zM561 729l686 -729h-186l-682 729h-4v-729h-154v1536h389q156 0 275 -50t184 -140q66 -90 66 -209q0 -121 -66 -214t-184 -144q-119 -50 -275 -50h-49zM588 762q170 0 275 103t106 272q0 164 -106 265q-105 101 -275 101h-213v-741h213zM2185 477l-364 873
l-355 -873h719z" />
    <glyph glyph-name="R_Adieresis_Adieresis.dlig" horiz-adv-x="3764" 
d="M1617.5 1698.5q-22.5 21.5 -22.5 56.5t22.5 57.5t59.5 22.5t59.5 -22.5t22.5 -57.5t-22.5 -56.5t-59.5 -21.5t-59.5 21.5zM2015.5 1698.5q-22.5 21.5 -22.5 56.5t22.5 57.5t59.5 22.5t60.5 -22.5t23.5 -57.5t-24 -56.5t-60 -21.5q-37 0 -59.5 21.5zM2787.5 1698.5
q-22.5 21.5 -22.5 56.5t22.5 57.5t59.5 22.5t59.5 -22.5t22.5 -57.5t-22.5 -56.5t-59.5 -21.5t-59.5 21.5zM3184.5 1698.5q-22.5 21.5 -22.5 56.5t22.5 57.5t59.5 22.5t59.5 -22.5t22.5 -57.5t-22.5 -56.5t-59.5 -21.5t-59.5 21.5zM1890 1556l654 -1556h-160l-184 444h-791
l455 1112h26zM3553 0l-184 444h-782v2l-9 -2l455 1112h27l653 -1556h-160zM561 729l686 -729h-186l-682 729h-4v-729h-154v1536h389q156 0 275 -50t184.5 -140.5t65.5 -208.5q0 -121 -65.5 -214.5t-184.5 -143.5t-275 -50h-49zM588 762q170 0 275.5 103.5t105.5 271.5
q0 164 -105.5 265t-275.5 101h-213v-741h213zM3355 477l-365 873l-356 -873h721zM2185 477l-364 873l-355 -873h719z" />
    <glyph glyph-name="R_Agrave.dlig" horiz-adv-x="2594" 
d="M2120 1642l-545 193l12 33l543 -197zM2384 0l-184 444h-791l455 1112h26l654 -1556h-160zM561 729l686 -729h-186l-682 729h-4v-729h-154v1536h389q156 0 275 -50t184 -140q66 -90 66 -209q0 -121 -66 -214t-184 -144q-119 -50 -275 -50h-49zM588 762q170 0 275 103
t106 272q0 164 -106 265q-105 101 -275 101h-213v-741h213zM2185 477l-364 873l-355 -873h719z" />
    <glyph glyph-name="R_Amacron.dlig" horiz-adv-x="2594" 
d="M1593 1677v33h568v-33h-568zM2384 0l-184 444h-791l455 1112h26l654 -1556h-160zM561 729l686 -729h-186l-682 729h-4v-729h-154v1536h389q156 0 275 -50t184 -140q66 -90 66 -209q0 -121 -66 -214t-184 -144q-119 -50 -275 -50h-49zM588 762q170 0 275 103t106 272
q0 164 -106 265q-105 101 -275 101h-213v-741h213zM2185 477l-364 873l-355 -873h719z" />
    <glyph glyph-name="R_Aogonek.dlig" horiz-adv-x="2594" 
d="M2558 -430q-31 -18 -76 -29.5t-90 -11.5q-90 0 -145.5 46t-55.5 122q0 88 79 169t212 134h-98l-184 444h-791l455 1112h26l654 -1556q-109 -53 -174.5 -134t-65.5 -161q0 -61 37 -98t98 -37q66 0 111 20zM561 729l686 -729h-186l-682 729h-4v-729h-154v1536h389
q156 0 275 -50t184.5 -140.5t65.5 -208.5q0 -121 -65.5 -214.5t-184.5 -143.5t-275 -50h-49zM588 762q170 0 275.5 103.5t105.5 271.5q0 164 -105.5 265t-275.5 101h-213v-741h213zM2185 477l-364 873l-355 -873h719z" />
    <glyph glyph-name="R_Aring.dlig" horiz-adv-x="2594" 
d="M2020 1675q-54 -51 -142 -51q-90 0 -143 51t-54 135q0 84 55 135q54 50 142 50t142 -51t55 -134q-1 -84 -55 -135zM1765 1699q43 -42 113 -42t113 42t43 111q0 68 -43 110t-113 42t-113 -42t-43 -110q0 -69 43 -111zM2384 0l-184 444h-791l455 1112h26l654 -1556h-160z
M561 729l686 -729h-186l-682 729h-4v-729h-154v1536h389q156 0 275 -50t184 -140q66 -90 66 -209q0 -121 -66 -214t-184 -144q-119 -50 -275 -50h-49zM588 762q170 0 275 103t106 272q0 164 -106 265q-105 101 -275 101h-213v-741h213zM2185 477l-364 873l-355 -873h719z
" />
    <glyph glyph-name="R_Atilde.dlig" horiz-adv-x="2594" 
d="M1636 1796q-39 -33 -67 -100l-21 10q59 156 189 156q45 0 79 -20q34 -19 76 -58q37 -33 67 -50t64 -18q51 0 88 34t68 101l23 -12q-25 -68 -71 -112t-118 -44q-45 0 -79 20q-34 19 -76 58q-41 35 -69 51t-63 17q-51 0 -90 -33zM2384 0l-184 444h-791l455 1112h26
l654 -1556h-160zM561 729l686 -729h-186l-682 729h-4v-729h-154v1536h389q156 0 275 -50t184 -140q66 -90 66 -209q0 -121 -66 -214t-184 -144q-119 -50 -275 -50h-49zM588 762q170 0 275 103t106 272q0 164 -106 265q-105 101 -275 101h-213v-741h213zM2185 477l-364 873
l-355 -873h719z" />
    <glyph glyph-name="Rcaron_Aacute.dlig" horiz-adv-x="2594" 
d="M932 1882l14 -16l-330 -242l-329 242l14 16l315 -203zM2384 0l-184 444h-791l455 1112h26l654 -1556h-160zM561 729l686 -729h-186l-682 729h-4v-729h-154v1536h389q156 0 275 -50t184 -140q66 -90 66 -209q0 -121 -66 -214t-184 -144q-119 -50 -275 -50h-49zM588 762
q170 0 275 103t106 272q0 164 -106 265q-105 101 -275 101h-213v-741h213zM2185 477l-364 873l-355 -873h719zM1632 1642l-10 29l543 197l12 -33z" />
    <glyph glyph-name="T_T.dlig" horiz-adv-x="2287" 
d="M2257 1503h-535v-1503h-153v1503h-850v-1503h-154v1503h-536v33h2228v-33z" />
    <glyph glyph-name="T_Y.dlig" horiz-adv-x="2478" 
d="M1860 686v-686h-154v682l-551 821h-436v-1503h-154v1503h-536v33h1282l530 -803l510 803h47z" />
    <glyph glyph-name="T_Y.dlig.ss03" horiz-adv-x="2398" 
d="M2404 1536l-823 -1536h-45l233 436l-612 1067h-438v-1503h-154v1503h-536v33h1282l538 -948l508 948h47z" />
    <glyph glyph-name="T_Yacute.dlig" horiz-adv-x="2478" 
d="M1565 1642l-11 29l543 197l12 -33zM1860 686v-686h-154v682l-551 821h-436v-1503h-154v1503h-536v33h1282l530 -803l510 803h47z" />
    <glyph glyph-name="T_Yacute.dlig.ss03" horiz-adv-x="2398" 
d="M1587 1642l-10 29l543 197l12 -33zM2404 1536l-823 -1536h-45l233 436l-612 1067h-438v-1503h-154v1503h-536v33h1282l538 -948l508 948h47z" />
    <glyph glyph-name="T_h.dlig" horiz-adv-x="2373" 
d="M2117 1024q89 -90 89 -238v-786h-148v813q0 115 -61.5 184.5t-161.5 69.5q-115 0 -221.5 -81t-165.5 -212v-774h-148v1503h-581v-1503h-154v1503h-536v33h1419v-700q66 127 182.5 202.5t251.5 75.5q146 0 235 -90z" />
    <glyph glyph-name="Tcaron_T.dlig" horiz-adv-x="2287" 
d="M956 1882l15 -16l-330 -242l-330 242l15 16l315 -203zM2257 1503h-535v-1503h-153v1503h-850v-1503h-154v1503h-536v33h2228v-33z" />
    <glyph glyph-name="U_N.dlig" horiz-adv-x="2557" 
d="M2339 1536v-1556h-29l-1010 1335v-774q0 -166 -65.5 -294t-185 -197.5t-279.5 -69.5q-168 0 -296 72.5t-199.5 203.5t-71.5 303v977h153v-999q0 -154 53.5 -272t151.5 -182.5t225 -64.5q141 0 249 64.5t166.5 182.5t58.5 272v1019h28l1010 -1337v1317h41z" />
    <glyph glyph-name="U_Nacute.dlig" horiz-adv-x="2557" 
d="M1565 1642l-11 29l543 197l12 -33zM2339 1536v-1556h-29l-1010 1335v-774q0 -166 -65 -294q-66 -128 -185 -198q-120 -70 -280 -69q-168 0 -296 72q-128 73 -200 204t-71 303v977h153v-999q0 -154 54 -272q53 -118 151 -182q98 -65 225 -65q141 0 249 65t166 182
q58 118 59 272v1019h28l1010 -1337v1317h41z" />
    <glyph glyph-name="U_Ncaron.dlig" horiz-adv-x="2557" 
d="M2124 1882l14 -16l-330 -242l-329 242l14 16l315 -203zM2339 1536v-1556h-29l-1010 1335v-774q0 -166 -65.5 -294t-185 -197.5t-279.5 -69.5q-168 0 -296 72.5t-199.5 203.5t-71.5 303v977h153v-999q0 -154 53.5 -272t151.5 -182.5t225 -64.5q141 0 249 64.5t166.5 182.5
t58.5 272v1019h28l1010 -1337v1317h41z" />
    <glyph glyph-name="U_uni0145.dlig" horiz-adv-x="2557" 
d="M1869.5 -156.5q26.5 -31.5 26.5 -95.5q0 -76 -43 -143.5t-112 -102.5l-15 21q57 35 95.5 91t40.5 116q-25 -25 -70 -25q-39 0 -63.5 22.5t-24.5 61.5t25.5 62.5t68.5 23.5q45 0 71.5 -31.5zM2339 1536v-1556h-29l-1010 1335v-774q0 -166 -65.5 -294t-185 -197.5
t-279.5 -69.5q-168 0 -296 72.5t-199.5 203.5t-71.5 303v977h153v-999q0 -154 53.5 -272t151.5 -182.5t225 -64.5q141 0 249 64.5t166.5 182.5t58.5 272v1019h28l1010 -1337v1317h41z" />
    <glyph glyph-name="U_Ntilde.dlig" horiz-adv-x="2557" 
d="M1571 1796q-39 -33 -68 -100l-20 10q59 156 188 156q45 0 79 -19.5t77 -58.5q37 -33 66.5 -50.5t64.5 -17.5q51 0 88 34t68 101l22 -12q-25 -68 -71 -112t-117 -44q-45 0 -79 19.5t-77 58.5q-41 35 -68.5 51.5t-62.5 16.5q-51 0 -90 -33zM2339 1536v-1556h-29l-1010 1335
v-774q0 -166 -65.5 -294t-185 -197.5t-279.5 -69.5q-168 0 -296 72.5t-199.5 203.5t-71.5 303v977h153v-999q0 -154 53.5 -272t151.5 -182.5t225 -64.5q141 0 249 64.5t166.5 182.5t58.5 272v1019h28l1010 -1337v1317h41z" />
    <glyph glyph-name="Uacute_N.dlig" horiz-adv-x="2557" 
d="M557 1642l-10 29l543 197l12 -33zM2339 1536v-1556h-29l-1010 1335v-774q0 -166 -65.5 -294t-185 -197.5t-279.5 -69.5q-168 0 -296 72.5t-199.5 203.5t-71.5 303v977h153v-999q0 -154 53.5 -272t151.5 -182.5t225 -64.5q141 0 249 64.5t166.5 182.5t58.5 272v1019h28
l1010 -1337v1317h41z" />
    <glyph glyph-name="Uacute_Ncaron.dlig" horiz-adv-x="2557" 
d="M555 1642l-10 29l542 197l13 -33zM2339 1536v-1556h-29l-1010 1335v-774q0 -166 -65 -294q-66 -128 -185 -198q-120 -70 -280 -69q-168 0 -296 72q-128 73 -200 204t-71 303v977h153v-999q0 -154 54 -272q53 -118 151 -182q98 -65 225 -65q141 0 249 65t166 182
q58 118 59 272v1019h28l1010 -1337v1317h41zM2124 1882l14 -16l-330 -242l-329 242l14 16l315 -203z" />
    <glyph glyph-name="Uacute_Ntilde.dlig" horiz-adv-x="2557" 
d="M555 1642l-10 29l542 197l13 -33zM2339 1536v-1556h-29l-1010 1335v-774q0 -166 -65 -294q-66 -128 -185 -198q-120 -70 -280 -69q-168 0 -296 72q-128 73 -200 204t-71 303v977h153v-999q0 -154 54 -272q53 -118 151 -182q98 -65 225 -65q141 0 249 65t166 182
q58 118 59 272v1019h28l1010 -1337v1317h41zM1571 1796q-39 -33 -68 -100l-20 10q59 156 188 156q45 0 79 -20q34 -19 77 -58q37 -33 66 -50q30 -17 65 -18q51 0 88 34t68 101l22 -12q-25 -68 -71 -112t-117 -44q-45 0 -79 20q-34 19 -77 58q-41 35 -69 51t-62 17
q-51 0 -90 -33z" />
    <glyph glyph-name="Udieresis_N.dlig" horiz-adv-x="2557" 
d="M541.5 1698.5q-23.5 21.5 -23.5 56.5t23.5 57.5t60.5 22.5t59.5 -22.5t22.5 -57.5t-22.5 -56.5t-59.5 -21.5t-60.5 21.5zM940.5 1698.5q-22.5 21.5 -22.5 56.5t22.5 57.5t58.5 22.5q37 0 59.5 -22.5t22.5 -57.5t-22.5 -56.5t-59.5 -21.5q-36 0 -58.5 21.5zM2339 1536
v-1556h-29l-1010 1335v-774q0 -166 -65.5 -294t-185 -197.5t-279.5 -69.5q-168 0 -296 72.5t-199.5 203.5t-71.5 303v977h153v-999q0 -154 53.5 -272t151.5 -182.5t225 -64.5q141 0 249 64.5t166.5 182.5t58.5 272v1019h28l1010 -1337v1317h41z" />
    <glyph glyph-name="Uhungarumlaut_Ntilde.dlig" horiz-adv-x="2557" 
d="M926 1991l20 -29l-477 -328l-16 25zM1346 1991l20 -29l-475 -328l-19 25zM2339 1536v-1556h-29l-1010 1335v-774q0 -166 -65 -294q-66 -128 -185 -198q-120 -70 -280 -69q-168 0 -296 72q-128 73 -200 204t-71 303v977h153v-999q0 -154 54 -272q53 -118 151 -182
q98 -65 225 -65q141 0 249 65t166 182q58 118 59 272v1019h28l1010 -1337v1317h41zM1571 1796q-39 -33 -68 -100l-20 10q59 156 188 156q45 0 79 -20q34 -19 77 -58q37 -33 66 -50q30 -17 65 -18q51 0 88 34t68 101l22 -12q-25 -68 -71 -112t-117 -44q-45 0 -79 20
q-34 19 -77 58q-41 35 -69 51t-62 17q-51 0 -90 -33z" />
    <glyph glyph-name="Umacron_N.dlig" horiz-adv-x="2557" 
d="M1083 1677h-567v33h567v-33zM2339 1536v-1556h-29l-1010 1335v-774q0 -166 -65.5 -294t-185 -197.5t-279.5 -69.5q-168 0 -296 72.5t-199.5 203.5t-71.5 303v977h153v-999q0 -154 53.5 -272t151.5 -182.5t225 -64.5q141 0 249 64.5t166.5 182.5t58.5 272v1019h28
l1010 -1337v1317h41z" />
    <glyph glyph-name="Umacron_uni0145.dlig" horiz-adv-x="2557" 
d="M516 1677v33h567v-33h-567zM2339 1536v-1556h-29l-1010 1335v-774q0 -166 -65 -294q-66 -128 -185 -198q-120 -70 -280 -69q-168 0 -296 72q-128 73 -200 204t-71 303v977h153v-999q0 -154 54 -272q53 -118 151 -182q98 -65 225 -65q141 0 249 65t166 182q58 118 59 272
v1019h28l1010 -1337v1317h41zM1870 -157q27 -32 26 -95q0 -76 -43 -143q-43 -68 -112 -103l-15 21q57 35 96 91q38 56 40 116q-25 -25 -70 -25q-39 0 -63 23q-25 23 -25 61q0 39 26 63t68 23q45 0 72 -32z" />
    <glyph glyph-name="Uring_N.dlig" horiz-adv-x="2557" 
d="M658.5 1674q-54.5 50 -54.5 134t53.5 135.5t143.5 51.5q88 0 142 -51.5t54 -135.5q0 -82 -54 -133t-142 -51t-142.5 50zM688 1920q-43 -42 -43 -112q0 -68 43 -109.5t113 -41.5t112.5 42t42.5 109q0 70 -43 112t-112 42q-70 0 -113 -42zM2339 1536v-1556h-29l-1010 1335
v-774q0 -166 -65.5 -294t-185 -197.5t-279.5 -69.5q-168 0 -296 72.5t-199.5 203.5t-71.5 303v977h153v-999q0 -154 53.5 -272t151.5 -182.5t225 -64.5q141 0 249 64.5t166.5 182.5t58.5 272v1019h28l1010 -1337v1317h41z" />
    </font>
</defs>
</svg>
