<?xml version="1.0" standalone="no"?>
<!DOCTYPE svg PUBLIC "-//W3C//DTD SVG 1.1//EN" "http://www.w3.org/Graphics/SVG/1.1/DTD/svg11.dtd" >
<svg xmlns="http://www.w3.org/2000/svg" xmlns:xlink="http://www.w3.org/1999/xlink" version="1.1">
<metadata>
Created by FontForge 20201107 at Wed Sep 11 12:56:51 2024
 By 
Copyright (c) 2011 by Colophon Foundry. All rights reserved. |DCNT
</metadata>
<defs>
<font id="Relative-BookItalic" horiz-adv-x="1269" >
  <font-face 
    font-family="Relative"
    font-weight="400"
    font-style="italic"
    font-stretch="normal"
    units-per-em="2048"
    panose-1="2 0 5 6 4 0 0 2 0 4"
    ascent="1638"
    descent="-410"
    x-height="1028"
    cap-height="1434"
    bbox="-299 -467 2540 2044"
    underline-thickness="102"
    underline-position="-204"
    unicode-range="U+000D-FB02"
  />
<missing-glyph horiz-adv-x="1331" 
d="M1274 1413l-273 -1393q-3 -20 -24 -20h-903q-17 0 -17 20l273 1393q3 21 24 21h903q17 0 17 -21zM1065 1270h-584l-215 -1106h584z" />
    <glyph glyph-name=".notdef" horiz-adv-x="1331" 
d="M1274 1413l-273 -1393q-3 -20 -24 -20h-903q-17 0 -17 20l273 1393q3 21 24 21h903q17 0 17 -21zM1065 1270h-584l-215 -1106h584z" />
    <glyph glyph-name=".null" horiz-adv-x="0" 
 />
    <glyph glyph-name=".null" horiz-adv-x="0" 
 />
    <glyph glyph-name="nonmarkingreturn" horiz-adv-x="682" 
 />
    <glyph glyph-name="CR" unicode="&#xd;" horiz-adv-x="0" 
 />
    <glyph glyph-name="space" unicode=" " horiz-adv-x="475" 
 />
    <glyph glyph-name="exclam" unicode="!" horiz-adv-x="718" 
d="M444 1434h140q16 0 16 -21l-194 -997q-3 -21 -25 -21h-139q-17 0 -17 21l195 997q3 21 24 21zM188 205h172q17 0 17 -21l-33 -164q-3 -20 -25 -20h-172q-16 0 -16 20l33 164q3 21 24 21z" />
    <glyph glyph-name="quotedbl" unicode="&#x22;" horiz-adv-x="782" 
d="M150 983l83 430q3 21 25 21h123q16 0 16 -21l-84 -430q-3 -20 -24 -20h-123q-16 0 -16 20zM539 983l84 430q3 21 24 21h123q16 0 16 -21l-84 -430q-3 -20 -24 -20h-123q-16 0 -16 20z" />
    <glyph glyph-name="numbersign" unicode="#" horiz-adv-x="1533" 
d="M680 20l141 386h-334l-141 -386q-9 -20 -27 -20h-139q-10 0 -12 4t-2 16l141 386h-227q-17 0 -17 20l25 123q3 20 23 20h258l106 295h-227q-17 0 -17 21l25 123q3 20 25 20h254l143 385q9 21 27 21h139q16 0 16 -11q0 -6 -2 -10l-143 -385h334l143 385q9 21 27 21h139
q16 0 16 -11q0 -6 -2 -10l-143 -385h231q17 0 17 -20l-25 -123q-3 -21 -25 -21h-258l-106 -295h227q17 0 17 -20l-25 -123q-3 -20 -25 -20h-256l-141 -386q-6 -20 -26 -20h-140q-10 0 -12 4t-2 16zM655 864l-106 -295h334l106 295h-334z" />
    <glyph glyph-name="dollar" unicode="$" horiz-adv-x="1206" 
d="M178 1020q0 102 39 183.5t107 134t156 81.5t190 33l32 166q3 20 25 20h131q16 0 16 -20l-34 -176q145 -31 224 -124.5t79 -215.5q0 -29 -2 -47q-3 -21 -25 -21h-135q-16 0 -16 21q2 6 2 30q0 69 -41 118.5t-119 72.5l-92 -481q87 -27 149.5 -56t115 -70t79 -97t26.5 -126
q0 -221 -140 -336.5t-390 -127.5l-31 -166q-3 -21 -24 -21h-131q-17 0 -17 21l33 176q-153 30 -250.5 128.5t-97.5 241.5q0 55 4 72q3 21 25 21h135q16 0 16 -21q-4 -32 -4 -45q0 -89 52 -150.5t153 -84.5l100 518q-340 97 -340 348zM905 414q0 78 -56.5 129.5t-166.5 85.5
l-94 -484q145 12 231 81t86 188zM358 1055q0 -76 46 -124.5t147 -86.5l86 442q-53 -4 -100.5 -19t-88.5 -42t-65.5 -71t-24.5 -99z" />
    <glyph glyph-name="percent" unicode="%" horiz-adv-x="1746" 
d="M862 1114q0 -180 -115 -297t-292 -117q-134 0 -222 90t-88 230q0 180 115.5 297t292.5 117q134 0 221.5 -90t87.5 -230zM467 825q112 0 188 79t76 204q0 95 -51 148t-139 53q-112 0 -188.5 -79t-76.5 -204q0 -95 51.5 -148t139.5 -53zM1597 414q0 -180 -115 -297
t-292 -117q-134 0 -221.5 89.5t-87.5 229.5q0 180 115 297t292 117q134 0 221.5 -89.5t87.5 -229.5zM1202 125q112 0 188 79t76 204q0 95 -51 147.5t-139 52.5q-112 0 -188 -78.5t-76 -203.5q0 -95 51 -148t139 -53zM139 86l1395 1341q7 7 14 7q8 0 15 -7l45 -51q8 -8 8 -14
t-8 -14l-1395 -1342q-6 -6 -14 -6q-9 0 -15 6l-45 51q-8 8 -8 15q0 6 8 14z" />
    <glyph glyph-name="ampersand" unicode="&#x26;" horiz-adv-x="1376" 
d="M1251 571h-164q-55 -195 -126 -301l122 -237q7 -14 7 -19q0 -14 -19 -14h-151q-14 0 -23 18l-61 113q-170 -151 -400 -151q-155 0 -266 100t-111 260q0 92 28.5 169.5t82 137t121 105t155.5 84.5q-65 117 -65 235q0 165 110.5 274t288.5 109q133 0 219 -76.5t86 -195.5
q0 -227 -272 -346l-137 -62l196 -352q54 114 93 295q3 18 22 18h295q16 0 16 -20l-22 -123q-3 -21 -25 -21zM453 139q171 0 307 133l-240 428q-60 -27 -106 -57t-87.5 -71.5t-64 -96t-22.5 -119.5q0 -96 60.5 -156.5t152.5 -60.5zM756 1303q-83 0 -145 -55t-62 -148
q0 -89 39 -168l16 -29l152 64q162 73 162 188q0 68 -42.5 108t-119.5 40z" />
    <glyph glyph-name="quotesingle" unicode="'" horiz-adv-x="393" 
d="M150 983l83 430q3 21 25 21h123q16 0 16 -21l-84 -430q-3 -20 -24 -20h-123q-16 0 -16 20z" />
    <glyph glyph-name="parenleft" unicode="(" horiz-adv-x="792" 
d="M350 657l-55 -280q-33 -156 -33 -273q0 -110 43.5 -187t163.5 -202q6 -6 6 -12q0 -8 -8 -16l-84 -97q-10 -10 -16 -10q-7 0 -15 8q-136 132 -201 249t-65 257q0 94 23 219l79 408q25 132 61.5 226.5t102.5 179t144.5 153t212.5 166.5q9 6 14 6q7 0 12 -8l72 -98
q4 -8 4 -13q0 -6 -10 -16q-119 -86 -187 -145.5t-123 -135.5t-85.5 -162t-55.5 -217z" />
    <glyph glyph-name="parenright" unicode=")" horiz-adv-x="792" 
d="M375 375l55 280q33 156 33 273q0 110 -43.5 187t-163.5 202q-6 6 -6 12q0 9 8 17l84 96q10 10 16 10q7 0 15 -8q136 -132 201 -249t65 -257q0 -94 -23 -219l-79 -408q-25 -132 -61.5 -226.5t-102.5 -179t-144.5 -153t-212.5 -166.5q-9 -6 -14 -6q-7 0 -12 8l-72 99
q-4 8 -4 12q0 6 10 16q119 86 187 145.5t123 135.5t85.5 162t55.5 217z" />
    <glyph glyph-name="asterisk" unicode="*" horiz-adv-x="919" 
d="M174 1130l41 99q6 14 16 14q9 0 13 -2l215 -74l55 246q6 21 25 21h102q16 0 16 -21l-47 -250l238 72q4 2 12 2q6 0 12 -16l29 -99q2 -6 2 -12q0 -13 -14 -16l-271 -80l109 -193q2 -4 2 -10q0 -12 -14 -20l-86 -58q-12 -4 -13 -4q-7 0 -16 12l-113 191l-163 -195
q-10 -10 -17 -10q-5 0 -14 6l-84 70q-6 6 -6 12q0 8 8 16l176 201l-205 72q-12 3 -12 12q0 2 4 14z" />
    <glyph glyph-name="plus" unicode="+" horiz-adv-x="1202" 
d="M770 1133l-70 -353h353q16 0 16 -20l-22 -119q-3 -20 -25 -20h-352l-70 -353q-3 -20 -22 -20h-127q-19 0 -19 20l70 353h-352q-17 0 -17 20l23 119q3 20 24 20h352l70 353q3 20 23 20h127q18 0 18 -20z" />
    <glyph glyph-name="comma" unicode="," horiz-adv-x="559" 
d="M45 -111q61 0 82 15.5t31 70.5l4 25h-94q-17 0 -17 20l31 156q3 21 24 21h160q17 0 17 -21l-43 -215q-17 -81 -54.5 -113t-111.5 -32h-43q-17 0 -17 20l6 33q3 20 25 20z" />
    <glyph glyph-name="hyphen" unicode="-" horiz-adv-x="1075" 
d="M180 780h746q16 0 16 -20l-22 -119q-3 -20 -25 -20h-745q-17 0 -17 20l23 119q3 20 24 20z" />
    <glyph glyph-name="period" unicode="." horiz-adv-x="559" 
d="M106 197h160q17 0 17 -21l-31 -156q-3 -20 -25 -20h-159q-17 0 -17 20l31 156q3 21 24 21z" />
    <glyph glyph-name="slash" unicode="/" horiz-adv-x="1032" 
d="M-115 20l983 1393q15 21 33 21h150q12 0 12 -9q0 -4 -4 -12l-983 -1393q-14 -20 -33 -20h-149q-13 0 -13 8q0 4 4 12z" />
    <glyph glyph-name="zero" unicode="0" horiz-adv-x="1288" 
d="M76 547q0 108 19 215t55.5 209t95 189.5t133 153t174 103t213.5 37.5q194 0 317 -147t123 -420q0 -108 -19 -215t-55.5 -209t-95 -189.5t-133 -153t-174 -103t-213.5 -37.5q-194 0 -317 147t-123 420zM748 1294q-99 0 -182.5 -44t-140.5 -118t-96.5 -171t-58 -201.5
t-18.5 -212.5q0 -408 283 -408q99 0 182.5 44.5t140 118t96.5 171t58 202t18 212.5q0 407 -282 407z" />
    <glyph glyph-name="one" unicode="1" horiz-adv-x="798" 
d="M231 20l232 1182l-303 -145q-14 -6 -25 -6q-10 0 -10 18l27 141q6 19 28 31l369 182q18 11 33 11h82q16 0 16 -21l-272 -1393q-3 -20 -25 -20h-135q-17 0 -17 20z" />
    <glyph glyph-name="two" unicode="2" horiz-adv-x="1236" 
d="M18 20l19 86q6 32 29 48l671 561q111 94 158 168t47 180t-62.5 168.5t-177.5 62.5q-129 0 -214 -79.5t-107 -196.5q-7 -31 -33 -31h-117q-20 0 -20 17q0 8 2 14q19 97 57.5 174.5t99.5 137.5t151 92t204 32q175 0 284 -106.5t109 -266.5q0 -141 -69.5 -253.5
t-204.5 -225.5l-533 -442h652q16 0 16 -21l-25 -119q-3 -20 -24 -20h-895q-17 0 -17 20z" />
    <glyph glyph-name="three" unicode="3" horiz-adv-x="1222" 
d="M455 707l20 114q3 23 29 23h104q61 0 115 14t99 42t71.5 77.5t26.5 114.5q0 95 -57 148.5t-167 53.5t-193.5 -63.5t-115.5 -169.5q-4 -16 -10.5 -20.5t-20.5 -4.5h-118q-27 0 -21 35q45 176 175 279.5t321 103.5q169 0 271.5 -91t102.5 -233q0 -261 -241 -356
q80 -34 131 -109.5t51 -191.5q0 -244 -145.5 -368.5t-395.5 -124.5q-182 0 -303 111t-121 276q0 10 5 55q6 35 32 35h111q22 0 22 -27q0 -6 -1 -20t-1 -27q0 -113 69 -178.5t206 -65.5q163 0 254.5 82t91.5 236q0 111 -66 169t-194 58h-117q-20 0 -20 23z" />
    <glyph glyph-name="four" unicode="4" horiz-adv-x="1204" 
d="M588 20l53 275h-618q-15 0 -15 20l15 76q8 31 24 47l836 979q14 17 30 17h107q16 0 16 -21l-186 -958h197q16 0 16 -21l-25 -119q-3 -20 -24 -20h-197l-53 -275q-3 -20 -27 -20h-133q-16 0 -16 20zM795 1085l-527 -630h406z" />
    <glyph glyph-name="five" unicode="5" horiz-adv-x="1265" 
d="M162 668l229 745q6 21 25 21h762q16 0 16 -21l-25 -119q-3 -20 -24 -20h-625l-139 -424q163 100 330 100q182 0 281.5 -103t99.5 -296q0 -256 -156.5 -413.5t-423.5 -157.5q-173 0 -289.5 103.5t-116.5 262.5q0 27 5 53q6 31 30 31h113q12 0 16 -6t4 -25q0 -120 69 -190
t192 -70q166 0 271 107t105 278q0 267 -258 267q-147 0 -309 -125q-27 -19 -39 -19h-127q-16 0 -16 21z" />
    <glyph glyph-name="six" unicode="6" 
d="M117 457q0 127 18 248t53.5 233.5t92 205.5t130 162.5t172 108.5t212.5 39q172 0 279.5 -100t107.5 -256q-7 -21 -27 -21h-123q-18 0 -18 21q-10 104 -75 154.5t-163 50.5q-154 0 -267 -128.5t-165 -394.5q151 146 369 146q168 0 276.5 -112.5t108.5 -305.5
q0 -238 -154.5 -383t-411.5 -145q-183 0 -299 127.5t-116 349.5zM664 766q-159 0 -265 -96.5t-106 -257.5q0 -125 70 -199t192 -74q157 0 262 100t105 261q0 121 -67 193.5t-191 72.5z" />
    <glyph glyph-name="seven" unicode="7" horiz-adv-x="1032" 
d="M162 1294l24 119q3 21 25 21h870q17 0 17 -21l-17 -78q-13 -40 -20 -51l-723 -1270q-8 -14 -27 -14h-135q-16 0 -16 14q0 3 1 5.5t2.5 6t2.5 5.5l704 1243h-692q-16 0 -16 20z" />
    <glyph glyph-name="eight" unicode="8" horiz-adv-x="1232" 
d="M250 1014q0 200 140.5 320t354.5 120q169 0 273 -91t104 -243q0 -244 -239 -358q157 -112 157 -293q0 -120 -43.5 -215t-119.5 -154t-174.5 -89.5t-213.5 -30.5q-185 0 -298 101.5t-113 268.5q0 144 77 249t216 163q-52 40 -86.5 108.5t-34.5 143.5zM606 676
q-149 0 -250.5 -78.5t-101.5 -224.5q0 -109 67.5 -171.5t184.5 -62.5q149 0 253.5 81.5t104.5 228.5q0 102 -68.5 164.5t-189.5 62.5zM731 1294q-58 0 -112.5 -16.5t-100 -47.5t-73 -83t-27.5 -117q0 -88 57.5 -143.5t163.5 -55.5q80 0 150 28.5t117.5 91t47.5 147.5
q0 97 -59 146.5t-164 49.5z" />
    <glyph glyph-name="nine" unicode="9" 
d="M1159 977q0 -127 -18 -248t-53.5 -233.5t-92 -205.5t-130 -162.5t-172 -108.5t-212.5 -39q-172 0 -279.5 100t-107.5 256q4 13 10 16.5t17 3.5h123q18 0 18 -20q10 -104 75 -154.5t163 -50.5q154 0 267 128.5t165 393.5q-150 -145 -369 -145q-168 0 -276.5 112.5
t-108.5 305.5q0 239 154 383.5t411 144.5q183 0 299.5 -127.5t116.5 -349.5zM612 668q159 0 265 96.5t106 257.5q0 125 -70 198.5t-192 73.5q-157 0 -262 -99.5t-105 -260.5q0 -121 67 -193.5t191 -72.5z" />
    <glyph glyph-name="colon" unicode=":" horiz-adv-x="559" 
d="M106 197h160q17 0 17 -21l-31 -156q-6 -20 -25 -20h-159q-17 0 -17 20l31 156q3 21 24 21zM270 1028h160q16 0 16 -20l-30 -156q-3 -21 -25 -21h-160q-16 0 -16 21l31 156q3 20 24 20z" />
    <glyph glyph-name="semicolon" unicode=";" horiz-adv-x="559" 
d="M270 1028h160q16 0 16 -20l-30 -156q-3 -21 -25 -21h-160q-16 0 -16 21l31 156q3 20 24 20zM45 -111q61 0 82 15.5t31 70.5l4 25h-94q-17 0 -17 20l31 156q3 21 24 21h160q17 0 17 -21l-43 -215q-17 -81 -54.5 -113t-111.5 -32h-43q-17 0 -17 20l6 33q3 20 25 20z" />
    <glyph glyph-name="less" unicode="&#x3c;" horiz-adv-x="1052" 
d="M838 250l-25 -129q-3 -15 -12 -15l-15 5l-657 397q-16 10 -16 27l30 151q4 18 25 27l817 399q2 2 10 2q9 0 9 -14l-29 -150q-3 -16 -27 -28l-669 -322l544 -321q15 -9 15 -29z" />
    <glyph glyph-name="equal" unicode="=" horiz-adv-x="1267" 
d="M248 903h864q16 0 16 -20l-22 -119q-6 -21 -25 -21h-864q-16 0 -16 21l22 119q3 20 25 20zM166 487h864q17 0 17 -20l-23 -119q-3 -20 -25 -20h-864q-16 0 -16 20l22 119q3 20 25 20z" />
    <glyph glyph-name="greater" unicode="&#x3e;" horiz-adv-x="1052" 
d="M217 971l25 129q3 14 12 14q2 0 14 -4l658 -397q16 -10 16 -27l-31 -151q-4 -18 -24 -27l-817 -399q-3 -3 -11 -3t-8 15l29 149q4 18 26 29l670 322l-545 321q-14 8 -14 29z" />
    <glyph glyph-name="question" unicode="?" horiz-adv-x="1120" 
d="M176 1049q44 177 179.5 291t338.5 114q164 0 268.5 -90.5t104.5 -247.5q0 -67 -23 -124t-60.5 -98.5t-83.5 -79t-94.5 -72.5t-90 -70.5t-72.5 -81.5t-41 -98l-14 -76q-3 -21 -25 -21h-139q-16 0 -16 21l12 61q15 77 49 140t76 105.5t89.5 79t92 68t80.5 64t58 76t22 96.5
q0 87 -56.5 135.5t-158.5 48.5q-112 0 -196 -60.5t-124 -180.5q-6 -21 -24 -21h-135q-17 0 -17 21zM371 205h172q16 0 16 -21l-33 -164q-3 -20 -24 -20h-172q-17 0 -17 20l33 164q3 21 25 21z" />
    <glyph glyph-name="at" unicode="@" horiz-adv-x="1654" 
d="M1434 735q0 230 -131 352.5t-383 122.5q-211 0 -372 -94.5t-244 -250t-83 -345.5q0 -135 44 -247t118.5 -184.5t172 -112t206.5 -39.5q131 0 223.5 22.5t185.5 69.5q2 2 11 2q8 0 12 -11l41 -90q2 -2 2 -8q0 -4 -2 -6t-6 -5t-6 -5q-193 -96 -467 -96q-133 0 -255 49
t-216 137t-150.5 222.5t-56.5 293.5q0 173 58.5 323t166 261.5t272.5 176t367 64.5q181 0 325.5 -75t225 -206.5t80.5 -293.5q0 -160 -44 -291t-134.5 -212t-212.5 -81q-68 0 -117.5 34.5t-67.5 90.5q-69 -64 -138 -94.5t-154 -30.5q-129 0 -212 91t-83 233q0 209 131 348
t329 139q162 0 230 -119l28 88q7 17 21 17h94q6 0 8.5 -2t3 -4t0.5 -8v-3l-129 -430q-22 -74 -22 -129q0 -106 96 -106q73 0 128 68.5t80.5 167t25.5 206.5zM1034 670q0 204 -164 204q-78 0 -140 -31.5t-100.5 -84t-58.5 -117t-20 -133.5q0 -105 47.5 -160t124.5 -55
q62 0 114.5 25.5t88 66.5t60.5 91.5t36.5 100t11.5 93.5z" />
    <glyph glyph-name="A" unicode="A" horiz-adv-x="1255" 
d="M932 20l-64 396h-585l-220 -396q-12 -20 -28 -20h-150q-18 0 -18 16q0 10 6 19l774 1378q12 21 29 21h176q17 0 20 -21l240 -1388q0 -14 -4.5 -19.5t-20.5 -5.5h-135q-11 0 -14.5 4t-5.5 16zM733 1227l-360 -647h467z" />
    <glyph glyph-name="B" unicode="B" horiz-adv-x="1310" 
d="M635 0h-561q-17 0 -17 20l273 1393q3 21 24 21h502q163 0 264 -78t101 -230q0 -127 -65.5 -218.5t-176.5 -145.5q174 -89 174 -275q0 -135 -66 -246t-185 -176t-267 -65zM365 672l-97 -502h373q145 0 238.5 80t93.5 211q0 211 -236 211h-372zM479 1264l-82 -428h365
q117 0 195.5 64t78.5 181q0 90 -49.5 136.5t-142.5 46.5h-365z" />
    <glyph glyph-name="C" unicode="C" horiz-adv-x="1413" 
d="M1151 498h135q19 0 19 -21q-81 -243 -257 -370t-425 -127q-114 0 -214 42t-173 117.5t-115.5 187.5t-42.5 246q0 182 54.5 341.5t154 280t251.5 190t336 69.5q231 0 376 -134.5t145 -340.5v-23q0 -20 -27 -20h-127q-17 0 -20 20q-12 164 -101.5 249t-271.5 85
q-105 0 -198 -37.5t-163 -103t-121.5 -152.5t-77.5 -188.5t-26 -208.5q0 -220 104.5 -338.5t272.5 -118.5q182 0 290 78.5t193 255.5q9 21 29 21z" />
    <glyph glyph-name="D" unicode="D" horiz-adv-x="1376" 
d="M57 20l273 1393q3 21 24 21h394q116 0 214.5 -35t173.5 -102.5t117.5 -174t42.5 -241.5q0 -182 -58 -343t-162 -280t-258.5 -188.5t-338.5 -69.5h-405q-17 0 -17 20zM702 1270h-221l-215 -1106h221q139 0 257.5 55t198.5 148.5t124.5 219.5t44.5 267q0 204 -110.5 310
t-299.5 106z" />
    <glyph glyph-name="E" unicode="E" horiz-adv-x="1165" 
d="M365 672l-99 -508h684q17 0 17 -21l-25 -123q-3 -20 -24 -20h-844q-17 0 -17 20l273 1393q3 21 24 21h813q17 0 17 -21l-25 -123q-3 -20 -24 -20h-654l-84 -434h592q17 0 17 -21l-25 -123q-3 -20 -25 -20h-591z" />
    <glyph glyph-name="F" unicode="F" horiz-adv-x="1161" 
d="M358 641l-120 -621q-3 -20 -25 -20h-139q-17 0 -17 20l273 1393q3 21 24 21h842q16 0 16 -21l-24 -123q-3 -20 -25 -20h-682l-90 -465h617q16 0 16 -21l-25 -122q-3 -21 -24 -21h-617z" />
    <glyph glyph-name="G" unicode="G" horiz-adv-x="1474" 
d="M772 729h559q17 0 17 -20l-70 -357q-8 -41 -37 -78q-112 -145 -267 -219.5t-339 -74.5q-118 0 -218 37.5t-176.5 110.5t-119.5 190.5t-43 267.5q0 171 56.5 327.5t157.5 277t254.5 192t334.5 71.5q222 0 365 -116.5t143 -313.5q-6 -20 -27 -20h-135q-21 0 -21 20
q-7 136 -99.5 201t-252.5 65q-130 0 -242.5 -58.5t-188 -156t-118.5 -225t-43 -264.5q0 -207 102.5 -325t292.5 -118q283 0 443 211l43 211h-404q-16 0 -16 21l25 123q3 20 24 20z" />
    <glyph glyph-name="H" unicode="H" horiz-adv-x="1435" 
d="M365 666l-127 -646q-3 -20 -25 -20h-139q-17 0 -17 20l273 1393q3 21 24 21h140q16 0 16 -21l-115 -584h688l115 584q3 21 25 21h139q16 0 16 -21l-272 -1393q-3 -20 -25 -20h-139q-16 0 -16 20l127 646h-688z" />
    <glyph glyph-name="I" unicode="I" horiz-adv-x="567" 
d="M57 20l273 1393q3 21 24 21h140q16 0 16 -21l-272 -1393q-3 -20 -25 -20h-139q-17 0 -17 20z" />
    <glyph glyph-name="J" unicode="J" horiz-adv-x="1161" 
d="M1108 1413l-178 -907q-30 -153 -80 -257t-121.5 -162.5t-154.5 -82.5t-195 -24q-179 0 -285 100t-106 262q0 50 8 94q3 21 24 21h134q16 0 16 -21q-8 -41 -8 -74q0 -101 59.5 -160t173.5 -59q150 0 233.5 84.5t121.5 276.5l178 909q3 21 24 21h140q16 0 16 -21z" />
    <glyph glyph-name="K" unicode="K" horiz-adv-x="1282" 
d="M510 1413l-119 -604l684 604q21 21 37 21h176q17 0 17 -13q0 -7 -11 -18l-551 -500l375 -874q2 -2 2 -9q0 -20 -22 -20h-152q-12 0 -18.5 6.5t-12.5 24.5l-321 741l-254 -227l-102 -525q-3 -20 -25 -20h-139q-17 0 -17 20l273 1393q3 21 24 21h140q16 0 16 -21z" />
    <glyph glyph-name="L" unicode="L" horiz-adv-x="1122" 
d="M57 20l273 1393q3 21 24 21h140q16 0 16 -21l-244 -1249h723q17 0 17 -21l-25 -123q-3 -20 -25 -20h-882q-17 0 -17 20z" />
    <glyph glyph-name="M" unicode="M" horiz-adv-x="1677" 
d="M1620 1413l-272 -1393q-3 -20 -25 -20h-139q-17 0 -17 20l224 1145l-560 -907q-9 -18 -30 -18h-90q-20 0 -23 18l-227 907l-223 -1145q-3 -20 -25 -20h-139q-17 0 -17 20l273 1393q3 21 24 21h195q23 0 29 -21l219 -911l561 911q12 21 37 21h209q16 0 16 -21z" />
    <glyph glyph-name="N" unicode="N" horiz-adv-x="1468" 
d="M1114 0h-156q-25 0 -28 16l-469 1147l-223 -1143q-3 -20 -25 -20h-139q-17 0 -17 20l273 1393q3 21 24 21h156q26 0 29 -17l469 -1147l223 1143q3 21 24 21h140q16 0 16 -21l-272 -1393q-3 -20 -25 -20z" />
    <glyph glyph-name="O" unicode="O" horiz-adv-x="1538" 
d="M670 -20q-271 0 -431.5 162.5t-160.5 439.5q0 134 33.5 261.5t101 238t160.5 194t220.5 131t272.5 47.5q271 0 431.5 -162.5t160.5 -439.5q0 -134 -33.5 -261.5t-101 -238t-160.5 -194t-220.5 -131t-272.5 -47.5zM680 143q134 0 247.5 58t188.5 155t116.5 222.5
t41.5 261.5q0 213 -112 331.5t-306 118.5q-134 0 -247.5 -58t-188.5 -154.5t-116.5 -222t-41.5 -261.5q0 -213 112 -332t306 -119z" />
    <glyph glyph-name="P" unicode="P" horiz-adv-x="1267" 
d="M57 20l273 1393q3 21 24 21h492q192 0 301.5 -86.5t109.5 -239.5q0 -226 -149 -349.5t-406 -123.5h-344l-120 -615q-3 -20 -25 -20h-139q-17 0 -17 20zM481 1270l-92 -471h371q143 0 228 70.5t85 213.5q0 91 -57.5 139t-169.5 48h-365z" />
    <glyph glyph-name="Q" unicode="Q" horiz-adv-x="1538" 
d="M670 -20q-271 0 -431.5 162.5t-160.5 439.5q0 134 33.5 261.5t101 238t160.5 194t220.5 131t272.5 47.5q271 0 431.5 -162.5t160.5 -439.5q0 -186 -64 -355t-184 -292l82 -99q6 -9 6 -14q-3 -8 -12 -14l-110 -96q-9 -9 -17 -9q-6 0 -12 9l-86 102q-178 -104 -391 -104z
M680 143q150 0 272 70l-127 154q-6 6 -6 14q0 4 10 14l111 97q8 8 16 8t13 -8l131 -156q85 97 129.5 228t44.5 276q0 213 -112 331.5t-306 118.5q-134 0 -247.5 -58t-188.5 -154.5t-116.5 -222t-41.5 -261.5q0 -213 112 -332t306 -119z" />
    <glyph glyph-name="R" unicode="R" horiz-adv-x="1300" 
d="M57 20l273 1393q3 21 24 21h514q173 0 272 -83t99 -229q0 -164 -91 -272t-259 -156l182 -671q2 -4 2 -13q0 -10 -16 -10h-150q-18 0 -24 20l-176 656h-340l-129 -656q-3 -20 -25 -20h-139q-17 0 -17 20zM481 1270l-84 -430h365q129 0 213 65t84 189q0 176 -213 176h-365z
" />
    <glyph glyph-name="S" unicode="S" horiz-adv-x="1206" 
d="M178 1020q0 106 42.5 190t115.5 136.5t167.5 80t203.5 27.5q206 0 321 -101.5t115 -250.5q0 -29 -2 -47q-3 -21 -25 -21h-135q-16 0 -16 21q2 14 2 30q0 95 -72.5 150t-204.5 55q-57 0 -112 -12t-106 -37.5t-82.5 -73.5t-31.5 -112q0 -97 75 -151t251 -101
q95 -27 161.5 -55.5t124 -70t86.5 -99.5t29 -132q0 -231 -155 -348.5t-422 -117.5q-127 0 -234 47t-172 135.5t-65 199.5q0 55 4 72q3 21 25 21h135q16 0 16 -21q-4 -32 -4 -45q0 -112 81.5 -179t231.5 -67q166 0 272.5 71t106.5 200q0 96 -80.5 150t-244.5 93
q-87 19 -157.5 49t-126.5 73.5t-87 104.5t-31 136z" />
    <glyph glyph-name="T" unicode="T" horiz-adv-x="1058" 
d="M113 1290l24 123q3 21 25 21h991q16 0 16 -21l-24 -123q-3 -20 -25 -20h-405l-244 -1250q-3 -20 -25 -20h-139q-16 0 -16 20l244 1250h-406q-16 0 -16 20z" />
    <glyph glyph-name="U" unicode="U" horiz-adv-x="1349" 
d="M133 530l172 883q3 21 25 21h139q16 0 16 -21l-174 -895q-12 -67 -12 -127q0 -248 266 -248q164 0 265 96.5t137 278.5l174 895q3 21 24 21h140q16 0 16 -21l-180 -917q-56 -276 -203.5 -396t-405.5 -120q-186 0 -299.5 105t-113.5 300q0 76 14 145z" />
    <glyph glyph-name="V" unicode="V" horiz-adv-x="1228" 
d="M1356 1413l-764 -1393q-9 -20 -27 -20h-198q-16 0 -19 20l-227 1393q0 21 20 21h156q17 0 20 -21l183 -1208l641 1208q9 21 28 21h174q15 0 15 -11q0 -6 -2 -10z" />
    <glyph glyph-name="W" unicode="W" horiz-adv-x="1763" 
d="M1833 1413l-594 -1393q-9 -20 -27 -20h-190q-15 0 -18 20l-64 1045l-467 -1045q-9 -20 -27 -20h-186q-15 0 -18 20l-68 1393q0 21 21 21h143q20 0 20 -21l41 -1177l478 1079q11 20 28 20h154q20 0 20 -20l74 -1079l489 1177q9 21 29 21h150q14 0 14 -11q0 -6 -2 -10z" />
    <glyph glyph-name="X" unicode="X" horiz-adv-x="1198" 
d="M416 1413l237 -512l424 512q18 21 33 21h170q14 0 14 -11q0 -2 -4 -10l-561 -670l336 -723q2 -2 2 -8q0 -12 -14 -12h-160q-16 0 -25 20l-268 590l-489 -590q-17 -20 -39 -20h-170q-15 0 -15 10q0 6 4 10l627 752l-301 641q-2 2 -2 8q0 13 14 13h160q11 0 16 -4t11 -17z
" />
    <glyph glyph-name="Y" unicode="Y" horiz-adv-x="1081" 
d="M1200 1413l-622 -885l-101 -508q-3 -20 -24 -20h-140q-16 0 -16 20l100 508l-278 885q0 21 16 21h162h6.5t4.5 -2t2.5 -3t2 -5t2.5 -7l203 -688l477 688q10 17 27 17h170q12 0 12 -11q0 -2 -4 -10z" />
    <glyph glyph-name="Z" unicode="Z" horiz-adv-x="1230" 
d="M240 1290l24 123q3 21 25 21h921q17 0 17 -21l-25 -123q-2 -12 -18 -35l-983 -1091h805q16 0 16 -21l-25 -123q-3 -20 -24 -20h-998q-16 0 -16 20l25 123q2 12 18 35l983 1092h-729q-16 0 -16 20z" />
    <glyph glyph-name="bracketleft" unicode="[" horiz-adv-x="915" 
d="M39 -385l350 1798q3 21 25 21h514q16 0 16 -21l-24 -123q-3 -20 -25 -20h-354l-293 -1512h354q16 0 16 -20l-24 -123q-3 -21 -25 -21h-514q-16 0 -16 21z" />
    <glyph glyph-name="backslash" unicode="\" horiz-adv-x="616" 
d="M178 1413l438 -1393q0 -20 -18 -20h-137q-17 0 -23 20l-438 1393q0 21 16 21h138q18 0 24 -21z" />
    <glyph glyph-name="bracketright" unicode="]" horiz-adv-x="915" 
d="M797 1413l-351 -1798q-3 -21 -24 -21h-514q-17 0 -17 21l25 123q3 20 25 20h354l293 1512h-355q-16 0 -16 20l25 123q3 21 24 21h514q17 0 17 -21z" />
    <glyph glyph-name="asciicircum" unicode="^" horiz-adv-x="1146" 
d="M233 760h-153q-14 0 -14 10q0 2 4 10l512 633q15 21 28 21h168q16 0 25 -21l258 -633v-2q0 -2 2 -4q0 -14 -16 -14h-136q-17 0 -26 20l-209 518l-408 -518q-14 -20 -35 -20z" />
    <glyph glyph-name="underscore" unicode="_" horiz-adv-x="950" 
d="M-53 0h841q17 0 17 -20l-23 -119q-3 -21 -24 -21h-842q-16 0 -16 21l22 119q3 20 25 20z" />
    <glyph glyph-name="grave" unicode="`" horiz-adv-x="608" 
d="M432 1413l90 -258q2 -4 2 -10q0 -10 -12 -10h-123q-23 0 -33 18l-159 260q-2 2 -2 8q0 13 16 13h195q17 0 26 -21z" />
    <glyph glyph-name="a" unicode="a" horiz-adv-x="1239" 
d="M1120 1008l-190 -988q-6 -20 -25 -20h-127q-16 0 -16 20l16 82q-77 -67 -146 -94.5t-179 -27.5q-181 0 -288.5 126.5t-107.5 329.5q0 117 37.5 225.5t107 195.5t180.5 139.5t247 52.5q200 0 307 -131l16 90q3 20 25 20h127q16 0 16 -20zM489 131q116 0 208 69t140 180
t48 241t-70.5 203t-198.5 73q-89 0 -162.5 -38.5t-121 -103.5t-73.5 -147.5t-26 -171.5q0 -143 67 -224t189 -81z" />
    <glyph glyph-name="b" unicode="b" horiz-adv-x="1263" 
d="M61 20l273 1393q3 21 24 21h127q17 0 17 -21l-96 -493q78 69 156.5 99t178.5 30q168 0 280 -113.5t112 -312.5q0 -132 -39.5 -248.5t-112 -204.5t-182.5 -139t-242 -51q-97 0 -183 40t-124 97l-21 -97q-3 -20 -24 -20h-127q-17 0 -17 20zM702 897q-118 0 -212 -69
t-142.5 -176t-48.5 -228q0 -134 71 -213.5t187 -79.5q75 0 139.5 26t111.5 71t81 105t50.5 129t16.5 142q0 138 -64 215.5t-190 77.5z" />
    <glyph glyph-name="c" unicode="c" horiz-adv-x="1148" 
d="M639 897q-176 0 -291 -133t-115 -326q0 -307 273 -307q198 0 311 205q9 18 31 18h129q12 0 12 -12q0 -8 -6 -20q-72 -167 -193.5 -254.5t-312.5 -87.5q-197 0 -308.5 128t-111.5 328q0 172 78 312t217.5 220.5t313.5 80.5t281 -99t112 -254q0 -22 -19 -22h-125
q-11 0 -16.5 3.5t-9.5 14.5q-27 205 -250 205z" />
    <glyph glyph-name="d" unicode="d" horiz-adv-x="1247" 
d="M1198 1413l-272 -1393q-3 -20 -25 -20h-127q-16 0 -16 20l18 89q-129 -129 -323 -129q-179 0 -287.5 119t-108.5 311q0 120 38.5 233.5t109 204.5t180.5 146t242 55q187 0 305 -136l98 500q3 21 25 21h127q16 0 16 -21zM481 131q122 0 215 68.5t139 174t46 228.5
q0 143 -71.5 219t-193.5 76q-92 0 -166.5 -41.5t-121 -110.5t-71 -154t-24.5 -177q0 -127 64.5 -205t183.5 -78z" />
    <glyph glyph-name="e" unicode="e" horiz-adv-x="1196" 
d="M1036 465h-798q-5 -35 -5 -53q0 -132 68.5 -206.5t200.5 -74.5q110 0 190.5 45.5t143.5 142.5q12 19 32 19h133q11 0 11 -10q0 -9 -8 -25q-88 -171 -217.5 -247t-307.5 -76q-132 0 -229 62t-145 165.5t-48 234.5q0 120 45 230.5t124 194t193.5 133t246.5 49.5
q191 0 301 -121.5t110 -309.5q0 -51 -10 -100l-6 -33q-6 -20 -25 -20zM637 897q-122 0 -219.5 -71.5t-151.5 -209.5h643q0 135 -70.5 208t-201.5 73z" />
    <glyph glyph-name="f" unicode="f" horiz-adv-x="749" 
d="M737 877h-315l-168 -857q-3 -20 -25 -20h-127q-16 0 -16 20l168 857h-168q-16 0 -16 20l20 111q3 20 25 20h168l26 131q30 147 118.5 221t225.5 74q97 0 197 -51q14 -8 14 -29l-20 -100q-3 -19 -19 -19q-2 0 -4 1t-5 2t-5 2q-89 43 -170 43q-68 0 -111 -41.5t-57 -116.5
l-22 -117h315q16 0 16 -20l-20 -111q-6 -20 -25 -20z" />
    <glyph glyph-name="g" unicode="g" horiz-adv-x="1247" 
d="M406 -426q-170 0 -271.5 82t-101.5 217v35q6 20 24 20h127q17 0 17 -20q0 -94 52 -138t181 -44q277 0 340 331l10 54q-75 -52 -151.5 -79.5t-175.5 -27.5q-167 0 -271 114t-104 328q0 117 39 225.5t109 192.5t178 134.5t237 50.5q105 0 181.5 -37t115.5 -97l19 93
q3 20 24 20h127q16 0 16 -20l-184 -947q-94 -487 -538 -487zM516 156q115 0 202.5 65t131 167t43.5 222q0 136 -67 211.5t-189 75.5q-173 0 -276 -130t-103 -321q0 -140 67 -215t191 -75z" />
    <glyph glyph-name="h" unicode="h" horiz-adv-x="1243" 
d="M61 20l273 1393q3 21 24 21h127q17 0 17 -21l-101 -522q179 158 375 158q142 0 221.5 -72t79.5 -197q0 -47 -6 -86l-135 -674q-3 -20 -25 -20h-127q-16 0 -16 20l121 633q8 41 8 82q0 75 -49.5 118.5t-140.5 43.5q-77 0 -154.5 -44.5t-139 -130.5t-83.5 -194l-101 -508
q-3 -20 -24 -20h-127q-17 0 -17 20z" />
    <glyph glyph-name="i" unicode="i" horiz-adv-x="548" 
d="M61 20l193 988q3 20 25 20h127q16 0 16 -20l-193 -988q-3 -20 -24 -20h-127q-17 0 -17 20zM270 1237l35 176q3 21 25 21h184q16 0 16 -21l-34 -176q-3 -20 -25 -20h-184q-17 0 -17 20z" />
    <glyph glyph-name="j" unicode="j" horiz-adv-x="548" 
d="M43 -80l211 1088q3 20 25 20h127q16 0 16 -20l-207 -1063q-24 -121 -54.5 -198.5t-76.5 -156.5q-10 -16 -18 -16q-1 0 -3 0.5t-5.5 1.5t-6.5 2l-110 39q-13 3 -13 12q0 1 4 13q45 79 70 138.5t41 139.5zM270 1237l35 176q3 21 25 21h184q16 0 16 -21l-34 -176
q-3 -20 -25 -20h-184q-17 0 -17 20z" />
    <glyph glyph-name="k" unicode="k" horiz-adv-x="1116" 
d="M1079 997l-430 -342l273 -624q2 -4 2 -15q0 -16 -23 -16h-137q-20 0 -29 18l-225 529l-211 -168l-70 -359q-3 -20 -24 -20h-127q-17 0 -17 20l273 1393q3 21 24 21h127q17 0 17 -21l-158 -809l516 406q25 18 37 18h180q15 0 15 -12q0 -9 -13 -19z" />
    <glyph glyph-name="l" unicode="l" horiz-adv-x="550" 
d="M61 20l273 1393q3 21 24 21h127q17 0 17 -21l-273 -1393q-3 -20 -24 -20h-127q-17 0 -17 20z" />
    <glyph glyph-name="m" unicode="m" horiz-adv-x="1677" 
d="M61 20l191 988q3 20 24 20h127q17 0 17 -20l-17 -103q49 64 127 104t166 40q104 0 161.5 -39.5t82.5 -122.5q128 162 315 162q122 0 189 -58t67 -168q0 -25 -10 -90l-137 -713q-6 -20 -25 -20h-127q-16 0 -16 20l133 685q6 27 6 53q0 139 -149 139q-96 0 -178 -99
t-111 -257l-100 -521q-6 -20 -25 -20h-127q-16 0 -16 20l133 685q6 34 6 59q0 133 -141 133q-100 0 -182.5 -96.5t-114.5 -259.5l-101 -521q-6 -20 -24 -20h-127q-17 0 -17 20z" />
    <glyph glyph-name="n" unicode="n" horiz-adv-x="1218" 
d="M61 20l191 988q6 20 24 20h127q17 0 17 -20l-23 -117q80 79 161 118.5t190 39.5q147 0 226 -70t79 -199q0 -20 -13 -104l-127 -656q-3 -20 -24 -20h-127q-17 0 -17 20l123 631q9 47 9 78q0 168 -187 168q-120 0 -223.5 -98t-138.5 -275l-99 -504q-6 -20 -24 -20h-127
q-17 0 -17 20z" />
    <glyph glyph-name="o" unicode="o" horiz-adv-x="1245" 
d="M57 403q0 132 45.5 250t125 205.5t195.5 139t251 51.5q199 0 319.5 -117t120.5 -307q0 -176 -77 -323t-219 -234.5t-320 -87.5q-199 0 -320 116.5t-121 306.5zM655 897q-120 0 -217.5 -65t-151 -174.5t-53.5 -239.5q0 -134 76.5 -210.5t206.5 -76.5q120 0 217.5 65
t151 174.5t53.5 239.5q0 134 -76.5 210.5t-206.5 76.5z" />
    <glyph glyph-name="p" unicode="p" horiz-adv-x="1255" 
d="M-16 -385l272 1393q3 20 25 20h127q16 0 16 -20l-18 -88q129 129 323 129q179 0 287 -119.5t108 -311.5q0 -120 -38.5 -233.5t-108.5 -204t-180 -145.5t-242 -55q-188 0 -305 135l-98 -500q-3 -21 -25 -21h-127q-16 0 -16 21zM700 897q-92 0 -169 -39.5t-126.5 -106
t-76.5 -150.5t-27 -175q0 -143 71 -219t193 -76q92 0 166.5 41.5t121 110.5t71 154t24.5 177q0 127 -64.5 205t-183.5 78z" />
    <glyph glyph-name="q" unicode="q" horiz-adv-x="1247" 
d="M1128 1008l-272 -1393q-3 -21 -25 -21h-126q-17 0 -17 21l96 494q-78 -69 -156.5 -99t-178.5 -30q-168 0 -280 113.5t-112 312.5q0 132 39.5 248.5t112 204.5t182.5 139t242 51q97 0 183 -40t124 -98l21 97q3 20 24 20h127q16 0 16 -20zM487 131q89 0 166.5 40.5
t128.5 107t80 151.5t29 174q0 134 -71 213.5t-187 79.5q-93 0 -169.5 -40t-124.5 -106.5t-74.5 -151t-26.5 -175.5q0 -139 61.5 -216t187.5 -77z" />
    <glyph glyph-name="r" unicode="r" horiz-adv-x="905" 
d="M911 979l-24 -123q-3 -22 -25 -22q-11 0 -24 8q-89 55 -179 55q-110 0 -202 -92t-117 -227l-109 -558q-6 -20 -24 -20h-127q-17 0 -17 20l191 988q6 20 25 20h127q16 0 16 -20l-19 -103q63 66 148 105t178 39q94 0 160 -31q24 -9 24 -25q0 -8 -2 -14z" />
    <glyph glyph-name="s" unicode="s" horiz-adv-x="1036" 
d="M872 330q0 -72 -24.5 -130.5t-67.5 -99t-102 -68t-127 -40t-145 -12.5q-166 0 -268.5 85.5t-102.5 219.5v28q0 21 20 21h131q17 0 17 -21q0 -90 53.5 -136t171.5 -46q45 0 87.5 8t85.5 25.5t69 52.5t26 84q0 62 -63 100.5t-201 61.5q-143 25 -223 93t-80 167q0 84 35 148
t96 102t137 57t164 19q169 0 265 -82.5t96 -212.5q0 -21 -25 -21h-115q-13 0 -16 21q-7 74 -69.5 108.5t-155.5 34.5q-46 0 -86.5 -7.5t-77.5 -24t-58.5 -48t-21.5 -74.5q0 -64 56.5 -95.5t199.5 -59.5q70 -13 123.5 -32t100 -48.5t71 -74t24.5 -103.5z" />
    <glyph glyph-name="t" unicode="t" horiz-adv-x="845" 
d="M451 1028h340q16 0 16 -20l-21 -111q-6 -20 -24 -20h-340l-111 -570q-6 -30 -6 -59q0 -117 133 -117q97 0 201 35q4 2 14 2q13 0 13 -18l-21 -101q-1 -3 -3 -9.5t-3 -9t-3 -6.5t-5 -6t-8 -4q-93 -34 -236 -34q-127 0 -192.5 57t-65.5 166q0 36 16 119l109 555h-174
q-17 0 -17 20l21 111q6 20 25 20h174l57 295q3 20 25 20h127q16 0 16 -20z" />
    <glyph glyph-name="u" unicode="u" horiz-adv-x="1206" 
d="M1087 1008l-190 -988q-6 -20 -25 -20h-127q-16 0 -16 20l23 117q-80 -78 -161 -117.5t-190 -39.5q-148 0 -226.5 69.5t-78.5 198.5q0 20 13 104l127 656q3 20 24 20h127q16 0 16 -20l-122 -631q-9 -47 -9 -78q0 -168 187 -168q120 0 223.5 98t138.5 275l99 504
q6 20 24 20h127q16 0 16 -20z" />
    <glyph glyph-name="v" unicode="v" horiz-adv-x="960" 
d="M979 995l-553 -975q-14 -20 -29 -20h-149q-18 0 -21 20l-186 975q0 33 22 33h130q21 0 24 -20l137 -805l445 805q11 20 32 20h138q16 0 16 -14q0 -10 -6 -19z" />
    <glyph glyph-name="w" unicode="w" horiz-adv-x="1560" 
d="M1546 997l-479 -977q-9 -20 -31 -20h-149q-20 0 -23 20l-86 748l-354 -748q-11 -20 -31 -20h-147q-20 0 -23 20l-125 977q0 31 21 31h129q11 0 16 -2.5t6 -5t2 -12.5l80 -791l359 741q5 12 10 16.5t16 4.5h156q15 0 18 -21l86 -741l367 791q5 12 11 16t22 4h141
q14 0 14 -12q0 -7 -6 -19z" />
    <glyph glyph-name="x" unicode="x" horiz-adv-x="1024" 
d="M338 1014l174 -344l311 344q11 14 31 14h152q12 0 12 -12q0 -6 -6 -15l-424 -466l270 -508q4 -12 4 -17q0 -10 -14 -10h-146q-15 0 -24 20l-205 392l-348 -392q-17 -20 -33 -20h-164q-10 0 -10 10q0 9 8 17l465 530l-235 444q-2 4 -2 13q0 14 16 14h141q19 0 27 -14z" />
    <glyph glyph-name="y" unicode="y" horiz-adv-x="1075" 
d="M123 1028h147q20 0 23 -20l151 -791l414 791q9 20 31 20h147q13 0 13 -14l-5 -15l-589 -1099q-71 -131 -142 -204.5t-135 -97.5t-147 -24t-142 33q-16 10 -16 20v8q0 3 2 5l21 110q6 21 20 21q9 0 24.5 -11t44 -22.5t68.5 -11.5q150 0 271 256l-218 1013q-2 6 -2 17
q0 16 19 16z" />
    <glyph glyph-name="z" unicode="z" horiz-adv-x="999" 
d="M162 897l20 111q6 20 25 20h723q16 0 16 -20l-20 -111q-2 -14 -25 -43l-702 -702h600q16 0 16 -21l-20 -111q-3 -20 -25 -20h-786q-17 0 -17 20l21 111q2 17 16 31l715 715h-541q-16 0 -16 20z" />
    <glyph glyph-name="braceleft" unicode="{" horiz-adv-x="815" 
d="M395 330l-69 -359q-15 -77 -15 -104q0 -59 26.5 -84t84.5 -25h80q16 0 16 -20l-24 -123q-3 -21 -25 -21h-84q-118 0 -186 69.5t-68 201.5q0 47 14 129l60 303q4 28 4 41q0 94 -107 94h-53q-16 0 -16 21l22 122q3 21 25 21h53q131 0 156 135l59 303q44 225 131 312.5
t264 87.5h84q17 0 17 -21l-25 -123q-3 -20 -24 -20h-80q-73 0 -115 -52.5t-63 -160.5l-70 -359q-17 -79 -54 -119.5t-110 -64.5q96 -33 96 -143q0 -23 -4 -41z" />
    <glyph glyph-name="bar" unicode="|" horiz-adv-x="585" 
d="M39 -184l309 1597q3 21 25 21h139q16 0 16 -21l-309 -1597q-6 -21 -24 -21h-140q-16 0 -16 21z" />
    <glyph glyph-name="braceright" unicode="}" horiz-adv-x="815" 
d="M375 698l69 359q15 77 15 104q0 59 -26.5 84t-84.5 25h-80q-16 0 -16 20l24 123q3 21 25 21h84q118 0 186 -69.5t68 -201.5q0 -47 -14 -129l-60 -303q-4 -28 -4 -41q0 -94 107 -94h53q16 0 16 -21l-22 -122q-3 -21 -25 -21h-53q-131 0 -156 -135l-59 -303
q-44 -225 -131 -312.5t-264 -87.5h-84q-17 0 -17 21l25 123q3 20 24 20h80q73 0 115 52.5t63 160.5l70 359q17 79 54 119.5t110 64.5q-96 33 -96 143q0 23 4 41z" />
    <glyph glyph-name="asciitilde" unicode="~" horiz-adv-x="1056" 
d="M80 743q53 31 129 53.5t125 22.5q74 0 138.5 -21t122.5 -42t118 -21q45 0 81.5 11.5t86.5 39.5q2 1 5 2t5 2t4 1q6 0 16 -17l45 -94q1 -2 2 -5.5t2 -5.5t1 -3q0 -15 -21 -27q-57 -32 -130.5 -54t-123.5 -22q-74 0 -138.5 21t-122.5 42t-118 21q-45 0 -81.5 -11.5
t-86.5 -39.5q-12 -4 -14 -4q-6 0 -16 16l-46 94q-4 12 -4 15q0 14 21 26z" />
    <glyph glyph-name="uni00A0" unicode="&#xa0;" horiz-adv-x="475" 
 />
    <glyph glyph-name="exclamdown" unicode="&#xa1;" horiz-adv-x="718" 
d="M223 -406h-139q-16 0 -16 21l194 997q3 21 25 21h139q16 0 16 -21l-194 -997q-3 -21 -25 -21zM479 823h-172q-16 0 -16 21l33 164q3 20 24 20h172q17 0 17 -20l-33 -164q-3 -21 -25 -21z" />
    <glyph glyph-name="cent" unicode="&#xa2;" horiz-adv-x="1169" 
d="M377 20l33 175q-146 36 -226 156t-80 288q0 237 142 404.5t370 199.5l33 170q3 21 25 21h131q16 0 16 -21l-33 -168q133 -20 223.5 -117t94.5 -229q0 -22 -19 -22h-124q-20 0 -27 18q-24 169 -178 199l-148 -756q163 23 254 201q9 18 31 18h129q12 0 12 -12q0 -9 -6 -21
q-139 -314 -450 -340l-31 -164q-3 -20 -25 -20h-131q-16 0 -16 20zM281 641q0 -234 159 -291l146 735q-139 -37 -222 -158t-83 -286z" />
    <glyph glyph-name="sterling" unicode="&#xa3;" horiz-adv-x="1214" 
d="M72 205q207 218 207 409v23h-166q-17 0 -17 20l23 119q3 21 24 21h121q-18 76 -18 157q0 220 143 360t369 140q95 0 169 -27.5t119 -74.5t68 -106t23 -126q0 -54 -4 -71q-3 -21 -25 -21h-135q-17 0 -17 21q5 35 5 43q0 91 -53.5 144.5t-164.5 53.5q-140 0 -228.5 -89.5
t-88.5 -231.5q0 -90 14 -172h418q16 0 16 -21l-22 -119q-3 -20 -25 -20h-372q-3 -100 -31.5 -182.5t-73.5 -145.5t-123 -145h752q16 0 16 -21l-24 -123q-3 -20 -25 -20h-911q-17 0 -17 20l29 144q3 19 25 41z" />
    <glyph glyph-name="currency" unicode="&#xa4;" horiz-adv-x="1161" 
d="M51 215l129 109q-37 70 -37 159q0 177 113 303l-76 93q-4 8 -4 12q0 6 10 16l84 70q8 8 15 8q6 0 14 -8l80 -96q107 55 233 55q122 0 217 -76l132 111q8 8 16 8q7 0 12 -8l66 -82q4 -8 4 -12q0 -7 -10 -17l-129 -108q36 -74 36 -158q0 -172 -106 -297l70 -84q4 -8 4 -12
q0 -6 -11 -17l-84 -69q-9 -9 -14 -9t-14 9l-70 86q-111 -60 -244 -60q-128 0 -217 74l-131 -109q-8 -8 -16 -8q-4 0 -12 8l-66 80q-4 8 -4 13q0 6 10 16zM600 797q-129 0 -216 -83t-87 -212q0 -98 57.5 -159.5t145.5 -61.5q129 0 216 82.5t87 211.5q0 98 -57.5 160
t-145.5 62z" />
    <glyph glyph-name="yen" unicode="&#xa5;" horiz-adv-x="1140" 
d="M137 688h269l-228 725q0 21 17 21h163q10 0 12 -2.5t7 -14.5l205 -680l475 680q10 17 26 17h168q13 0 13 -11q0 -2 -4 -10l-510 -725h284q17 0 17 -20l-23 -119q-6 -21 -24 -21h-367l-27 -137h326q16 0 16 -20l-24 -119q-3 -21 -25 -21h-325l-41 -211q-3 -20 -25 -20
h-139q-17 0 -17 20l41 211h-309q-16 0 -16 21l24 119q3 20 25 20h309l27 137h-351q-16 0 -16 21l23 119q3 20 24 20z" />
    <glyph glyph-name="brokenbar" unicode="&#xa6;" horiz-adv-x="626" 
d="M242 655l147 758q3 21 25 21h139q16 0 16 -21l-147 -758q-3 -20 -25 -20h-139q-16 0 -16 20zM39 -385l147 758q3 20 25 20h139q17 0 17 -20l-148 -758q-3 -21 -24 -21h-140q-16 0 -16 21z" />
    <glyph glyph-name="section" unicode="&#xa7;" horiz-adv-x="1044" 
d="M811 -14q0 -100 -36.5 -179.5t-99.5 -129.5t-145.5 -76.5t-177.5 -26.5q-172 0 -274.5 98t-102.5 238v49q3 21 27 21h133q17 0 17 -21q0 -4 -1 -17t-1 -16q0 -88 56 -138t163 -50t186.5 63t79.5 170q0 78 -52 133.5t-171 131.5q-158 101 -228.5 180t-70.5 168
q0 151 137 256q-60 75 -60 202q0 188 134 300t335 112q167 0 268 -95t101 -233q0 -30 -2 -57q-3 -20 -25 -20h-135q-16 0 -16 20q2 16 2 35q0 87 -57.5 136.5t-161.5 49.5q-107 0 -186.5 -63t-79.5 -170q0 -78 53.5 -135.5t169.5 -128.5q158 -100 228.5 -180t70.5 -169
q0 -151 -137 -256q59 -73 59 -202zM430 694l-63 39q-78 -55 -78 -131q0 -53 60 -111.5t222 -156.5l64 -39q78 55 78 131q0 51 -60 108.5t-223 159.5z" />
    <glyph glyph-name="dieresis" unicode="&#xa8;" horiz-adv-x="718" 
d="M182 1249l31 164q3 21 25 21h163q17 0 17 -21l-31 -164q-3 -20 -25 -20h-163q-17 0 -17 20zM522 1249l31 164q3 21 25 21h163q17 0 17 -21l-31 -164q-3 -20 -25 -20h-163q-17 0 -17 20z" />
    <glyph glyph-name="copyright" unicode="&#xa9;" horiz-adv-x="1638" 
d="M819 -20q-105 0 -207.5 30.5t-194 93t-161 149t-110 206.5t-40.5 258t40.5 258t110 206.5t161 149t194 93t207.5 30.5t207.5 -30.5t194 -93t161 -149t110 -206.5t40.5 -258t-40.5 -258t-110 -206.5t-161 -149t-194 -93t-207.5 -30.5zM819 66q92 0 180 25.5t167 79
t138.5 129t94.5 183.5t35 234t-35 234t-94.5 183.5t-138.5 129t-167 79t-180 25.5t-180 -25.5t-167 -79t-138 -129.5t-94 -183.5t-35 -233.5t35 -233.5t94 -183.5t138 -129.5t167 -79t180 -25.5zM1153 565h49q23 0 23 -20q-26 -140 -136.5 -222.5t-269.5 -82.5
q-82 0 -157.5 30.5t-137 87.5t-98.5 150.5t-37 208.5t37 208.5t98.5 150.5t137 87.5t157.5 30.5q159 0 269.5 -82.5t136.5 -222.5q0 -21 -23 -21h-49q-23 0 -29 21q-24 100 -104 159.5t-201 59.5q-137 0 -234.5 -104.5t-97.5 -286.5t97.5 -286.5t234.5 -104.5
q121 0 201 59.5t104 159.5q6 20 29 20z" />
    <glyph glyph-name="ordfeminine" unicode="&#xaa;" horiz-adv-x="954" 
d="M922 1419l-142 -735q-3 -14 -18 -14h-94q-13 0 -13 14l13 61q-54 -50 -107.5 -70t-134.5 -20q-135 0 -215 93.5t-80 244.5q0 87 28 168t80 146t134.5 104t183.5 39q150 0 227 -98l13 67q3 15 18 15h94q7 0 10 -2.5t3 -4.5v-8zM453 768q86 0 154.5 51t104.5 133t36 178
q0 97 -52.5 152t-148.5 55q-86 0 -153.5 -50.5t-101.5 -128t-34 -165.5q0 -106 51.5 -165.5t143.5 -59.5z" />
    <glyph glyph-name="guillemotleft" unicode="&#xab;" horiz-adv-x="1169" 
d="M1083 1051l-34 -185q-6 -20 -21 -32l-364 -285l254 -287q10 -10 10 -20q0 -7 -2 -13l-33 -157q-3 -15 -14 -15q-7 0 -13 6l-356 406q-14 14 -14 37l22 112q6 22 27 37l516 404q9 6 12 6q10 0 10 -14zM647 1051l-35 -185q-6 -21 -20 -32l-365 -285l254 -287q11 -11 11 -20
q0 -4 -3 -13l-32 -157q-3 -15 -15 -15q-6 0 -12 6l-356 406q-15 15 -15 37l23 112q6 22 27 37l516 404q9 6 12 6q10 0 10 -14z" />
    <glyph glyph-name="logicalnot" unicode="&#xac;" horiz-adv-x="1116" 
d="M774 659h-651q-17 0 -17 21l23 111q3 20 25 20h794q17 0 17 -20l-80 -410q-3 -21 -25 -21h-123q-16 0 -16 21z" />
    <glyph glyph-name="registered" unicode="&#xae;" horiz-adv-x="1638" 
d="M819 -20q-105 0 -207.5 30.5t-194 93t-161 149t-110 206.5t-40.5 258t40.5 258t110 206.5t161 149t194 93t207.5 30.5t207.5 -30.5t194 -93t161 -149t110 -206.5t40.5 -258t-40.5 -258t-110 -206.5t-161 -149t-194 -93t-207.5 -30.5zM819 66q92 0 180 25.5t167 79
t138.5 129t94.5 183.5t35 234t-35 234t-94.5 183.5t-138.5 129t-167 79t-180 25.5t-180 -25.5t-167 -79t-138 -129.5t-94 -183.5t-35 -233.5t35 -233.5t94 -183.5t138 -129.5t167 -79t180 -25.5zM537 272v893q0 23 22 23h279q145 0 221 -70.5t76 -189.5q0 -96 -50.5 -161.5
t-138.5 -90.5l201 -404q4 -12 4 -14q0 -8 -12 -8h-58q-23 0 -32 18l-201 396h-213v-392q0 -22 -23 -22h-53q-22 0 -22 22zM635 1102v-352h217q97 0 140.5 45t43.5 133q0 174 -184 174h-217z" />
    <glyph glyph-name="macron" unicode="&#xaf;" horiz-adv-x="575" 
d="M174 1241l19 102q3 21 24 21h383q16 0 16 -21l-18 -102q-3 -20 -25 -20h-383q-16 0 -16 20z" />
    <glyph glyph-name="degree" unicode="&#xb0;" horiz-adv-x="876" 
d="M141 1063q0 164 119.5 277.5t302.5 113.5q134 0 221.5 -86t87.5 -219q0 -164 -119 -277.5t-302 -113.5q-134 0 -222 86t-88 219zM549 1327q-113 0 -187.5 -71t-74.5 -181q0 -89 49 -139.5t129 -50.5q111 0 186.5 71.5t75.5 180.5q0 89 -49 139.5t-129 50.5z" />
    <glyph glyph-name="plusminus" unicode="&#xb1;" horiz-adv-x="1212" 
d="M780 1159l-69 -352h352q16 0 16 -21l-22 -118q-3 -21 -25 -21h-352l-70 -352q-3 -21 -22 -21h-127q-19 0 -19 21l70 352h-352q-17 0 -17 21l23 118q3 21 24 21h353l69 352q3 21 23 21h127q18 0 18 -21zM70 160h864q16 0 16 -21l-22 -119q-3 -20 -25 -20h-864
q-16 0 -16 20l22 119q3 21 25 21z" />
    <glyph glyph-name="twosuperior" unicode="&#xb2;" horiz-adv-x="786" 
d="M115 688l10 62q3 19 18 28l371 273q56 42 82.5 79t26.5 93q0 51 -33 81.5t-88 30.5q-62 0 -102.5 -37t-59.5 -96q-6 -20 -25 -20h-84q-16 0 -16 20q23 107 100 175.5t201 68.5q107 0 168 -59.5t61 -149.5q0 -86 -41.5 -149t-121.5 -123l-260 -187h331q17 0 17 -20
l-13 -70q-3 -20 -24 -20h-502q-16 0 -16 20z" />
    <glyph glyph-name="threesuperior" unicode="&#xb3;" horiz-adv-x="770" 
d="M336 1034l14 70q3 20 23 20h41q61 0 107 31.5t46 93.5q0 40 -25.5 67t-76.5 27q-108 0 -146 -104q-6 -16 -22 -16h-76q-16 0 -16 18q23 97 95 151t181 54q96 0 152.5 -50t56.5 -130q0 -130 -129 -189q38 -21 62 -63t24 -96q0 -129 -80.5 -196t-210.5 -67
q-98 0 -164.5 58.5t-66.5 146.5q0 11 2 27q3 20 25 20h73q17 0 17 -20q0 -59 36.5 -90t98.5 -31q69 0 110 35t41 104q0 49 -30 79t-88 30h-58q-16 0 -16 20z" />
    <glyph glyph-name="acute" unicode="&#xb4;" horiz-adv-x="608" 
d="M168 1155l192 258q15 21 35 21h199q12 0 12 -9q0 -6 -6 -12l-262 -260q-18 -18 -41 -18h-123q-10 0 -10 8q0 4 4 12z" />
    <glyph glyph-name="mu" unicode="&#xb5;" horiz-adv-x="1206" 
d="M1087 1008l-190 -988q-6 -20 -25 -20h-127q-16 0 -16 20l23 117q-80 -78 -161 -117.5t-190 -39.5q-116 0 -190 45l-78 -410q-3 -21 -24 -21h-127q-17 0 -17 21l271 1393q3 20 24 20h127q16 0 16 -20l-122 -631q-9 -47 -9 -78q0 -168 187 -168q120 0 223.5 98t138.5 275
l99 504q6 20 24 20h127q16 0 16 -20z" />
    <glyph glyph-name="paragraph" unicode="&#xb6;" horiz-adv-x="1292" 
d="M612 1434h736q16 0 16 -21l-23 -123q-6 -20 -24 -20h-141l-283 -1454q-3 -21 -25 -21h-139q-16 0 -16 21l282 1454h-184l-283 -1454q-3 -21 -24 -21h-139q-17 0 -17 21l166 860h-49q-156 0 -254 89t-98 230q0 107 40.5 192.5t110.5 138.5t158.5 80.5t189.5 27.5z" />
    <glyph glyph-name="periodcentered" unicode="&#xb7;" horiz-adv-x="559" 
d="M217 815h160q16 0 16 -20l-31 -156q-3 -21 -24 -21h-160q-16 0 -16 21l31 156q3 20 24 20z" />
    <glyph glyph-name="cedilla" unicode="&#xb8;" horiz-adv-x="532" 
d="M-10 -211l-25 27q-2 2 -2 6q0 7 6 16l111 219q1 1 3 5t3 5t2.5 4t2.5 3.5l3 1.5t4.5 1.5t5.5 0.5h95q16 0 16 -10q0 -1 -1.5 -4.5t-2.5 -6.5l-113 -182q54 14 117 14q72 0 109.5 -29t37.5 -85q0 -98 -74 -149.5t-190 -51.5q-121 0 -188 20q-19 6 -19 19l11 61q3 21 24 21
l54 -11q53 -12 122 -12q44 0 83.5 17.5t39.5 56.5q0 53 -96 53q-53 0 -111 -14q-4 -2 -14 -2q-8 0 -14 6z" />
    <glyph glyph-name="onesuperior" unicode="&#xb9;" horiz-adv-x="563" 
d="M256 688l115 594l-150 -72q-12 -6 -20 -6q-13 0 -13 17l19 90q3 11 18 20l191 94q15 9 33 9h51q16 0 16 -21l-141 -725q-3 -20 -25 -20h-78q-16 0 -16 20z" />
    <glyph glyph-name="ordmasculine" unicode="&#xba;" horiz-adv-x="956" 
d="M131 969q0 131 58 241t164 175t239 65q147 0 237.5 -88t90.5 -229q0 -201 -130 -340.5t-329 -139.5q-149 0 -239.5 87.5t-90.5 228.5zM578 1335q-134 0 -227 -104.5t-93 -251.5q0 -99 58.5 -156t156.5 -57q138 0 229 104t91 252q0 99 -58 156t-157 57z" />
    <glyph glyph-name="guillemotright" unicode="&#xbb;" horiz-adv-x="1169" 
d="M45 72l35 184q6 22 20 33l365 284l-254 287q-10 10 -10 21q0 6 2 12l33 158q3 14 14 14q6 0 12 -6l356 -406q15 -15 15 -37l-23 -112q-7 -23 -26 -37l-516 -404q-9 -6 -13 -6q-10 0 -10 15zM481 72l35 184q6 21 21 33l364 284l-254 287q-10 10 -10 21q0 6 2 12l33 158
q3 14 14 14q6 0 12 -6l357 -406q14 -14 14 -37l-22 -112q-6 -22 -27 -37l-516 -404q-9 -6 -12 -6q-11 0 -11 15z" />
    <glyph glyph-name="onequarter" unicode="&#xbc;" horiz-adv-x="1732" 
d="M1186 20l24 125h-336q-16 0 -16 21l10 57q3 13 15 25l448 504q14 14 27 14h72q16 0 16 -21l-96 -489h98q18 0 18 -20l-14 -70q-3 -21 -25 -21h-98l-24 -125q-3 -20 -25 -20h-78q-16 0 -16 20zM1286 541l-254 -285h199zM254 688l115 594l-150 -72q-12 -6 -20 -6
q-13 0 -13 17l19 90q3 11 18 20l191 94q15 9 32 9h52q16 0 16 -21l-141 -725q-3 -20 -25 -20h-78q-16 0 -16 20zM111 86l1394 1341q7 7 15 7q7 0 14 -7l45 -51q8 -8 8 -14t-8 -14l-1395 -1342q-6 -6 -14 -6t-14 6l-45 51q-9 9 -9 15q0 5 9 14z" />
    <glyph glyph-name="onehalf" unicode="&#xbd;" horiz-adv-x="1822" 
d="M111 86l1394 1341q7 7 15 7q7 0 14 -7l45 -51q8 -8 8 -14t-8 -14l-1395 -1342q-6 -6 -14 -6t-14 6l-45 51q-9 9 -9 15q0 5 9 14zM254 688l115 594l-150 -72q-12 -6 -20 -6q-13 0 -13 17l19 90q3 11 18 20l191 94q15 9 32 9h52q16 0 16 -21l-141 -725q-3 -20 -25 -20h-78
q-16 0 -16 20zM1038 20l11 62q3 20 18 29l371 272q56 41 82 78.5t26 93.5q0 51 -33 82t-88 31q-62 0 -102 -37t-59 -96q-6 -21 -25 -21h-84q-16 0 -16 21q23 107 100 175t201 68q107 0 168 -59.5t61 -149.5q0 -86 -42 -149t-122 -123l-260 -186h332q16 0 16 -21l-12 -70
q-3 -20 -25 -20h-501q-17 0 -17 20z" />
    <glyph glyph-name="threequarters" unicode="&#xbe;" horiz-adv-x="1800" 
d="M336 1034l14 70q3 20 23 20h41q61 0 107 31.5t46 93.5q0 40 -25.5 67t-76.5 27q-108 0 -146 -104q-6 -16 -22 -16h-76q-16 0 -16 18q23 97 95 151t181 54q96 0 152.5 -50t56.5 -130q0 -130 -129 -189q38 -21 62 -63t24 -96q0 -129 -80.5 -196t-210.5 -67
q-98 0 -164.5 58.5t-66.5 146.5q0 11 2 27q3 20 25 20h73q17 0 17 -20q0 -59 36.5 -90t98.5 -31q69 0 110 35t41 104q0 49 -30 79t-88 30h-58q-16 0 -16 20zM1253 20l25 125h-336q-16 0 -16 21l10 57q4 15 14 25l449 504q14 14 26 14h72q16 0 16 -21l-96 -489h99
q18 0 18 -20l-14 -70q-3 -21 -25 -21h-98l-25 -125q-3 -20 -24 -20h-78q-17 0 -17 20zM1354 541l-254 -285h198zM178 86l1395 1341q7 7 14 7q8 0 15 -7l45 -51q8 -8 8 -14t-8 -14l-1395 -1342q-6 -6 -14 -6q-9 0 -15 6l-45 51q-8 8 -8 15q0 6 8 14z" />
    <glyph glyph-name="questiondown" unicode="&#xbf;" horiz-adv-x="1120" 
d="M885 -20q-44 -177 -179.5 -291.5t-338.5 -114.5q-164 0 -268.5 90.5t-104.5 247.5q0 67 23 124t60.5 99t83.5 79t94.5 72.5t90 71t72.5 81.5t41 98l14 75q3 21 25 21h139q16 0 16 -21l-12 -61q-15 -77 -49 -140t-76 -105.5t-89.5 -79t-92 -68t-80.5 -64t-58 -76
t-22 -96.5q0 -87 56.5 -135.5t158.5 -48.5q112 0 196 61t124 181q6 20 24 20h135q17 0 17 -20zM690 823h-172q-16 0 -16 21l33 164q3 20 24 20h172q17 0 17 -20l-33 -164q-3 -21 -25 -21z" />
    <glyph glyph-name="Agrave" unicode="&#xc0;" horiz-adv-x="1255" 
d="M932 20l-64 396h-585l-220 -396q-12 -20 -28 -20h-150q-18 0 -18 16q0 10 6 19l774 1378q12 21 29 21h176q17 0 20 -21l240 -1388q0 -14 -4.5 -19.5t-20.5 -5.5h-135q-11 0 -14.5 4t-5.5 16zM733 1227l-360 -647h467zM756 1819l90 -258q2 -4 2 -11q0 -10 -12 -10h-123
q-22 0 -33 19l-160 260q-2 2 -2 8q0 12 17 12h194q18 0 27 -20z" />
    <glyph glyph-name="Aacute" unicode="&#xc1;" horiz-adv-x="1255" 
d="M932 20l-64 396h-585l-220 -396q-12 -20 -28 -20h-150q-18 0 -18 16q0 10 6 19l774 1378q12 21 29 21h176q17 0 20 -21l240 -1388q0 -14 -4.5 -19.5t-20.5 -5.5h-135q-11 0 -14.5 4t-5.5 16zM733 1227l-360 -647h467zM709 1561l192 258q14 20 35 20h199q12 0 12 -8
q0 -6 -6 -12l-262 -260q-19 -19 -41 -19h-123q-10 0 -10 8q0 5 4 13z" />
    <glyph glyph-name="Acircumflex" unicode="&#xc2;" horiz-adv-x="1255" 
d="M932 20l-64 396h-585l-220 -396q-12 -20 -28 -20h-150q-18 0 -18 16q0 10 6 19l774 1378q12 21 29 21h176q17 0 20 -21l240 -1388q0 -14 -4.5 -19.5t-20.5 -5.5h-135q-11 0 -14.5 4t-5.5 16zM733 1227l-360 -647h467zM922 1823l163 -262v-2q0 -3 2 -5q0 -14 -16 -14h-127
q-19 0 -33 19l-100 129l-152 -129q-19 -19 -41 -19h-133q-12 0 -12 8q0 7 6 13l266 262q16 16 35 16h115q17 0 27 -16z" />
    <glyph glyph-name="Atilde" unicode="&#xc3;" horiz-adv-x="1255" 
d="M932 20l-64 396h-585l-220 -396q-12 -20 -28 -20h-150q-18 0 -18 16q0 10 6 19l774 1378q12 21 29 21h176q17 0 20 -21l240 -1388q0 -14 -4.5 -19.5t-20.5 -5.5h-135q-11 0 -14.5 4t-5.5 16zM733 1227l-360 -647h467zM471 1765q117 74 221 74q49 0 86 -13t55.5 -29
t48 -29t66.5 -13q49 0 135 51q12 4 15 4q8 0 18 -16l45 -86v-2q0 -2 2 -4q0 -11 -24 -29q-113 -74 -221 -74q-52 0 -89 13t-54.5 29t-46.5 29t-66 13q-50 0 -136 -51q-12 -4 -14 -4q-8 0 -18 17l-45 86q-3 0 -3 2v4q0 12 25 28z" />
    <glyph glyph-name="Adieresis" unicode="&#xc4;" horiz-adv-x="1255" 
d="M932 20l-64 396h-585l-220 -396q-12 -20 -28 -20h-150q-18 0 -18 16q0 10 6 19l774 1378q12 21 29 21h176q17 0 20 -21l240 -1388q0 -14 -4.5 -19.5t-20.5 -5.5h-135q-11 0 -14.5 4t-5.5 16zM733 1227l-360 -647h467zM530 1655l31 164q3 20 25 20h164q16 0 16 -20
l-31 -164q-3 -21 -24 -21h-164q-17 0 -17 21zM870 1655l31 164q3 20 25 20h164q16 0 16 -20l-31 -164q-3 -21 -24 -21h-164q-17 0 -17 21z" />
    <glyph glyph-name="Aring" unicode="&#xc5;" horiz-adv-x="1255" 
d="M932 20l-64 396h-585l-220 -396q-12 -20 -28 -20h-150q-18 0 -18 16q0 10 6 19l774 1378q12 21 29 21h176q17 0 20 -21l240 -1388q0 -14 -4.5 -19.5t-20.5 -5.5h-135q-11 0 -14.5 4t-5.5 16zM733 1227l-360 -647h467zM651 1686q0 86 57.5 140t149.5 54q72 0 115 -41.5
t43 -107.5q0 -86 -57.5 -140.5t-149.5 -54.5q-71 0 -114.5 41.5t-43.5 108.5zM848 1790q-40 0 -68 -25.5t-28 -68.5q0 -70 67 -70q40 0 68 25.5t28 68.5q0 70 -67 70z" />
    <glyph glyph-name="AE" unicode="&#xc6;" horiz-adv-x="1732" 
d="M922 672l-99 -508h695q16 0 16 -21l-25 -123q-3 -20 -24 -20h-854q-17 0 -17 20l78 396h-399l-236 -396q-11 -20 -28 -20h-144q-18 0 -18 16q0 5 4 17l821 1380q5 9 7 12t6.5 6t11.5 3h1018q16 0 16 -21l-25 -123q-3 -20 -24 -20h-664l-84 -434h602q17 0 17 -21l-25 -123
q-3 -20 -24 -20h-602zM797 1270l-410 -690h336l135 690h-61z" />
    <glyph glyph-name="Ccedilla" unicode="&#xc7;" horiz-adv-x="1413" 
d="M483 -211l-24 27q-2 2 -2 6q0 7 6 16l74 150q-202 30 -330.5 187t-128.5 398q0 182 54.5 341.5t154 280t251.5 190t336 69.5q231 0 376 -134.5t145 -340.5v-23q0 -20 -27 -20h-127q-17 0 -20 20q-12 164 -101.5 249t-271.5 85q-105 0 -198 -37.5t-163 -103t-121.5 -152.5
t-77.5 -188.5t-26 -208.5q0 -220 104.5 -338.5t272.5 -118.5q182 0 290 78.5t193 255.5q9 21 29 21h135q19 0 19 -21q-77 -233 -245 -359.5t-405 -137.5l-63 -105q54 14 117 14q72 0 109.5 -29t37.5 -85q0 -98 -74 -149.5t-190 -51.5q-122 0 -189 20q-18 6 -18 19l10 61
q3 21 25 21l54 -11q53 -12 122 -12q44 0 83.5 17.5t39.5 56.5q0 53 -96 53q-53 0 -111 -14q-4 -2 -14 -2q-9 0 -15 6z" />
    <glyph glyph-name="Egrave" unicode="&#xc8;" horiz-adv-x="1165" 
d="M365 672l-99 -508h684q17 0 17 -21l-25 -123q-3 -20 -24 -20h-844q-17 0 -17 20l273 1393q3 21 24 21h813q17 0 17 -21l-25 -123q-3 -20 -24 -20h-654l-84 -434h592q17 0 17 -21l-25 -123q-3 -20 -25 -20h-591zM811 1819l90 -258q2 -4 2 -11q0 -10 -12 -10h-123
q-22 0 -33 19l-160 260q-2 2 -2 8q0 12 17 12h194q18 0 27 -20z" />
    <glyph glyph-name="Eacute" unicode="&#xc9;" horiz-adv-x="1165" 
d="M365 672l-99 -508h684q17 0 17 -21l-25 -123q-3 -20 -24 -20h-844q-17 0 -17 20l273 1393q3 21 24 21h813q17 0 17 -21l-25 -123q-3 -20 -24 -20h-654l-84 -434h592q17 0 17 -21l-25 -123q-3 -20 -25 -20h-591zM610 1561l193 258q14 20 35 20h198q13 0 13 -8q0 -5 -7 -12
l-262 -260q-19 -19 -41 -19h-123q-10 0 -10 8q0 5 4 13z" />
    <glyph glyph-name="Ecircumflex" unicode="&#xca;" horiz-adv-x="1165" 
d="M365 672l-99 -508h684q17 0 17 -21l-25 -123q-3 -20 -24 -20h-844q-17 0 -17 20l273 1393q3 21 24 21h813q17 0 17 -21l-25 -123q-3 -20 -24 -20h-654l-84 -434h592q17 0 17 -21l-25 -123q-3 -20 -25 -20h-591zM922 1823l163 -262v-2q0 -3 2 -5q0 -14 -16 -14h-127
q-19 0 -33 19l-100 129l-152 -129q-19 -19 -41 -19h-133q-12 0 -12 8q0 7 6 13l266 262q16 16 35 16h115q17 0 27 -16z" />
    <glyph glyph-name="Edieresis" unicode="&#xcb;" horiz-adv-x="1165" 
d="M365 672l-99 -508h684q17 0 17 -21l-25 -123q-3 -20 -24 -20h-844q-17 0 -17 20l273 1393q3 21 24 21h813q17 0 17 -21l-25 -123q-3 -20 -24 -20h-654l-84 -434h592q17 0 17 -21l-25 -123q-3 -20 -25 -20h-591zM512 1655l31 164q3 20 24 20h164q17 0 17 -20l-31 -164
q-3 -21 -25 -21h-164q-16 0 -16 21zM852 1655l31 164q3 20 24 20h164q16 0 16 -20l-30 -164q-3 -21 -25 -21h-164q-16 0 -16 21z" />
    <glyph glyph-name="Igrave" unicode="&#xcc;" horiz-adv-x="567" 
d="M57 20l273 1393q3 21 24 21h140q16 0 16 -21l-272 -1393q-3 -20 -25 -20h-139q-17 0 -17 20zM446 1819l91 -258q2 -4 2 -11q0 -10 -13 -10h-123q-21 0 -32 19l-160 260q-2 2 -2 8q0 12 16 12h195q17 0 26 -20z" />
    <glyph glyph-name="Iacute" unicode="&#xcd;" horiz-adv-x="567" 
d="M57 20l273 1393q3 21 24 21h140q16 0 16 -21l-272 -1393q-3 -20 -25 -20h-139q-17 0 -17 20zM356 1561l193 258q14 20 35 20h198q13 0 13 -8q0 -5 -7 -12l-262 -260q-19 -19 -41 -19h-123q-10 0 -10 8q0 5 4 13z" />
    <glyph glyph-name="Icircumflex" unicode="&#xce;" horiz-adv-x="567" 
d="M57 20l273 1393q3 21 24 21h140q16 0 16 -21l-272 -1393q-3 -20 -25 -20h-139q-17 0 -17 20zM586 1823l164 -262v-2q0 -3 2 -5q0 -14 -17 -14h-127q-19 0 -33 19l-100 129l-151 -129q-19 -19 -41 -19h-133q-13 0 -13 8q0 7 6 13l267 262q16 16 34 16h115q17 0 27 -16z
" />
    <glyph glyph-name="Idieresis" unicode="&#xcf;" horiz-adv-x="567" 
d="M57 20l273 1393q3 21 24 21h140q16 0 16 -21l-272 -1393q-3 -20 -25 -20h-139q-17 0 -17 20zM188 1655l31 164q3 20 25 20h164q16 0 16 -20l-31 -164q-3 -21 -24 -21h-164q-17 0 -17 21zM528 1655l31 164q3 20 25 20h164q16 0 16 -20l-31 -164q-3 -21 -24 -21h-164
q-17 0 -17 21z" />
    <glyph glyph-name="Eth" unicode="&#xd0;" horiz-adv-x="1413" 
d="M94 20l121 617h-160q-16 0 -16 20l22 119q3 21 23 21h162l121 616q3 21 24 21h393q116 0 215 -35t174 -102.5t117.5 -174t42.5 -241.5q0 -182 -58 -343t-162 -280t-258.5 -188.5t-338.5 -69.5h-405q-17 0 -17 20zM739 1270h-221l-92 -473h322q16 0 16 -21l-23 -119
q-3 -20 -24 -20h-322l-92 -473h221q139 0 257.5 55t198.5 148.5t124.5 219.5t44.5 267q0 204 -110.5 310t-299.5 106z" />
    <glyph glyph-name="Ntilde" unicode="&#xd1;" horiz-adv-x="1468" 
d="M1114 0h-156q-25 0 -28 16l-469 1147l-223 -1143q-3 -20 -25 -20h-139q-17 0 -17 20l273 1393q3 21 24 21h156q26 0 29 -17l469 -1147l223 1143q3 21 24 21h140q16 0 16 -21l-272 -1393q-3 -20 -25 -20zM571 1765q117 74 222 74q49 0 86 -13t55.5 -29t48 -29t66.5 -13
q49 0 135 51q12 4 14 4q9 0 19 -16l45 -86v-2q0 -2 2 -4q0 -10 -25 -29q-113 -74 -221 -74q-52 0 -89 13t-54.5 29t-46.5 29t-66 13q-49 0 -135 -51q-12 -4 -15 -4q-8 0 -18 17l-45 86q-2 0 -2 2v4q0 13 24 28z" />
    <glyph glyph-name="Ograve" unicode="&#xd2;" horiz-adv-x="1538" 
d="M670 -20q-271 0 -431.5 162.5t-160.5 439.5q0 134 33.5 261.5t101 238t160.5 194t220.5 131t272.5 47.5q271 0 431.5 -162.5t160.5 -439.5q0 -134 -33.5 -261.5t-101 -238t-160.5 -194t-220.5 -131t-272.5 -47.5zM680 143q134 0 247.5 58t188.5 155t116.5 222.5
t41.5 261.5q0 213 -112 331.5t-306 118.5q-134 0 -247.5 -58t-188.5 -154.5t-116.5 -222t-41.5 -261.5q0 -213 112 -332t306 -119zM932 1819l90 -258q2 -4 2 -11q0 -10 -12 -10h-123q-22 0 -33 19l-160 260q-2 2 -2 8q0 12 17 12h194q18 0 27 -20z" />
    <glyph glyph-name="Oacute" unicode="&#xd3;" horiz-adv-x="1538" 
d="M670 -20q-271 0 -431.5 162.5t-160.5 439.5q0 134 33.5 261.5t101 238t160.5 194t220.5 131t272.5 47.5q271 0 431.5 -162.5t160.5 -439.5q0 -134 -33.5 -261.5t-101 -238t-160.5 -194t-220.5 -131t-272.5 -47.5zM680 143q134 0 247.5 58t188.5 155t116.5 222.5
t41.5 261.5q0 213 -112 331.5t-306 118.5q-134 0 -247.5 -58t-188.5 -154.5t-116.5 -222t-41.5 -261.5q0 -213 112 -332t306 -119zM772 1561l193 258q14 20 34 20h199q12 0 12 -8q0 -6 -6 -12l-262 -260q-19 -19 -41 -19h-123q-10 0 -10 8q0 5 4 13z" />
    <glyph glyph-name="Ocircumflex" unicode="&#xd4;" horiz-adv-x="1538" 
d="M670 -20q-271 0 -431.5 162.5t-160.5 439.5q0 134 33.5 261.5t101 238t160.5 194t220.5 131t272.5 47.5q271 0 431.5 -162.5t160.5 -439.5q0 -134 -33.5 -261.5t-101 -238t-160.5 -194t-220.5 -131t-272.5 -47.5zM680 143q134 0 247.5 58t188.5 155t116.5 222.5
t41.5 261.5q0 213 -112 331.5t-306 118.5q-134 0 -247.5 -58t-188.5 -154.5t-116.5 -222t-41.5 -261.5q0 -213 112 -332t306 -119zM1038 1823l164 -262v-2q0 -3 2 -5q0 -14 -16 -14h-127q-19 0 -33 19l-100 129l-152 -129q-19 -19 -41 -19h-133q-12 0 -12 8q0 7 6 13
l266 262q16 16 35 16h115q16 0 26 -16z" />
    <glyph glyph-name="Otilde" unicode="&#xd5;" horiz-adv-x="1538" 
d="M670 -20q-271 0 -431.5 162.5t-160.5 439.5q0 134 33.5 261.5t101 238t160.5 194t220.5 131t272.5 47.5q271 0 431.5 -162.5t160.5 -439.5q0 -134 -33.5 -261.5t-101 -238t-160.5 -194t-220.5 -131t-272.5 -47.5zM680 143q134 0 247.5 58t188.5 155t116.5 222.5
t41.5 261.5q0 213 -112 331.5t-306 118.5q-134 0 -247.5 -58t-188.5 -154.5t-116.5 -222t-41.5 -261.5q0 -213 112 -332t306 -119zM635 1765q117 74 221 74q49 0 86 -13t55.5 -29t48 -29t66.5 -13q49 0 135 51q12 4 15 4q8 0 18 -16l45 -86v-2q0 -2 2 -4q0 -11 -24 -29
q-113 -74 -222 -74q-52 0 -89 13t-54.5 29t-46.5 29t-66 13q-49 0 -135 -51q-12 -4 -14 -4q-9 0 -19 17l-45 86q-2 0 -2 2v4q0 12 25 28z" />
    <glyph glyph-name="Odieresis" unicode="&#xd6;" horiz-adv-x="1538" 
d="M670 -20q-271 0 -431.5 162.5t-160.5 439.5q0 134 33.5 261.5t101 238t160.5 194t220.5 131t272.5 47.5q271 0 431.5 -162.5t160.5 -439.5q0 -134 -33.5 -261.5t-101 -238t-160.5 -194t-220.5 -131t-272.5 -47.5zM680 143q134 0 247.5 58t188.5 155t116.5 222.5
t41.5 261.5q0 213 -112 331.5t-306 118.5q-134 0 -247.5 -58t-188.5 -154.5t-116.5 -222t-41.5 -261.5q0 -213 112 -332t306 -119zM668 1655l30 164q3 20 25 20h164q16 0 16 -20l-31 -164q-3 -21 -24 -21h-164q-16 0 -16 21zM1008 1655l30 164q3 20 25 20h164q16 0 16 -20
l-31 -164q-3 -21 -24 -21h-164q-16 0 -16 21z" />
    <glyph glyph-name="multiply" unicode="&#xd7;" horiz-adv-x="1009" 
d="M928 952l-293 -252l199 -249q4 -8 4 -13t-11 -16l-90 -78q-8 -8 -16 -8q-4 0 -12 8l-203 256l-303 -262q-8 -8 -15 -8q-6 0 -14 8l-80 96q-4 8 -4 12q0 7 10 17l310 258l-199 235q-4 8 -4 13q0 6 10 16l92 78q8 8 17 8q4 0 12 -8l197 -242l292 250q8 8 17 8q4 0 12 -8
l78 -90q4 -8 4 -12q0 -7 -10 -17z" />
    <glyph glyph-name="Oslash" unicode="&#xd8;" horiz-adv-x="1538" 
d="M670 -20q-198 0 -344 90l-123 -158q-9 -12 -19 -12q-4 0 -12 4l-49 33q-8 5 -8 14q0 5 6 14l129 166q-172 158 -172 451q0 134 33.5 261.5t101 238t160.5 194t220.5 131t272.5 47.5q198 0 344 -90l123 158q9 12 19 12q4 0 12 -4l49 -33q8 -5 8 -14q0 -6 -6 -15l-129 -165
q172 -158 172 -451q0 -134 -33.5 -261.5t-101 -238t-160.5 -194t-220.5 -131t-272.5 -47.5zM262 594q0 -203 100 -318l738 947q-98 67 -244 67q-134 0 -247.5 -58t-188.5 -154.5t-116.5 -222t-41.5 -261.5zM680 143q134 0 247.5 58t188.5 155t116.5 222.5t41.5 261.5
q0 202 -100 317l-738 -946q100 -68 244 -68z" />
    <glyph glyph-name="Ugrave" unicode="&#xd9;" horiz-adv-x="1349" 
d="M133 530l172 883q3 21 25 21h139q16 0 16 -21l-174 -895q-12 -67 -12 -127q0 -248 266 -248q164 0 265 96.5t137 278.5l174 895q3 21 24 21h140q16 0 16 -21l-180 -917q-56 -276 -203.5 -396t-405.5 -120q-186 0 -299.5 105t-113.5 300q0 76 14 145zM856 1819l90 -258
q2 -4 2 -11q0 -10 -12 -10h-123q-22 0 -33 19l-159 260q-3 3 -3 8q0 12 17 12h194q18 0 27 -20z" />
    <glyph glyph-name="Uacute" unicode="&#xda;" horiz-adv-x="1349" 
d="M133 530l172 883q3 21 25 21h139q16 0 16 -21l-174 -895q-12 -67 -12 -127q0 -248 266 -248q164 0 265 96.5t137 278.5l174 895q3 21 24 21h140q16 0 16 -21l-180 -917q-56 -276 -203.5 -396t-405.5 -120q-186 0 -299.5 105t-113.5 300q0 76 14 145zM692 1561l193 258
q14 20 35 20h198q12 0 12 -8q0 -6 -6 -12l-262 -260q-19 -19 -41 -19h-123q-10 0 -10 8q0 5 4 13z" />
    <glyph glyph-name="Ucircumflex" unicode="&#xdb;" horiz-adv-x="1349" 
d="M133 530l172 883q3 21 25 21h139q16 0 16 -21l-174 -895q-12 -67 -12 -127q0 -248 266 -248q164 0 265 96.5t137 278.5l174 895q3 21 24 21h140q16 0 16 -21l-180 -917q-56 -276 -203.5 -396t-405.5 -120q-186 0 -299.5 105t-113.5 300q0 76 14 145zM979 1823l164 -262
v-2q0 -3 2 -5q0 -14 -17 -14h-127q-18 0 -32 19l-101 129l-151 -129q-19 -19 -41 -19h-133q-13 0 -13 8q0 6 7 13l266 262q16 16 35 16h114q17 0 27 -16z" />
    <glyph glyph-name="Udieresis" unicode="&#xdc;" horiz-adv-x="1349" 
d="M133 530l172 883q3 21 25 21h139q16 0 16 -21l-174 -895q-12 -67 -12 -127q0 -248 266 -248q164 0 265 96.5t137 278.5l174 895q3 21 24 21h140q16 0 16 -21l-180 -917q-56 -276 -203.5 -396t-405.5 -120q-186 0 -299.5 105t-113.5 300q0 76 14 145zM580 1655l30 164
q3 20 25 20h164q16 0 16 -20l-31 -164q-3 -21 -24 -21h-164q-16 0 -16 21zM920 1655l30 164q3 20 25 20h164q16 0 16 -20l-31 -164q-3 -21 -24 -21h-164q-16 0 -16 21z" />
    <glyph glyph-name="Yacute" unicode="&#xdd;" horiz-adv-x="1081" 
d="M1200 1413l-622 -885l-101 -508q-3 -20 -24 -20h-140q-16 0 -16 20l100 508l-278 885q0 21 16 21h162h6.5t4.5 -2t2.5 -3t2 -5t2.5 -7l203 -688l477 688q10 17 27 17h170q12 0 12 -11q0 -2 -4 -10zM526 1561l193 258q14 20 35 20h198q13 0 13 -8q0 -5 -7 -12l-262 -260
q-19 -19 -41 -19h-123q-10 0 -10 8q0 5 4 13z" />
    <glyph glyph-name="Thorn" unicode="&#xde;" horiz-adv-x="1292" 
d="M508 1413l-59 -297h342q190 0 296.5 -88t106.5 -237q0 -226 -149 -350t-406 -124h-344l-57 -297q-3 -20 -25 -20h-139q-17 0 -17 20l271 1393q3 21 24 21h140q16 0 16 -21zM418 952l-92 -471h370q143 0 228.5 71t85.5 214q0 88 -57 137t-165 49h-370z" />
    <glyph glyph-name="germandbls" unicode="&#xdf;" horiz-adv-x="1243" 
d="M688 -20q-139 0 -233.5 85.5t-94.5 198.5q0 8 5 43q3 21 24 21h111q16 0 16 -21q5 -79 51 -127.5t140 -48.5q100 0 161.5 60t61.5 161q0 56 -30 99t-72 70.5t-84.5 55t-72.5 69.5t-30 97q0 44 19 82.5t47 65t61 55t61 52.5t47 57t19 69q0 87 -50 133t-147 46
q-109 0 -177 -63.5t-93 -186.5l-201 -1033q-3 -20 -24 -20h-127q-17 0 -17 20l168 857h-153q-17 0 -17 20l21 111q3 20 24 20h154l12 66q29 163 155.5 261.5t297.5 98.5q154 0 245 -83.5t91 -219.5q0 -55 -18.5 -104t-46 -81t-59.5 -62t-59.5 -51t-46 -44.5t-18.5 -44.5
q0 -24 22 -48.5t55 -45t71.5 -50t71.5 -61t55 -81t22 -107.5q0 -183 -118.5 -287t-299.5 -104z" />
    <glyph glyph-name="agrave" unicode="&#xe0;" horiz-adv-x="1239" 
d="M1120 1008l-190 -988q-6 -20 -25 -20h-127q-16 0 -16 20l16 82q-77 -67 -146 -94.5t-179 -27.5q-181 0 -288.5 126.5t-107.5 329.5q0 117 37.5 225.5t107 195.5t180.5 139.5t247 52.5q200 0 307 -131l16 90q3 20 25 20h127q16 0 16 -20zM489 131q116 0 208 69t140 180
t48 241t-70.5 203t-198.5 73q-89 0 -162.5 -38.5t-121 -103.5t-73.5 -147.5t-26 -171.5q0 -143 67 -224t189 -81zM711 1413l90 -258q2 -4 2 -10q0 -10 -12 -10h-123q-23 0 -33 18l-160 260q-2 2 -2 8q0 13 16 13h195q18 0 27 -21z" />
    <glyph glyph-name="aacute" unicode="&#xe1;" horiz-adv-x="1239" 
d="M1120 1008l-190 -988q-6 -20 -25 -20h-127q-16 0 -16 20l16 82q-77 -67 -146 -94.5t-179 -27.5q-181 0 -288.5 126.5t-107.5 329.5q0 117 37.5 225.5t107 195.5t180.5 139.5t247 52.5q200 0 307 -131l16 90q3 20 25 20h127q16 0 16 -20zM489 131q116 0 208 69t140 180
t48 241t-70.5 203t-198.5 73q-89 0 -162.5 -38.5t-121 -103.5t-73.5 -147.5t-26 -171.5q0 -143 67 -224t189 -81zM487 1155l193 258q15 21 35 21h198q13 0 13 -9q0 -6 -6 -12l-263 -260q-18 -18 -41 -18h-122q-11 0 -11 8q0 4 4 12z" />
    <glyph glyph-name="acircumflex" unicode="&#xe2;" horiz-adv-x="1239" 
d="M1120 1008l-190 -988q-6 -20 -25 -20h-127q-16 0 -16 20l16 82q-77 -67 -146 -94.5t-179 -27.5q-181 0 -288.5 126.5t-107.5 329.5q0 117 37.5 225.5t107 195.5t180.5 139.5t247 52.5q200 0 307 -131l16 90q3 20 25 20h127q16 0 16 -20zM489 131q116 0 208 69t140 180
t48 241t-70.5 203t-198.5 73q-89 0 -162.5 -38.5t-121 -103.5t-73.5 -147.5t-26 -171.5q0 -143 67 -224t189 -81zM817 1417l164 -262v-2q0 -2 2 -4q0 -14 -16 -14h-127q-20 0 -33 18l-100 129l-152 -129q-18 -18 -41 -18h-133q-12 0 -12 8q0 6 6 12l266 262q17 17 35 17h115
q16 0 26 -17z" />
    <glyph glyph-name="atilde" unicode="&#xe3;" horiz-adv-x="1239" 
d="M1120 1008l-190 -988q-6 -20 -25 -20h-127q-16 0 -16 20l16 82q-77 -67 -146 -94.5t-179 -27.5q-181 0 -288.5 126.5t-107.5 329.5q0 117 37.5 225.5t107 195.5t180.5 139.5t247 52.5q200 0 307 -131l16 90q3 20 25 20h127q16 0 16 -20zM489 131q116 0 208 69t140 180
t48 241t-70.5 203t-198.5 73q-89 0 -162.5 -38.5t-121 -103.5t-73.5 -147.5t-26 -171.5q0 -143 67 -224t189 -81zM371 1360q117 74 221 74q49 0 86 -13t55.5 -29t48 -29t66.5 -13q49 0 135 51q12 4 14 4q9 0 19 -16l45 -86v-3q0 -2 2 -4q0 -9 -25 -28q-113 -74 -221 -74
q-52 0 -89 13t-54.5 29t-46.5 29t-66 13q-49 0 -135 -51q-12 -4 -14 -4q-9 0 -19 16l-45 86q-2 0 -2 2v4q0 13 25 29z" />
    <glyph glyph-name="adieresis" unicode="&#xe4;" horiz-adv-x="1239" 
d="M1120 1008l-190 -988q-6 -20 -25 -20h-127q-16 0 -16 20l16 82q-77 -67 -146 -94.5t-179 -27.5q-181 0 -288.5 126.5t-107.5 329.5q0 117 37.5 225.5t107 195.5t180.5 139.5t247 52.5q200 0 307 -131l16 90q3 20 25 20h127q16 0 16 -20zM489 131q116 0 208 69t140 180
t48 241t-70.5 203t-198.5 73q-89 0 -162.5 -38.5t-121 -103.5t-73.5 -147.5t-26 -171.5q0 -143 67 -224t189 -81zM436 1249l31 164q3 21 25 21h163q17 0 17 -21l-31 -164q-3 -20 -25 -20h-163q-17 0 -17 20zM776 1249l31 164q3 21 24 21h164q17 0 17 -21l-31 -164
q-3 -20 -25 -20h-163q-17 0 -17 20z" />
    <glyph glyph-name="aring" unicode="&#xe5;" horiz-adv-x="1239" 
d="M1120 1008l-190 -988q-6 -20 -25 -20h-127q-16 0 -16 20l16 82q-77 -67 -146 -94.5t-179 -27.5q-181 0 -288.5 126.5t-107.5 329.5q0 117 37.5 225.5t107 195.5t180.5 139.5t247 52.5q200 0 307 -131l16 90q3 20 25 20h127q16 0 16 -20zM489 131q116 0 208 69t140 180
t48 241t-70.5 203t-198.5 73q-89 0 -162.5 -38.5t-121 -103.5t-73.5 -147.5t-26 -171.5q0 -143 67 -224t189 -81zM535 1280q0 87 57 141t149 54q71 0 114.5 -41.5t43.5 -108.5q0 -86 -57.5 -140.5t-149.5 -54.5q-71 0 -114 41.5t-43 108.5zM731 1384q-40 0 -68 -25.5
t-28 -68.5q0 -69 67 -69q40 0 68.5 25.5t28.5 68.5q0 69 -68 69z" />
    <glyph glyph-name="ae" unicode="&#xe6;" horiz-adv-x="1931" 
d="M1772 465h-803q-4 -28 -4 -53q0 -132 69.5 -206.5t202.5 -74.5q110 0 190.5 45.5t143.5 142.5q12 19 33 19h133q10 0 10 -10q0 -9 -8 -25q-88 -171 -217.5 -247t-307.5 -76q-133 0 -228 59.5t-144 165.5q-73 -108 -183 -166.5t-249 -58.5q-94 0 -172 30.5t-129.5 98
t-51.5 161.5q0 115 63 202t167 131t231 44q154 0 295 -43l10 53q6 34 6 64q0 176 -206 176q-182 0 -273 -156q-9 -18 -33 -18h-129q-14 0 -14 12q0 9 6 21q64 140 174.5 216.5t284.5 76.5q119 0 204.5 -48t123.5 -129q177 177 434 177q191 0 301 -121.5t110 -309.5
q0 -51 -10 -100l-6 -33q-6 -20 -24 -20zM782 449q-121 47 -274 47q-51 0 -97.5 -11t-87.5 -33.5t-65.5 -64t-24.5 -96.5q0 -77 47 -118.5t130 -41.5q135 0 239.5 84t132.5 234zM1372 897q-122 0 -220.5 -71.5t-152.5 -209.5h646q0 135 -71 208t-202 73z" />
    <glyph glyph-name="ccedilla" unicode="&#xe7;" horiz-adv-x="1148" 
d="M317 -211l-24 27q-2 2 -2 6q0 7 6 16l76 154q-150 32 -233 152.5t-83 291.5q0 172 78 312t217.5 220.5t313.5 80.5t281 -99t112 -254q0 -22 -19 -22h-125q-11 0 -16.5 3.5t-9.5 14.5q-27 205 -250 205q-176 0 -291 -133t-115 -326q0 -307 273 -307q198 0 311 205
q9 18 31 18h129q12 0 12 -12q0 -8 -6 -20q-72 -165 -190.5 -251.5t-303.5 -90.5l-63 -105q54 14 117 14q72 0 109.5 -29t37.5 -85q0 -98 -74 -149.5t-190 -51.5q-121 0 -188 20q-19 6 -19 19l10 61q3 21 25 21q7 0 27.5 -6t59.5 -11.5t89 -5.5q44 0 83.5 17.5t39.5 56.5
q0 53 -96 53q-53 0 -111 -14q-4 -2 -14 -2q-9 0 -15 6z" />
    <glyph glyph-name="egrave" unicode="&#xe8;" horiz-adv-x="1196" 
d="M1036 465h-798q-5 -35 -5 -53q0 -132 68.5 -206.5t200.5 -74.5q110 0 190.5 45.5t143.5 142.5q12 19 32 19h133q11 0 11 -10q0 -9 -8 -25q-88 -171 -217.5 -247t-307.5 -76q-132 0 -229 62t-145 165.5t-48 234.5q0 120 45 230.5t124 194t193.5 133t246.5 49.5
q191 0 301 -121.5t110 -309.5q0 -51 -10 -100l-6 -33q-6 -20 -25 -20zM637 897q-122 0 -219.5 -71.5t-151.5 -209.5h643q0 135 -70.5 208t-201.5 73zM694 1413l90 -258q2 -4 2 -10q0 -10 -12 -10h-123q-23 0 -33 18l-159 260q-2 2 -2 8q0 13 16 13h195q17 0 26 -21z" />
    <glyph glyph-name="eacute" unicode="&#xe9;" horiz-adv-x="1196" 
d="M1036 465h-798q-5 -35 -5 -53q0 -132 68.5 -206.5t200.5 -74.5q110 0 190.5 45.5t143.5 142.5q12 19 32 19h133q11 0 11 -10q0 -9 -8 -25q-88 -171 -217.5 -247t-307.5 -76q-132 0 -229 62t-145 165.5t-48 234.5q0 120 45 230.5t124 194t193.5 133t246.5 49.5
q191 0 301 -121.5t110 -309.5q0 -51 -10 -100l-6 -33q-6 -20 -25 -20zM637 897q-122 0 -219.5 -71.5t-151.5 -209.5h643q0 135 -70.5 208t-201.5 73zM549 1155l192 258q15 21 35 21h199q12 0 12 -9q0 -6 -6 -12l-262 -260q-18 -18 -41 -18h-123q-10 0 -10 8q0 4 4 12z" />
    <glyph glyph-name="ecircumflex" unicode="&#xea;" horiz-adv-x="1196" 
d="M1036 465h-798q-5 -35 -5 -53q0 -132 68.5 -206.5t200.5 -74.5q110 0 190.5 45.5t143.5 142.5q12 19 32 19h133q11 0 11 -10q0 -9 -8 -25q-88 -171 -217.5 -247t-307.5 -76q-132 0 -229 62t-145 165.5t-48 234.5q0 120 45 230.5t124 194t193.5 133t246.5 49.5
q191 0 301 -121.5t110 -309.5q0 -51 -10 -100l-6 -33q-6 -20 -25 -20zM637 897q-122 0 -219.5 -71.5t-151.5 -209.5h643q0 135 -70.5 208t-201.5 73zM842 1417l164 -262v-2q0 -2 2 -4q0 -14 -17 -14h-127q-20 0 -33 18l-100 129l-151 -129q-18 -18 -41 -18h-133q-13 0 -13 8
q0 6 6 12l267 262q17 17 34 17h115q17 0 27 -17z" />
    <glyph glyph-name="edieresis" unicode="&#xeb;" horiz-adv-x="1196" 
d="M1036 465h-798q-5 -35 -5 -53q0 -132 68.5 -206.5t200.5 -74.5q110 0 190.5 45.5t143.5 142.5q12 19 32 19h133q11 0 11 -10q0 -9 -8 -25q-88 -171 -217.5 -247t-307.5 -76q-132 0 -229 62t-145 165.5t-48 234.5q0 120 45 230.5t124 194t193.5 133t246.5 49.5
q191 0 301 -121.5t110 -309.5q0 -51 -10 -100l-6 -33q-6 -20 -25 -20zM637 897q-122 0 -219.5 -71.5t-151.5 -209.5h643q0 135 -70.5 208t-201.5 73zM444 1249l31 164q3 21 25 21h164q16 0 16 -21l-31 -164q-3 -20 -24 -20h-164q-17 0 -17 20zM784 1249l31 164q3 21 25 21
h164q16 0 16 -21l-31 -164q-3 -20 -24 -20h-164q-17 0 -17 20z" />
    <glyph glyph-name="igrave" unicode="&#xec;" horiz-adv-x="548" 
d="M61 20l193 988q3 20 25 20h127q16 0 16 -20l-193 -988q-3 -20 -24 -20h-127q-17 0 -17 20zM344 1413l90 -258q2 -4 2 -10q0 -10 -12 -10h-123q-23 0 -33 18l-159 260q-3 3 -3 8q0 13 17 13h194q18 0 27 -21z" />
    <glyph glyph-name="iacute" unicode="&#xed;" horiz-adv-x="548" 
d="M61 20l193 988q3 20 25 20h127q16 0 16 -20l-193 -988q-3 -20 -24 -20h-127q-17 0 -17 20zM279 1155l192 258q15 21 35 21h199q12 0 12 -9q0 -6 -6 -12l-262 -260q-18 -18 -41 -18h-123q-11 0 -11 8q0 2 5 12z" />
    <glyph glyph-name="icircumflex" unicode="&#xee;" horiz-adv-x="548" 
d="M510 1417l164 -262v-2q0 -2 2 -4q0 -14 -17 -14h-127q-19 0 -32 18l-101 129l-151 -129q-18 -18 -41 -18h-133q-13 0 -13 8q0 5 7 12l266 262q17 17 35 17h114q17 0 27 -17zM61 20l193 988q3 20 25 20h127q16 0 16 -20l-193 -988q-3 -20 -24 -20h-127q-17 0 -17 20z" />
    <glyph glyph-name="idieresis" unicode="&#xef;" horiz-adv-x="548" 
d="M61 20l193 988q3 20 25 20h127q16 0 16 -20l-193 -988q-3 -20 -24 -20h-127q-17 0 -17 20zM109 1249l30 164q3 21 25 21h164q16 0 16 -21l-31 -164q-3 -20 -24 -20h-164q-16 0 -16 20zM449 1249l30 164q3 21 25 21h164q16 0 16 -21l-31 -164q-3 -20 -24 -20h-164
q-16 0 -16 20z" />
    <glyph glyph-name="eth" unicode="&#xf0;" horiz-adv-x="1222" 
d="M557 1096l-31 92q-3 16 19 26l125 46q-63 25 -187 38q-20 3 -10 29l29 103q6 14 30 14q197 -22 347 -111l217 78q18 9 24 -10l31 -92q6 -21 -18 -27l-136 -49q51 -66 80 -187.5t29 -242.5q0 -127 -21.5 -244t-70.5 -223.5t-121 -184.5t-180 -124.5t-240 -46.5
q-188 0 -302 123t-114 335q0 119 41.5 229t116 195t187.5 136t247 51q200 0 279 -121q-6 89 -33.5 145t-79.5 96l-233 -84q-12 -4 -16 -2t-9 13zM631 897q-125 0 -219 -64t-140.5 -167t-46.5 -228q0 -145 67 -226t195 -81q116 0 212 68t148 174t52 223q0 144 -67.5 222.5
t-200.5 78.5z" />
    <glyph glyph-name="ntilde" unicode="&#xf1;" horiz-adv-x="1218" 
d="M61 20l191 988q6 20 24 20h127q17 0 17 -20l-23 -117q80 79 161 118.5t190 39.5q147 0 226 -70t79 -199q0 -20 -13 -104l-127 -656q-3 -20 -24 -20h-127q-17 0 -17 20l123 631q9 47 9 78q0 168 -187 168q-120 0 -223.5 -98t-138.5 -275l-99 -504q-6 -20 -24 -20h-127
q-17 0 -17 20zM406 1360q117 74 221 74q49 0 86 -13t55.5 -29t48 -29t66.5 -13q49 0 135 51q12 4 14 4q9 0 19 -16l45 -86v-3q0 -2 2 -4q0 -9 -25 -28q-113 -74 -221 -74q-52 0 -89 13t-54.5 29t-46.5 29t-66 13q-49 0 -135 -51q-12 -4 -15 -4q-8 0 -18 16l-45 86q-2 0 -2 2
v4q0 13 25 29z" />
    <glyph glyph-name="ograve" unicode="&#xf2;" horiz-adv-x="1245" 
d="M57 403q0 132 45.5 250t125 205.5t195.5 139t251 51.5q199 0 319.5 -117t120.5 -307q0 -176 -77 -323t-219 -234.5t-320 -87.5q-199 0 -320 116.5t-121 306.5zM655 897q-120 0 -217.5 -65t-151 -174.5t-53.5 -239.5q0 -134 76.5 -210.5t206.5 -76.5q120 0 217.5 65
t151 174.5t53.5 239.5q0 134 -76.5 210.5t-206.5 76.5zM731 1413l90 -258q2 -4 2 -10q0 -10 -12 -10h-123q-23 0 -33 18l-159 260q-2 2 -2 8q0 13 16 13h195q17 0 26 -21z" />
    <glyph glyph-name="oacute" unicode="&#xf3;" horiz-adv-x="1245" 
d="M57 403q0 132 45.5 250t125 205.5t195.5 139t251 51.5q199 0 319.5 -117t120.5 -307q0 -176 -77 -323t-219 -234.5t-320 -87.5q-199 0 -320 116.5t-121 306.5zM655 897q-120 0 -217.5 -65t-151 -174.5t-53.5 -239.5q0 -134 76.5 -210.5t206.5 -76.5q120 0 217.5 65
t151 174.5t53.5 239.5q0 134 -76.5 210.5t-206.5 76.5zM537 1155l192 258q15 21 35 21h199q12 0 12 -9q0 -6 -6 -12l-262 -260q-18 -18 -41 -18h-123q-11 0 -11 8q0 2 5 12z" />
    <glyph glyph-name="ocircumflex" unicode="&#xf4;" horiz-adv-x="1245" 
d="M57 403q0 132 45.5 250t125 205.5t195.5 139t251 51.5q199 0 319.5 -117t120.5 -307q0 -176 -77 -323t-219 -234.5t-320 -87.5q-199 0 -320 116.5t-121 306.5zM655 897q-120 0 -217.5 -65t-151 -174.5t-53.5 -239.5q0 -134 76.5 -210.5t206.5 -76.5q120 0 217.5 65
t151 174.5t53.5 239.5q0 134 -76.5 210.5t-206.5 76.5zM860 1417l164 -262v-2q0 -2 2 -4q0 -14 -16 -14h-127q-20 0 -33 18l-100 129l-152 -129q-18 -18 -41 -18h-133q-12 0 -12 8q0 6 6 12l266 262q17 17 35 17h115q16 0 26 -17z" />
    <glyph glyph-name="otilde" unicode="&#xf5;" horiz-adv-x="1245" 
d="M57 403q0 132 45.5 250t125 205.5t195.5 139t251 51.5q199 0 319.5 -117t120.5 -307q0 -176 -77 -323t-219 -234.5t-320 -87.5q-199 0 -320 116.5t-121 306.5zM655 897q-120 0 -217.5 -65t-151 -174.5t-53.5 -239.5q0 -134 76.5 -210.5t206.5 -76.5q120 0 217.5 65
t151 174.5t53.5 239.5q0 134 -76.5 210.5t-206.5 76.5zM430 1360q117 74 221 74q49 0 86 -13t55.5 -29t48 -29t66.5 -13q49 0 135 51q12 4 15 4q8 0 18 -16l45 -86v-3q0 -2 2 -4q0 -10 -24 -28q-113 -74 -221 -74q-52 0 -89 13t-54.5 29t-46.5 29t-66 13q-50 0 -136 -51
q-12 -4 -14 -4q-8 0 -18 16l-45 86q-2 0 -2 2v4q0 14 24 29z" />
    <glyph glyph-name="odieresis" unicode="&#xf6;" horiz-adv-x="1245" 
d="M57 403q0 132 45.5 250t125 205.5t195.5 139t251 51.5q199 0 319.5 -117t120.5 -307q0 -176 -77 -323t-219 -234.5t-320 -87.5q-199 0 -320 116.5t-121 306.5zM655 897q-120 0 -217.5 -65t-151 -174.5t-53.5 -239.5q0 -134 76.5 -210.5t206.5 -76.5q120 0 217.5 65
t151 174.5t53.5 239.5q0 134 -76.5 210.5t-206.5 76.5zM457 1249l30 164q3 21 25 21h164q16 0 16 -21l-30 -164q-3 -20 -25 -20h-164q-16 0 -16 20zM797 1249l30 164q3 21 25 21h164q16 0 16 -21l-31 -164q-3 -20 -24 -20h-164q-16 0 -16 20z" />
    <glyph glyph-name="divide" unicode="&#xf7;" horiz-adv-x="1193" 
d="M442 197h160q16 0 16 -21l-28 -156q-3 -20 -25 -20h-159q-17 0 -17 20l29 156q3 21 24 21zM604 1028h160q16 0 16 -20l-28 -156q-3 -21 -25 -21h-160q-16 0 -16 21l29 156q3 20 24 20zM176 594h864q17 0 17 -21l-23 -118q-3 -21 -24 -21h-865q-16 0 -16 21l23 118
q3 21 24 21z" />
    <glyph glyph-name="oslash" unicode="&#xf8;" horiz-adv-x="1245" 
d="M57 403q0 132 45.5 250t125 205.5t195.5 139t251 51.5q127 0 225 -52l88 115q9 12 19 12q4 0 12 -4l49 -33q8 -5 8 -14q0 -5 -6 -14l-90 -115q135 -117 135 -319q0 -176 -77 -323t-219 -234.5t-320 -87.5q-130 0 -226 51l-88 -115q-9 -12 -18 -12q-4 0 -12 4l-50 33
q-8 5 -8 14q0 5 6 14l91 115q-136 117 -136 319zM938 610q0 125 -66 197l-497 -645q64 -31 141 -31q120 0 217.5 65t151 174.5t53.5 239.5zM655 897q-120 0 -217.5 -65t-151 -174.5t-53.5 -239.5q0 -125 66 -197l498 645q-64 31 -142 31z" />
    <glyph glyph-name="ugrave" unicode="&#xf9;" horiz-adv-x="1206" 
d="M1087 1008l-190 -988q-6 -20 -25 -20h-127q-16 0 -16 20l23 117q-80 -78 -161 -117.5t-190 -39.5q-148 0 -226.5 69.5t-78.5 198.5q0 20 13 104l127 656q3 20 24 20h127q16 0 16 -20l-122 -631q-9 -47 -9 -78q0 -168 187 -168q120 0 223.5 98t138.5 275l99 504
q6 20 24 20h127q16 0 16 -20zM731 1413l90 -258q2 -4 2 -10q0 -10 -12 -10h-123q-23 0 -33 18l-159 260q-2 2 -2 8q0 13 16 13h195q17 0 26 -21z" />
    <glyph glyph-name="uacute" unicode="&#xfa;" horiz-adv-x="1206" 
d="M1087 1008l-190 -988q-6 -20 -25 -20h-127q-16 0 -16 20l23 117q-80 -78 -161 -117.5t-190 -39.5q-148 0 -226.5 69.5t-78.5 198.5q0 20 13 104l127 656q3 20 24 20h127q16 0 16 -20l-122 -631q-9 -47 -9 -78q0 -168 187 -168q120 0 223.5 98t138.5 275l99 504
q6 20 24 20h127q16 0 16 -20zM528 1155l193 258q15 21 35 21h198q13 0 13 -9q0 -6 -6 -12l-263 -260q-18 -18 -41 -18h-122q-11 0 -11 8q0 4 4 12z" />
    <glyph glyph-name="ucircumflex" unicode="&#xfb;" horiz-adv-x="1206" 
d="M1087 1008l-190 -988q-6 -20 -25 -20h-127q-16 0 -16 20l23 117q-80 -78 -161 -117.5t-190 -39.5q-148 0 -226.5 69.5t-78.5 198.5q0 20 13 104l127 656q3 20 24 20h127q16 0 16 -20l-122 -631q-9 -47 -9 -78q0 -168 187 -168q120 0 223.5 98t138.5 275l99 504
q6 20 24 20h127q16 0 16 -20zM825 1417l164 -262v-2q0 -2 2 -4q0 -14 -16 -14h-127q-20 0 -33 18l-100 129l-152 -129q-18 -18 -41 -18h-133q-12 0 -12 8q0 6 6 12l266 262q17 17 35 17h115q16 0 26 -17z" />
    <glyph glyph-name="udieresis" unicode="&#xfc;" horiz-adv-x="1206" 
d="M1087 1008l-190 -988q-6 -20 -25 -20h-127q-16 0 -16 20l23 117q-80 -78 -161 -117.5t-190 -39.5q-148 0 -226.5 69.5t-78.5 198.5q0 20 13 104l127 656q3 20 24 20h127q16 0 16 -20l-122 -631q-9 -47 -9 -78q0 -168 187 -168q120 0 223.5 98t138.5 275l99 504
q6 20 24 20h127q16 0 16 -20zM426 1249l31 164q3 21 24 21h164q17 0 17 -21l-31 -164q-3 -20 -25 -20h-164q-16 0 -16 20zM766 1249l31 164q3 21 24 21h164q16 0 16 -21l-30 -164q-3 -20 -25 -20h-164q-16 0 -16 20z" />
    <glyph glyph-name="yacute" unicode="&#xfd;" horiz-adv-x="1075" 
d="M123 1028h147q20 0 23 -20l151 -791l414 791q9 20 31 20h147q13 0 13 -14l-5 -15l-589 -1099q-71 -131 -142 -204.5t-135 -97.5t-147 -24t-142 33q-16 10 -16 20v8q0 3 2 5l21 110q6 21 20 21q9 0 24.5 -11t44 -22.5t68.5 -11.5q150 0 271 256l-218 1013q-2 6 -2 17
q0 16 19 16zM479 1155l193 258q15 21 35 21h198q13 0 13 -9q0 -5 -7 -12l-262 -260q-18 -18 -41 -18h-123q-10 0 -10 8q0 4 4 12z" />
    <glyph glyph-name="thorn" unicode="&#xfe;" horiz-adv-x="1267" 
d="M-16 -385l354 1798q3 21 24 21h127q17 0 17 -21l-96 -493q78 69 156.5 99t178.5 30q168 0 280 -113.5t112 -312.5q0 -132 -39.5 -248.5t-112 -204.5t-182.5 -139t-242 -51q-97 0 -183 40t-124 97l-102 -502q-3 -21 -25 -21h-127q-16 0 -16 21zM707 897
q-89 0 -166.5 -40.5t-128.5 -107t-80 -151.5t-29 -174q0 -134 71 -213.5t187 -79.5q123 0 216 68.5t138.5 174.5t45.5 230q0 138 -64 215.5t-190 77.5z" />
    <glyph glyph-name="ydieresis" unicode="&#xff;" horiz-adv-x="1075" 
d="M123 1028h147q20 0 23 -20l151 -791l414 791q9 20 31 20h147q13 0 13 -14l-5 -15l-589 -1099q-71 -131 -142 -204.5t-135 -97.5t-147 -24t-142 33q-16 10 -16 20v8q0 3 2 5l21 110q6 21 20 21q9 0 24.5 -11t44 -22.5t68.5 -11.5q150 0 271 256l-218 1013q-2 6 -2 17
q0 16 19 16zM348 1249l31 164q3 21 24 21h164q17 0 17 -21l-31 -164q-3 -20 -25 -20h-163q-17 0 -17 20zM688 1249l31 164q3 21 24 21h164q17 0 17 -21l-31 -164q-3 -20 -25 -20h-163q-17 0 -17 20z" />
    <glyph glyph-name="Amacron" unicode="&#x100;" horiz-adv-x="1255" 
d="M932 20l-64 396h-585l-220 -396q-12 -20 -28 -20h-150q-18 0 -18 16q0 10 6 19l774 1378q12 21 29 21h176q17 0 20 -21l240 -1388q0 -14 -4.5 -19.5t-20.5 -5.5h-135q-11 0 -14.5 4t-5.5 16zM733 1227l-360 -647h467zM590 1647l18 102q3 20 25 20h383q16 0 16 -20
l-18 -102q-3 -21 -25 -21h-383q-16 0 -16 21z" />
    <glyph glyph-name="amacron" unicode="&#x101;" horiz-adv-x="1239" 
d="M1120 1008l-190 -988q-6 -20 -25 -20h-127q-16 0 -16 20l16 82q-77 -67 -146 -94.5t-179 -27.5q-181 0 -288.5 126.5t-107.5 329.5q0 117 37.5 225.5t107 195.5t180.5 139.5t247 52.5q200 0 307 -131l16 90q3 20 25 20h127q16 0 16 -20zM489 131q116 0 208 69t140 180
t48 241t-70.5 203t-198.5 73q-89 0 -162.5 -38.5t-121 -103.5t-73.5 -147.5t-26 -171.5q0 -143 67 -224t189 -81zM477 1241l19 102q3 21 24 21h383q17 0 17 -21l-19 -102q-3 -20 -24 -20h-383q-17 0 -17 20z" />
    <glyph glyph-name="Abreve" unicode="&#x102;" horiz-adv-x="1255" 
d="M932 20l-64 396h-585l-220 -396q-12 -20 -28 -20h-150q-18 0 -18 16q0 10 6 19l774 1378q12 21 29 21h176q17 0 20 -21l240 -1388q0 -14 -4.5 -19.5t-20.5 -5.5h-135q-11 0 -14.5 4t-5.5 16zM733 1227l-360 -647h467zM602 1815h98q17 0 17 -21q-2 -14 -2 -25
q0 -42 25.5 -65t72.5 -23q56 0 93 31t48 82q6 21 25 21h98q17 0 17 -21q-48 -248 -295 -248q-101 0 -162.5 60.5t-61.5 152.5q0 14 3 35t24 21z" />
    <glyph glyph-name="abreve" unicode="&#x103;" horiz-adv-x="1239" 
d="M1120 1008l-190 -988q-6 -20 -25 -20h-127q-16 0 -16 20l16 82q-77 -67 -146 -94.5t-179 -27.5q-181 0 -288.5 126.5t-107.5 329.5q0 117 37.5 225.5t107 195.5t180.5 139.5t247 52.5q200 0 307 -131l16 90q3 20 25 20h127q16 0 16 -20zM489 131q116 0 208 69t140 180
t48 241t-70.5 203t-198.5 73q-89 0 -162.5 -38.5t-121 -103.5t-73.5 -147.5t-26 -171.5q0 -143 67 -224t189 -81zM485 1409h99q16 0 16 -20q-2 -14 -2 -25q0 -42 25.5 -65t72.5 -23q56 0 93.5 31t48.5 82q6 20 24 20h99q16 0 16 -20q-48 -248 -295 -248q-101 0 -162 60
t-61 153q0 21 2 35q3 20 24 20z" />
    <glyph glyph-name="Aogonek" unicode="&#x104;" horiz-adv-x="1255" 
d="M934 10l-66 406h-585l-220 -396q-12 -20 -28 -20h-150q-18 0 -18 16q0 10 6 19l774 1378q12 21 29 21h176q17 0 20 -21l240 -1388q0 -19 -16 -25q-58 -14 -105 -54t-47 -98q0 -96 119 -96h24q17 0 17 -20l-12 -70q-3 -20 -25 -20h-72q-98 0 -156.5 42.5t-58.5 125.5
q0 65 42 116t112 84zM733 1227l-360 -647h467z" />
    <glyph glyph-name="aogonek" unicode="&#x105;" horiz-adv-x="1239" 
d="M1120 1008l-190 -988q-3 -13 -19 -20q-58 -14 -104.5 -54t-46.5 -98q0 -96 119 -96h24q17 0 17 -20l-13 -70q-3 -20 -24 -20h-72q-98 0 -156.5 42.5t-58.5 125.5q0 69 45 122t119 84l18 86q-77 -67 -146 -94.5t-179 -27.5q-181 0 -288.5 126.5t-107.5 329.5
q0 117 37.5 225.5t107 195.5t180.5 139.5t247 52.5q200 0 307 -131l16 90q3 20 25 20h127q16 0 16 -20zM489 131q116 0 208 69t140 180t48 241t-70.5 203t-198.5 73q-89 0 -162.5 -38.5t-121 -103.5t-73.5 -147.5t-26 -171.5q0 -143 67 -224t189 -81z" />
    <glyph glyph-name="Cacute" unicode="&#x106;" horiz-adv-x="1413" 
d="M1151 498h135q19 0 19 -21q-81 -243 -257 -370t-425 -127q-114 0 -214 42t-173 117.5t-115.5 187.5t-42.5 246q0 182 54.5 341.5t154 280t251.5 190t336 69.5q231 0 376 -134.5t145 -340.5v-23q0 -20 -27 -20h-127q-17 0 -20 20q-12 164 -101.5 249t-271.5 85
q-105 0 -198 -37.5t-163 -103t-121.5 -152.5t-77.5 -188.5t-26 -208.5q0 -220 104.5 -338.5t272.5 -118.5q182 0 290 78.5t193 255.5q9 21 29 21zM756 1561l192 258q14 20 35 20h199q12 0 12 -8q0 -6 -6 -12l-262 -260q-19 -19 -41 -19h-123q-10 0 -10 8q0 5 4 13z" />
    <glyph glyph-name="cacute" unicode="&#x107;" horiz-adv-x="1148" 
d="M639 897q-176 0 -291 -133t-115 -326q0 -307 273 -307q198 0 311 205q9 18 31 18h129q12 0 12 -12q0 -8 -6 -20q-72 -167 -193.5 -254.5t-312.5 -87.5q-197 0 -308.5 128t-111.5 328q0 172 78 312t217.5 220.5t313.5 80.5t281 -99t112 -254q0 -22 -19 -22h-125
q-11 0 -16.5 3.5t-9.5 14.5q-27 205 -250 205zM549 1155l192 258q15 21 35 21h199q12 0 12 -9q0 -6 -6 -12l-262 -260q-18 -18 -41 -18h-123q-10 0 -10 8q0 4 4 12z" />
    <glyph glyph-name="Ccircumflex" unicode="&#x108;" horiz-adv-x="1413" 
d="M1151 498h135q19 0 19 -21q-81 -243 -257 -370t-425 -127q-114 0 -214 42t-173 117.5t-115.5 187.5t-42.5 246q0 182 54.5 341.5t154 280t251.5 190t336 69.5q231 0 376 -134.5t145 -340.5v-23q0 -20 -27 -20h-127q-17 0 -20 20q-12 164 -101.5 249t-271.5 85
q-105 0 -198 -37.5t-163 -103t-121.5 -152.5t-77.5 -188.5t-26 -208.5q0 -220 104.5 -338.5t272.5 -118.5q182 0 290 78.5t193 255.5q9 21 29 21zM1057 1823l164 -262v-2q0 -3 2 -5q0 -14 -17 -14h-127q-18 0 -32 19l-101 129l-151 -129q-19 -19 -41 -19h-133q-13 0 -13 8
q0 7 6 13l267 262q16 16 34 16h115q17 0 27 -16z" />
    <glyph glyph-name="ccircumflex" unicode="&#x109;" horiz-adv-x="1148" 
d="M639 897q-176 0 -291 -133t-115 -326q0 -307 273 -307q198 0 311 205q9 18 31 18h129q12 0 12 -12q0 -8 -6 -20q-72 -167 -193.5 -254.5t-312.5 -87.5q-197 0 -308.5 128t-111.5 328q0 172 78 312t217.5 220.5t313.5 80.5t281 -99t112 -254q0 -22 -19 -22h-125
q-11 0 -16.5 3.5t-9.5 14.5q-27 205 -250 205zM842 1417l164 -262v-2q0 -2 2 -4q0 -14 -17 -14h-127q-20 0 -33 18l-100 129l-151 -129q-18 -18 -41 -18h-133q-13 0 -13 8q0 6 6 12l267 262q17 17 34 17h115q17 0 27 -17z" />
    <glyph glyph-name="Cdotaccent" unicode="&#x10a;" horiz-adv-x="1413" 
d="M1151 498h135q19 0 19 -21q-81 -243 -257 -370t-425 -127q-114 0 -214 42t-173 117.5t-115.5 187.5t-42.5 246q0 182 54.5 341.5t154 280t251.5 190t336 69.5q231 0 376 -134.5t145 -340.5v-23q0 -20 -27 -20h-127q-17 0 -20 20q-12 164 -101.5 249t-271.5 85
q-105 0 -198 -37.5t-163 -103t-121.5 -152.5t-77.5 -188.5t-26 -208.5q0 -220 104.5 -338.5t272.5 -118.5q182 0 290 78.5t193 255.5q9 21 29 21zM788 1642l35 177q3 20 25 20h184q17 0 17 -20l-35 -177q-3 -20 -25 -20h-184q-17 0 -17 20z" />
    <glyph glyph-name="cdotaccent" unicode="&#x10b;" horiz-adv-x="1148" 
d="M639 897q-176 0 -291 -133t-115 -326q0 -307 273 -307q198 0 311 205q9 18 31 18h129q12 0 12 -12q0 -8 -6 -20q-72 -167 -193.5 -254.5t-312.5 -87.5q-197 0 -308.5 128t-111.5 328q0 172 78 312t217.5 220.5t313.5 80.5t281 -99t112 -254q0 -22 -19 -22h-125
q-11 0 -16.5 3.5t-9.5 14.5q-27 205 -250 205zM575 1237l35 176q3 21 25 21h184q17 0 17 -21l-35 -176q-3 -20 -25 -20h-184q-17 0 -17 20z" />
    <glyph glyph-name="Ccaron" unicode="&#x10c;" horiz-adv-x="1413" 
d="M1151 498h135q19 0 19 -21q-81 -243 -257 -370t-425 -127q-114 0 -214 42t-173 117.5t-115.5 187.5t-42.5 246q0 182 54.5 341.5t154 280t251.5 190t336 69.5q231 0 376 -134.5t145 -340.5v-23q0 -20 -27 -20h-127q-17 0 -20 20q-12 164 -101.5 249t-271.5 85
q-105 0 -198 -37.5t-163 -103t-121.5 -152.5t-77.5 -188.5t-26 -208.5q0 -220 104.5 -338.5t272.5 -118.5q182 0 290 78.5t193 255.5q9 21 29 21zM819 1556l-164 263q-2 0 -2 2v4q0 14 17 14h127q19 0 32 -18l101 -129l151 129q21 18 41 18h133q13 0 13 -8q0 -6 -6 -12
l-267 -263q-16 -16 -34 -16h-115q-17 0 -27 16z" />
    <glyph glyph-name="ccaron" unicode="&#x10d;" horiz-adv-x="1148" 
d="M639 897q-176 0 -291 -133t-115 -326q0 -307 273 -307q198 0 311 205q9 18 31 18h129q12 0 12 -12q0 -8 -6 -20q-72 -167 -193.5 -254.5t-312.5 -87.5q-197 0 -308.5 128t-111.5 328q0 172 78 312t217.5 220.5t313.5 80.5t281 -99t112 -254q0 -22 -19 -22h-125
q-11 0 -16.5 3.5t-9.5 14.5q-27 205 -250 205zM596 1151l-164 262q-2 0 -2 2v4q0 15 16 15h127q19 0 33 -19l101 -129l151 129q22 19 41 19h133q12 0 12 -9q0 -6 -6 -12l-266 -262q-16 -16 -35 -16h-114q-17 0 -27 16z" />
    <glyph glyph-name="Dcaron" unicode="&#x10e;" horiz-adv-x="1376" 
d="M57 20l273 1393q3 21 24 21h394q116 0 214.5 -35t173.5 -102.5t117.5 -174t42.5 -241.5q0 -182 -58 -343t-162 -280t-258.5 -188.5t-338.5 -69.5h-405q-17 0 -17 20zM702 1270h-221l-215 -1106h221q139 0 257.5 55t198.5 148.5t124.5 219.5t44.5 267q0 204 -110.5 310
t-299.5 106zM623 1556l-164 263q-2 0 -2 2v4q0 14 16 14h127q20 0 33 -18l100 -129l152 129q21 18 41 18h133q12 0 12 -8q0 -6 -6 -12l-266 -263q-16 -16 -35 -16h-115q-16 0 -26 16z" />
    <glyph glyph-name="dcaron" unicode="&#x10f;" horiz-adv-x="1529" 
d="M1198 1413l-272 -1393q-3 -20 -25 -20h-127q-16 0 -16 20l18 89q-129 -129 -323 -129q-179 0 -287.5 119t-108.5 311q0 120 38.5 233.5t109 204.5t180.5 146t242 55q187 0 305 -136l98 500q3 21 25 21h127q16 0 16 -21zM481 131q122 0 215 68.5t139 174t46 228.5
q0 143 -71.5 219t-193.5 76q-92 0 -166.5 -41.5t-121 -110.5t-71 -154t-24.5 -177q0 -127 64.5 -205t183.5 -78zM1346 1083q62 0 88 22t39 89l8 43h-90q-17 0 -17 20l31 156q3 21 25 21h172q16 0 16 -21l-45 -231q-19 -98 -71.5 -135t-139.5 -37h-31q-16 0 -16 20l6 33
q6 20 25 20z" />
    <glyph glyph-name="Dcroat" unicode="&#x110;" horiz-adv-x="1413" 
d="M94 20l121 617h-160q-16 0 -16 20l22 119q3 21 23 21h162l121 616q3 21 24 21h393q116 0 215 -35t174 -102.5t117.5 -174t42.5 -241.5q0 -182 -58 -343t-162 -280t-258.5 -188.5t-338.5 -69.5h-405q-17 0 -17 20zM739 1270h-221l-92 -473h322q16 0 16 -21l-23 -119
q-3 -20 -24 -20h-322l-92 -473h221q139 0 257.5 55t198.5 148.5t124.5 219.5t44.5 267q0 204 -110.5 310t-299.5 106z" />
    <glyph glyph-name="dcroat" unicode="&#x111;" horiz-adv-x="1247" 
d="M1198 1413l-27 -139h121q17 0 17 -21l-19 -106q-3 -21 -24 -21h-123l-217 -1106q-3 -20 -25 -20h-127q-16 0 -16 20l18 89q-129 -129 -323 -129q-179 0 -287.5 119t-108.5 311q0 120 38.5 233.5t109 204.5t180.5 146t242 55q187 0 305 -136l43 213h-277q-16 0 -16 21
l18 106q3 21 25 21h279l26 139q3 21 25 21h127q16 0 16 -21zM481 131q122 0 215 68.5t139 174t46 228.5q0 143 -71.5 219t-193.5 76q-92 0 -166.5 -41.5t-121 -110.5t-71 -154t-24.5 -177q0 -127 64.5 -205t183.5 -78z" />
    <glyph glyph-name="Emacron" unicode="&#x112;" horiz-adv-x="1165" 
d="M365 672l-99 -508h684q17 0 17 -21l-25 -123q-3 -20 -24 -20h-844q-17 0 -17 20l273 1393q3 21 24 21h813q17 0 17 -21l-25 -123q-3 -20 -24 -20h-654l-84 -434h592q17 0 17 -21l-25 -123q-3 -20 -25 -20h-591zM590 1647l18 102q3 20 25 20h383q16 0 16 -20l-18 -102
q-3 -21 -25 -21h-383q-16 0 -16 21z" />
    <glyph glyph-name="emacron" unicode="&#x113;" horiz-adv-x="1196" 
d="M1036 465h-798q-5 -35 -5 -53q0 -132 68.5 -206.5t200.5 -74.5q110 0 190.5 45.5t143.5 142.5q12 19 32 19h133q11 0 11 -10q0 -9 -8 -25q-88 -171 -217.5 -247t-307.5 -76q-132 0 -229 62t-145 165.5t-48 234.5q0 120 45 230.5t124 194t193.5 133t246.5 49.5
q191 0 301 -121.5t110 -309.5q0 -51 -10 -100l-6 -33q-6 -20 -25 -20zM637 897q-122 0 -219.5 -71.5t-151.5 -209.5h643q0 135 -70.5 208t-201.5 73zM487 1241l19 102q3 21 24 21h383q17 0 17 -21l-19 -102q-3 -20 -24 -20h-383q-17 0 -17 20z" />
    <glyph glyph-name="Ebreve" unicode="&#x114;" horiz-adv-x="1165" 
d="M365 672l-99 -508h684q17 0 17 -21l-25 -123q-3 -20 -24 -20h-844q-17 0 -17 20l273 1393q3 21 24 21h813q17 0 17 -21l-25 -123q-3 -20 -24 -20h-654l-84 -434h592q17 0 17 -21l-25 -123q-3 -20 -25 -20h-591zM584 1815h98q16 0 16 -21q-2 -14 -2 -25q0 -41 26 -64.5
t73 -23.5q56 0 93 31t48 82q6 21 25 21h98q16 0 16 -21q-48 -248 -295 -248q-101 0 -162 60t-61 153q0 21 2 35q3 21 25 21z" />
    <glyph glyph-name="ebreve" unicode="&#x115;" horiz-adv-x="1196" 
d="M1036 465h-798q-5 -35 -5 -53q0 -132 68.5 -206.5t200.5 -74.5q110 0 190.5 45.5t143.5 142.5q12 19 32 19h133q11 0 11 -10q0 -9 -8 -25q-88 -171 -217.5 -247t-307.5 -76q-132 0 -229 62t-145 165.5t-48 234.5q0 120 45 230.5t124 194t193.5 133t246.5 49.5
q191 0 301 -121.5t110 -309.5q0 -51 -10 -100l-6 -33q-6 -20 -25 -20zM637 897q-122 0 -219.5 -71.5t-151.5 -209.5h643q0 135 -70.5 208t-201.5 73zM489 1409h99q16 0 16 -20q-2 -14 -2 -25q0 -42 25.5 -65t72.5 -23q56 0 93.5 31t48.5 82q6 20 24 20h99q16 0 16 -20
q-48 -248 -295 -248q-101 0 -162 60t-61 153q0 21 2 35q3 20 24 20z" />
    <glyph glyph-name="Edotaccent" unicode="&#x116;" horiz-adv-x="1165" 
d="M365 672l-99 -508h684q17 0 17 -21l-25 -123q-3 -20 -24 -20h-844q-17 0 -17 20l273 1393q3 21 24 21h813q17 0 17 -21l-25 -123q-3 -20 -24 -20h-654l-84 -434h592q17 0 17 -21l-25 -123q-3 -20 -25 -20h-591zM659 1642l35 177q3 20 25 20h184q17 0 17 -20l-35 -177
q-3 -20 -25 -20h-184q-17 0 -17 20z" />
    <glyph glyph-name="edotaccent" unicode="&#x117;" horiz-adv-x="1196" 
d="M1036 465h-798q-5 -35 -5 -53q0 -132 68.5 -206.5t200.5 -74.5q110 0 190.5 45.5t143.5 142.5q12 19 32 19h133q11 0 11 -10q0 -9 -8 -25q-88 -171 -217.5 -247t-307.5 -76q-132 0 -229 62t-145 165.5t-48 234.5q0 120 45 230.5t124 194t193.5 133t246.5 49.5
q191 0 301 -121.5t110 -309.5q0 -51 -10 -100l-6 -33q-6 -20 -25 -20zM637 897q-122 0 -219.5 -71.5t-151.5 -209.5h643q0 135 -70.5 208t-201.5 73zM582 1237l34 176q3 21 25 21h184q17 0 17 -21l-35 -176q-3 -20 -25 -20h-184q-16 0 -16 20z" />
    <glyph glyph-name="Eogonek" unicode="&#x118;" horiz-adv-x="1165" 
d="M365 672l-99 -508h684q17 0 17 -21l-25 -123q-3 -17 -20 -20q-60 -14 -106 -53t-46 -99q0 -96 119 -96h24q17 0 17 -20l-12 -70q-3 -20 -25 -20h-72q-98 0 -156.5 42.5t-58.5 125.5q0 60 35.5 109t97.5 81h-665q-17 0 -17 20l273 1393q3 21 24 21h813q17 0 17 -21
l-25 -123q-3 -20 -24 -20h-654l-84 -434h592q17 0 17 -21l-25 -123q-3 -20 -25 -20h-591z" />
    <glyph glyph-name="eogonek" unicode="&#x119;" horiz-adv-x="1196" 
d="M1036 465h-798q-5 -35 -5 -53q0 -132 68.5 -206.5t200.5 -74.5q110 0 190.5 45.5t143.5 142.5q12 19 32 19h133q11 0 11 -10q0 -9 -8 -25q-64 -123 -147 -195.5t-204 -107.5q-59 -14 -106 -54t-47 -98q0 -96 118 -96h25q16 0 16 -20l-12 -70q-3 -20 -24 -20h-72
q-98 0 -156.5 42.5t-58.5 125.5q0 99 102 170q-179 12 -280 142t-101 320q0 120 45 230.5t124 194t193.5 133t246.5 49.5q191 0 301 -121.5t110 -309.5q0 -51 -10 -100l-6 -33q-6 -20 -25 -20zM637 897q-122 0 -219.5 -71.5t-151.5 -209.5h643q0 135 -70.5 208t-201.5 73z
" />
    <glyph glyph-name="Ecaron" unicode="&#x11a;" horiz-adv-x="1165" 
d="M365 672l-99 -508h684q17 0 17 -21l-25 -123q-3 -20 -24 -20h-844q-17 0 -17 20l273 1393q3 21 24 21h813q17 0 17 -21l-25 -123q-3 -20 -24 -20h-654l-84 -434h592q17 0 17 -21l-25 -123q-3 -20 -25 -20h-591zM698 1556l-163 263q-3 0 -3 2v4q0 14 17 14h127
q20 0 33 -18l100 -129l152 129q21 18 40 18h134q12 0 12 -8q0 -6 -6 -12l-267 -263q-16 -16 -34 -16h-115q-17 0 -27 16z" />
    <glyph glyph-name="ecaron" unicode="&#x11b;" horiz-adv-x="1196" 
d="M1036 465h-798q-5 -35 -5 -53q0 -132 68.5 -206.5t200.5 -74.5q110 0 190.5 45.5t143.5 142.5q12 19 32 19h133q11 0 11 -10q0 -9 -8 -25q-88 -171 -217.5 -247t-307.5 -76q-132 0 -229 62t-145 165.5t-48 234.5q0 120 45 230.5t124 194t193.5 133t246.5 49.5
q191 0 301 -121.5t110 -309.5q0 -51 -10 -100l-6 -33q-6 -20 -25 -20zM637 897q-122 0 -219.5 -71.5t-151.5 -209.5h643q0 135 -70.5 208t-201.5 73zM610 1151l-164 262q-2 0 -2 2v4q0 15 17 15h127q19 0 33 -19l100 -129l151 129q22 19 41 19h134q12 0 12 -9q0 -6 -6 -12
l-267 -262q-16 -16 -34 -16h-115q-17 0 -27 16z" />
    <glyph glyph-name="Gcircumflex" unicode="&#x11c;" horiz-adv-x="1474" 
d="M772 729h559q17 0 17 -20l-70 -357q-8 -41 -37 -78q-112 -145 -267 -219.5t-339 -74.5q-118 0 -218 37.5t-176.5 110.5t-119.5 190.5t-43 267.5q0 171 56.5 327.5t157.5 277t254.5 192t334.5 71.5q222 0 365 -116.5t143 -313.5q-6 -20 -27 -20h-135q-21 0 -21 20
q-7 136 -99.5 201t-252.5 65q-130 0 -242.5 -58.5t-188 -156t-118.5 -225t-43 -264.5q0 -207 102.5 -325t292.5 -118q283 0 443 211l43 211h-404q-16 0 -16 21l25 123q3 20 24 20zM1030 1823l164 -262v-2q0 -3 2 -5q0 -14 -16 -14h-127q-19 0 -33 19l-100 129l-152 -129
q-19 -19 -41 -19h-133q-12 0 -12 8q0 7 6 13l266 262q16 16 35 16h115q16 0 26 -16z" />
    <glyph glyph-name="gcircumflex" unicode="&#x11d;" horiz-adv-x="1247" 
d="M406 -426q-170 0 -271.5 82t-101.5 217v35q6 20 24 20h127q17 0 17 -20q0 -94 52 -138t181 -44q277 0 340 331l10 54q-75 -52 -151.5 -79.5t-175.5 -27.5q-167 0 -271 114t-104 328q0 117 39 225.5t109 192.5t178 134.5t237 50.5q105 0 181.5 -37t115.5 -97l19 93
q3 20 24 20h127q16 0 16 -20l-184 -947q-94 -487 -538 -487zM516 156q115 0 202.5 65t131 167t43.5 222q0 136 -67 211.5t-189 75.5q-173 0 -276 -130t-103 -321q0 -140 67 -215t191 -75zM815 1417l164 -262v-2q0 -2 2 -4q0 -14 -16 -14h-127q-20 0 -33 18l-100 129
l-152 -129q-18 -18 -41 -18h-133q-12 0 -12 8q0 6 6 12l266 262q17 17 35 17h114q17 0 27 -17z" />
    <glyph glyph-name="Gbreve" unicode="&#x11e;" horiz-adv-x="1474" 
d="M772 729h559q17 0 17 -20l-70 -357q-8 -41 -37 -78q-112 -145 -267 -219.5t-339 -74.5q-118 0 -218 37.5t-176.5 110.5t-119.5 190.5t-43 267.5q0 171 56.5 327.5t157.5 277t254.5 192t334.5 71.5q222 0 365 -116.5t143 -313.5q-6 -20 -27 -20h-135q-21 0 -21 20
q-7 136 -99.5 201t-252.5 65q-130 0 -242.5 -58.5t-188 -156t-118.5 -225t-43 -264.5q0 -207 102.5 -325t292.5 -118q283 0 443 211l43 211h-404q-16 0 -16 21l25 123q3 20 24 20zM731 1815h98q17 0 17 -21q-2 -14 -2 -25q0 -42 25.5 -65t72.5 -23q56 0 93 31t48 82
q6 21 25 21h98q17 0 17 -21q-48 -248 -295 -248q-101 0 -162 60t-61 153q0 21 2 35q3 21 24 21z" />
    <glyph glyph-name="gbreve" unicode="&#x11f;" horiz-adv-x="1247" 
d="M406 -426q-170 0 -271.5 82t-101.5 217v35q6 20 24 20h127q17 0 17 -20q0 -94 52 -138t181 -44q277 0 340 331l10 54q-75 -52 -151.5 -79.5t-175.5 -27.5q-167 0 -271 114t-104 328q0 117 39 225.5t109 192.5t178 134.5t237 50.5q105 0 181.5 -37t115.5 -97l19 93
q3 20 24 20h127q16 0 16 -20l-184 -947q-94 -487 -538 -487zM516 156q115 0 202.5 65t131 167t43.5 222q0 136 -67 211.5t-189 75.5q-173 0 -276 -130t-103 -321q0 -140 67 -215t191 -75zM510 1409h98q17 0 17 -20q-2 -14 -2 -25q0 -42 25.5 -65t72.5 -23q56 0 93 31t48 82
q6 20 25 20h98q16 0 16 -20q-48 -248 -294 -248q-101 0 -162.5 60.5t-61.5 152.5q0 21 2 35q3 20 25 20z" />
    <glyph glyph-name="Gdotaccent" unicode="&#x120;" horiz-adv-x="1474" 
d="M772 729h559q17 0 17 -20l-70 -357q-8 -41 -37 -78q-112 -145 -267 -219.5t-339 -74.5q-118 0 -218 37.5t-176.5 110.5t-119.5 190.5t-43 267.5q0 171 56.5 327.5t157.5 277t254.5 192t334.5 71.5q222 0 365 -116.5t143 -313.5q-6 -20 -27 -20h-135q-21 0 -21 20
q-7 136 -99.5 201t-252.5 65q-130 0 -242.5 -58.5t-188 -156t-118.5 -225t-43 -264.5q0 -207 102.5 -325t292.5 -118q283 0 443 211l43 211h-404q-16 0 -16 21l25 123q3 20 24 20zM831 1642l35 177q3 20 25 20h184q17 0 17 -20l-35 -177q-3 -20 -25 -20h-184q-17 0 -17 20z
" />
    <glyph glyph-name="gdotaccent" unicode="&#x121;" horiz-adv-x="1247" 
d="M406 -426q-170 0 -271.5 82t-101.5 217v35q6 20 24 20h127q17 0 17 -20q0 -94 52 -138t181 -44q277 0 340 331l10 54q-75 -52 -151.5 -79.5t-175.5 -27.5q-167 0 -271 114t-104 328q0 117 39 225.5t109 192.5t178 134.5t237 50.5q105 0 181.5 -37t115.5 -97l19 93
q3 20 24 20h127q16 0 16 -20l-184 -947q-94 -487 -538 -487zM516 156q115 0 202.5 65t131 167t43.5 222q0 136 -67 211.5t-189 75.5q-173 0 -276 -130t-103 -321q0 -140 67 -215t191 -75zM604 1237l35 176q3 21 25 21h184q16 0 16 -21l-35 -176q-3 -20 -24 -20h-184
q-17 0 -17 20z" />
    <glyph glyph-name="Gcommaaccent" unicode="&#x122;" horiz-adv-x="1474" 
d="M772 729h559q17 0 17 -20l-70 -357q-8 -41 -37 -78q-112 -145 -267 -219.5t-339 -74.5q-118 0 -218 37.5t-176.5 110.5t-119.5 190.5t-43 267.5q0 171 56.5 327.5t157.5 277t254.5 192t334.5 71.5q222 0 365 -116.5t143 -313.5q-6 -20 -27 -20h-135q-21 0 -21 20
q-7 136 -99.5 201t-252.5 65q-130 0 -242.5 -58.5t-188 -156t-118.5 -225t-43 -264.5q0 -207 102.5 -325t292.5 -118q283 0 443 211l43 211h-404q-16 0 -16 21l25 123q3 20 24 20zM471 -393q61 0 82 15.5t31 70.5l4 24h-94q-17 0 -17 21l31 156q3 20 24 20h160q17 0 17 -20
l-43 -216q-17 -81 -54.5 -113t-111.5 -32h-43q-17 0 -17 21l6 32q3 21 25 21z" />
    <glyph glyph-name="gcommaaccent" unicode="&#x123;" horiz-adv-x="1247" 
d="M406 -426q-170 0 -271.5 82t-101.5 217v35q6 20 24 20h127q17 0 17 -20q0 -94 52 -138t181 -44q277 0 340 331l10 54q-75 -52 -151.5 -79.5t-175.5 -27.5q-167 0 -271 114t-104 328q0 117 39 225.5t109 192.5t178 134.5t237 50.5q105 0 181.5 -37t115.5 -97l19 93
q3 20 24 20h127q16 0 16 -20l-184 -947q-94 -487 -538 -487zM516 156q115 0 202.5 65t131 167t43.5 222q0 136 -67 211.5t-189 75.5q-173 0 -276 -130t-103 -321q0 -140 67 -215t191 -75zM844 1505q-62 0 -88 -21.5t-39 -88.5l-8 -43h90q16 0 16 -21l-31 -155
q-3 -21 -24 -21h-172q-17 0 -17 21l45 231q19 98 71.5 135t139.5 37h31q16 0 16 -20l-6 -33q-6 -21 -24 -21z" />
    <glyph glyph-name="Hcircumflex" unicode="&#x124;" horiz-adv-x="1435" 
d="M365 666l-127 -646q-3 -20 -25 -20h-139q-17 0 -17 20l273 1393q3 21 24 21h140q16 0 16 -21l-115 -584h688l115 584q3 21 25 21h139q16 0 16 -21l-272 -1393q-3 -20 -25 -20h-139q-16 0 -16 20l127 646h-688zM1018 1823l164 -262v-2q0 -3 2 -5q0 -14 -17 -14h-127
q-18 0 -32 19l-101 129l-151 -129q-19 -19 -41 -19h-133q-13 0 -13 8q0 7 6 13l267 262q16 16 35 16h114q17 0 27 -16z" />
    <glyph glyph-name="hcircumflex" unicode="&#x125;" horiz-adv-x="1243" 
d="M61 20l273 1393q3 21 24 21h127q17 0 17 -21l-101 -522q179 158 375 158q142 0 221.5 -72t79.5 -197q0 -47 -6 -86l-135 -674q-3 -20 -25 -20h-127q-16 0 -16 20l121 633q8 41 8 82q0 75 -49.5 118.5t-140.5 43.5q-77 0 -154.5 -44.5t-139 -130.5t-83.5 -194l-101 -508
q-3 -20 -24 -20h-127q-17 0 -17 20zM823 1823l164 -262v-2q0 -3 2 -5q0 -14 -16 -14h-127q-19 0 -33 19l-100 129l-152 -129q-19 -19 -41 -19h-133q-12 0 -12 8q0 7 6 13l266 262q16 16 35 16h115q16 0 26 -16z" />
    <glyph glyph-name="Hbar" unicode="&#x126;" horiz-adv-x="1435" 
d="M365 666l-127 -646q-3 -20 -25 -20h-139q-17 0 -17 20l203 1024h-143q-17 0 -17 21l23 111q3 20 24 20h140l43 217q3 21 24 21h140q16 0 16 -21l-43 -217h688l43 217q3 21 25 21h139q16 0 16 -21l-43 -217h142q16 0 16 -20l-23 -111q-3 -21 -24 -21h-141l-199 -1024
q-3 -20 -25 -20h-139q-16 0 -16 20l127 646h-688zM395 829h688l41 215h-688z" />
    <glyph glyph-name="hbar" unicode="&#x127;" horiz-adv-x="1243" 
d="M61 20l218 1106h-136q-16 0 -16 21l18 106q3 21 23 21h139l27 139q3 21 24 21h127q17 0 17 -21l-27 -139h246q16 0 16 -21l-18 -106q-3 -21 -25 -21h-248l-45 -235q179 158 375 158q142 0 220.5 -72t78.5 -197q0 -47 -8 -86l-131 -674q-3 -20 -25 -20h-127q-16 0 -16 20
l123 633q8 41 8 82q0 74 -51 118t-141 44q-77 0 -154.5 -44.5t-139 -130.5t-83.5 -194l-101 -508q-3 -20 -24 -20h-127q-17 0 -17 20z" />
    <glyph glyph-name="Itilde" unicode="&#x128;" horiz-adv-x="567" 
d="M57 20l273 1393q3 21 24 21h140q16 0 16 -21l-272 -1393q-3 -20 -25 -20h-139q-17 0 -17 20zM137 1765q117 74 221 74q49 0 86 -13t55.5 -29t48 -29t66.5 -13q50 0 136 51q12 4 14 4q8 0 18 -16l45 -86v-2q0 -2 2 -4q0 -11 -24 -29q-113 -74 -221 -74q-52 0 -89 13
t-54.5 29t-46.5 29t-66 13q-49 0 -135 -51q-12 -4 -15 -4q-8 0 -18 17l-45 86q-2 0 -2 2v4q0 13 24 28z" />
    <glyph glyph-name="itilde" unicode="&#x129;" horiz-adv-x="548" 
d="M61 20l193 988q3 20 25 20h127q16 0 16 -20l-193 -988q-3 -20 -24 -20h-127q-17 0 -17 20zM68 1360q117 74 221 74q49 0 86 -13t55.5 -29t48 -29t66.5 -13q49 0 135 51q12 4 14 4q9 0 19 -16l45 -86v-3q0 -2 2 -4q0 -9 -25 -28q-113 -74 -221 -74q-52 0 -89 13t-54.5 29
t-46.5 29t-66 13q-49 0 -135 -51q-12 -4 -14 -4q-9 0 -19 16l-45 86q-2 0 -2 2v4q0 13 25 29z" />
    <glyph glyph-name="uni012A" unicode="&#x12a;" horiz-adv-x="567" 
d="M57 20l273 1393q3 21 24 21h140q16 0 16 -21l-272 -1393q-3 -20 -25 -20h-139q-17 0 -17 20zM240 1647l18 102q3 20 25 20h383q16 0 16 -20l-18 -102q-3 -21 -25 -21h-383q-16 0 -16 21z" />
    <glyph glyph-name="imacron" unicode="&#x12b;" horiz-adv-x="548" 
d="M61 20l193 988q3 20 25 20h127q16 0 16 -20l-193 -988q-3 -20 -24 -20h-127q-17 0 -17 20zM162 1241l18 102q3 21 25 21h383q16 0 16 -21l-18 -102q-3 -20 -25 -20h-383q-16 0 -16 20z" />
    <glyph glyph-name="Ibreve" unicode="&#x12c;" horiz-adv-x="567" 
d="M57 20l273 1393q3 21 24 21h140q16 0 16 -21l-272 -1393q-3 -20 -25 -20h-139q-17 0 -17 20zM250 1815h98q17 0 17 -21q-3 -21 -3 -25q0 -41 26 -64.5t73 -23.5q56 0 93 31t48 82q6 21 25 21h98q16 0 16 -21q-48 -248 -295 -248q-101 0 -162 60t-61 153q0 21 2 35
q3 21 25 21z" />
    <glyph glyph-name="uni012D" unicode="&#x12d;" horiz-adv-x="548" 
d="M61 20l193 988q3 20 25 20h127q16 0 16 -20l-193 -988q-3 -20 -24 -20h-127q-17 0 -17 20zM166 1409h98q17 0 17 -20q-2 -14 -2 -25q0 -42 25.5 -65t72.5 -23q56 0 93 31t48 82q6 20 25 20h98q16 0 16 -20q-48 -248 -295 -248q-101 0 -162 60t-61 153q0 21 2 35
q3 20 25 20z" />
    <glyph glyph-name="Iogonek" unicode="&#x12e;" horiz-adv-x="567" 
d="M55 10l275 1403q3 21 24 21h140q16 0 16 -21l-272 -1393q-3 -17 -17 -20q-62 -14 -107.5 -53t-45.5 -99q0 -96 118 -96h25q16 0 16 -20l-12 -70q-3 -20 -25 -20h-71q-98 0 -156.5 42.5t-58.5 125.5q0 65 41 116.5t110 83.5z" />
    <glyph glyph-name="iogonek" unicode="&#x12f;" horiz-adv-x="548" 
d="M61 18l193 990q3 20 25 20h127q16 0 16 -20l-193 -988q-2 -12 -16 -18l-4 -2q-60 -14 -106 -53t-46 -99q0 -96 119 -96h25q16 0 16 -20l-12 -70q-3 -20 -25 -20h-71q-98 0 -156.5 42.5t-58.5 125.5q0 68 48 124t119 84zM266 1217l35 176q3 20 25 20h184q16 0 16 -20
l-34 -176q-3 -21 -25 -21h-184q-17 0 -17 21z" />
    <glyph glyph-name="Idotaccent" unicode="&#x130;" horiz-adv-x="567" 
d="M57 20l273 1393q3 21 24 21h140q16 0 16 -21l-272 -1393q-3 -20 -25 -20h-139q-17 0 -17 20zM348 1642l35 177q3 20 25 20h184q16 0 16 -20l-35 -177q-3 -20 -24 -20h-184q-17 0 -17 20z" />
    <glyph glyph-name="dotlessi" unicode="&#x131;" horiz-adv-x="548" 
d="M61 20l193 988q3 20 25 20h127q16 0 16 -20l-193 -988q-3 -20 -24 -20h-127q-17 0 -17 20z" />
    <glyph glyph-name="IJ" unicode="&#x132;" horiz-adv-x="1693" 
d="M57 20l273 1393q3 21 24 21h140q16 0 16 -21l-272 -1393q-3 -20 -25 -20h-139q-17 0 -17 20zM1640 1413l-178 -907q-30 -153 -80 -257t-121.5 -162.5t-154.5 -82.5t-195 -24q-179 0 -285 100t-106 262q0 50 8 94q3 21 25 21h133q16 0 16 -21q-8 -41 -8 -74
q0 -101 60 -160t174 -59q149 0 232.5 84.5t121.5 276.5l178 909q3 21 25 21h139q16 0 16 -21z" />
    <glyph glyph-name="ij" unicode="&#x133;" horiz-adv-x="1099" 
d="M61 20l193 988q3 20 25 20h127q16 0 16 -20l-193 -988q-3 -20 -24 -20h-127q-17 0 -17 20zM270 1237l35 176q3 21 25 21h184q16 0 16 -21l-34 -176q-3 -20 -25 -20h-184q-17 0 -17 20zM594 -80l211 1088q3 20 24 20h127q17 0 17 -20l-207 -1063q-24 -121 -54.5 -198.5
t-76.5 -156.5q-10 -16 -19 -16q-1 0 -2.5 0.5t-5 1.5t-6.5 2l-110 39q-13 3 -13 12q0 1 4 13q45 79 70 138.5t41 139.5zM821 1237l35 176q3 21 25 21h184q16 0 16 -21l-34 -176q-3 -20 -25 -20h-184q-17 0 -17 20z" />
    <glyph glyph-name="Jcircumflex" unicode="&#x134;" horiz-adv-x="1161" 
d="M1108 1413l-178 -907q-30 -153 -80 -257t-121.5 -162.5t-154.5 -82.5t-195 -24q-179 0 -285 100t-106 262q0 50 8 94q3 21 24 21h134q16 0 16 -21q-8 -41 -8 -74q0 -101 59.5 -160t173.5 -59q150 0 233.5 84.5t121.5 276.5l178 909q3 21 24 21h140q16 0 16 -21z
M1178 1823l163 -262v-2q0 -3 2 -5q0 -14 -16 -14h-127q-19 0 -33 19l-100 129l-152 -129q-19 -19 -41 -19h-133q-12 0 -12 8q0 7 6 13l266 262q16 16 35 16h115q17 0 27 -16z" />
    <glyph glyph-name="jcircumflex" unicode="&#x135;" horiz-adv-x="548" 
d="M43 -80l211 1088q3 20 25 20h127q16 0 16 -20l-207 -1063q-24 -121 -54.5 -198.5t-76.5 -156.5q-10 -16 -18 -16q-1 0 -3 0.5t-5.5 1.5t-6.5 2l-110 39q-13 3 -13 12q0 1 4 13q45 79 70 138.5t41 139.5zM502 1417l164 -262v-2q0 -2 2 -4q0 -14 -17 -14h-127q-19 0 -32 18
l-101 129l-151 -129q-18 -18 -41 -18h-133q-13 0 -13 8q0 6 6 12l267 262q17 17 34 17h115q17 0 27 -17z" />
    <glyph glyph-name="Kcommaaccent" unicode="&#x136;" horiz-adv-x="1282" 
d="M510 1413l-119 -604l684 604q21 21 37 21h176q17 0 17 -13q0 -7 -11 -18l-551 -500l375 -874q2 -2 2 -9q0 -20 -22 -20h-152q-12 0 -18.5 6.5t-12.5 24.5l-321 741l-254 -227l-102 -525q-3 -20 -25 -20h-139q-17 0 -17 20l273 1393q3 21 24 21h140q16 0 16 -21zM393 -393
q61 0 82 15.5t31 70.5l4 24h-94q-17 0 -17 21l31 156q3 20 25 20h159q17 0 17 -20l-43 -216q-17 -81 -54.5 -113t-111.5 -32h-43q-17 0 -17 21l7 32q3 21 24 21z" />
    <glyph glyph-name="kcommaaccent" unicode="&#x137;" horiz-adv-x="1116" 
d="M1079 997l-430 -342l273 -624q2 -4 2 -15q0 -16 -23 -16h-137q-20 0 -29 18l-225 529l-211 -168l-70 -359q-3 -20 -24 -20h-127q-17 0 -17 20l273 1393q3 21 24 21h127q17 0 17 -21l-158 -809l516 406q25 18 37 18h180q15 0 15 -12q0 -9 -13 -19zM322 -393
q61 0 81.5 15.5t30.5 70.5l4 24h-94q-16 0 -16 21l30 156q3 20 25 20h160q16 0 16 -20l-43 -216q-17 -81 -54.5 -113t-111.5 -32h-43q-16 0 -16 21l6 32q3 21 25 21z" />
    <glyph glyph-name="kgreenlandic" unicode="&#x138;" horiz-adv-x="1116" 
d="M1079 997l-430 -342l273 -624q2 -4 2 -15q0 -16 -23 -16h-137q-20 0 -29 18l-225 529l-211 -168l-70 -359q-3 -20 -24 -20h-127q-17 0 -17 20l193 988q3 20 25 20h127q16 0 16 -20l-78 -404l516 406q25 18 37 18h180q15 0 15 -12q0 -9 -13 -19z" />
    <glyph glyph-name="Lacute" unicode="&#x139;" horiz-adv-x="1122" 
d="M57 20l273 1393q3 21 24 21h140q16 0 16 -21l-244 -1249h723q17 0 17 -21l-25 -123q-3 -20 -25 -20h-882q-17 0 -17 20zM365 1561l192 258q14 20 35 20h199q12 0 12 -8q0 -6 -6 -12l-262 -260q-19 -19 -41 -19h-123q-11 0 -11 8q0 3 5 13z" />
    <glyph glyph-name="lacute" unicode="&#x13a;" horiz-adv-x="550" 
d="M61 20l273 1393q3 21 24 21h127q17 0 17 -21l-273 -1393q-3 -20 -24 -20h-127q-17 0 -17 20zM367 1561l192 258q14 20 35 20h199q12 0 12 -8q0 -6 -6 -12l-262 -260q-19 -19 -41 -19h-123q-11 0 -11 8q0 3 5 13z" />
    <glyph glyph-name="Lcommaaccent" unicode="&#x13b;" horiz-adv-x="1122" 
d="M57 20l273 1393q3 21 24 21h140q16 0 16 -21l-244 -1249h723q17 0 17 -21l-25 -123q-3 -20 -25 -20h-882q-17 0 -17 20zM367 -393q61 0 81.5 15.5t30.5 70.5l4 24h-94q-16 0 -16 21l30 156q3 20 25 20h160q16 0 16 -20l-43 -216q-17 -81 -54.5 -113t-111.5 -32h-43
q-16 0 -16 21l6 32q3 21 25 21z" />
    <glyph glyph-name="lcommaaccent" unicode="&#x13c;" horiz-adv-x="550" 
d="M61 20l273 1393q3 21 24 21h127q17 0 17 -21l-273 -1393q-3 -20 -24 -20h-127q-17 0 -17 20zM-18 -393q61 0 81.5 15.5t30.5 70.5l4 24h-94q-16 0 -16 21l30 156q3 20 25 20h160q16 0 16 -20l-43 -216q-17 -81 -54.5 -113t-111.5 -32h-43q-16 0 -16 21l6 32q3 21 25 21z
" />
    <glyph glyph-name="Lcaron" unicode="&#x13d;" horiz-adv-x="1122" 
d="M57 20l273 1393q3 21 24 21h140q16 0 16 -21l-244 -1249h723q17 0 17 -21l-25 -123q-3 -20 -25 -20h-882q-17 0 -17 20zM784 1083q62 0 88 22t39 89l9 43h-91q-16 0 -16 20l31 156q3 21 24 21h172q17 0 17 -21l-45 -231q-19 -98 -71.5 -135t-139.5 -37h-31q-16 0 -16 20
l6 33q6 20 24 20z" />
    <glyph glyph-name="lcaron" unicode="&#x13e;" horiz-adv-x="874" 
d="M61 20l273 1393q3 21 24 21h127q17 0 17 -21l-273 -1393q-3 -20 -24 -20h-127q-17 0 -17 20zM664 1083q62 0 88 22t39 89l8 43h-90q-17 0 -17 20l31 156q3 21 25 21h172q16 0 16 -21l-45 -231q-19 -98 -71.5 -135t-139.5 -37h-31q-16 0 -16 20l6 33q6 20 25 20z" />
    <glyph glyph-name="Ldot" unicode="&#x13f;" horiz-adv-x="1122" 
d="M57 20l273 1393q3 21 24 21h140q16 0 16 -21l-244 -1249h723q17 0 17 -21l-25 -123q-3 -20 -25 -20h-882q-17 0 -17 20zM682 811h160q16 0 16 -20l-31 -156q-3 -21 -24 -21h-160q-16 0 -16 21l30 156q3 20 25 20z" />
    <glyph glyph-name="ldot" unicode="&#x140;" horiz-adv-x="831" 
d="M61 20l273 1393q3 21 24 21h127q17 0 17 -21l-273 -1393q-3 -20 -24 -20h-127q-17 0 -17 20zM594 811h160q16 0 16 -20l-31 -156q-3 -21 -24 -21h-160q-16 0 -16 21l30 156q3 20 25 20z" />
    <glyph glyph-name="Lslash" unicode="&#x141;" horiz-adv-x="1161" 
d="M117 20l92 474l-113 -54q-2 -2 -4 -2h-6q-10 0 -16 13l-52 98q-2 4 -2 10q0 12 17 19l213 102l143 733q3 21 25 21h139q16 0 16 -21l-125 -637l293 142q4 2 13 2q8 0 14 -13l51 -98q2 -2 2 -8q0 -15 -16 -21l-393 -190l-82 -426h702q16 0 16 -21l-24 -123q-3 -20 -25 -20
h-862q-16 0 -16 20z" />
    <glyph glyph-name="lslash" unicode="&#x142;" horiz-adv-x="724" 
d="M133 20l105 541l-154 -74l-12 -4q-9 0 -15 15l-43 88l-4 12q0 12 13 18l249 119l134 678q3 21 24 21h127q16 0 16 -21l-116 -588l159 76q12 4 13 4q6 0 14 -14l45 -92q2 -2 2 -8q0 -15 -16 -21l-250 -119l-123 -631q-3 -20 -25 -20h-126q-17 0 -17 20z" />
    <glyph glyph-name="Nacute" unicode="&#x143;" horiz-adv-x="1468" 
d="M1114 0h-156q-25 0 -28 16l-469 1147l-223 -1143q-3 -20 -25 -20h-139q-17 0 -17 20l273 1393q3 21 24 21h156q26 0 29 -17l469 -1147l223 1143q3 21 24 21h140q16 0 16 -21l-272 -1393q-3 -20 -25 -20zM774 1561l193 258q14 20 34 20h199q12 0 12 -8q0 -6 -6 -12
l-262 -260q-19 -19 -41 -19h-123q-10 0 -10 8q0 5 4 13z" />
    <glyph glyph-name="nacute" unicode="&#x144;" horiz-adv-x="1218" 
d="M61 20l191 988q6 20 24 20h127q17 0 17 -20l-23 -117q80 79 161 118.5t190 39.5q147 0 226 -70t79 -199q0 -20 -13 -104l-127 -656q-3 -20 -24 -20h-127q-17 0 -17 20l123 631q9 47 9 78q0 168 -187 168q-120 0 -223.5 -98t-138.5 -275l-99 -504q-6 -20 -24 -20h-127
q-17 0 -17 20zM590 1155l192 258q15 21 35 21h199q12 0 12 -9q0 -6 -6 -12l-262 -260q-18 -18 -41 -18h-123q-10 0 -10 8q0 4 4 12z" />
    <glyph glyph-name="Ncommaaccent" unicode="&#x145;" horiz-adv-x="1468" 
d="M1114 0h-156q-25 0 -28 16l-469 1147l-223 -1143q-3 -20 -25 -20h-139q-17 0 -17 20l273 1393q3 21 24 21h156q26 0 29 -17l469 -1147l223 1143q3 21 24 21h140q16 0 16 -21l-272 -1393q-3 -20 -25 -20zM449 -393q61 0 81.5 15.5t30.5 70.5l4 24h-94q-16 0 -16 21l30 156
q3 20 25 20h160q16 0 16 -20l-43 -216q-17 -81 -54.5 -113t-111.5 -32h-43q-16 0 -16 21l6 32q3 21 25 21z" />
    <glyph glyph-name="ncommaaccent" unicode="&#x146;" horiz-adv-x="1218" 
d="M61 20l191 988q6 20 24 20h127q17 0 17 -20l-23 -117q80 79 161 118.5t190 39.5q147 0 226 -70t79 -199q0 -20 -13 -104l-127 -656q-3 -20 -24 -20h-127q-17 0 -17 20l123 631q9 47 9 78q0 168 -187 168q-120 0 -223.5 -98t-138.5 -275l-99 -504q-6 -20 -24 -20h-127
q-17 0 -17 20zM342 -393q61 0 82 15.5t31 70.5l4 24h-94q-17 0 -17 21l31 156q3 20 24 20h160q17 0 17 -20l-43 -216q-17 -81 -54.5 -113t-111.5 -32h-43q-17 0 -17 21l6 32q3 21 25 21z" />
    <glyph glyph-name="Ncaron" unicode="&#x147;" horiz-adv-x="1468" 
d="M1114 0h-156q-25 0 -28 16l-469 1147l-223 -1143q-3 -20 -25 -20h-139q-17 0 -17 20l273 1393q3 21 24 21h156q26 0 29 -17l469 -1147l223 1143q3 21 24 21h140q16 0 16 -21l-272 -1393q-3 -20 -25 -20zM776 1556l-164 263q-2 0 -2 2v4q0 14 17 14h127q19 0 32 -18
l101 -129l151 129q21 18 41 18h133q13 0 13 -8q0 -6 -6 -12l-267 -263q-16 -16 -34 -16h-115q-17 0 -27 16z" />
    <glyph glyph-name="ncaron" unicode="&#x148;" horiz-adv-x="1218" 
d="M61 20l191 988q6 20 24 20h127q17 0 17 -20l-23 -117q80 79 161 118.5t190 39.5q147 0 226 -70t79 -199q0 -20 -13 -104l-127 -656q-3 -20 -24 -20h-127q-17 0 -17 20l123 631q9 47 9 78q0 168 -187 168q-120 0 -223.5 -98t-138.5 -275l-99 -504q-6 -20 -24 -20h-127
q-17 0 -17 20zM612 1151l-163 262q-3 0 -3 2v4q0 15 17 15h127q19 0 33 -19l100 -129l151 129q22 19 41 19h134q12 0 12 -9q0 -6 -6 -12l-267 -262q-16 -16 -34 -16h-115q-17 0 -27 16z" />
    <glyph glyph-name="napostrophe" unicode="&#x149;" horiz-adv-x="1390" 
d="M233 20l191 988q6 20 25 20h126q17 0 17 -20l-23 -117q80 79 161 118.5t190 39.5q147 0 226 -70t79 -199q0 -20 -13 -104l-127 -656q-3 -20 -24 -20h-127q-16 0 -16 20l122 631q9 47 9 78q0 168 -187 168q-120 0 -223.5 -98t-138.5 -275l-99 -504q-6 -20 -24 -20h-127
q-17 0 -17 20zM123 1145q62 0 88 21.5t39 88.5l8 43h-90q-16 0 -16 21l30 156q3 20 25 20h172q16 0 16 -20l-45 -232q-19 -98 -71.5 -135t-139.5 -37h-30q-17 0 -17 21l6 32q6 21 25 21z" />
    <glyph glyph-name="Eng" unicode="&#x14a;" horiz-adv-x="1468" 
d="M1020 328l211 1085q3 21 24 21h140q16 0 16 -21l-278 -1427q-18 -90 -40.5 -153.5t-56.5 -110.5t-73 -75t-98 -44.5t-124 -22.5t-159 -6q-17 0 -17 20l25 123q3 21 24 21q70 0 114.5 5.5t84.5 20t64.5 44.5t44 76t34.5 116l2 10l-499 1153l-221 -1143q-3 -20 -25 -20
h-139q-17 0 -17 20l271 1393q3 21 24 21h166q19 0 29 -17z" />
    <glyph glyph-name="eng" unicode="&#x14b;" horiz-adv-x="1218" 
d="M727 -80l141 731q9 47 9 78q0 168 -187 168q-120 0 -223.5 -98t-138.5 -275l-99 -504q-6 -20 -24 -20h-127q-17 0 -17 20l191 988q6 20 24 20h127q17 0 17 -20l-23 -117q80 79 161 118.5t190 39.5q148 0 226.5 -70t78.5 -201q0 -35 -13 -102l-141 -731
q-23 -116 -54.5 -196.5t-76.5 -158.5q-10 -16 -18 -16q-1 0 -3 0.5t-5.5 1.5t-6.5 2l-110 39q-13 3 -13 12q0 1 4 13q45 79 70 138.5t41 139.5z" />
    <glyph glyph-name="Omacron" unicode="&#x14c;" horiz-adv-x="1538" 
d="M670 -20q-271 0 -431.5 162.5t-160.5 439.5q0 134 33.5 261.5t101 238t160.5 194t220.5 131t272.5 47.5q271 0 431.5 -162.5t160.5 -439.5q0 -134 -33.5 -261.5t-101 -238t-160.5 -194t-220.5 -131t-272.5 -47.5zM680 143q134 0 247.5 58t188.5 155t116.5 222.5
t41.5 261.5q0 213 -112 331.5t-306 118.5q-134 0 -247.5 -58t-188.5 -154.5t-116.5 -222t-41.5 -261.5q0 -213 112 -332t306 -119zM709 1647l18 102q3 20 25 20h383q16 0 16 -20l-18 -102q-3 -21 -25 -21h-383q-16 0 -16 21z" />
    <glyph glyph-name="omacron" unicode="&#x14d;" horiz-adv-x="1245" 
d="M57 403q0 132 45.5 250t125 205.5t195.5 139t251 51.5q199 0 319.5 -117t120.5 -307q0 -176 -77 -323t-219 -234.5t-320 -87.5q-199 0 -320 116.5t-121 306.5zM655 897q-120 0 -217.5 -65t-151 -174.5t-53.5 -239.5q0 -134 76.5 -210.5t206.5 -76.5q120 0 217.5 65
t151 174.5t53.5 239.5q0 134 -76.5 210.5t-206.5 76.5zM518 1241l19 102q3 21 24 21h383q17 0 17 -21l-19 -102q-3 -20 -24 -20h-383q-17 0 -17 20z" />
    <glyph glyph-name="Obreve" unicode="&#x14e;" horiz-adv-x="1538" 
d="M670 -20q-271 0 -431.5 162.5t-160.5 439.5q0 134 33.5 261.5t101 238t160.5 194t220.5 131t272.5 47.5q271 0 431.5 -162.5t160.5 -439.5q0 -134 -33.5 -261.5t-101 -238t-160.5 -194t-220.5 -131t-272.5 -47.5zM680 143q134 0 247.5 58t188.5 155t116.5 222.5
t41.5 261.5q0 213 -112 331.5t-306 118.5q-134 0 -247.5 -58t-188.5 -154.5t-116.5 -222t-41.5 -261.5q0 -213 112 -332t306 -119zM725 1815h98q17 0 17 -21q-2 -14 -2 -25q0 -42 25.5 -65t72.5 -23q56 0 93 31t48 82q6 21 25 21h98q17 0 17 -21q-48 -248 -295 -248
q-101 0 -162.5 60.5t-61.5 152.5q0 21 2 35q3 21 25 21z" />
    <glyph glyph-name="obreve" unicode="&#x14f;" horiz-adv-x="1245" 
d="M57 403q0 132 45.5 250t125 205.5t195.5 139t251 51.5q199 0 319.5 -117t120.5 -307q0 -176 -77 -323t-219 -234.5t-320 -87.5q-199 0 -320 116.5t-121 306.5zM655 897q-120 0 -217.5 -65t-151 -174.5t-53.5 -239.5q0 -134 76.5 -210.5t206.5 -76.5q120 0 217.5 65
t151 174.5t53.5 239.5q0 134 -76.5 210.5t-206.5 76.5zM510 1409h98q17 0 17 -20q-2 -14 -2 -25q0 -42 25.5 -65t72.5 -23q56 0 93 31t48 82q6 20 25 20h98q16 0 16 -20q-48 -248 -294 -248q-101 0 -162.5 60.5t-61.5 152.5q0 21 2 35q3 20 25 20z" />
    <glyph glyph-name="Ohungarumlaut" unicode="&#x150;" horiz-adv-x="1538" 
d="M670 -20q-271 0 -431.5 162.5t-160.5 439.5q0 134 33.5 261.5t101 238t160.5 194t220.5 131t272.5 47.5q271 0 431.5 -162.5t160.5 -439.5q0 -134 -33.5 -261.5t-101 -238t-160.5 -194t-220.5 -131t-272.5 -47.5zM680 143q134 0 247.5 58t188.5 155t116.5 222.5
t41.5 261.5q0 213 -112 331.5t-306 118.5q-134 0 -247.5 -58t-188.5 -154.5t-116.5 -222t-41.5 -261.5q0 -213 112 -332t306 -119zM590 1561l192 258q14 20 35 20h199q12 0 12 -8q0 -6 -6 -12l-262 -260q-19 -19 -41 -19h-123q-10 0 -10 8q0 5 4 13zM979 1561l192 258
q14 20 35 20h199q12 0 12 -8q0 -6 -6 -12l-262 -260q-19 -19 -41 -19h-123q-10 0 -10 8q0 5 4 13z" />
    <glyph glyph-name="ohungarumlaut" unicode="&#x151;" horiz-adv-x="1245" 
d="M57 403q0 132 45.5 250t125 205.5t195.5 139t251 51.5q199 0 319.5 -117t120.5 -307q0 -176 -77 -323t-219 -234.5t-320 -87.5q-199 0 -320 116.5t-121 306.5zM655 897q-120 0 -217.5 -65t-151 -174.5t-53.5 -239.5q0 -134 76.5 -210.5t206.5 -76.5q120 0 217.5 65
t151 174.5t53.5 239.5q0 134 -76.5 210.5t-206.5 76.5zM354 1155l193 258q15 21 35 21h198q13 0 13 -9q0 -5 -7 -12l-262 -260q-18 -18 -41 -18h-123q-10 0 -10 8q0 4 4 12zM743 1155l193 258q15 21 35 21h198q13 0 13 -9q0 -6 -6 -12l-263 -260q-18 -18 -41 -18h-122
q-11 0 -11 8q0 4 4 12z" />
    <glyph glyph-name="OE" unicode="&#x152;" horiz-adv-x="2242" 
d="M670 -20q-271 0 -431.5 162.5t-160.5 439.5q0 134 33.5 261.5t101 238t160.5 194t220.5 131t272.5 47.5q171 0 298 -64t202 -186l41 209q3 21 25 21h813q16 0 16 -21l-25 -123q-3 -20 -24 -20h-653l-84 -434h591q17 0 17 -21l-25 -123q-3 -20 -24 -20h-592l-99 -508h685
q16 0 16 -21l-25 -123q-3 -20 -24 -20h-844q-16 0 -16 20l26 138q-206 -178 -491 -178zM680 143q134 0 248 58t189 155t117 222.5t42 261.5q0 213 -113 331.5t-307 118.5q-134 0 -247.5 -58t-188.5 -154.5t-116.5 -222t-41.5 -261.5q0 -213 112 -332t306 -119z" />
    <glyph glyph-name="oe" unicode="&#x153;" horiz-adv-x="2070" 
d="M1911 465h-803q-4 -28 -4 -53q0 -132 69.5 -206.5t202.5 -74.5q110 0 190.5 45.5t143.5 142.5q12 19 33 19h133q10 0 10 -10q0 -9 -8 -25q-88 -172 -217 -247.5t-307 -75.5q-135 0 -230.5 61.5t-144.5 169.5q-88 -109 -210 -170t-271 -61q-199 0 -320 116.5t-121 306.5
q0 132 45.5 250t125 205.5t195.5 139t251 51.5q138 0 239.5 -58t153.5 -162q85 103 205.5 161.5t267.5 58.5q191 0 301.5 -122t110.5 -309q0 -51 -10 -100l-7 -33q-6 -20 -24 -20zM655 897q-120 0 -217.5 -65t-151 -174.5t-53.5 -239.5q0 -134 76.5 -210.5t206.5 -76.5
q120 0 217 65t150 174.5t53 239.5q0 134 -75.5 210.5t-205.5 76.5zM1511 897q-122 0 -220 -71.5t-152 -209.5h645q0 135 -71 208t-202 73z" />
    <glyph glyph-name="Racute" unicode="&#x154;" horiz-adv-x="1300" 
d="M57 20l273 1393q3 21 24 21h514q173 0 272 -83t99 -229q0 -164 -91 -272t-259 -156l182 -671q2 -4 2 -13q0 -10 -16 -10h-150q-18 0 -24 20l-176 656h-340l-129 -656q-3 -20 -25 -20h-139q-17 0 -17 20zM481 1270l-84 -430h365q129 0 213 65t84 189q0 176 -213 176h-365z
M621 1561l192 258q14 20 35 20h199q12 0 12 -8q0 -6 -6 -12l-262 -260q-19 -19 -41 -19h-123q-11 0 -11 8q0 3 5 13z" />
    <glyph glyph-name="racute" unicode="&#x155;" horiz-adv-x="905" 
d="M911 979l-24 -123q-3 -22 -25 -22q-11 0 -24 8q-89 55 -179 55q-110 0 -202 -92t-117 -227l-109 -558q-6 -20 -24 -20h-127q-17 0 -17 20l191 988q6 20 25 20h127q16 0 16 -20l-19 -103q63 66 148 105t178 39q94 0 160 -31q24 -9 24 -25q0 -8 -2 -14zM471 1155l193 258
q15 21 34 21h199q12 0 12 -9q0 -6 -6 -12l-262 -260q-18 -18 -41 -18h-123q-10 0 -10 8q0 4 4 12z" />
    <glyph glyph-name="Rcommaaccent" unicode="&#x156;" horiz-adv-x="1300" 
d="M57 20l273 1393q3 21 24 21h514q173 0 272 -83t99 -229q0 -164 -91 -272t-259 -156l182 -671q2 -4 2 -13q0 -10 -16 -10h-150q-18 0 -24 20l-176 656h-340l-129 -656q-3 -20 -25 -20h-139q-17 0 -17 20zM481 1270l-84 -430h365q129 0 213 65t84 189q0 176 -213 176h-365z
M397 -393q61 0 82 15.5t31 70.5l4 24h-94q-17 0 -17 21l31 156q3 20 25 20h159q17 0 17 -20l-43 -216q-17 -81 -54.5 -113t-111.5 -32h-43q-16 0 -16 21l6 32q3 21 24 21z" />
    <glyph glyph-name="rcommaaccent" unicode="&#x157;" horiz-adv-x="905" 
d="M911 979l-24 -123q-3 -22 -25 -22q-11 0 -24 8q-89 55 -179 55q-110 0 -202 -92t-117 -227l-109 -558q-6 -20 -24 -20h-127q-17 0 -17 20l191 988q6 20 25 20h127q16 0 16 -20l-19 -103q63 66 148 105t178 39q94 0 160 -31q24 -9 24 -25q0 -8 -2 -14zM121 -393
q61 0 81.5 15.5t30.5 70.5l5 24h-95q-16 0 -16 21l31 156q3 20 24 20h160q16 0 16 -20l-43 -216q-17 -81 -54 -113t-111 -32h-44q-16 0 -16 21l6 32q3 21 25 21z" />
    <glyph glyph-name="Rcaron" unicode="&#x158;" horiz-adv-x="1300" 
d="M57 20l273 1393q3 21 24 21h514q173 0 272 -83t99 -229q0 -164 -91 -272t-259 -156l182 -671q2 -4 2 -13q0 -10 -16 -10h-150q-18 0 -24 20l-176 656h-340l-129 -656q-3 -20 -25 -20h-139q-17 0 -17 20zM481 1270l-84 -430h365q129 0 213 65t84 189q0 176 -213 176h-365z
M651 1556l-164 263q-2 0 -2 2v4q0 14 17 14h127q20 0 33 -18l100 -129l151 129q21 18 41 18h133q13 0 13 -8q0 -6 -6 -12l-267 -263q-16 -16 -34 -16h-115q-17 0 -27 16z" />
    <glyph glyph-name="rcaron" unicode="&#x159;" horiz-adv-x="905" 
d="M911 979l-24 -123q-3 -22 -25 -22q-11 0 -24 8q-89 55 -179 55q-110 0 -202 -92t-117 -227l-109 -558q-6 -20 -24 -20h-127q-17 0 -17 20l191 988q6 20 25 20h127q16 0 16 -20l-19 -103q63 66 148 105t178 39q94 0 160 -31q24 -9 24 -25q0 -8 -2 -14zM520 1151l-164 262
q-2 0 -2 2v4q0 15 17 15h127q18 0 32 -19l101 -129l151 129q22 19 41 19h133q13 0 13 -9q0 -6 -6 -12l-267 -262q-16 -16 -34 -16h-115q-17 0 -27 16z" />
    <glyph glyph-name="Sacute" unicode="&#x15a;" horiz-adv-x="1206" 
d="M178 1020q0 106 42.5 190t115.5 136.5t167.5 80t203.5 27.5q206 0 321 -101.5t115 -250.5q0 -29 -2 -47q-3 -21 -25 -21h-135q-16 0 -16 21q2 14 2 30q0 95 -72.5 150t-204.5 55q-57 0 -112 -12t-106 -37.5t-82.5 -73.5t-31.5 -112q0 -97 75 -151t251 -101
q95 -27 161.5 -55.5t124 -70t86.5 -99.5t29 -132q0 -231 -155 -348.5t-422 -117.5q-127 0 -234 47t-172 135.5t-65 199.5q0 55 4 72q3 21 25 21h135q16 0 16 -21q-4 -32 -4 -45q0 -112 81.5 -179t231.5 -67q166 0 272.5 71t106.5 200q0 96 -80.5 150t-244.5 93
q-87 19 -157.5 49t-126.5 73.5t-87 104.5t-31 136zM592 1561l192 258q14 20 35 20h199q12 0 12 -8q0 -6 -6 -12l-262 -260q-19 -19 -41 -19h-123q-10 0 -10 8q0 5 4 13z" />
    <glyph glyph-name="sacute" unicode="&#x15b;" horiz-adv-x="1036" 
d="M872 330q0 -72 -24.5 -130.5t-67.5 -99t-102 -68t-127 -40t-145 -12.5q-166 0 -268.5 85.5t-102.5 219.5v28q0 21 20 21h131q17 0 17 -21q0 -90 53.5 -136t171.5 -46q45 0 87.5 8t85.5 25.5t69 52.5t26 84q0 62 -63 100.5t-201 61.5q-143 25 -223 93t-80 167q0 84 35 148
t96 102t137 57t164 19q169 0 265 -82.5t96 -212.5q0 -21 -25 -21h-115q-13 0 -16 21q-7 74 -69.5 108.5t-155.5 34.5q-46 0 -86.5 -7.5t-77.5 -24t-58.5 -48t-21.5 -74.5q0 -64 56.5 -95.5t199.5 -59.5q70 -13 123.5 -32t100 -48.5t71 -74t24.5 -103.5zM471 1155l193 258
q15 21 34 21h199q12 0 12 -9q0 -6 -6 -12l-262 -260q-18 -18 -41 -18h-123q-10 0 -10 8q0 4 4 12z" />
    <glyph glyph-name="Scircumflex" unicode="&#x15c;" horiz-adv-x="1206" 
d="M178 1020q0 106 42.5 190t115.5 136.5t167.5 80t203.5 27.5q206 0 321 -101.5t115 -250.5q0 -29 -2 -47q-3 -21 -25 -21h-135q-16 0 -16 21q2 14 2 30q0 95 -72.5 150t-204.5 55q-57 0 -112 -12t-106 -37.5t-82.5 -73.5t-31.5 -112q0 -97 75 -151t251 -101
q95 -27 161.5 -55.5t124 -70t86.5 -99.5t29 -132q0 -231 -155 -348.5t-422 -117.5q-127 0 -234 47t-172 135.5t-65 199.5q0 55 4 72q3 21 25 21h135q16 0 16 -21q-4 -32 -4 -45q0 -112 81.5 -179t231.5 -67q166 0 272.5 71t106.5 200q0 96 -80.5 150t-244.5 93
q-87 19 -157.5 49t-126.5 73.5t-87 104.5t-31 136zM899 1823l164 -262v-2q0 -3 2 -5q0 -14 -16 -14h-127q-19 0 -33 19l-101 129l-151 -129q-19 -19 -41 -19h-133q-12 0 -12 8q0 7 6 13l266 262q16 16 35 16h114q17 0 27 -16z" />
    <glyph glyph-name="scircumflex" unicode="&#x15d;" horiz-adv-x="1036" 
d="M872 330q0 -72 -24.5 -130.5t-67.5 -99t-102 -68t-127 -40t-145 -12.5q-166 0 -268.5 85.5t-102.5 219.5v28q0 21 20 21h131q17 0 17 -21q0 -90 53.5 -136t171.5 -46q45 0 87.5 8t85.5 25.5t69 52.5t26 84q0 62 -63 100.5t-201 61.5q-143 25 -223 93t-80 167q0 84 35 148
t96 102t137 57t164 19q169 0 265 -82.5t96 -212.5q0 -21 -25 -21h-115q-13 0 -16 21q-7 74 -69.5 108.5t-155.5 34.5q-46 0 -86.5 -7.5t-77.5 -24t-58.5 -48t-21.5 -74.5q0 -64 56.5 -95.5t199.5 -59.5q70 -13 123.5 -32t100 -48.5t71 -74t24.5 -103.5zM748 1417l163 -262
v-2q0 -2 2 -4q0 -14 -16 -14h-127q-20 0 -33 18l-100 129l-152 -129q-18 -18 -41 -18h-133q-12 0 -12 8q0 6 6 12l266 262q17 17 35 17h115q17 0 27 -17z" />
    <glyph glyph-name="Scedilla" unicode="&#x15e;" horiz-adv-x="1206" 
d="M365 -211l-25 27q-2 2 -2 6q0 7 6 16l74 148q-166 26 -273.5 126t-107.5 250q0 55 4 72q3 21 25 21h135q16 0 16 -21q-4 -32 -4 -45q0 -112 81.5 -179t231.5 -67q166 0 272.5 71t106.5 200q0 96 -80.5 150t-244.5 93q-87 19 -157.5 49t-126.5 73.5t-87 104.5t-31 136
q0 106 42.5 190t115.5 136.5t167.5 80t203.5 27.5q206 0 321 -101.5t115 -250.5q0 -29 -2 -47q-3 -21 -25 -21h-135q-16 0 -16 21q2 14 2 30q0 95 -72.5 150t-204.5 55q-57 0 -112 -12t-106 -37.5t-82.5 -73.5t-31.5 -112q0 -97 75 -151t251 -101q95 -27 161.5 -55.5
t124 -70t86.5 -99.5t29 -132q0 -224 -146.5 -342.5t-401.5 -123.5l-64 -105q54 14 117 14q72 0 109.5 -29t37.5 -85q0 -98 -74 -149.5t-190 -51.5q-121 0 -188 20q-19 6 -19 19l10 61q3 21 25 21l53 -11q54 -12 123 -12q44 0 83.5 17.5t39.5 56.5q0 53 -96 53
q-53 0 -111 -14q-4 -2 -14 -2q-8 0 -14 6z" />
    <glyph glyph-name="scedilla" unicode="&#x15f;" horiz-adv-x="1036" 
d="M55 334h131q17 0 17 -21q0 -90 53.5 -136t171.5 -46q45 0 87.5 8t85.5 25.5t69 52.5t26 84q0 62 -63 100.5t-201 61.5q-146 25 -224.5 93t-78.5 167q0 84 35 148t97 102t139 57t167 19q165 0 260 -83t95 -212q0 -21 -25 -21h-115q-13 0 -16 21q-7 74 -69.5 108.5
t-155.5 34.5q-46 0 -86.5 -7.5t-77.5 -24t-58.5 -48t-21.5 -74.5q0 -64 56.5 -95.5t199.5 -59.5q70 -13 123.5 -32t100 -48.5t71 -74t24.5 -103.5q0 -84 -32.5 -149t-90.5 -106t-131 -64t-161 -29l-66 -107q54 14 117 14q72 0 109.5 -29t37.5 -85q0 -98 -74 -149.5
t-190 -51.5q-121 0 -188 20q-19 6 -19 19l11 61q3 21 24 21l53 -11q54 -12 123 -12q44 0 83.5 17.5t39.5 56.5q0 53 -96 53q-53 0 -111 -14q-4 -2 -14 -2q-8 0 -14 6l-25 27q-2 2 -2 6q0 7 6 16l74 146q-139 17 -220 99t-81 200v30q0 21 20 21z" />
    <glyph glyph-name="Scaron" unicode="&#x160;" horiz-adv-x="1206" 
d="M178 1020q0 106 42.5 190t115.5 136.5t167.5 80t203.5 27.5q206 0 321 -101.5t115 -250.5q0 -29 -2 -47q-3 -21 -25 -21h-135q-16 0 -16 21q2 14 2 30q0 95 -72.5 150t-204.5 55q-57 0 -112 -12t-106 -37.5t-82.5 -73.5t-31.5 -112q0 -97 75 -151t251 -101
q95 -27 161.5 -55.5t124 -70t86.5 -99.5t29 -132q0 -231 -155 -348.5t-422 -117.5q-127 0 -234 47t-172 135.5t-65 199.5q0 55 4 72q3 21 25 21h135q16 0 16 -21q-4 -32 -4 -45q0 -112 81.5 -179t231.5 -67q166 0 272.5 71t106.5 200q0 96 -80.5 150t-244.5 93
q-87 19 -157.5 49t-126.5 73.5t-87 104.5t-31 136zM653 1556l-164 263q-2 0 -2 2v4q0 14 17 14h127q20 0 33 -18l100 -129l151 129q21 18 41 18h134q12 0 12 -8q0 -6 -6 -12l-267 -263q-16 -16 -34 -16h-115q-17 0 -27 16z" />
    <glyph glyph-name="scaron" unicode="&#x161;" horiz-adv-x="1036" 
d="M872 330q0 -72 -24.5 -130.5t-67.5 -99t-102 -68t-127 -40t-145 -12.5q-166 0 -268.5 85.5t-102.5 219.5v28q0 21 20 21h131q17 0 17 -21q0 -90 53.5 -136t171.5 -46q45 0 87.5 8t85.5 25.5t69 52.5t26 84q0 62 -63 100.5t-201 61.5q-143 25 -223 93t-80 167q0 84 35 148
t96 102t137 57t164 19q169 0 265 -82.5t96 -212.5q0 -21 -25 -21h-115q-13 0 -16 21q-7 74 -69.5 108.5t-155.5 34.5q-46 0 -86.5 -7.5t-77.5 -24t-58.5 -48t-21.5 -74.5q0 -64 56.5 -95.5t199.5 -59.5q70 -13 123.5 -32t100 -48.5t71 -74t24.5 -103.5zM506 1151l-164 262
q-2 0 -2 2v4q0 15 16 15h127q19 0 33 -19l100 -129l152 129q22 19 41 19h133q12 0 12 -9q0 -6 -6 -12l-266 -262q-16 -16 -35 -16h-115q-16 0 -26 16z" />
    <glyph glyph-name="uni0162" unicode="&#x162;" horiz-adv-x="1058" 
d="M254 -211l-25 27q-2 2 -2 6q0 7 6 16l82 162h-8q-16 0 -16 20l244 1250h-406q-16 0 -16 20l24 123q3 21 25 21h991q16 0 16 -21l-24 -123q-3 -20 -25 -20h-405l-244 -1250q-3 -20 -25 -20h-8l-76 -125q54 14 117 14q72 0 110 -29.5t38 -84.5q0 -98 -74 -149.5t-191 -51.5
q-121 0 -188 20q-18 6 -18 19l10 61q3 21 24 21l54 -11q54 -12 123 -12q44 0 83 17.5t39 56.5q0 53 -96 53q-52 0 -110 -14q-4 -2 -15 -2q-8 0 -14 6z" />
    <glyph glyph-name="uni0163" unicode="&#x163;" horiz-adv-x="845" 
d="M174 -211l-24 27q-3 3 -3 6q0 6 7 16l86 170q-111 52 -111 195q0 36 16 119l109 555h-174q-17 0 -17 20l21 111q6 20 25 20h174l57 295q3 20 25 20h127q16 0 16 -20l-57 -295h340q16 0 16 -20l-21 -111q-6 -20 -24 -20h-340l-111 -570q-6 -30 -6 -59q0 -117 133 -117
q97 0 201 35q4 2 14 2q13 0 13 -18l-21 -101q-1 -3 -3 -9.5t-3 -9t-3 -6.5t-5 -6t-8 -4q-93 -34 -236 -34q-25 0 -39 2l-65 -107q54 14 116 14q72 0 110 -29.5t38 -84.5q0 -98 -74 -149.5t-190 -51.5q-122 0 -189 20q-18 6 -18 19l10 61q3 21 25 21q7 0 27.5 -6t59.5 -11.5
t89 -5.5q44 0 83.5 17.5t39.5 56.5q0 53 -97 53q-52 0 -110 -14q-4 -2 -15 -2q-8 0 -14 6z" />
    <glyph glyph-name="Tcaron" unicode="&#x164;" horiz-adv-x="1058" 
d="M113 1290l24 123q3 21 25 21h991q16 0 16 -21l-24 -123q-3 -20 -25 -20h-405l-244 -1250q-3 -20 -25 -20h-139q-16 0 -16 20l244 1250h-406q-16 0 -16 20zM586 1556l-164 263q-2 0 -2 2v4q0 14 16 14h127q20 0 33 -18l100 -129l152 129q21 18 41 18h133q12 0 12 -8
q0 -6 -6 -12l-266 -263q-16 -16 -35 -16h-115q-16 0 -26 16z" />
    <glyph glyph-name="tcaron" unicode="&#x165;" horiz-adv-x="845" 
d="M451 1028h340q16 0 16 -20l-21 -111q-6 -20 -24 -20h-340l-111 -570q-6 -30 -6 -59q0 -117 133 -117q97 0 201 35q4 2 14 2q13 0 13 -18l-21 -101q-1 -3 -3 -9.5t-3 -9t-3 -6.5t-5 -6t-8 -4q-93 -34 -236 -34q-127 0 -192.5 57t-65.5 166q0 36 16 119l109 555h-174
q-17 0 -17 20l21 111q6 20 25 20h174l57 295q3 20 25 20h127q16 0 16 -20zM713 1186q62 0 88 21.5t39 88.5l8 43h-90q-17 0 -17 21l31 156q3 20 25 20h172q16 0 16 -20l-45 -232q-19 -98 -71.5 -135t-139.5 -37h-31q-16 0 -16 21l6 32q6 21 25 21z" />
    <glyph glyph-name="Tbar" unicode="&#x166;" horiz-adv-x="1058" 
d="M113 1290l24 123q3 21 25 21h991q16 0 16 -21l-24 -123q-3 -20 -25 -20h-405l-51 -258h356q16 0 16 -21l-22 -110q-3 -21 -25 -21h-354l-164 -840q-3 -20 -25 -20h-139q-16 0 -16 20l164 840h-363q-16 0 -16 21l22 110q3 21 25 21h360l52 258h-406q-16 0 -16 20z" />
    <glyph glyph-name="tbar" unicode="&#x167;" horiz-adv-x="845" 
d="M451 1028h340q16 0 16 -20l-21 -111q-6 -20 -24 -20h-340l-43 -218h299q16 0 16 -20l-18 -107q-3 -20 -25 -20h-301l-39 -205q-6 -30 -6 -59q0 -117 133 -117q97 0 201 35q4 2 14 2q13 0 13 -18l-21 -101q-1 -3 -3 -9.5t-3 -9t-3 -6.5t-5 -6t-8 -4q-93 -34 -236 -34
q-124 0 -191 57.5t-67 165.5q0 36 16 119l37 190h-141q-16 0 -16 20l18 107q3 20 25 20h143l43 218h-174q-17 0 -17 20l21 111q6 20 25 20h174l57 295q3 20 25 20h127q16 0 16 -20z" />
    <glyph glyph-name="Utilde" unicode="&#x168;" horiz-adv-x="1349" 
d="M133 530l172 883q3 21 25 21h139q16 0 16 -21l-174 -895q-12 -67 -12 -127q0 -248 266 -248q164 0 265 96.5t137 278.5l174 895q3 21 24 21h140q16 0 16 -21l-180 -917q-56 -276 -203.5 -396t-405.5 -120q-186 0 -299.5 105t-113.5 300q0 76 14 145zM514 1765
q117 74 221 74q49 0 86 -13t55.5 -29t48 -29t66.5 -13q49 0 135 51q12 4 15 4q8 0 18 -16l45 -86v-2q0 -2 2 -4q0 -11 -24 -29q-113 -74 -221 -74q-52 0 -89 13t-54.5 29t-46.5 29t-66 13q-50 0 -136 -51q-12 -4 -14 -4q-8 0 -18 17l-45 86q-3 0 -3 2v4q0 12 25 28z" />
    <glyph glyph-name="utilde" unicode="&#x169;" horiz-adv-x="1206" 
d="M1087 1008l-190 -988q-6 -20 -25 -20h-127q-16 0 -16 20l23 117q-80 -78 -161 -117.5t-190 -39.5q-148 0 -226.5 69.5t-78.5 198.5q0 20 13 104l127 656q3 20 24 20h127q16 0 16 -20l-122 -631q-9 -47 -9 -78q0 -168 187 -168q120 0 223.5 98t138.5 275l99 504
q6 20 24 20h127q16 0 16 -20zM362 1360q117 74 222 74q49 0 86 -13t55.5 -29t48 -29t66.5 -13q49 0 135 51q12 4 14 4q9 0 19 -16l45 -86v-3q0 -2 2 -4q0 -9 -25 -28q-113 -74 -221 -74q-52 0 -89 13t-54.5 29t-46.5 29t-66 13q-49 0 -135 -51q-12 -4 -15 -4q-8 0 -18 16
l-45 86q-2 0 -2 2v4q0 14 24 29z" />
    <glyph glyph-name="Umacron" unicode="&#x16a;" horiz-adv-x="1349" 
d="M133 530l172 883q3 21 25 21h139q16 0 16 -21l-174 -895q-12 -67 -12 -127q0 -248 266 -248q164 0 265 96.5t137 278.5l174 895q3 21 24 21h140q16 0 16 -21l-180 -917q-56 -276 -203.5 -396t-405.5 -120q-186 0 -299.5 105t-113.5 300q0 76 14 145zM647 1647l19 102
q3 20 24 20h383q17 0 17 -20l-19 -102q-3 -21 -24 -21h-383q-17 0 -17 21z" />
    <glyph glyph-name="umacron" unicode="&#x16b;" horiz-adv-x="1206" 
d="M1087 1008l-190 -988q-6 -20 -25 -20h-127q-16 0 -16 20l23 117q-80 -78 -161 -117.5t-190 -39.5q-148 0 -226.5 69.5t-78.5 198.5q0 20 13 104l127 656q3 20 24 20h127q16 0 16 -20l-122 -631q-9 -47 -9 -78q0 -168 187 -168q120 0 223.5 98t138.5 275l99 504
q6 20 24 20h127q16 0 16 -20zM489 1241l19 102q3 21 24 21h383q17 0 17 -21l-19 -102q-3 -20 -24 -20h-383q-17 0 -17 20z" />
    <glyph glyph-name="Ubreve" unicode="&#x16c;" horiz-adv-x="1349" 
d="M133 530l172 883q3 21 25 21h139q16 0 16 -21l-174 -895q-12 -67 -12 -127q0 -248 266 -248q164 0 265 96.5t137 278.5l174 895q3 21 24 21h140q16 0 16 -21l-180 -917q-56 -276 -203.5 -396t-405.5 -120q-186 0 -299.5 105t-113.5 300q0 76 14 145zM649 1815h99
q16 0 16 -21q-2 -14 -2 -25q0 -42 25.5 -65t72.5 -23q56 0 93 31t48 82q6 21 25 21h98q17 0 17 -21q-48 -248 -295 -248q-101 0 -162 60t-61 153q0 21 2 35q3 21 24 21z" />
    <glyph glyph-name="ubreve" unicode="&#x16d;" horiz-adv-x="1206" 
d="M1087 1008l-190 -988q-6 -20 -25 -20h-127q-16 0 -16 20l23 117q-80 -78 -161 -117.5t-190 -39.5q-148 0 -226.5 69.5t-78.5 198.5q0 20 13 104l127 656q3 20 24 20h127q16 0 16 -20l-122 -631q-9 -47 -9 -78q0 -168 187 -168q120 0 223.5 98t138.5 275l99 504
q6 20 24 20h127q16 0 16 -20zM485 1409h99q16 0 16 -20q-2 -14 -2 -25q0 -42 25.5 -65t72.5 -23q56 0 93.5 31t48.5 82q6 20 24 20h99q16 0 16 -20q-48 -248 -295 -248q-101 0 -162 60t-61 153q0 21 2 35q3 20 24 20z" />
    <glyph glyph-name="Uring" unicode="&#x16e;" horiz-adv-x="1349" 
d="M133 530l172 883q3 21 25 21h139q16 0 16 -21l-174 -895q-12 -67 -12 -127q0 -248 266 -248q164 0 265 96.5t137 278.5l174 895q3 21 24 21h140q16 0 16 -21l-180 -917q-56 -276 -203.5 -396t-405.5 -120q-186 0 -299.5 105t-113.5 300q0 76 14 145zM682 1686
q0 86 57.5 140t149.5 54q72 0 115 -41.5t43 -107.5q0 -86 -57.5 -140.5t-149.5 -54.5q-71 0 -114.5 41.5t-43.5 108.5zM879 1790q-40 0 -68.5 -25.5t-28.5 -68.5q0 -32 17 -51t51 -19q40 0 68 25.5t28 68.5q0 70 -67 70z" />
    <glyph glyph-name="uring" unicode="&#x16f;" horiz-adv-x="1206" 
d="M1087 1008l-190 -988q-6 -20 -25 -20h-127q-16 0 -16 20l23 117q-80 -78 -161 -117.5t-190 -39.5q-148 0 -226.5 69.5t-78.5 198.5q0 20 13 104l127 656q3 20 24 20h127q16 0 16 -20l-122 -631q-9 -47 -9 -78q0 -168 187 -168q120 0 223.5 98t138.5 275l99 504
q6 20 24 20h127q16 0 16 -20zM524 1280q0 86 57.5 140.5t149.5 54.5q71 0 114.5 -41.5t43.5 -108.5q0 -86 -57.5 -140.5t-149.5 -54.5q-71 0 -114.5 41.5t-43.5 108.5zM721 1384q-40 0 -68 -25.5t-28 -68.5q0 -69 67 -69q40 0 68 25.5t28 68.5q0 69 -67 69z" />
    <glyph glyph-name="Uhungarumlaut" unicode="&#x170;" horiz-adv-x="1349" 
d="M133 530l172 883q3 21 25 21h139q16 0 16 -21l-174 -895q-12 -67 -12 -127q0 -248 266 -248q164 0 265 96.5t137 278.5l174 895q3 21 24 21h140q16 0 16 -21l-180 -917q-56 -276 -203.5 -396t-405.5 -120q-186 0 -299.5 105t-113.5 300q0 76 14 145zM498 1561l192 258
q14 20 35 20h199q12 0 12 -8q0 -6 -6 -12l-262 -260q-19 -19 -41 -19h-123q-10 0 -10 8q0 5 4 13zM887 1561l192 258q14 20 35 20h199q12 0 12 -8q0 -6 -6 -12l-262 -260q-19 -19 -41 -19h-123q-10 0 -10 8q0 5 4 13z" />
    <glyph glyph-name="uhungarumlaut" unicode="&#x171;" horiz-adv-x="1206" 
d="M1087 1008l-190 -988q-6 -20 -25 -20h-127q-16 0 -16 20l23 117q-80 -78 -161 -117.5t-190 -39.5q-148 0 -226.5 69.5t-78.5 198.5q0 20 13 104l127 656q3 20 24 20h127q16 0 16 -20l-122 -631q-9 -47 -9 -78q0 -168 187 -168q120 0 223.5 98t138.5 275l99 504
q6 20 24 20h127q16 0 16 -20zM322 1155l192 258q15 21 35 21h199q12 0 12 -9q0 -6 -6 -12l-262 -260q-18 -18 -41 -18h-123q-11 0 -11 8q0 2 5 12zM711 1155l192 258q15 21 35 21h199q12 0 12 -9q0 -6 -6 -12l-262 -260q-18 -18 -41 -18h-123q-10 0 -10 8q0 4 4 12z" />
    <glyph glyph-name="Uogonek" unicode="&#x172;" horiz-adv-x="1349" 
d="M133 530l172 883q3 21 25 21h139q16 0 16 -21l-174 -895q-12 -67 -12 -127q0 -248 266 -248q164 0 265 96.5t137 278.5l174 895q3 21 24 21h140q16 0 16 -21l-180 -917q-42 -219 -143.5 -338t-268.5 -158q-59 -14 -105 -53t-46 -99q0 -96 118 -96h25q16 0 16 -20l-12 -70
q-3 -20 -25 -20h-71q-98 0 -156.5 42.5t-58.5 125.5q0 101 100 170q-177 5 -286 111t-109 294q0 76 14 145z" />
    <glyph glyph-name="uogonek" unicode="&#x173;" horiz-adv-x="1206" 
d="M1087 1008l-190 -988q-3 -17 -18 -20q-60 -14 -106 -53t-46 -99q0 -96 119 -96h24q17 0 17 -20l-13 -70q-3 -20 -24 -20h-72q-98 0 -156.5 42.5t-58.5 125.5q0 68 46 121.5t120 84.5l23 121q-80 -78 -161 -117.5t-190 -39.5q-147 0 -225 70.5t-78 201.5q0 28 11 100
l127 656q3 20 24 20h127q16 0 16 -20l-122 -631q-9 -47 -9 -78q0 -168 187 -168q120 0 223.5 98t138.5 275l99 504q6 20 24 20h127q16 0 16 -20z" />
    <glyph glyph-name="Wcircumflex" unicode="&#x174;" horiz-adv-x="1763" 
d="M1833 1413l-594 -1393q-9 -20 -27 -20h-190q-15 0 -18 20l-64 1045l-467 -1045q-9 -20 -27 -20h-186q-15 0 -18 20l-68 1393q0 21 21 21h143q20 0 20 -21l41 -1177l478 1079q11 20 28 20h154q20 0 20 -20l74 -1079l489 1177q9 21 29 21h150q14 0 14 -11q0 -6 -2 -10z
M1161 1823l164 -262v-2q0 -3 2 -5q0 -14 -16 -14h-127q-19 0 -33 19l-100 129l-152 -129q-19 -19 -41 -19h-133q-12 0 -12 8q0 7 6 13l266 262q16 16 35 16h115q16 0 26 -16z" />
    <glyph glyph-name="wcircumflex" unicode="&#x175;" horiz-adv-x="1560" 
d="M1546 997l-479 -977q-9 -20 -31 -20h-149q-20 0 -23 20l-86 748l-354 -748q-11 -20 -31 -20h-147q-20 0 -23 20l-125 977q0 31 21 31h129q11 0 16 -2.5t6 -5t2 -12.5l80 -791l359 741q5 12 10 16.5t16 4.5h156q15 0 18 -21l86 -741l367 791q5 12 11 16t22 4h141
q14 0 14 -12q0 -7 -6 -19zM973 1417l164 -262v-2q0 -2 2 -4q0 -14 -17 -14h-127q-19 0 -32 18l-101 129l-151 -129q-18 -18 -41 -18h-133q-13 0 -13 8q0 6 6 12l267 262q17 17 34 17h115q17 0 27 -17z" />
    <glyph glyph-name="Ycircumflex" unicode="&#x176;" horiz-adv-x="1081" 
d="M1200 1413l-622 -885l-101 -508q-3 -20 -24 -20h-140q-16 0 -16 20l100 508l-278 885q0 21 16 21h162h6.5t4.5 -2t2.5 -3t2 -5t2.5 -7l203 -688l477 688q10 17 27 17h170q12 0 12 -11q0 -2 -4 -10zM799 1823l164 -262v-2q0 -3 2 -5q0 -14 -17 -14h-127q-19 0 -33 19
l-100 129l-151 -129q-19 -19 -41 -19h-134q-12 0 -12 8q0 7 6 13l267 262q16 16 34 16h115q17 0 27 -16z" />
    <glyph glyph-name="ycircumflex" unicode="&#x177;" horiz-adv-x="1075" 
d="M123 1028h147q20 0 23 -20l151 -791l414 791q9 20 31 20h147q13 0 13 -14l-5 -15l-589 -1099q-71 -131 -142 -204.5t-135 -97.5t-147 -24t-142 33q-16 10 -16 20v8q0 3 2 5l21 110q6 21 20 21q9 0 24.5 -11t44 -22.5t68.5 -11.5q150 0 271 256l-218 1013q-2 6 -2 17
q0 16 19 16zM721 1417l164 -262v-2q0 -2 2 -4q0 -14 -17 -14h-127q-19 0 -32 18l-101 129l-151 -129q-18 -18 -41 -18h-133q-13 0 -13 8q0 5 7 12l266 262q17 17 35 17h114q17 0 27 -17z" />
    <glyph glyph-name="Ydieresis" unicode="&#x178;" horiz-adv-x="1081" 
d="M1200 1413l-622 -885l-101 -508q-3 -20 -24 -20h-140q-16 0 -16 20l100 508l-278 885q0 21 16 21h162h6.5t4.5 -2t2.5 -3t2 -5t2.5 -7l203 -688l477 688q10 17 27 17h170q12 0 12 -11q0 -2 -4 -10zM412 1655l30 164q3 20 25 20h164q16 0 16 -20l-31 -164q-3 -21 -24 -21
h-164q-16 0 -16 21zM752 1655l30 164q3 20 25 20h164q16 0 16 -20l-31 -164q-3 -21 -24 -21h-164q-16 0 -16 21z" />
    <glyph glyph-name="Zacute" unicode="&#x179;" horiz-adv-x="1230" 
d="M240 1290l24 123q3 21 25 21h921q17 0 17 -21l-25 -123q-2 -12 -18 -35l-983 -1091h805q16 0 16 -21l-25 -123q-3 -20 -24 -20h-998q-16 0 -16 20l25 123q2 12 18 35l983 1092h-729q-16 0 -16 20zM598 1561l193 258q14 20 34 20h199q12 0 12 -8q0 -6 -6 -12l-262 -260
q-19 -19 -41 -19h-123q-10 0 -10 8q0 5 4 13z" />
    <glyph glyph-name="zacute" unicode="&#x17a;" horiz-adv-x="999" 
d="M162 897l20 111q6 20 25 20h723q16 0 16 -20l-20 -111q-2 -14 -25 -43l-702 -702h600q16 0 16 -21l-20 -111q-3 -20 -25 -20h-786q-17 0 -17 20l21 111q2 17 16 31l715 715h-541q-16 0 -16 20zM438 1155l193 258q15 21 35 21h198q13 0 13 -9q0 -5 -7 -12l-262 -260
q-18 -18 -41 -18h-123q-10 0 -10 8q0 4 4 12z" />
    <glyph glyph-name="Zdotaccent" unicode="&#x17b;" horiz-adv-x="1230" 
d="M240 1290l24 123q3 21 25 21h921q17 0 17 -21l-25 -123q-2 -12 -18 -35l-983 -1091h805q16 0 16 -21l-25 -123q-3 -20 -24 -20h-998q-16 0 -16 20l25 123q2 12 18 35l983 1092h-729q-16 0 -16 20zM655 1642l35 177q3 20 25 20h184q16 0 16 -20l-34 -177q-3 -20 -25 -20
h-184q-17 0 -17 20z" />
    <glyph glyph-name="zdotaccent" unicode="&#x17c;" horiz-adv-x="999" 
d="M162 897l20 111q6 20 25 20h723q16 0 16 -20l-20 -111q-2 -14 -25 -43l-702 -702h600q16 0 16 -21l-20 -111q-3 -20 -25 -20h-786q-17 0 -17 20l21 111q2 17 16 31l715 715h-541q-16 0 -16 20zM487 1237l35 176q3 21 25 21h184q17 0 17 -21l-35 -176q-3 -20 -25 -20h-184
q-17 0 -17 20z" />
    <glyph glyph-name="Zcaron" unicode="&#x17d;" horiz-adv-x="1230" 
d="M240 1290l24 123q3 21 25 21h921q17 0 17 -21l-25 -123q-2 -12 -18 -35l-983 -1091h805q16 0 16 -21l-25 -123q-3 -20 -24 -20h-998q-16 0 -16 20l25 123q2 12 18 35l983 1092h-729q-16 0 -16 20zM651 1556l-164 263q-2 0 -2 2v4q0 14 17 14h127q20 0 33 -18l100 -129
l151 129q21 18 41 18h133q13 0 13 -8q0 -6 -6 -12l-267 -263q-16 -16 -34 -16h-115q-17 0 -27 16z" />
    <glyph glyph-name="zcaron" unicode="&#x17e;" horiz-adv-x="999" 
d="M162 897l20 111q6 20 25 20h723q16 0 16 -20l-20 -111q-2 -14 -25 -43l-702 -702h600q16 0 16 -21l-20 -111q-3 -20 -25 -20h-786q-17 0 -17 20l21 111q2 17 16 31l715 715h-541q-16 0 -16 20zM487 1151l-163 262q-2 0 -2 2v4q0 15 16 15h127q19 0 33 -19l100 -129
l152 129q22 19 41 19h133q12 0 12 -9q0 -6 -6 -12l-266 -262q-16 -16 -35 -16h-115q-17 0 -27 16z" />
    <glyph glyph-name="longs" unicode="&#x17f;" horiz-adv-x="759" 
d="M465 1100l-211 -1080q-3 -20 -25 -20h-127q-19 0 -16 20l168 857h-168q-16 0 -16 20l20 111q3 20 25 20h168l16 86q31 159 135.5 249.5t259.5 90.5q137 0 213 -39q13 -10 13 -18q0 -11 -2 -17l-23 -106q-3 -21 -18 -21q-1 0 -13 4q-54 26 -95 36t-97 10q-168 0 -207 -203
z" />
    <glyph glyph-name="uni018E" unicode="&#x18e;" horiz-adv-x="1165" 
d="M801 762l98 508h-684q-16 0 -16 20l24 123q3 21 25 21h844q16 0 16 -21l-272 -1393q-3 -20 -25 -20h-813q-16 0 -16 20l24 123q3 21 25 21h653l84 434h-592q-16 0 -16 20l24 123q3 21 25 21h592z" />
    <glyph glyph-name="uni018F" unicode="&#x18f;" horiz-adv-x="1196" 
d="M86 563h799q4 28 4 53q0 132 -68 206.5t-200 74.5q-110 0 -190.5 -45.5t-143.5 -142.5q-12 -19 -33 -19h-133q-10 0 -10 10q0 9 8 25q88 172 217 248t307 76q132 0 229 -62.5t145 -166t48 -234.5q0 -120 -45 -230.5t-123.5 -193.5t-193 -132.5t-246.5 -49.5
q-191 0 -301.5 121.5t-110.5 308.5q0 51 10 100l6 33q6 20 25 20zM485 131q122 0 219.5 71.5t151.5 209.5h-643q0 -135 70.5 -208t201.5 -73z" />
    <glyph glyph-name="florin" unicode="&#x192;" horiz-adv-x="1034" 
d="M92 -117l326 994h-168q-14 0 -14 20l20 111q3 20 27 20h184l45 131q55 159 147 227t232 68q109 0 201 -45q16 -6 16 -18q0 -9 -2 -15l-21 -102q-3 -23 -18 -23q-7 0 -16 6q-79 46 -179 46q-144 0 -198 -158l-39 -117h313q17 0 17 -20l-21 -111q-3 -20 -24 -20h-334
l-332 -1008q-53 -161 -133.5 -228t-212.5 -67q-122 0 -195 39q-12 9 -12 20q0 9 2 15l21 106q3 23 16 23q9 0 18 -6q44 -25 77 -35t79 -10q125 0 178 157z" />
    <glyph glyph-name="uni01B5" unicode="&#x1b5;" horiz-adv-x="1230" 
d="M240 1290l24 123q3 21 25 21h921q17 0 17 -21l-25 -123q-2 -12 -18 -35l-422 -469h307q16 0 16 -20l-22 -111q-3 -20 -25 -20h-413l-424 -471h805q16 0 16 -21l-25 -123q-3 -20 -24 -20h-998q-16 0 -16 20l25 123q2 12 18 35l412 457h-254q-17 0 -17 20l23 111
q3 20 24 20h359l436 484h-729q-16 0 -16 20z" />
    <glyph glyph-name="uni01B6" unicode="&#x1b6;" horiz-adv-x="999" 
d="M162 897l20 111q6 20 25 20h723q16 0 16 -20l-20 -111q-2 -14 -25 -43l-237 -238h139q16 0 16 -20l-18 -107q-3 -20 -25 -20h-260l-317 -317h600q16 0 16 -21l-20 -111q-3 -20 -25 -20h-786q-17 0 -17 20l21 111q2 17 16 31l307 307h-168q-16 0 -16 20l18 107q3 20 25 20
h289l260 261h-541q-16 0 -16 20z" />
    <glyph glyph-name="Aringacute" unicode="&#x1fa;" horiz-adv-x="1255" 
d="M596 1493q0 87 56.5 141t148.5 54q72 0 116 -42t44 -108q0 -104 -82 -160l233 -1353q0 -14 -4.5 -19.5t-20.5 -5.5h-135q-11 0 -14.5 4t-5.5 16l-64 396h-585l-220 -396q-12 -20 -28 -20h-150q-18 0 -18 16q0 10 6 19l762 1356q-39 39 -39 102zM733 1227l-360 -647h467z
M696 1765l193 258q15 21 35 21h198q13 0 13 -8q0 -6 -7 -13l-262 -260q-18 -18 -41 -18h-123q-10 0 -10 8q0 4 4 12zM793 1597q-40 0 -68.5 -25.5t-28.5 -68.5q0 -32 19 -50.5t55 -18.5q37 0 63.5 26.5t26.5 67.5q0 31 -17.5 50t-49.5 19z" />
    <glyph glyph-name="aringacute" unicode="&#x1fb;" horiz-adv-x="1239" 
d="M1120 1008l-190 -988q-6 -20 -25 -20h-127q-16 0 -16 20l16 82q-77 -67 -146 -94.5t-179 -27.5q-181 0 -288.5 126.5t-107.5 329.5q0 117 37.5 225.5t107 195.5t180.5 139.5t247 52.5q200 0 307 -131l16 90q3 20 25 20h127q16 0 16 -20zM489 131q116 0 208 69t140 180
t48 241t-70.5 203t-198.5 73q-89 0 -162.5 -38.5t-121 -103.5t-73.5 -147.5t-26 -171.5q0 -143 67 -224t189 -81zM518 1280q0 86 57.5 140.5t149.5 54.5q71 0 114.5 -41.5t43.5 -108.5q0 -86 -57.5 -140.5t-149.5 -54.5q-71 0 -114.5 41.5t-43.5 108.5zM715 1384
q-40 0 -68.5 -25.5t-28.5 -68.5q0 -69 68 -69q40 0 68 25.5t28 68.5q0 69 -67 69zM623 1561l192 258q14 20 35 20h199q12 0 12 -8q0 -6 -6 -12l-262 -260q-19 -19 -41 -19h-123q-11 0 -11 8q0 3 5 13z" />
    <glyph glyph-name="AEacute" unicode="&#x1fc;" horiz-adv-x="1732" 
d="M922 672l-99 -508h695q16 0 16 -21l-25 -123q-3 -20 -24 -20h-854q-17 0 -17 20l78 396h-399l-236 -396q-11 -20 -28 -20h-144q-18 0 -18 16q0 5 4 17l821 1380q5 9 7 12t6.5 6t11.5 3h1018q16 0 16 -21l-25 -123q-3 -20 -24 -20h-664l-84 -434h602q17 0 17 -21l-25 -123
q-3 -20 -24 -20h-602zM797 1270l-410 -690h336l135 690h-61zM1049 1561l192 258q14 20 35 20h199q12 0 12 -8q0 -6 -6 -12l-262 -260q-19 -19 -41 -19h-123q-11 0 -11 8q0 3 5 13z" />
    <glyph glyph-name="aeacute" unicode="&#x1fd;" horiz-adv-x="1931" 
d="M1772 465h-803q-4 -28 -4 -53q0 -132 69.5 -206.5t202.5 -74.5q110 0 190.5 45.5t143.5 142.5q12 19 33 19h133q10 0 10 -10q0 -9 -8 -25q-88 -171 -217.5 -247t-307.5 -76q-133 0 -228 59.5t-144 165.5q-73 -108 -183 -166.5t-249 -58.5q-94 0 -172 30.5t-129.5 98
t-51.5 161.5q0 115 63 202t167 131t231 44q154 0 295 -43l10 53q6 34 6 64q0 176 -206 176q-182 0 -273 -156q-9 -18 -33 -18h-129q-14 0 -14 12q0 9 6 21q64 140 174.5 216.5t284.5 76.5q119 0 204.5 -48t123.5 -129q177 177 434 177q191 0 301 -121.5t110 -309.5
q0 -51 -10 -100l-6 -33q-6 -20 -24 -20zM782 449q-121 47 -274 47q-51 0 -97.5 -11t-87.5 -33.5t-65.5 -64t-24.5 -96.5q0 -77 47 -118.5t130 -41.5q135 0 239.5 84t132.5 234zM1372 897q-122 0 -220.5 -71.5t-152.5 -209.5h646q0 135 -71 208t-202 73zM881 1155l192 258
q15 21 35 21h199q12 0 12 -9q0 -6 -6 -12l-262 -260q-18 -18 -41 -18h-123q-10 0 -10 8q0 4 4 12z" />
    <glyph glyph-name="Scommaaccent" unicode="&#x218;" horiz-adv-x="1206" 
d="M178 1020q0 106 42.5 190t115.5 136.5t167.5 80t203.5 27.5q206 0 321 -101.5t115 -250.5q0 -29 -2 -47q-3 -21 -25 -21h-135q-16 0 -16 21q2 14 2 30q0 95 -72.5 150t-204.5 55q-57 0 -112 -12t-106 -37.5t-82.5 -73.5t-31.5 -112q0 -97 75 -151t251 -101
q95 -27 161.5 -55.5t124 -70t86.5 -99.5t29 -132q0 -231 -155 -348.5t-422 -117.5q-127 0 -234 47t-172 135.5t-65 199.5q0 55 4 72q3 21 25 21h135q16 0 16 -21q-4 -32 -4 -45q0 -112 81.5 -179t231.5 -67q166 0 272.5 71t106.5 200q0 96 -80.5 150t-244.5 93
q-87 19 -157.5 49t-126.5 73.5t-87 104.5t-31 136zM344 -393q61 0 82 15.5t31 70.5l4 24h-94q-17 0 -17 21l31 156q3 20 25 20h159q17 0 17 -20l-43 -216q-17 -81 -54.5 -113t-111.5 -32h-43q-17 0 -17 21l6 32q3 21 25 21z" />
    <glyph glyph-name="scommaaccent" unicode="&#x219;" horiz-adv-x="1036" 
d="M872 330q0 -72 -24.5 -130.5t-67.5 -99t-102 -68t-127 -40t-145 -12.5q-166 0 -268.5 85.5t-102.5 219.5v28q0 21 20 21h131q17 0 17 -21q0 -90 53.5 -136t171.5 -46q45 0 87.5 8t85.5 25.5t69 52.5t26 84q0 62 -63 100.5t-201 61.5q-143 25 -223 93t-80 167q0 84 35 148
t96 102t137 57t164 19q169 0 265 -82.5t96 -212.5q0 -21 -25 -21h-115q-13 0 -16 21q-7 74 -69.5 108.5t-155.5 34.5q-46 0 -86.5 -7.5t-77.5 -24t-58.5 -48t-21.5 -74.5q0 -64 56.5 -95.5t199.5 -59.5q70 -13 123.5 -32t100 -48.5t71 -74t24.5 -103.5zM240 -393
q61 0 81.5 15.5t30.5 70.5l4 24h-94q-16 0 -16 21l30 156q3 20 25 20h160q16 0 16 -20l-43 -216q-17 -81 -54.5 -113t-111.5 -32h-43q-16 0 -16 21l6 32q3 21 25 21z" />
    <glyph glyph-name="uni021A" unicode="&#x21a;" horiz-adv-x="1058" 
d="M113 1290l24 123q3 21 25 21h991q16 0 16 -21l-24 -123q-3 -20 -25 -20h-405l-244 -1250q-3 -20 -25 -20h-139q-16 0 -16 20l244 1250h-406q-16 0 -16 20zM219 -393q61 0 82 15.5t31 70.5l4 24h-94q-17 0 -17 21l31 156q3 20 25 20h159q17 0 17 -20l-43 -216
q-17 -81 -54.5 -113t-111.5 -32h-43q-17 0 -17 21l7 32q3 21 24 21z" />
    <glyph glyph-name="uni021B" unicode="&#x21b;" horiz-adv-x="845" 
d="M451 1028h340q16 0 16 -20l-21 -111q-6 -20 -24 -20h-340l-111 -570q-6 -30 -6 -59q0 -117 133 -117q97 0 201 35q4 2 14 2q13 0 13 -18l-21 -101q-1 -3 -3 -9.5t-3 -9t-3 -6.5t-5 -6t-8 -4q-93 -34 -236 -34q-127 0 -192.5 57t-65.5 166q0 36 16 119l109 555h-174
q-17 0 -17 20l21 111q6 20 25 20h174l57 295q3 20 25 20h127q16 0 16 -20zM231 -393q61 0 82 15.5t31 70.5l4 24h-94q-16 0 -16 21l30 156q3 20 25 20h160q16 0 16 -20l-43 -216q-17 -81 -54.5 -113t-111.5 -32h-43q-16 0 -16 21l6 32q3 21 24 21z" />
    <glyph glyph-name="circumflex" unicode="&#x2c6;" horiz-adv-x="763" 
d="M582 1417l163 -262v-2q0 -1 3 -4q0 -14 -17 -14h-127q-20 0 -33 18l-100 129l-152 -129q-18 -18 -40 -18h-134q-12 0 -12 8q0 6 6 12l267 262q17 17 34 17h115q17 0 27 -17z" />
    <glyph glyph-name="caron" unicode="&#x2c7;" horiz-adv-x="763" 
d="M362 1151l-163 262q-2 0 -2 2v4q0 15 16 15h127q19 0 33 -19l100 -129l152 129q22 19 41 19h133q12 0 12 -9q0 -6 -6 -12l-266 -262q-16 -16 -35 -16h-115q-17 0 -27 16z" />
    <glyph glyph-name="breve" unicode="&#x2d8;" horiz-adv-x="663" 
d="M182 1409h99q16 0 16 -20q-2 -14 -2 -25q0 -42 25.5 -65t72.5 -23q56 0 93.5 31t48.5 82q6 20 24 20h98q17 0 17 -20q-48 -248 -295 -248q-101 0 -162 60t-61 153q0 21 2 35q3 20 24 20z" />
    <glyph glyph-name="dotaccent" unicode="&#x2d9;" horiz-adv-x="548" 
d="M270 1237l35 176q3 21 25 21h184q16 0 16 -21l-34 -176q-3 -20 -25 -20h-184q-17 0 -17 20z" />
    <glyph glyph-name="ring" unicode="&#x2da;" horiz-adv-x="575" 
d="M172 1280q0 86 57.5 140.5t149.5 54.5q71 0 114.5 -41.5t43.5 -108.5q0 -86 -57.5 -140.5t-149.5 -54.5q-71 0 -114.5 41.5t-43.5 108.5zM369 1384q-40 0 -68.5 -25.5t-28.5 -68.5q0 -69 68 -69q40 0 68 25.5t28 68.5q0 69 -67 69z" />
    <glyph glyph-name="ogonek" unicode="&#x2db;" horiz-adv-x="421" 
d="M168 31l74 -17q6 -3 6 -8q0 -4 -4 -4q-2 -2 -4 -2q-60 -14 -106 -53t-46 -99q0 -96 119 -96h24q17 0 17 -20l-12 -70q-3 -20 -25 -20h-72q-98 0 -156.5 42.5t-58.5 125.5q0 75 57 133t144 86q4 1 9 2l7.5 1.5t3.5 0.5q9 0 23 -2z" />
    <glyph glyph-name="tilde" unicode="&#x2dc;" horiz-adv-x="808" 
d="M162 1360q117 74 221 74q49 0 86 -13t55.5 -29t48 -29t66.5 -13q49 0 135 51q12 4 14 4q9 0 19 -16l45 -86v-3q0 -2 2 -4q0 -9 -25 -28q-113 -74 -221 -74q-52 0 -89 13t-54.5 29t-46.5 29t-66 13q-49 0 -135 -51q-12 -4 -14 -4q-9 0 -19 16l-45 86q-2 0 -2 2v4
q0 13 25 29z" />
    <glyph glyph-name="hungarumlaut" unicode="&#x2dd;" horiz-adv-x="854" 
d="M152 1155l192 258q15 21 35 21h199q12 0 12 -9q0 -6 -6 -12l-262 -260q-18 -18 -41 -18h-123q-11 0 -11 8q0 2 5 12zM541 1155l192 258q15 21 35 21h199q12 0 12 -9q0 -6 -6 -12l-262 -260q-18 -18 -41 -18h-123q-10 0 -10 8q0 4 4 12z" />
    <glyph glyph-name="uni03A9" unicode="&#x3a9;" horiz-adv-x="1505" 
d="M858 1290q-241 0 -398 -157.5t-157 -403.5q0 -114 31 -213t74.5 -166t111.5 -145q10 -10 10 -25q0 -10 -2 -16l-28 -144q-3 -20 -25 -20h-430q-16 0 -16 20l24 123q3 21 25 21h268q-223 248 -223 549q0 160 56.5 298t156 235t240.5 152.5t305 55.5q240 0 392 -146.5
t152 -383.5q0 -426 -481 -760h268q17 0 17 -21l-25 -123q-3 -20 -24 -20h-430q-17 0 -17 20l29 144q11 30 24 41q60 47 97 77t90.5 79t87 87.5t71.5 92.5t59 105.5t35.5 115t14.5 131.5q0 173 -102 285t-281 112z" />
    <glyph glyph-name="pi" unicode="&#x3c0;" horiz-adv-x="1312" 
d="M1229 877h-201l-119 -613q-4 -28 -4 -41q0 -36 20 -53.5t66 -17.5h21q16 0 16 -21l-20 -111q-6 -20 -25 -20h-80q-77 0 -125.5 41.5t-48.5 112.5q0 52 4 67l127 656h-379l-166 -857q-3 -20 -24 -20h-127q-17 0 -17 20l166 857h-200q-17 0 -17 20l21 111q6 20 24 20h1116
q17 0 17 -20l-21 -111q-6 -20 -24 -20z" />
    <glyph glyph-name="endash" unicode="&#x2013;" horiz-adv-x="1193" 
d="M180 780h864q17 0 17 -20l-23 -119q-3 -20 -24 -20h-864q-17 0 -17 20l23 119q3 20 24 20z" />
    <glyph glyph-name="emdash" unicode="&#x2014;" horiz-adv-x="1648" 
d="M180 780h1319q17 0 17 -20l-23 -119q-3 -20 -25 -20h-1318q-17 0 -17 20l23 119q3 20 24 20z" />
    <glyph glyph-name="quoteleft" unicode="&#x2018;" horiz-adv-x="501" 
d="M438 1360q-62 0 -88 -22t-39 -89l-8 -43h90q17 0 17 -20l-31 -156q-3 -20 -25 -20h-172q-16 0 -16 20l45 232q19 98 71.5 135t139.5 37h31q16 0 16 -21l-6 -33q-6 -20 -25 -20z" />
    <glyph glyph-name="quoteright" unicode="&#x2019;" horiz-adv-x="501" 
d="M225 1083q62 0 88 22t39 89l8 43h-90q-16 0 -16 20l31 156q3 21 24 21h172q17 0 17 -21l-45 -231q-19 -98 -71.5 -135t-139.5 -37h-31q-16 0 -16 20l6 33q6 20 24 20z" />
    <glyph glyph-name="quotesinglbase" unicode="&#x201a;" horiz-adv-x="501" 
d="M8 -154q62 0 88 22t39 89l8 43h-90q-16 0 -16 20l31 156q3 21 24 21h172q17 0 17 -21l-45 -231q-19 -98 -71.5 -135t-139.5 -37h-31q-17 0 -17 20l7 33q6 20 24 20z" />
    <glyph glyph-name="quotedblleft" unicode="&#x201c;" horiz-adv-x="808" 
d="M745 1360q-62 0 -88 -22t-39 -89l-8 -43h90q17 0 17 -20l-31 -156q-3 -20 -24 -20h-173q-16 0 -16 20l45 232q19 98 71.5 135t139.5 37h31q16 0 16 -21l-6 -33q-6 -20 -25 -20zM438 1360q-62 0 -88 -22t-39 -89l-8 -43h90q17 0 17 -20l-31 -156q-3 -20 -25 -20h-172
q-16 0 -16 20l45 232q19 98 71.5 135t139.5 37h31q16 0 16 -21l-6 -33q-6 -20 -25 -20z" />
    <glyph glyph-name="quotedblright" unicode="&#x201d;" horiz-adv-x="808" 
d="M225 1083q62 0 88 22t39 89l8 43h-90q-16 0 -16 20l31 156q3 21 24 21h172q17 0 17 -21l-45 -231q-19 -98 -71.5 -135t-139.5 -37h-31q-16 0 -16 20l6 33q6 20 24 20zM532 1083q62 0 88 22t39 89l9 43h-90q-17 0 -17 20l31 156q3 21 24 21h172q17 0 17 -21l-45 -231
q-19 -98 -71.5 -135t-139.5 -37h-31q-16 0 -16 20l6 33q6 20 24 20z" />
    <glyph glyph-name="quotedblbase" unicode="&#x201e;" horiz-adv-x="808" 
d="M8 -154q62 0 88 22t39 89l8 43h-90q-16 0 -16 20l31 156q3 21 24 21h172q17 0 17 -21l-45 -231q-19 -98 -71.5 -135t-139.5 -37h-31q-17 0 -17 20l7 33q6 20 24 20zM315 -154q62 0 88 22t39 89l9 43h-91q-16 0 -16 20l31 156q3 21 24 21h172q17 0 17 -21l-45 -231
q-19 -98 -71.5 -135t-139.5 -37h-31q-16 0 -16 20l6 33q6 20 24 20z" />
    <glyph glyph-name="dagger" unicode="&#x2020;" horiz-adv-x="989" 
d="M150 1028h317l76 385q3 21 24 21h140q16 0 16 -21l-76 -385h318q16 0 16 -20l-23 -119q-3 -21 -24 -21h-318l-243 -1253q-3 -21 -25 -21h-139q-16 0 -16 21l243 1253h-317q-17 0 -17 21l23 119q6 20 25 20z" />
    <glyph glyph-name="daggerdbl" unicode="&#x2021;" horiz-adv-x="989" 
d="M766 0h-317l-76 -385q-3 -21 -25 -21h-131q-16 0 -16 21l67 385h-315q-16 0 -16 20l22 119q3 21 23 21h317l137 708h-317q-17 0 -17 21l23 119q6 20 25 20h317l76 385q3 21 24 21h140q16 0 16 -21l-76 -385h318q16 0 16 -20l-23 -119q-3 -21 -24 -21h-318l-137 -708h318
q16 0 16 -21l-22 -119q-6 -20 -25 -20z" />
    <glyph glyph-name="bullet" unicode="&#x2022;" horiz-adv-x="780" 
d="M207 668q0 80 56.5 136t135.5 56q80 0 136.5 -56.5t56.5 -135.5q0 -80 -57 -136.5t-136 -56.5t-135.5 56.5t-56.5 136.5z" />
    <glyph glyph-name="ellipsis" unicode="&#x2026;" horiz-adv-x="1497" 
d="M106 197h160q17 0 17 -21l-31 -156q-3 -20 -25 -20h-159q-17 0 -17 20l31 156q3 21 24 21zM575 197h160q17 0 17 -21l-31 -156q-3 -20 -25 -20h-159q-17 0 -17 20l31 156q3 21 24 21zM1044 197h160q17 0 17 -21l-31 -156q-3 -20 -25 -20h-159q-17 0 -17 20l31 156
q3 21 24 21z" />
    <glyph glyph-name="perthousand" unicode="&#x2030;" horiz-adv-x="2695" 
d="M852 1114q0 -107 -50.5 -200.5t-147 -153.5t-218.5 -60q-132 0 -218.5 86t-86.5 234q0 107 50.5 200.5t147 153.5t218.5 60q132 0 218.5 -86t86.5 -234zM455 825q113 0 189.5 86.5t76.5 190.5q0 98 -50.5 152.5t-142.5 54.5q-113 0 -189.5 -86.5t-76.5 -190.5
q0 -98 50.5 -152.5t142.5 -54.5zM1712 414q0 -107 -50.5 -200.5t-147 -153.5t-218.5 -60q-132 0 -218.5 85.5t-86.5 233.5q0 107 50.5 200.5t147 153.5t218.5 60q132 0 218.5 -85.5t86.5 -233.5zM1315 125q113 0 189.5 86t76.5 190q0 99 -50 153t-142 54q-113 0 -190 -86
t-77 -190q0 -98 50.5 -152.5t142.5 -54.5zM2540 414q0 -107 -50.5 -200.5t-147 -153.5t-218.5 -60q-132 0 -218.5 85.5t-86.5 233.5q0 107 50 200.5t146.5 153.5t218.5 60q132 0 219 -85.5t87 -233.5zM2142 125q113 0 189.5 86t76.5 190q0 99 -50 153t-142 54
q-113 0 -189.5 -86t-76.5 -190q0 -99 50 -153t142 -54zM193 86l1394 1341q7 7 15 7q7 0 14 -7l45 -51q8 -8 8 -14t-8 -14l-1395 -1342q-6 -6 -14 -6t-14 6l-45 51q-9 9 -9 15q0 5 9 14z" />
    <glyph glyph-name="guilsinglleft" unicode="&#x2039;" horiz-adv-x="733" 
d="M647 1051l-35 -185q-6 -21 -20 -32l-365 -285l254 -287q11 -11 11 -20q0 -4 -3 -13l-32 -157q-3 -15 -15 -15q-6 0 -12 6l-356 406q-15 15 -15 37l23 112q6 22 27 37l516 404q9 6 12 6q10 0 10 -14z" />
    <glyph glyph-name="guilsinglright" unicode="&#x203a;" horiz-adv-x="733" 
d="M45 72l35 184q6 22 20 33l365 284l-254 287q-10 10 -10 21q0 6 2 12l33 158q3 14 14 14q6 0 12 -6l356 -406q15 -15 15 -37l-23 -112q-7 -23 -26 -37l-516 -404q-9 -6 -13 -6q-10 0 -10 15z" />
    <glyph glyph-name="fraction" unicode="&#x2044;" horiz-adv-x="1372" 
d="M-82 86l1395 1341q7 7 14 7t14 -7l45 -51q9 -9 9 -14t-9 -14l-1394 -1342q-6 -6 -15 -6q-8 0 -14 6l-45 51q-8 8 -8 15q0 6 8 14z" />
    <glyph glyph-name="zerosuperior" unicode="&#x2070;" horiz-adv-x="763" 
d="M111 979q0 125 43 229.5t132 171t208 66.5q120 0 189 -90t69 -234q0 -125 -43 -229.5t-132 -171t-208 -66.5q-120 0 -189 90t-69 234zM481 1335q-76 0 -133 -51t-84.5 -128t-27.5 -165q0 -111 38 -168t107 -57q113 0 179.5 102t66.5 242q0 110 -38.5 167.5t-107.5 57.5z
" />
    <glyph glyph-name="foursuperior" unicode="&#x2074;" horiz-adv-x="743" 
d="M430 688l25 125h-336q-17 0 -17 21l11 57q3 13 14 24l448 504q15 15 27 15h72q16 0 16 -21l-96 -489h98q19 0 19 -21l-15 -69q-3 -21 -24 -21h-99l-24 -125q-3 -20 -25 -20h-78q-16 0 -16 20zM530 1208l-254 -284h199z" />
    <glyph glyph-name="fivesuperior" unicode="&#x2075;" horiz-adv-x="700" 
d="M147 1034l123 383q7 17 23 17h393q16 0 16 -21l-12 -70q-3 -20 -24 -20h-312l-69 -195q67 48 168 48q95 0 150.5 -58.5t55.5 -161.5q0 -138 -87 -219.5t-226 -81.5q-93 0 -158 55.5t-65 139.5q0 23 2 29q3 20 25 20h71q17 0 17 -20q0 -54 34.5 -83.5t96.5 -29.5
q75 0 120.5 46t45.5 124q0 57 -29 92t-88 35q-86 0 -154 -57q-12 -9 -16 -9h-6q-2 0 -4 2l-84 19q-9 3 -9 8v4q0 2 2 4z" />
    <glyph glyph-name="sixsuperior" unicode="&#x2076;" horiz-adv-x="759" 
d="M127 928q0 90 24.5 180t69 166t116.5 124t159 48q93 0 154 -52t61 -141q0 -10 -13 -10h-92q-9 0 -12 10q-15 82 -111 82q-146 0 -204 -235q70 61 178 61q94 0 154.5 -57.5t60.5 -157.5q0 -133 -85 -212t-222 -79q-104 0 -171 72t-67 201zM422 1051q-76 0 -124 -43
t-48 -117q0 -56 35 -90.5t94 -34.5q74 0 122 44t48 118q0 59 -34.5 91t-92.5 32z" />
    <glyph glyph-name="sevensuperior" unicode="&#x2077;" horiz-adv-x="565" 
d="M139 1343l15 70q3 21 24 21h463q16 0 16 -21l-6 -33q-3 -13 -14 -32l-340 -662q-9 -18 -29 -18h-86q-12 0 -12 10q0 4 6 16l324 629h-344q-17 0 -17 20z" />
    <glyph glyph-name="eightsuperior" unicode="&#x2078;" horiz-adv-x="696" 
d="M201 1217q0 109 75.5 169t192.5 60q90 0 147.5 -49.5t57.5 -134.5q0 -129 -123 -189q39 -24 62.5 -65.5t23.5 -94.5q0 -123 -84 -190.5t-215 -67.5q-104 0 -168 55t-64 148q0 73 42 128t116 87q-63 57 -63 144zM391 1008q-68 0 -115 -37t-47 -105q0 -43 33 -71.5
t88 -28.5q65 0 113.5 33t48.5 100q0 51 -31 80t-90 29zM453 1343q-59 0 -100.5 -32t-41.5 -94q0 -44 26 -71.5t77 -27.5q59 0 102 32.5t43 94.5q0 45 -28.5 71.5t-77.5 26.5z" />
    <glyph glyph-name="ninesuperior" unicode="&#x2079;" horiz-adv-x="759" 
d="M725 1174q0 -91 -24.5 -181t-69 -166.5t-116.5 -124t-159 -47.5q-93 0 -154 52t-61 141q0 10 13 10h92q9 0 12 -10q15 -82 111 -82q146 0 204 235q-70 -61 -178 -61q-94 0 -154.5 57.5t-60.5 157.5q0 133 85 212t222 79q104 0 171 -71.5t67 -200.5zM430 1051
q76 0 124 42.5t48 116.5q0 56 -35 90.5t-94 34.5q-74 0 -122 -44t-48 -117q0 -59 34.5 -91t92.5 -32z" />
    <glyph glyph-name="zeroinferior" unicode="&#x2080;" horiz-adv-x="763" 
d="M-53 -94q0 125 43 229.5t132 171t208 66.5q120 0 189 -90t69 -234q0 -125 -43 -229.5t-132 -171t-208 -66.5q-120 0 -189 90t-69 234zM317 262q-76 0 -133 -51t-84.5 -128t-27.5 -165q0 -111 38 -168t107 -57q113 0 179.5 102t66.5 242q0 110 -38.5 167.5t-107.5 57.5z
" />
    <glyph glyph-name="oneinferior" unicode="&#x2081;" horiz-adv-x="563" 
d="M106 -385l115 594l-149 -72q-12 -6 -21 -6q-12 0 -12 16l18 91q3 10 19 20l190 94q13 8 33 8h51q17 0 17 -20l-142 -725q-3 -21 -24 -21h-78q-17 0 -17 21z" />
    <glyph glyph-name="twoinferior" unicode="&#x2082;" horiz-adv-x="786" 
d="M-37 -385l10 61q3 20 19 29l370 272q56 41 82.5 79t26.5 94q0 51 -33 81.5t-88 30.5q-62 0 -102.5 -37t-59.5 -96q-6 -20 -24 -20h-84q-17 0 -17 20q23 107 100.5 175.5t201.5 68.5q107 0 168 -59.5t61 -149.5q0 -86 -42 -149.5t-122 -123.5l-260 -186h332q16 0 16 -20
l-12 -70q-3 -21 -25 -21h-501q-17 0 -17 21z" />
    <glyph glyph-name="threeinferior" unicode="&#x2083;" horiz-adv-x="770" 
d="M190 -41l15 70q3 20 22 20h41q62 0 108 31.5t46 93.5q0 40 -26 67t-77 27q-107 0 -145 -104q-7 -17 -22 -17h-76q-17 0 -17 19q23 97 95 151t182 54q96 0 152.5 -50.5t56.5 -130.5q0 -129 -129 -188q38 -21 62 -63.5t24 -96.5q0 -129 -80 -195.5t-211 -66.5
q-98 0 -164.5 58.5t-66.5 146.5q0 11 2 27q3 20 24 20h74q16 0 16 -20q0 -59 36.5 -90t98.5 -31q69 0 110.5 35t41.5 104q0 49 -30.5 79t-88.5 30h-57q-17 0 -17 20z" />
    <glyph glyph-name="fourinferior" unicode="&#x2084;" horiz-adv-x="743" 
d="M260 -385l25 125h-336q-17 0 -17 20l11 58q3 13 14 24l449 504q14 14 26 14h72q16 0 16 -20l-96 -490h98q19 0 19 -20l-15 -70q-3 -20 -24 -20h-99l-24 -125q-3 -21 -25 -21h-78q-16 0 -16 21zM360 135l-254 -285h199z" />
    <glyph glyph-name="fiveinferior" unicode="&#x2085;" horiz-adv-x="700" 
d="M4 -39l123 383q6 16 23 16h393q16 0 16 -20l-12 -70q-3 -20 -25 -20h-311l-70 -195q65 47 168 47q95 0 151 -58t56 -161q0 -138 -87 -219.5t-226 -81.5q-93 0 -158 55.5t-65 139.5q0 22 2 28q3 21 24 21h72q16 0 16 -21q0 -54 34.5 -83t96.5 -29q75 0 120.5 46t45.5 124
q0 57 -29 92t-88 35q-84 0 -153 -58q-11 -8 -17 -8h-6q-2 0 -4 2l-84 19q-8 3 -8 8v4q0 2 2 4z" />
    <glyph glyph-name="sixinferior" unicode="&#x2086;" horiz-adv-x="759" 
d="M25 -145q0 90 24 180t68.5 166t116.5 124t159 48q93 0 154 -52t61 -141q0 -10 -12 -10h-92q-9 0 -12 10q-15 82 -111 82q-147 0 -205 -235q70 61 178 61q94 0 154.5 -57.5t60.5 -157.5q0 -133 -85 -212t-222 -79q-104 0 -170.5 72t-66.5 201zM319 -23q-76 0 -124 -42.5
t-48 -116.5q0 -56 35 -90.5t94 -34.5q74 0 122 44t48 118q0 59 -34.5 90.5t-92.5 31.5z" />
    <glyph glyph-name="seveninferior" unicode="&#x2087;" horiz-adv-x="565" 
d="M-49 270l14 70q3 20 25 20h463q16 0 16 -20l-6 -33q-4 -15 -14 -33l-340 -661q-9 -19 -29 -19h-86q-12 0 -12 11q0 4 6 16l323 629h-344q-16 0 -16 20z" />
    <glyph glyph-name="eightinferior" unicode="&#x2088;" horiz-adv-x="696" 
d="M35 143q0 109 75.5 169.5t192.5 60.5q90 0 147.5 -50t57.5 -135q0 -128 -123 -188q39 -24 62.5 -65.5t23.5 -94.5q0 -123 -84 -190.5t-215 -67.5q-104 0 -167.5 55t-63.5 148q0 73 41.5 128t115.5 87q-63 57 -63 143zM225 -66q-68 0 -115 -36.5t-47 -104.5
q0 -43 33 -71.5t88 -28.5q65 0 113.5 33t48.5 100q0 51 -31 79.5t-90 28.5zM287 270q-59 0 -100.5 -32.5t-41.5 -94.5q0 -44 25.5 -71t77.5 -27q59 0 102 32.5t43 94.5q0 45 -28.5 71.5t-77.5 26.5z" />
    <glyph glyph-name="nineinferior" unicode="&#x2089;" horiz-adv-x="759" 
d="M567 100q0 -91 -24 -181t-68.5 -166t-116.5 -123.5t-159 -47.5q-93 0 -154 52t-61 141q0 10 12 10h92q9 0 12 -10q15 -82 111 -82q147 0 205 235q-70 -61 -178 -61q-94 0 -154.5 57.5t-60.5 157.5q0 133 85 212t222 79q104 0 170.5 -72t66.5 -201zM272 -23q76 0 124 43
t48 117q0 56 -35 90.5t-94 34.5q-74 0 -122 -44t-48 -118q0 -59 34.5 -91t92.5 -32z" />
    <glyph glyph-name="Euro" unicode="&#x20ac;" horiz-adv-x="1384" 
d="M111 985h165q96 233 258.5 351t360.5 118q219 0 336 -125.5t117 -335.5q-6 -20 -25 -20h-125q-13 0 -16 20q-12 164 -85.5 232.5t-224.5 68.5q-271 0 -419 -309h434q16 0 16 -20l-22 -119q-6 -21 -25 -21h-461q-22 -85 -26 -108q-6 -32 -9.5 -65t-5.5 -44h459
q16 0 16 -20l-22 -119q-3 -20 -25 -20h-430q17 -162 91 -236t206 -74q145 0 249 72t171 229q9 21 25 21h129q16 0 16 -21q-73 -225 -229.5 -342.5t-380.5 -117.5q-192 0 -316.5 123.5t-136.5 345.5h-168q-16 0 -16 20l22 119q6 20 23 20h141q17 100 19 109q10 67 22 108
h-139q-17 0 -17 21l23 119q3 20 25 20z" />
    <glyph glyph-name="uni2117" unicode="&#x2117;" horiz-adv-x="1638" 
d="M819 -20q-105 0 -207.5 30.5t-194 93t-161 149t-110 206.5t-40.5 258t40.5 258t110 206.5t161 149t194 93t207.5 30.5t207.5 -30.5t194 -93t161 -149t110 -206.5t40.5 -258t-40.5 -258t-110 -206.5t-161 -149t-194 -93t-207.5 -30.5zM819 66q92 0 180 25.5t167 79
t138.5 129t94.5 183.5t35 234t-35 234t-94.5 183.5t-138.5 129t-167 79t-180 25.5t-180 -25.5t-167 -79t-138 -129.5t-94 -183.5t-35 -233.5t35 -233.5t94 -183.5t138 -129.5t167 -79t180 -25.5zM537 272v893q0 23 22 23h309q144 0 227 -76.5t83 -200.5t-83 -200t-227 -76
h-233v-363q0 -22 -23 -22h-53q-22 0 -22 22zM635 1102v-381h248q97 0 146.5 50.5t49.5 139.5t-49.5 140t-146.5 51h-248z" />
    <glyph glyph-name="trademark" unicode="&#x2122;" horiz-adv-x="1439" 
d="M133 1343l14 70q3 21 25 21h496q16 0 16 -21l-14 -70q-3 -20 -25 -20h-188l-123 -635q-3 -20 -25 -20h-78q-16 0 -16 20l123 635h-188q-17 0 -17 20zM1464 1413l-141 -725q-3 -20 -25 -20h-77q-17 0 -17 20l113 586l-268 -469q-9 -12 -19 -12h-67q-12 0 -15 12l-92 469
l-113 -586q-3 -20 -24 -20h-78q-16 0 -16 20l141 725q3 21 25 21h118q18 0 21 -17l88 -465l262 465q10 17 29 17h139q16 0 16 -21z" />
    <glyph glyph-name="Omega" unicode="&#x2126;" horiz-adv-x="1505" 
d="M858 1290q-241 0 -398 -157.5t-157 -403.5q0 -114 31 -213t74.5 -166t111.5 -145q10 -10 10 -25q0 -10 -2 -16l-28 -144q-3 -20 -25 -20h-430q-16 0 -16 20l24 123q3 21 25 21h268q-223 248 -223 549q0 160 56.5 298t156 235t240.5 152.5t305 55.5q240 0 392 -146.5
t152 -383.5q0 -426 -481 -760h268q17 0 17 -21l-25 -123q-3 -20 -24 -20h-430q-17 0 -17 20l29 144q11 30 24 41q60 47 97 77t90.5 79t87 87.5t71.5 92.5t59 105.5t35.5 115t14.5 131.5q0 173 -102 285t-281 112z" />
    <glyph glyph-name="onethird" unicode="&#x2153;" horiz-adv-x="1822" 
d="M1288 367l15 69q3 21 22 21h41q62 0 108 31.5t46 93.5q0 40 -26 67t-77 27q-107 0 -145 -105q-6 -16 -23 -16h-75q-17 0 -17 18q23 97 95 151t182 54q96 0 152 -50t56 -130q0 -129 -129 -188q38 -21 62 -63.5t24 -96.5q0 -129 -80 -195.5t-210 -66.5q-98 0 -165 58.5
t-67 146.5q0 10 2 26q3 21 25 21h74q16 0 16 -21q0 -59 36.5 -90t98.5 -31q69 0 110.5 35.5t41.5 104.5q0 49 -30.5 78.5t-88.5 29.5h-57q-17 0 -17 21zM121 86l1395 1341q7 7 14 7t14 -7l45 -51q8 -8 8 -14t-8 -14l-1394 -1342q-6 -6 -15 -6q-8 0 -14 6l-45 51q-8 8 -8 15
q0 6 8 14zM264 688l115 594l-150 -72q-12 -6 -20 -6q-12 0 -12 17l18 90q3 11 18 20l191 94q15 9 33 9h51q16 0 16 -21l-141 -725q-3 -20 -25 -20h-77q-17 0 -17 20z" />
    <glyph glyph-name="twothirds" unicode="&#x2154;" horiz-adv-x="1986" 
d="M1452 367l14 69q3 21 23 21h41q61 0 107 31.5t46 93.5q0 40 -25.5 67t-76.5 27q-107 0 -145 -105q-6 -16 -23 -16h-76q-16 0 -16 18q23 97 95 151t181 54q96 0 152.5 -50t56.5 -130q0 -129 -129 -188q38 -21 62 -63.5t24 -96.5q0 -129 -80 -195.5t-210 -66.5
q-98 0 -165 58.5t-67 146.5q0 10 2 26q3 21 25 21h73q17 0 17 -21q0 -59 36.5 -90t98.5 -31q69 0 110.5 35.5t41.5 104.5q0 49 -30.5 78.5t-88.5 29.5h-58q-16 0 -16 21zM305 86l1395 1341q7 7 14 7q8 0 15 -7l45 -51q8 -8 8 -14t-8 -14l-1395 -1342q-6 -6 -14 -6
q-9 0 -15 6l-45 51q-8 8 -8 15q0 6 8 14zM121 688l10 62q3 18 19 28l370 273q56 42 82.5 79t26.5 93q0 51 -33 81.5t-88 30.5q-62 0 -102.5 -37t-59.5 -96q-6 -20 -24 -20h-84q-17 0 -17 20q23 107 100 175.5t201 68.5q107 0 168.5 -59.5t61.5 -149.5q0 -86 -42 -149
t-122 -123l-260 -187h331q17 0 17 -20l-12 -70q-3 -20 -25 -20h-502q-16 0 -16 20z" />
    <glyph glyph-name="oneeighth" unicode="&#x215b;" horiz-adv-x="1820" 
d="M1147 549q0 109 75.5 169t192.5 60q90 0 147.5 -49.5t57.5 -134.5q0 -128 -123 -188q39 -24 62.5 -65.5t23.5 -94.5q0 -123 -84 -190.5t-215 -67.5q-104 0 -167.5 54.5t-63.5 147.5q0 73 41.5 128.5t115.5 87.5q-63 57 -63 143zM1337 340q-68 0 -114.5 -36.5
t-46.5 -104.5q0 -44 33 -72.5t87 -28.5q65 0 113.5 33t48.5 100q0 51 -31 80t-90 29zM1399 676q-59 0 -100.5 -32.5t-41.5 -94.5q0 -44 25.5 -71t77.5 -27q59 0 102 32.5t43 94.5q0 45 -28.5 71.5t-77.5 26.5zM111 86l1394 1341q7 7 15 7q7 0 14 -7l45 -51q8 -8 8 -14
t-8 -14l-1395 -1342q-6 -6 -14 -6t-14 6l-45 51q-9 9 -9 15q0 5 9 14zM254 688l115 594l-150 -72q-12 -6 -20 -6q-13 0 -13 17l19 90q3 11 18 20l191 94q15 9 32 9h52q16 0 16 -21l-141 -725q-3 -20 -25 -20h-78q-16 0 -16 20z" />
    <glyph glyph-name="threeeighths" unicode="&#x215c;" horiz-adv-x="1865" 
d="M336 1034l14 70q3 20 23 20h41q61 0 107 31.5t46 93.5q0 40 -25.5 67t-76.5 27q-108 0 -146 -104q-6 -16 -22 -16h-76q-16 0 -16 18q23 97 95 151t181 54q96 0 152.5 -50t56.5 -130q0 -130 -129 -189q38 -21 62 -63t24 -96q0 -129 -80.5 -196t-210.5 -67
q-98 0 -164.5 58.5t-66.5 146.5q0 11 2 27q3 20 25 20h73q17 0 17 -20q0 -59 36.5 -90t98.5 -31q69 0 110 35t41 104q0 49 -30 79t-88 30h-58q-16 0 -16 20zM156 86l1394 1341q7 7 15 7q7 0 14 -7l45 -51q8 -8 8 -14t-8 -14l-1395 -1342q-6 -6 -14 -6t-14 6l-45 51
q-9 9 -9 15q0 5 9 14zM1192 549q0 109 75.5 169t192.5 60q90 0 147.5 -49.5t57.5 -134.5q0 -128 -123 -188q39 -24 62.5 -65.5t23.5 -94.5q0 -123 -84 -190.5t-215 -67.5q-104 0 -167.5 54.5t-63.5 147.5q0 73 41.5 128.5t115.5 87.5q-63 57 -63 143zM1382 340
q-68 0 -114.5 -36.5t-46.5 -104.5q0 -44 33 -72.5t87 -28.5q65 0 113.5 33t48.5 100q0 51 -31 80t-90 29zM1444 676q-59 0 -100 -32.5t-41 -94.5q0 -44 25.5 -71t76.5 -27q59 0 102 32.5t43 94.5q0 45 -28.5 71.5t-77.5 26.5z" />
    <glyph glyph-name="fiveeighths" unicode="&#x215d;" horiz-adv-x="1882" 
d="M154 1034l122 383q7 17 23 17h393q17 0 17 -21l-13 -70q-3 -20 -24 -20h-312l-69 -195q67 48 168 48q95 0 151 -58.5t56 -161.5q0 -137 -87.5 -219t-226.5 -82q-93 0 -158 55.5t-65 139.5q0 23 2 29q3 20 25 20h71q17 0 17 -20q0 -54 34.5 -83.5t96.5 -29.5
q75 0 120.5 46t45.5 124q0 57 -29 92t-88 35q-86 0 -154 -57q-12 -9 -16 -9h-6q-2 0 -4 2l-84 19q-8 3 -8 8v4q0 2 2 4zM172 86l1395 1341q7 7 14 7t14 -7l45 -51q9 -9 9 -14t-9 -14l-1394 -1342q-6 -6 -15 -6q-8 0 -14 6l-45 51q-8 8 -8 15q0 6 8 14zM1208 549
q0 109 76 169t193 60q90 0 147 -49.5t57 -134.5q0 -129 -122 -188q39 -24 62.5 -65.5t23.5 -94.5q0 -123 -84 -190.5t-215 -67.5q-104 0 -168 54.5t-64 147.5q0 73 42 128.5t116 87.5q-64 57 -64 143zM1399 340q-68 0 -115 -36.5t-47 -104.5q0 -44 33 -72.5t88 -28.5
q65 0 113.5 33t48.5 100q0 51 -31 80t-90 29zM1460 676q-59 0 -100 -32.5t-41 -94.5q0 -44 25.5 -71t76.5 -27q60 0 103 32.5t43 94.5q0 45 -29 71.5t-78 26.5z" />
    <glyph glyph-name="seveneighths" unicode="&#x215e;" horiz-adv-x="1837" 
d="M264 1343l15 70q3 21 24 21h463q16 0 16 -21l-6 -33q-3 -13 -14 -32l-340 -662q-9 -18 -29 -18h-86q-12 0 -12 10q0 4 6 16l324 629h-344q-17 0 -17 20zM127 86l1395 1341q7 7 14 7t14 -7l45 -51q9 -9 9 -14t-9 -14l-1394 -1342q-6 -6 -15 -6q-8 0 -14 6l-45 51
q-8 8 -8 15q0 6 8 14zM1163 549q0 109 76 169t193 60q90 0 147 -49.5t57 -134.5q0 -128 -123 -188q39 -24 62.5 -65.5t23.5 -94.5q0 -123 -84 -190.5t-215 -67.5q-104 0 -167.5 54.5t-63.5 147.5q0 73 42 128.5t116 87.5q-64 57 -64 143zM1354 340q-68 0 -115 -36.5
t-47 -104.5q0 -44 33 -72.5t88 -28.5q65 0 113.5 33t48.5 100q0 51 -31 80t-90 29zM1415 676q-59 0 -100 -32.5t-41 -94.5q0 -44 25.5 -71t76.5 -27q60 0 103 32.5t43 94.5q0 45 -29 71.5t-78 26.5z" />
    <glyph glyph-name="partialdiff" unicode="&#x2202;" horiz-adv-x="1220" 
d="M913 928q-25 184 -145.5 269t-331.5 91q-22 0 -22 29l20 102q6 15 33 15q296 0 459.5 -163t163.5 -483q0 -117 -19.5 -227.5t-66 -217.5t-116 -186.5t-178 -128t-243.5 -48.5q-180 0 -295 120t-115 316q0 100 23.5 193t71.5 173t115.5 139.5t160 93.5t199.5 34
q100 0 164.5 -29t121.5 -92zM621 897q-93 0 -168 -38.5t-122.5 -104t-72.5 -148.5t-25 -176q0 -135 64 -217t190 -82q119 0 210 62t136.5 160.5t45.5 215.5q0 328 -258 328z" />
    <glyph glyph-name="Delta" unicode="&#x2206;" horiz-adv-x="1337" 
d="M901 1413l252 -1237q2 -6 2 -22q0 -3 -4 -31l-21 -103q-3 -20 -24 -20h-1165q-17 0 -17 20l21 103q8 34 18 53l719 1237q12 21 31 21h166q16 0 22 -21zM987 164l-217 1100l-639 -1100h856z" />
    <glyph glyph-name="product" unicode="&#x220f;" horiz-adv-x="1386" 
d="M539 1270l-322 -1655q-3 -21 -24 -21h-138q-16 0 -16 21l348 1798q3 21 25 21h897q16 0 16 -21l-350 -1798q-3 -21 -25 -21h-139q-16 0 -16 21l321 1655h-577z" />
    <glyph glyph-name="summation" unicode="&#x2211;" horiz-adv-x="1191" 
d="M-154 -385l27 131q9 27 23 41l634 692q29 33 29 56q0 11 -10 34l-371 672q-10 20 -10 41l27 131q3 21 24 21h1004q16 0 16 -21l-25 -123q-3 -20 -24 -20h-819l374 -692q13 -26 13 -58t-39 -74l-635 -688h846q16 0 16 -20l-24 -123q-3 -21 -25 -21h-1034q-17 0 -17 21z
" />
    <glyph glyph-name="minus" unicode="&#x2212;" horiz-adv-x="1193" 
d="M180 780h864q17 0 17 -20l-23 -119q-3 -20 -24 -20h-864q-17 0 -17 20l23 119q3 20 24 20z" />
    <glyph glyph-name="radical" unicode="&#x221a;" horiz-adv-x="1255" 
d="M242 659h-148q-16 0 -16 21l20 111q3 20 25 20h252q21 0 24 -20l93 -574l624 1196q12 21 33 21h143q13 0 13 -9q0 -1 -1 -2.5t-2 -4.5t-2 -5l-731 -1393q-11 -20 -30 -20h-152q-22 0 -25 20z" />
    <glyph glyph-name="infinity" unicode="&#x221e;" horiz-adv-x="1800" 
d="M98 614q0 174 120 289t290 115q150 0 244.5 -73.5t138.5 -199.5q199 273 455 273q141 0 223 -88.5t82 -237.5q0 -174 -120 -288.5t-290 -114.5q-150 0 -244.5 73t-138.5 199q-198 -272 -455 -272q-142 0 -223.5 88t-81.5 237zM934 653q41 -129 119 -196.5t188 -67.5
q127 0 214 86.5t87 210.5q0 104 -55.5 168t-167.5 64q-99 0 -191.5 -68t-193.5 -197zM508 918q-127 0 -214 -86.5t-87 -210.5q0 -104 55.5 -168t167.5 -64q99 0 191.5 68t193.5 196q-41 130 -119 197.5t-188 67.5z" />
    <glyph glyph-name="integral" unicode="&#x222b;" horiz-adv-x="1034" 
d="M92 -117l420 1276q52 158 145.5 226.5t233.5 68.5q109 0 201 -45q16 -6 16 -18q0 -9 -2 -15l-21 -102q-3 -23 -18 -23q-7 0 -16 6q-79 46 -179 46q-144 0 -198 -158l-420 -1276q-53 -161 -133.5 -228t-212.5 -67q-122 0 -195 39q-12 9 -12 20q0 9 2 15l21 106q3 23 16 23
q9 0 18 -6q44 -25 77 -35t79 -10q125 0 178 157z" />
    <glyph glyph-name="approxequal" unicode="&#x2248;" horiz-adv-x="1146" 
d="M145 866q53 31 129 53.5t125 22.5q74 0 138.5 -21t122.5 -42t118 -21q45 0 81.5 11.5t86.5 39.5q12 4 15 4q6 0 16 -16l45 -94q4 -12 4 -15q0 -15 -20 -26q-57 -32 -130.5 -54t-123.5 -22q-74 0 -138.5 21t-122.5 42t-118 21q-45 0 -81.5 -11.5t-86.5 -39.5
q-12 -4 -15 -4q-6 0 -16 16l-45 94q-4 12 -4 15q0 15 20 26zM70 461q53 31 129 53.5t125 22.5q74 0 138 -21t122 -42t118 -21q45 0 81.5 11.5t86.5 39.5q12 4 15 4q6 0 16 -16l45 -95q4 -12 4 -14q0 -16 -20 -27q-56 -32 -130 -53.5t-124 -21.5q-74 0 -138.5 21t-122.5 42
t-118 21q-45 0 -81 -12t-87 -40q-12 -4 -14 -4q-7 0 -17 17l-45 94q-4 12 -4 14q0 15 21 27z" />
    <glyph glyph-name="notequal" unicode="&#x2260;" horiz-adv-x="1267" 
d="M248 903h506l215 277q9 12 18 12l12 -4l91 -60q10 -6 10 -16q-2 -6 -8 -12l-154 -197h174q16 0 16 -20l-22 -119q-6 -21 -25 -21h-266l-199 -256h414q17 0 17 -20l-23 -119q-3 -20 -25 -20h-507l-213 -277q-9 -12 -19 -12l-12 4l-88 59q-10 6 -10 17q2 6 8 12l151 197
h-174q-16 0 -16 20l22 119q3 20 25 20h266l199 256h-414q-16 0 -16 21l22 119q3 20 25 20z" />
    <glyph glyph-name="lessequal" unicode="&#x2264;" horiz-adv-x="1052" 
d="M-41 160h864q17 0 17 -21l-23 -119q-3 -20 -24 -20h-865q-16 0 -16 20l22 119q3 21 25 21zM838 428l-25 -129q-3 -14 -12 -14q-3 0 -15 4l-657 397q-16 10 -16 27l30 151q4 18 25 27l817 399q2 2 10 2q9 0 9 -14l-29 -150q-3 -16 -27 -28l-669 -322l544 -321
q15 -9 15 -29z" />
    <glyph glyph-name="greaterequal" unicode="&#x2265;" horiz-adv-x="1052" 
d="M-16 160h864q16 0 16 -21l-22 -119q-3 -20 -25 -20h-864q-16 0 -16 20l22 119q3 21 25 21zM217 1126l25 129q3 15 12 15q2 0 14 -4l658 -398q16 -10 16 -26l-31 -152q-3 -17 -24 -26l-817 -400q-2 -2 -11 -2q-8 0 -8 14l29 150q4 18 26 29l670 321l-545 322q-14 8 -14 28
z" />
    <glyph glyph-name="lozenge" unicode="&#x25ca;" horiz-adv-x="1101" 
d="M797 1413l270 -676q4 -12 4 -20q-3 -11 -10 -21l-537 -676q-11 -20 -32 -20h-160q-19 0 -25 20l-268 672q-4 9 -4 25q0 12 8 20l537 676q12 21 32 21h160q19 0 25 -21zM670 1278l-459 -565l225 -557l459 569z" />
    <glyph glyph-name="apple" unicode="&#xf8ff;" horiz-adv-x="1556" 
d="M1384 1264v-1219q0 -18 -12.5 -31.5t-32.5 -13.5q-8 0 -14 2l-547 158l-547 -158q-6 -2 -14 -2q-20 0 -32.5 13.5t-12.5 31.5v1219q0 36 33 45l553 159l20 5q1 0 21 -5l553 -159q32 -8 32 -45zM733 750v620l-471 -137q12 -190 146 -328t325 -155zM823 1370v-620
q191 17 325 155t146 328zM260 948v-844l473 138v417q-151 12 -275 88.5t-198 200.5zM1296 104v844q-76 -125 -199 -201t-274 -88v-417z" />
    <glyph glyph-name="fi" unicode="&#xfb01;" horiz-adv-x="1323" 
d="M737 877h-315l-168 -857q-3 -20 -25 -20h-127q-16 0 -16 20l168 857h-168q-16 0 -16 20l20 111q3 20 25 20h168l26 131q30 147 118.5 221t225.5 74q97 0 197 -51q14 -8 14 -29l-20 -100q-3 -19 -19 -19q-2 0 -4 1t-5 2t-5 2q-89 43 -170 43q-68 0 -111 -41.5t-57 -116.5
l-22 -117h315q16 0 16 -20l-20 -111q-6 -20 -25 -20zM811 20l193 988q3 20 24 20h127q16 0 16 -20l-192 -988q-3 -20 -25 -20h-127q-16 0 -16 20zM1020 1237l35 176q3 21 24 21h185q16 0 16 -21l-35 -176q-3 -20 -24 -20h-185q-16 0 -16 20z" />
    <glyph glyph-name="fl" unicode="&#xfb02;" horiz-adv-x="1300" 
d="M737 877h-315l-168 -857q-3 -20 -25 -20h-127q-16 0 -16 20l168 857h-168q-16 0 -16 20l20 111q3 20 25 20h168l26 131q30 147 118.5 221t225.5 74q97 0 197 -51q14 -8 14 -29l-20 -100q-3 -19 -19 -19q-2 0 -4 1t-5 2t-5 2q-89 43 -170 43q-68 0 -111 -41.5t-57 -116.5
l-22 -117h315q16 0 16 -20l-20 -111q-6 -20 -25 -20zM811 20l272 1393q3 21 25 21h127q16 0 16 -21l-272 -1393q-3 -20 -25 -20h-127q-16 0 -16 20z" />
    <glyph glyph-name="sterling.tosn" 
d="M352 403q4 28 4 29h-143q-16 0 -16 21l20 106q3 21 25 21h90q-10 38 -10 86q0 167 123.5 275t295.5 108q151 0 242.5 -80.5t91.5 -202.5q0 -19 -2 -37q-3 -20 -24 -20h-119q-17 0 -17 20q0 77 -47.5 122.5t-142.5 45.5q-101 0 -167.5 -71t-66.5 -171q0 -42 11 -75h360
q17 0 17 -21l-21 -106q-6 -21 -25 -21h-307q0 -7 -4 -35q-18 -88 -57.5 -143t-110.5 -102h606q17 0 17 -21l-21 -111q-6 -20 -24 -20h-770q-17 0 -17 20l19 97q4 25 22 41q82 68 118.5 120.5t49.5 124.5z" />
    <glyph glyph-name="dollar.tosn" 
d="M1012 330q0 -81 -31.5 -145.5t-88 -106.5t-128.5 -66t-158 -30l-33 -166q-3 -21 -24 -21h-119q-16 0 -16 21l32 172q-125 24 -200.5 96t-75.5 176q0 41 4 53q6 21 25 21h127q16 0 16 -21q0 -142 135 -174l64 330q-128 30 -200.5 94t-72.5 154q0 81 29 143t82.5 100
t121.5 59.5t152 27.5l33 161q3 21 25 21h118q17 0 17 -21l-35 -170q120 -26 185 -102t65 -182q0 -21 -25 -21h-114q-14 0 -17 21q-8 100 -123 131l-59 -303q289 -60 289 -252zM836 301q0 86 -142 133l-59 -299q83 8 142 50t59 116zM436 743q0 -48 30.5 -75.5t102.5 -51.5
l56 279q-81 -8 -135 -46t-54 -106z" />
    <glyph glyph-name="yen.tosn" 
d="M289 625h174l-162 383q0 20 16 20h150q19 0 25 -16l145 -365l287 365q16 16 28 16h158q12 0 12 -10q0 -2 -4 -10l-309 -383h172q16 0 16 -21l-20 -110q-6 -21 -25 -21h-266l-29 -145h226q16 0 16 -21l-22 -110q-3 -21 -25 -21h-223l-31 -156q-3 -20 -25 -20h-118
q-17 0 -17 20l31 156h-227q-17 0 -17 21l23 110q3 21 24 21h226l28 145h-266q-16 0 -16 21l20 110q3 21 25 21z" />
    <glyph glyph-name="cent.tosn" 
d="M414 -182l32 174q-146 36 -225.5 156t-79.5 288q0 237 142 404.5t370 199.5l33 170q3 21 25 21h131q16 0 16 -21l-33 -168q133 -20 223.5 -117t94.5 -229q0 -22 -19 -22h-125q-11 0 -16.5 3.5t-9.5 14.5q-24 169 -178 199l-148 -756q163 23 254 201q9 18 31 18h129
q12 0 12 -12q0 -8 -6 -20q-139 -314 -451 -340l-30 -164q-3 -21 -25 -21h-131q-16 0 -16 21zM317 438q0 -234 160 -291l146 736q-139 -37 -222.5 -158.5t-83.5 -286.5z" />
    <glyph glyph-name="multiply.tosn" 
d="M1030 768l-293 -252l199 -250q4 -8 4 -12q0 -6 -10 -16l-90 -78q-8 -8 -17 -8q-4 0 -12 8l-203 256l-303 -262q-9 -9 -14 -9q-6 0 -15 9l-79 96q-4 8 -4 12q0 7 10 17l309 258l-199 235q-4 8 -4 12q0 7 10 17l93 78q8 8 16 8q4 0 12 -8l197 -242l293 250q8 8 16 8
q4 0 12 -8l78 -90q4 -8 4 -13q0 -6 -10 -16z" />
    <glyph glyph-name="plus.tosn" 
d="M768 948l-70 -352h353q16 0 16 -21l-23 -118q-3 -21 -24 -21h-352l-70 -352q-3 -21 -23 -21h-126q-19 0 -19 21l70 352h-353q-16 0 -16 21l23 118q3 21 24 21h352l70 352q3 21 23 21h127q18 0 18 -21z" />
    <glyph glyph-name="minus.tosn" 
d="M178 596h864q17 0 17 -21l-23 -118q-3 -21 -24 -21h-865q-16 0 -16 21l23 118q3 21 24 21z" />
    <glyph glyph-name="divide.tosn" 
d="M178 512h864q17 0 17 -20l-23 -119q-3 -21 -24 -21h-865q-16 0 -16 21l23 119q3 20 24 20zM469 197h160q16 0 16 -21l-31 -156q-3 -20 -24 -20h-160q-16 0 -16 20l30 156q3 21 25 21zM600 864h160q16 0 16 -20l-31 -156q-3 -20 -24 -20h-160q-16 0 -16 20l30 156
q3 20 25 20z" />
    <glyph glyph-name="Euro.tosn" 
d="M98 453h115q11 90 23 122h-115q-17 0 -17 21l23 111q3 20 25 20h147q162 322 487 322q177 0 282.5 -102t105.5 -247q-3 -20 -25 -20h-121q-13 0 -16 20q-8 91 -66.5 144t-169.5 53q-99 0 -180 -45t-129 -125h256q16 0 16 -20l-22 -111q-3 -21 -25 -21h-289
q-19 -52 -22 -122h289q16 0 16 -21l-22 -110q-3 -21 -25 -21h-256q41 -170 244 -170q111 0 190.5 53t122.5 144q9 20 25 20h120q17 0 17 -20q-63 -168 -188 -258t-310 -90q-156 0 -259.5 84.5t-123.5 236.5h-153q-17 0 -17 21l23 110q3 21 24 21z" />
    <glyph glyph-name="equal.tosn" 
d="M238 784h864q16 0 16 -20l-22 -119q-6 -20 -25 -20h-864q-17 0 -17 20l23 119q3 20 25 20zM156 369h864q16 0 16 -21l-22 -119q-3 -20 -25 -20h-864q-16 0 -16 20l22 119q3 21 25 21z" />
    <glyph glyph-name="zero.tosn" 
d="M80 438q0 174 79 313.5t220.5 218.5t318.5 79q204 0 336.5 -124t132.5 -335q0 -174 -79 -313.5t-220.5 -218t-318.5 -78.5q-206 0 -337.5 123.5t-131.5 334.5zM678 897q-182 0 -302 -125t-120 -311q0 -152 81.5 -241t231.5 -89q182 0 302 125t120 311q0 152 -81.5 241
t-231.5 89z" />
    <glyph glyph-name="one.tosn" 
d="M236 152h253l125 651l-225 -111q-15 -6 -24 -6q-11 0 -11 19l27 137q3 21 29 30l288 146q23 10 33 10h76q16 0 16 -20l-166 -856h254q17 0 17 -21l-21 -111q-3 -20 -24 -20h-676q-17 0 -17 20l21 111q3 21 25 21z" />
    <glyph glyph-name="two.tosn" 
d="M131 20l16 86q5 24 29 48l490 344q44 31 67 50t51 49.5t40 65t12 76.5q0 70 -42.5 114t-125.5 44q-88 0 -148.5 -51.5t-85.5 -134.5q-7 -31 -33 -31h-112q-19 0 -19 31q36 162 150.5 250t265.5 88q150 0 234 -77.5t84 -199.5q0 -114 -52.5 -199.5t-154.5 -156.5
l-375 -264h479q17 0 17 -21l-21 -111q-3 -20 -25 -20h-725q-16 0 -16 20z" />
    <glyph glyph-name="three.tosn" 
d="M504 371l22 110q3 21 25 21h80q123 0 198.5 57t75.5 170q0 75 -49.5 121.5t-144.5 46.5q-90 0 -163.5 -53.5t-101.5 -149.5q-4 -16 -9.5 -19t-18.5 -3h-107q-22 0 -22 30q36 161 157 254t281 93q161 0 253.5 -84t92.5 -207q0 -115 -58.5 -196.5t-164.5 -125.5
q69 -37 109 -111t40 -171q0 -146 -63.5 -246t-169 -145.5t-246.5 -45.5q-104 0 -191.5 39.5t-142.5 118t-55 180.5q0 15 4 47q3 31 31 31h108q21 0 21 -24q0 -5 -1 -15.5t-1 -15.5q0 -102 63.5 -155.5t175.5 -53.5q130 0 214.5 68t84.5 196q0 102 -61.5 159.5t-163.5 57.5
h-86q-16 0 -16 21z" />
    <glyph glyph-name="four.tosn" 
d="M584 -262l51 262h-545q-16 0 -16 20l12 60q8 30 25 47l749 885q13 16 31 16h92q16 0 16 -20l-165 -856h172q16 0 16 -21l-23 -111q-3 -20 -24 -20h-172l-51 -262q-3 -21 -27 -21h-125q-16 0 -16 21zM770 682l-455 -530h351z" />
    <glyph glyph-name="five.tosn" 
d="M170 322l207 686q6 20 24 20h678q17 0 17 -20l-23 -111q-3 -20 -24 -20h-553l-121 -377q62 46 139 71t152 25q169 0 257.5 -107.5t88.5 -267.5q0 -226 -140.5 -365t-373.5 -139q-157 0 -266 93t-109 239q0 33 2 49q3 31 31 31h104q12 0 16.5 -6.5t4.5 -24.5
q4 -118 63.5 -173.5t175.5 -55.5q140 0 232 91t92 233q0 118 -59 184.5t-164 66.5q-156 0 -281 -125q-18 -18 -37 -18h-117q-16 0 -16 21z" />
    <glyph glyph-name="six.tosn" 
d="M150 430q0 117 22 236.5t70.5 236t117.5 207t171.5 146t224.5 55.5q149 0 247.5 -88t98.5 -228q0 -7 -2 -30q-3 -21 -27 -21h-108q-16 0 -19 21q-15 194 -207 194q-259 0 -370 -409q60 49 145 79.5t178 30.5q153 0 250.5 -99t97.5 -276q0 -222 -138 -363.5t-372 -141.5
q-172 0 -276 116t-104 334zM635 709q-139 0 -228.5 -94.5t-89.5 -237.5q0 -113 67 -179.5t163 -66.5q141 0 229 90.5t88 233.5q0 113 -62.5 183.5t-166.5 70.5z" />
    <glyph glyph-name="seven.tosn" 
d="M256 897l23 111q3 20 24 20h741q17 0 17 -20l-14 -70q-3 -14 -19 -43l-637 -1163q-9 -15 -26 -15h-119q-17 0 -17 15q0 4 4 12l621 1133h-582q-16 0 -16 20z" />
    <glyph glyph-name="eight.tosn" 
d="M311 930q0 164 122.5 272.5t307.5 108.5q142 0 239 -84t97 -228q0 -98 -57 -186t-154 -135q59 -37 96 -105t37 -155q0 -204 -134 -321t-345 -117q-160 0 -262 93t-102 236q0 136 64.5 225t193.5 154q-103 92 -103 242zM614 598q-122 0 -206 -72t-84 -194
q0 -96 60.5 -148.5t162.5 -52.5q123 0 203.5 69.5t80.5 196.5q0 91 -61.5 146t-155.5 55zM723 1159q-106 0 -179 -62t-73 -171q0 -81 53 -128.5t140 -47.5q100 0 172.5 60t72.5 165q0 85 -51.5 134.5t-134.5 49.5z" />
    <glyph glyph-name="nine.tosn" 
d="M1077 598q0 -117 -22 -236.5t-71 -236t-118 -207t-171.5 -146t-223.5 -55.5q-149 0 -247.5 88t-98.5 228q0 7 2 30q3 21 27 21h108q16 0 19 -21q15 -194 206 -194q259 0 371 410q-60 -50 -145 -80.5t-178 -30.5q-153 0 -251 99t-98 276q0 146 60.5 260t177.5 180t272 66
q172 0 276.5 -116.5t104.5 -334.5zM592 319q139 0 228 94.5t89 237.5q0 113 -66.5 179.5t-162.5 66.5q-140 0 -229 -92t-89 -232q0 -113 63 -183.5t167 -70.5z" />
    <glyph glyph-name="sterling.posn" horiz-adv-x="1042" 
d="M193 403q4 28 4 29h-144q-16 0 -16 21l20 106q3 21 25 21h90q-10 38 -10 86q0 167 124 275t296 108q151 0 242 -80t91 -203q0 -19 -2 -37q-3 -20 -24 -20h-119q-16 0 -16 20q0 77 -48 122.5t-143 45.5q-101 0 -167 -71t-66 -171q0 -45 10 -75h360q17 0 17 -21l-21 -106
q-6 -21 -24 -21h-307q0 -4 -1 -9.5t-2 -13t-2 -12.5q-18 -88 -57.5 -143t-109.5 -102h606q16 0 16 -21l-20 -111q-6 -20 -25 -20h-770q-16 0 -16 20l18 97q3 24 23 41q82 68 118.5 120.5t49.5 124.5z" />
    <glyph glyph-name="dollar.posn" horiz-adv-x="1036" 
d="M872 330q0 -81 -31.5 -145.5t-87.5 -106.5t-128 -66t-158 -30l-33 -166q-3 -21 -24 -21h-119q-17 0 -17 21l33 172q-125 24 -200.5 96t-75.5 176q0 41 4 53q6 21 24 21h127q17 0 17 -21q0 -142 135 -174l63 330q-127 30 -199.5 94t-72.5 154q0 81 29 143t82.5 100
t121.5 59.5t152 27.5l33 161q3 21 24 21h119q17 0 17 -21l-35 -170q120 -26 185 -102t65 -182q0 -21 -25 -21h-115q-13 0 -16 21q-8 100 -123 131l-59 -303q288 -60 288 -252zM696 301q0 87 -141 133l-59 -299q83 8 141.5 50t58.5 116zM297 743q0 -48 30.5 -75.5
t102.5 -51.5l55 279q-81 -8 -134.5 -46t-53.5 -106z" />
    <glyph glyph-name="yen.posn" horiz-adv-x="983" 
d="M129 625h174l-162 383q0 20 17 20h149q19 0 25 -16l145 -365l287 365q16 16 29 16h157q13 0 13 -10l-5 -10l-309 -383h172q17 0 17 -21l-21 -110q-6 -21 -24 -21h-267l-28 -145h225q16 0 16 -21l-22 -110q-3 -21 -25 -21h-223l-31 -156q-3 -20 -24 -20h-119q-16 0 -16 20
l30 156h-227q-16 0 -16 21l22 110q3 21 25 21h225l29 145h-267q-16 0 -16 21l20 110q3 21 25 21z" />
    <glyph glyph-name="cent.posn" horiz-adv-x="1148" 
d="M330 -180l32 174q-146 36 -225.5 156t-79.5 288q0 237 142 404.5t370 199.5l33 170q3 21 25 21h131q16 0 16 -21l-33 -168q133 -20 223.5 -117t94.5 -229q0 -22 -19 -22h-125q-11 0 -16.5 3.5t-9.5 14.5q-24 169 -178 199l-148 -756q163 23 254 201q9 18 31 18h129
q12 0 12 -12q0 -8 -6 -20q-139 -314 -451 -340l-30 -164q-3 -21 -25 -21h-131q-16 0 -16 21zM233 440q0 -233 160 -290l146 735q-139 -37 -222.5 -158.5t-83.5 -286.5z" />
    <glyph glyph-name="multiply.posn" horiz-adv-x="999" 
d="M866 768l-293 -252l199 -250q4 -8 4 -12q0 -6 -10 -16l-90 -78q-8 -8 -17 -8q-4 0 -12 8l-203 256l-303 -262q-9 -9 -14 -9t-14 9l-80 96q-4 8 -4 12q0 7 10 17l309 258l-198 235q-5 10 -5 12q0 6 11 17l92 78q8 8 16 8q4 0 12 -8l197 -242l293 250q8 8 16 8q5 0 13 -8
l77 -90q5 -10 5 -13q0 -5 -11 -16z" />
    <glyph glyph-name="plus.posn" horiz-adv-x="1138" 
d="M723 948l-70 -352h353q16 0 16 -21l-23 -118q-3 -21 -24 -21h-352l-70 -352q-3 -21 -23 -21h-127q-18 0 -18 21l70 352h-353q-16 0 -16 21l23 118q3 21 24 21h352l70 352q3 21 23 21h127q18 0 18 -21z" />
    <glyph glyph-name="minus.posn" horiz-adv-x="1130" 
d="M133 596h864q17 0 17 -21l-23 -118q-3 -21 -24 -21h-865q-16 0 -16 21l23 118q3 21 24 21z" />
    <glyph glyph-name="divide.posn" horiz-adv-x="1130" 
d="M109 512h864q16 0 16 -20l-22 -119q-3 -21 -25 -21h-864q-17 0 -17 21l23 119q3 20 25 20zM399 197h160q16 0 16 -21l-30 -156q-3 -20 -25 -20h-160q-16 0 -16 20l31 156q3 21 24 21zM530 864h160q17 0 17 -20l-31 -156q-3 -20 -25 -20h-159q-17 0 -17 20l31 156
q3 20 24 20z" />
    <glyph glyph-name="Euro.posn" horiz-adv-x="1236" 
d="M66 453h114q11 90 23 122h-115q-16 0 -16 21l22 111q3 20 25 20h147q162 322 488 322q177 0 282 -102t105 -247q-3 -20 -25 -20h-121q-13 0 -16 20q-8 91 -66.5 144t-169.5 53q-99 0 -180 -45t-129 -125h256q17 0 17 -20l-23 -111q-3 -21 -25 -21h-288q-20 -55 -23 -122
h289q16 0 16 -21l-22 -110q-3 -21 -25 -21h-256q41 -170 244 -170q111 0 190.5 53t122.5 144q9 20 25 20h121q16 0 16 -20q-63 -168 -188 -258t-310 -90q-156 0 -259.5 84.5t-123.5 236.5h-153q-17 0 -17 21l23 110q3 21 25 21z" />
    <glyph glyph-name="equal.posn" horiz-adv-x="1267" 
d="M231 784h865q16 0 16 -20l-22 -119q-6 -20 -25 -20h-864q-17 0 -17 20l23 119q3 20 24 20zM150 369h864q16 0 16 -21l-22 -119q-3 -20 -25 -20h-864q-17 0 -17 20l23 119q3 21 25 21z" />
    <glyph glyph-name="zero.posn" horiz-adv-x="1271" 
d="M57 438q0 174 79 313.5t221 218.5t319 79q204 0 336.5 -124t132.5 -335q0 -130 -46.5 -243.5t-127.5 -194t-196.5 -126.5t-248.5 -46q-206 0 -337.5 123.5t-131.5 334.5zM655 897q-182 0 -302 -125t-120 -311q0 -152 82 -241t232 -89q182 0 302 125t120 311
q0 152 -82 241t-232 89z" />
    <glyph glyph-name="one.posn" horiz-adv-x="675" 
d="M201 20l149 783l-225 -111q-15 -6 -25 -6t-10 19l27 137q3 22 28 30l289 146q23 10 33 10h76q16 0 16 -20l-190 -988q-3 -20 -25 -20h-127q-16 0 -16 20z" />
    <glyph glyph-name="two.posn" horiz-adv-x="1011" 
d="M6 20l17 86q6 26 28 48l490 344q44 31 67 50t51 49.5t40 65t12 76.5q0 70 -42.5 114t-125.5 44q-88 0 -148.5 -51.5t-85.5 -134.5q-7 -31 -33 -31h-112q-19 0 -19 31q36 162 150.5 250t265.5 88q150 0 234 -77.5t84 -199.5q0 -114 -52.5 -199.5t-154.5 -156.5l-375 -264
h479q17 0 17 -21l-21 -111q-3 -20 -24 -20h-725q-17 0 -17 20z" />
    <glyph glyph-name="three.posn" horiz-adv-x="1101" 
d="M393 371l23 110q3 21 24 21h80q123 0 199 57t76 170q0 75 -50 121.5t-145 46.5q-90 0 -163 -53.5t-101 -149.5q-4 -16 -10 -19t-19 -3h-106q-23 0 -23 30q36 161 157 254t281 93q161 0 254 -84t93 -207q0 -115 -58.5 -196.5t-165.5 -125.5q69 -38 109.5 -112t40.5 -170
q0 -146 -63.5 -246t-169 -145.5t-246.5 -45.5q-104 0 -192 39.5t-143 118t-55 180.5q0 7 5 47q3 31 30 31h109q20 0 20 -24q0 -5 -1 -15.5t-1 -15.5q0 -102 63.5 -155.5t176.5 -53.5q130 0 214.5 68t84.5 196q0 102 -61.5 159.5t-163.5 57.5h-86q-17 0 -17 21z" />
    <glyph glyph-name="four.posn" horiz-adv-x="1089" 
d="M469 -262l51 262h-545q-16 0 -16 20l12 60q8 30 25 47l749 885q13 16 31 16h92q17 0 17 -20l-166 -856h172q16 0 16 -21l-22 -111q-3 -20 -25 -20h-172l-51 -262q-3 -21 -27 -21h-125q-16 0 -16 21zM655 682l-454 -530h350z" />
    <glyph glyph-name="five.posn" horiz-adv-x="1095" 
d="M68 322l206 686q6 20 25 20h678q16 0 16 -20l-22 -111q-3 -20 -25 -20h-553l-121 -377q62 46 139 71t152 25q169 0 257.5 -107.5t88.5 -267.5q0 -226 -140.5 -365t-373.5 -139q-157 0 -266 93t-109 239q0 25 3 49q3 31 30 31h105q12 0 16 -6t4 -25q4 -117 63.5 -173
t176.5 -56q140 0 231.5 91t91.5 233q0 118 -59 184.5t-164 66.5q-155 0 -280 -125q-18 -18 -37 -18h-117q-16 0 -16 21z" />
    <glyph glyph-name="six.posn" horiz-adv-x="1138" 
d="M74 430q0 117 22 236.5t70.5 236t117.5 207t171.5 146t224.5 55.5q149 0 247.5 -88t98.5 -228q0 -7 -2 -30q-3 -21 -27 -21h-108q-16 0 -19 21q-15 194 -206 194q-260 0 -371 -409q60 49 145 79.5t178 30.5q153 0 251 -99t98 -276q0 -222 -138 -363.5t-372 -141.5
q-172 0 -276.5 116t-104.5 334zM559 709q-139 0 -228 -94.5t-89 -237.5q0 -113 66.5 -179.5t162.5 -66.5q141 0 229 90.5t88 233.5q0 113 -62.5 183.5t-166.5 70.5z" />
    <glyph glyph-name="seven.posn" horiz-adv-x="921" 
d="M106 897l23 111q3 20 25 20h741q16 0 16 -20l-14 -70q-3 -17 -18 -43l-637 -1163q-9 -15 -27 -15h-119q-16 0 -16 15q0 4 4 12l621 1133h-582q-17 0 -17 20z" />
    <glyph glyph-name="eight.posn" horiz-adv-x="1071" 
d="M211 930q0 164 122.5 272.5t307.5 108.5q142 0 239 -84t97 -228q0 -98 -57 -186t-154 -135q59 -37 96 -105t37 -155q0 -204 -134 -321t-345 -117q-161 0 -263 93t-102 236q0 136 64.5 225t193.5 154q-102 91 -102 242zM514 598q-122 0 -206.5 -72t-84.5 -194
q0 -96 60.5 -148.5t162.5 -52.5q123 0 204 69.5t81 196.5q0 91 -61.5 146t-155.5 55zM623 1159q-106 0 -179 -62t-73 -171q0 -81 52.5 -128.5t139.5 -47.5q100 0 173 60t73 165q0 85 -51.5 134.5t-134.5 49.5z" />
    <glyph glyph-name="nine.posn" horiz-adv-x="1144" 
d="M985 598q0 -117 -22 -236.5t-71 -236t-118 -207t-171.5 -146t-223.5 -55.5q-149 0 -247.5 88t-98.5 228q0 7 2 30q3 21 26 21h109q10 0 13 -4.5t5 -16.5q15 -194 207 -194q259 0 371 410q-60 -50 -145.5 -80.5t-178.5 -30.5q-153 0 -250.5 99t-97.5 276q0 146 60.5 260
t177.5 180t272 66q172 0 276.5 -116.5t104.5 -334.5zM500 319q139 0 228 94.5t89 237.5q0 113 -66.5 179.5t-162.5 66.5q-140 0 -229 -92t-89 -232q0 -113 63 -183.5t167 -70.5z" />
    <glyph glyph-name="ampersand.alt" horiz-adv-x="1318" 
d="M1247 696h-188l-43 -219q-52 -258 -197.5 -377.5t-361.5 -119.5q-95 0 -172.5 31t-127.5 83.5t-77 121t-27 144.5q0 163 83.5 272t236.5 165q-125 95 -125 262q0 183 129.5 289t335.5 106h186q19 0 19 -20l-25 -119q-3 -21 -25 -21h-180q-124 0 -203 -61t-79 -182
q0 -88 64 -141.5t173 -53.5h279l39 203q3 20 24 20h127q16 0 16 -20l-38 -203h188q18 0 18 -22l-22 -115q-7 -23 -27 -23zM848 477l43 219h-305q-149 0 -253 -86t-104 -233q0 -112 68 -175t184 -63q137 0 235 84t132 254z" />
    <glyph glyph-name="braceleft.ss03" horiz-adv-x="808" 
d="M410 549l-39 -195q-13 -67 -13 -90q0 -54 28.5 -77t84.5 -23h80q16 0 16 -21l-24 -123q-3 -20 -25 -20h-80q-260 0 -260 236q0 48 12 118l31 162q6 30 6 45q0 40 -22 57t-68 17h-61q-17 0 -17 20l23 123q3 21 24 21h62q112 0 133 119l31 161q39 200 130.5 277.5
t250.5 77.5h86q16 0 16 -21l-24 -123q-3 -20 -25 -20h-80q-72 0 -114 -52t-66 -161l-33 -172q-25 -135 -156 -168q95 -30 95 -127q0 -25 -2 -41z" />
    <glyph glyph-name="braceright.ss03" horiz-adv-x="808" 
d="M399 885l39 194q13 67 13 90q0 54 -28.5 77.5t-84.5 23.5h-80q-16 0 -16 20l24 123q3 21 25 21h80q260 0 260 -236q0 -43 -13 -119l-30 -161q-6 -30 -6 -46q0 -40 22 -56.5t68 -16.5h61q17 0 17 -21l-23 -123q-3 -20 -25 -20h-61q-112 0 -133 -119l-31 -162
q-39 -200 -130.5 -277t-250.5 -77h-86q-16 0 -16 20l24 123q3 21 25 21h80q72 0 114 52t66 161l33 172q25 135 156 168q-95 30 -95 127q0 25 2 41z" />
    <glyph glyph-name="bracketleft.ss03" horiz-adv-x="856" 
d="M57 20l273 1393q3 21 24 21h514q17 0 17 -21l-25 -123q-3 -20 -24 -20h-355l-215 -1106h355q16 0 16 -21l-25 -123q-3 -20 -24 -20h-514q-17 0 -17 20z" />
    <glyph glyph-name="bracketright.ss03" horiz-adv-x="856" 
d="M799 1413l-273 -1393q-3 -20 -24 -20h-514q-17 0 -17 20l25 123q3 21 24 21h355l215 1106h-354q-17 0 -17 20l25 123q3 21 24 21h514q17 0 17 -21z" />
    <glyph glyph-name="parenleft.ss03" horiz-adv-x="698" 
d="M326 743l-11 -57q-18 -102 -18 -176q0 -127 48 -208t163 -173q6 -6 6 -10q0 -9 -10 -19l-90 -96q-8 -8 -17 -8q-8 0 -14 6q-270 209 -270 498q0 63 12 129l41 215q17 91 49.5 167.5t72.5 134t98.5 111t116.5 93.5t138 86q12 4 14 4q10 0 13 -6l73 -111q4 -8 4 -12
q0 -8 -12 -17q-67 -45 -105.5 -72.5t-86 -67.5t-75.5 -76.5t-57.5 -87t-48.5 -111t-34 -136.5z" />
    <glyph glyph-name="parenright.ss03" horiz-adv-x="698" 
d="M383 692l10 58q19 108 19 176q0 127 -48 208t-163 173q-6 6 -6 10q0 8 10 18l90 97q8 8 16 8q9 0 15 -6q270 -209 270 -498q0 -63 -12 -129l-41 -215q-17 -91 -49.5 -167.5t-72.5 -134t-98.5 -111t-116.5 -93.5t-138 -86q-12 -4 -15 -4q-9 0 -12 6l-74 111q-4 8 -4 12
q0 7 12 16q57 38 91 62t77.5 58.5t69 62.5t55.5 68t48.5 82.5t36 97t30.5 120.5z" />
    <glyph glyph-name="braceleft.case" horiz-adv-x="815" 
d="M438 535l-69 -359q-15 -77 -15 -104q0 -59 26.5 -84t84.5 -25h80q16 0 16 -20l-24 -123q-3 -21 -25 -21h-84q-118 0 -186 69.5t-68 201.5q0 47 14 129l60 303q4 28 4 41q0 94 -107 94h-53q-16 0 -16 20l22 123q3 21 25 21h53q131 0 156 135l59 303q44 225 130.5 312
t264.5 87h84q17 0 17 -20l-25 -123q-3 -20 -24 -20h-80q-73 0 -115 -52.5t-63 -160.5l-70 -359q-17 -79 -54 -119.5t-110 -64.5q96 -33 96 -144q0 -22 -4 -40z" />
    <glyph glyph-name="braceright.case" horiz-adv-x="815" 
d="M371 903l69 359q15 77 15 104q0 59 -26.5 84t-84.5 25h-80q-16 0 -16 20l24 123q3 20 25 20h84q118 0 186 -69t68 -201q0 -47 -14 -129l-60 -303q-4 -28 -4 -41q0 -94 107 -94h53q16 0 16 -21l-22 -123q-3 -20 -25 -20h-53q-131 0 -156 -135l-59 -303
q-44 -225 -131 -312.5t-264 -87.5h-84q-17 0 -17 21l25 123q3 20 24 20h80q73 0 115 52.5t63 160.5l70 359q17 79 54 119.5t110 64.5q-96 33 -96 143q0 23 4 41z" />
    <glyph glyph-name="bracketleft.case" horiz-adv-x="915" 
d="M-18 -180l350 1798q3 20 24 20h514q17 0 17 -20l-25 -123q-3 -20 -24 -20h-355l-293 -1512h355q16 0 16 -20l-24 -123q-3 -21 -25 -21h-514q-16 0 -16 21z" />
    <glyph glyph-name="bracketright.case" horiz-adv-x="915" 
d="M879 1618l-351 -1798q-3 -21 -24 -21h-514q-17 0 -17 21l25 123q3 20 25 20h354l293 1512h-355q-16 0 -16 20l25 123q3 20 24 20h514q17 0 17 -20z" />
    <glyph glyph-name="parenleft.case" horiz-adv-x="792" 
d="M414 862l-56 -280q-32 -152 -32 -273q0 -77 23 -138.5t62.5 -113.5t120.5 -137q7 -7 7 -12q0 -8 -9 -17l-84 -96q-10 -10 -16 -10t-14 8q-136 132 -201 249t-65 257q0 100 22 219l80 408q20 106 49 188.5t67 149t99.5 131.5t129.5 121.5t175 134.5q9 6 14 6q8 0 13 -8
l71 -99q4 -8 4 -12q0 -6 -10 -16q-95 -69 -154.5 -119t-111 -106t-83.5 -117.5t-56.5 -137t-44.5 -180.5z" />
    <glyph glyph-name="parenright.case" horiz-adv-x="792" 
d="M389 580l55 280q33 156 33 273q0 110 -43.5 187t-163.5 202q-6 6 -6 12q0 8 8 16l84 97q10 10 17 10q6 0 14 -8q136 -132 201 -249t65 -257q0 -100 -22 -219l-80 -408q-20 -106 -49 -188.5t-67 -149t-99.5 -131.5t-129.5 -121.5t-175 -134.5q-9 -6 -15 -6q-7 0 -12 8
l-72 98q-4 8 -4 13t11 16q95 69 154.5 119t111 106t83.5 117.5t56.5 137t44.5 180.5z" />
    <glyph glyph-name="bullet.case" horiz-adv-x="780" 
d="M209 717q0 79 56.5 135.5t135.5 56.5q80 0 136.5 -56.5t56.5 -135.5t-57 -136t-136 -57t-135.5 56.5t-56.5 136.5z" />
    <glyph glyph-name="exclamdown.case" horiz-adv-x="718" 
d="M301 0h-139q-17 0 -17 20l195 998q3 20 25 20h139q16 0 16 -20l-194 -998q-3 -20 -25 -20zM557 1229h-172q-16 0 -16 20l32 164q3 21 25 21h172q16 0 16 -21l-32 -164q-3 -20 -25 -20z" />
    <glyph glyph-name="questiondown.case" horiz-adv-x="1120" 
d="M971 385q-44 -177 -179.5 -291t-338.5 -114q-164 0 -268.5 90t-104.5 247q0 67 23 124t60.5 99t83.5 79t94.5 72.5t90 71t72.5 81.5t41 98l14 76q3 20 25 20h139q16 0 16 -20l-12 -62q-15 -77 -49 -140t-76 -105t-89.5 -78.5t-92 -68t-80.5 -64t-58 -76t-22 -96.5
q0 -87 56.5 -136t158.5 -49q112 0 196 61t124 181q6 21 24 21h135q17 0 17 -21zM776 1229h-172q-16 0 -16 20l33 164q3 21 24 21h172q17 0 17 -21l-33 -164q-3 -20 -25 -20z" />
    <glyph glyph-name="at.case" horiz-adv-x="1654" 
d="M1444 852q0 230 -131 352.5t-383 122.5q-211 0 -372 -94.5t-244 -250t-83 -345.5q0 -135 44 -247t118.5 -185t172 -112.5t206.5 -39.5q131 0 224.5 22.5t185.5 69.5q2 2 10 2q9 0 12 -10l41 -90q2 -2 2 -8q0 -4 -2 -6t-6 -5t-6 -5q-195 -97 -467 -97q-133 0 -255 49
t-216 137.5t-150.5 223t-56.5 293.5q0 173 58.5 323t166 261.5t272.5 176t367 64.5q181 0 325.5 -75t225 -206.5t80.5 -293.5q0 -160 -44 -291t-134.5 -212t-212.5 -81q-68 0 -117 34.5t-67 90.5q-69 -64 -138.5 -94.5t-154.5 -30.5q-129 0 -212 90.5t-83 232.5
q0 209 131.5 348.5t329.5 139.5q163 0 229 -115l29 84q7 17 20 17h94q7 0 10 -2.5t3 -5v-9.5l-129 -430q-23 -77 -23 -129q0 -106 96 -106q73 0 128 68.5t80.5 167t25.5 206.5zM1044 786q0 205 -163 205q-78 0 -140.5 -31.5t-100.5 -84t-58.5 -117t-20.5 -133.5
q0 -105 47.5 -160t124.5 -55q62 0 114.5 25.5t88 66t60.5 91t36.5 100t11.5 93.5z" />
    <glyph glyph-name="guilsinglleft.case" horiz-adv-x="733" 
d="M682 1219l-35 -185q-6 -22 -20 -33l-365 -284l254 -287q10 -10 10 -20q0 -7 -2 -13l-32 -157q-3 -15 -15 -15q-6 0 -12 6l-356 406q-15 15 -15 37l23 112q7 23 26 37l516 404q9 6 13 6q10 0 10 -14z" />
    <glyph glyph-name="guilsinglright.case" horiz-adv-x="733" 
d="M86 215l35 184q6 22 20 33l365 285l-254 287q-10 10 -10 20q0 6 2 12l32 158q3 14 15 14q6 0 12 -6l356 -405q15 -15 15 -37l-23 -113q-7 -23 -26 -37l-516 -403q-9 -6 -13 -6q-10 0 -10 14z" />
    <glyph glyph-name="guillemotleft.case" horiz-adv-x="1169" 
d="M1118 1219l-35 -185q-6 -22 -20 -33l-365 -284l254 -287q11 -11 11 -20q0 -7 -2 -13l-33 -157q-3 -15 -15 -15q-6 0 -12 6l-356 406q-15 15 -15 37l23 112q6 22 27 37l516 404q9 6 12 6q10 0 10 -14zM682 1219l-35 -185q-6 -22 -20 -33l-365 -284l254 -287q10 -10 10 -20
q0 -7 -2 -13l-32 -157q-3 -15 -15 -15q-6 0 -12 6l-356 406q-15 15 -15 37l23 112q7 23 26 37l516 404q9 6 13 6q10 0 10 -14z" />
    <glyph glyph-name="guillemotright.case" horiz-adv-x="1169" 
d="M86 215l35 184q6 22 20 33l365 285l-254 287q-10 10 -10 20q0 6 2 12l32 158q3 14 15 14q6 0 12 -6l356 -405q15 -15 15 -37l-23 -113q-7 -23 -26 -37l-516 -403q-9 -6 -13 -6q-10 0 -10 14zM522 215l35 184q6 21 21 33l364 285l-254 287q-10 10 -10 20q0 6 2 12l33 158
q3 14 14 14q6 0 12 -6l357 -405q14 -14 14 -37l-23 -113q-7 -23 -26 -37l-516 -403q-9 -6 -13 -6q-10 0 -10 14z" />
    <glyph glyph-name="zero.tn" 
d="M70 547q0 108 19 215t55.5 209t95 189.5t133 153t174 103t213.5 37.5q194 0 317 -147t123 -420q0 -108 -19 -215t-55.5 -209t-95 -189.5t-133 -153t-174 -103t-213.5 -37.5q-194 0 -317 147t-123 420zM741 1294q-99 0 -182.5 -44t-140 -118t-96.5 -171t-58 -201.5
t-18 -212.5q0 -408 282 -408q99 0 182.5 44.5t140.5 118t96.5 171t58 202t18.5 212.5q0 407 -283 407z" />
    <glyph glyph-name="one.tn" 
d="M940 0h-829q-17 0 -17 20l25 119q3 21 24 21h326l203 1042l-303 -145q-15 -6 -25 -6t-10 18l26 141q6 18 29 31l369 182q18 11 33 11h81q17 0 17 -21l-244 -1253h328q16 0 16 -21l-24 -119q-3 -20 -25 -20z" />
    <glyph glyph-name="two.tn" 
d="M45 20l18 86q6 32 29 48l672 561q111 94 158 168t47 180t-62.5 168.5t-177.5 62.5q-129 0 -214 -79.5t-107 -196.5q-7 -31 -33 -31h-117q-20 0 -20 17q0 8 2 14q19 97 57.5 174.5t99.5 137.5t151 92t204 32q175 0 284 -106.5t109 -266.5q0 -141 -69.5 -253t-205.5 -226
l-532 -442h651q17 0 17 -21l-25 -119q-3 -20 -25 -20h-895q-16 0 -16 20z" />
    <glyph glyph-name="three.tn" 
d="M500 707l20 114q3 23 29 23h104q61 0 115 14t99 42t71.5 77.5t26.5 114.5q0 95 -57 148.5t-167 53.5t-193.5 -63.5t-115.5 -169.5q-4 -16 -10.5 -20.5t-20.5 -4.5h-118q-27 0 -21 35q45 176 175 279.5t321 103.5q169 0 272 -91t103 -233q0 -132 -63 -221t-179 -135
q80 -34 131 -109.5t51 -191.5q0 -244 -145.5 -368.5t-395.5 -124.5q-182 0 -302.5 111t-120.5 276q0 19 4 55q6 35 32 35h111q23 0 23 -27q0 -6 -1.5 -20t-1.5 -27q0 -113 69 -178.5t206 -65.5q163 0 254.5 82t91.5 236q0 111 -66 169t-194 58h-117q-20 0 -20 23z" />
    <glyph glyph-name="four.tn" 
d="M643 20l53 275h-618q-15 0 -15 20l15 76q8 31 24 47l836 979q14 17 31 17h106q17 0 17 -21l-187 -958h197q16 0 16 -21l-24 -119q-3 -20 -25 -20h-197l-53 -275q-3 -20 -26 -20h-134q-16 0 -16 20zM850 1085l-526 -630h405z" />
    <glyph glyph-name="five.tn" 
d="M178 668l230 745q6 21 24 21h762q16 0 16 -21l-24 -119q-3 -20 -25 -20h-624l-140 -424q163 100 330 100q182 0 281.5 -103t99.5 -296q0 -256 -156.5 -413.5t-423.5 -157.5q-173 0 -289 103.5t-116 262.5q0 32 4 53q6 31 31 31h112q12 0 16.5 -6.5t4.5 -24.5
q0 -120 68.5 -190t191.5 -70q166 0 271.5 107t105.5 278q0 267 -258 267q-148 0 -310 -125q-2 -1 -9 -6.5t-9.5 -7t-8 -3.5t-11.5 -2h-127q-17 0 -17 21z" />
    <glyph glyph-name="six.tn" 
d="M127 457q0 127 18 248t53.5 233.5t92 205.5t130 162.5t172 108.5t212.5 39q172 0 279.5 -100t107.5 -256q-7 -21 -27 -21h-123q-18 0 -18 21q-10 104 -75 154.5t-163 50.5q-154 0 -267 -128.5t-165 -394.5q151 146 369 146q168 0 276.5 -112.5t108.5 -305.5
q0 -239 -154 -383.5t-411 -144.5q-183 0 -299.5 127.5t-116.5 349.5zM674 766q-159 0 -265 -96.5t-106 -257.5q0 -125 70 -199t192 -74q157 0 262 100t105 261q0 121 -67 193.5t-191 72.5z" />
    <glyph glyph-name="seven.tn" 
d="M287 1294l24 119q3 21 25 21h870q17 0 17 -21l-17 -78q-13 -40 -20 -51l-723 -1270q-8 -14 -27 -14h-135q-16 0 -16 14q0 3 1 5.5t2.5 6t2.5 5.5l704 1243h-692q-16 0 -16 20z" />
    </font>
</defs>
</svg>
