<?xml version="1.0" standalone="no"?>
<!DOCTYPE svg PUBLIC "-//W3C//DTD SVG 1.1//EN" "http://www.w3.org/Graphics/SVG/1.1/DTD/svg11.dtd" >
<svg xmlns="http://www.w3.org/2000/svg" xmlns:xlink="http://www.w3.org/1999/xlink" version="1.1">
<metadata>
Created by FontForge 20201107 at Wed Sep 11 12:56:54 2024
 By 
Copyright (c) 2011 by Colophon Foundry. All rights reserved. |DCNT
</metadata>
<defs>
<font id="Relative-Faux" horiz-adv-x="1232" >
  <font-face 
    font-family="Relative"
    font-weight="390"
    font-stretch="normal"
    units-per-em="2048"
    panose-1="2 0 5 6 4 0 0 2 0 4"
    ascent="1638"
    descent="-410"
    x-height="1028"
    cap-height="1434"
    bbox="-127 -492 1878 2044"
    underline-thickness="102"
    underline-position="-204"
    unicode-range="U+000D-FB02"
  />
<missing-glyph horiz-adv-x="1187" 
d="M1032 1413v-1393q0 -20 -20 -20h-836q-20 0 -20 20v1393q0 21 20 21h836q20 0 20 -21zM860 1270h-532v-1106h532v1106z" />
    <glyph glyph-name=".notdef" horiz-adv-x="1187" 
d="M1032 1413v-1393q0 -20 -20 -20h-836q-20 0 -20 20v1393q0 21 20 21h836q20 0 20 -21zM860 1270h-532v-1106h532v1106z" />
    <glyph glyph-name=".null" horiz-adv-x="0" 
 />
    <glyph glyph-name=".null" horiz-adv-x="0" 
 />
    <glyph glyph-name="nonmarkingreturn" horiz-adv-x="682" 
 />
    <glyph glyph-name="CR" unicode="&#xd;" horiz-adv-x="0" 
 />
    <glyph glyph-name="space" unicode=" " horiz-adv-x="499" 
 />
    <glyph glyph-name="exclam" unicode="!" horiz-adv-x="487" 
d="M154 221h180q20 0 20 -20v-181q0 -20 -20 -20h-180q-21 0 -21 20v181q0 20 21 20zM178 1434h131q21 0 21 -21v-1014q0 -20 -21 -20h-131q-20 0 -20 20v1014q0 21 20 21z" />
    <glyph glyph-name="quotedbl" unicode="&#x22;" horiz-adv-x="774" 
d="M139 983v430q0 21 21 21h119q20 0 20 -21v-430q0 -20 -20 -20h-119q-21 0 -21 20zM475 983v430q0 21 21 21h118q21 0 21 -21v-430q0 -20 -21 -20h-118q-21 0 -21 20z" />
    <glyph glyph-name="numbersign" unicode="#" horiz-adv-x="1417" 
d="M745 20l66 386h-315l-66 -386q-3 -20 -22 -20h-132q-18 0 -18 20l66 386h-213q-21 0 -21 20v123q0 20 21 20h241l51 295h-210q-21 0 -21 21v123q0 20 21 20h237l68 385q3 21 22 21h131q19 0 19 -21l-68 -385h316l67 385q3 21 23 21h131q18 0 18 -21l-67 -385h215
q20 0 20 -20v-123q0 -21 -20 -21h-242l-51 -295h211q20 0 20 -20v-123q0 -20 -20 -20h-240l-65 -386q-3 -20 -23 -20h-131q-19 0 -19 20zM575 864l-51 -295h316l51 295h-316z" />
    <glyph glyph-name="dollar" unicode="$" horiz-adv-x="1114" 
d="M100 1059q0 162 103.5 265t263.5 124v170q0 20 20 20h131q21 0 21 -20v-172q168 -24 266.5 -130.5t98.5 -252.5q0 -21 -21 -21h-131q-21 0 -21 21q0 74 -53 135t-139 84v-477q80 -24 135 -45t110 -53t87.5 -69t52.5 -89.5t20 -118.5q0 -102 -32 -184.5t-88.5 -136
t-128.5 -85t-156 -40.5v-168q0 -21 -21 -21h-131q-20 0 -20 21v172q-182 25 -291.5 141.5t-109.5 294.5q0 20 20 20h131q21 0 21 -20q0 -97 59 -172t170 -100v532q-185 54 -276 137.5t-91 237.5zM872 416q0 83 -59.5 133.5t-173.5 85.5v-488q233 34 233 269zM272 1071
q0 -85 49.5 -134t145.5 -83v430q-89 -19 -142 -75.5t-53 -137.5z" />
    <glyph glyph-name="percent" unicode="%" horiz-adv-x="1662" 
d="M1569 367q0 -90 -27 -161.5t-73 -115.5t-101.5 -67t-116.5 -23t-117 23t-101 67t-72 115.5t-27 161.5q0 175 93.5 270.5t223.5 95.5q61 0 116.5 -23t101.5 -66.5t73 -115t27 -161.5zM1440 367q0 119 -56 180t-133 61t-132.5 -61t-55.5 -180t55.5 -180.5t132.5 -61.5
t133 61.5t56 180.5zM729 1067q0 -90 -27 -161.5t-72.5 -115.5t-101 -67t-116.5 -23q-130 0 -224 96t-94 271t94 271t224 96q61 0 116.5 -23t101 -67t72.5 -115.5t27 -161.5zM600 1067q0 119 -55.5 180.5t-132.5 61.5t-133 -61.5t-56 -180.5t56 -180.5t133 -61.5t132.5 61.5
t55.5 180.5zM336 78l926 1343q13 19 28 4l60 -41q19 -12 6 -28l-926 -1344q-13 -20 -29 -4l-59 41q-19 13 -6 29z" />
    <glyph glyph-name="ampersand" unicode="&#x26;" horiz-adv-x="1300" 
d="M1219 571h-140q-11 -177 -86 -317l160 -221q6 -18 6 -19q0 -14 -16 -14h-156q-14 0 -26 18l-72 101q-151 -139 -375 -139q-84 0 -159.5 28t-136 81.5t-96.5 140.5t-36 196q0 256 287 422l-6 10q-54 79 -77.5 145.5t-23.5 145.5q0 132 90.5 218.5t245.5 86.5
q152 0 240 -85.5t88 -205.5q0 -116 -52 -188t-157 -125l-111 -55l271 -381q43 128 43 303q0 18 20 18h275q20 0 20 -20v-123q0 -21 -20 -21zM514 139q179 0 279 115l-328 465q-107 -66 -157 -142t-50 -174q0 -119 74 -191.5t182 -72.5zM430 1133q0 -44 20.5 -90.5
t73.5 -120.5l121 55q121 54 121 176q0 63 -44.5 106.5t-119.5 43.5q-80 0 -126 -45.5t-46 -124.5z" />
    <glyph glyph-name="quotesingle" unicode="'" horiz-adv-x="438" 
d="M139 983v430q0 21 21 21h119q20 0 20 -21v-430q0 -20 -20 -20h-119q-21 0 -21 20z" />
    <glyph glyph-name="parenleft" unicode="(" horiz-adv-x="688" 
d="M332 655v-280q0 -100 3 -162t14.5 -123.5t28.5 -101t51 -87.5t76.5 -89t110.5 -99q9 -9 9 -14q0 -7 -7 -14l-92 -97q-8 -8 -14 -8q-8 0 -14 6q-89 74 -148.5 140t-97.5 127t-58 134.5t-27 146t-7 177.5v408q0 105 7 177.5t27 146t58 134.5t97.5 127t148.5 140q6 6 14 6
q6 0 14 -8l92 -96q7 -7 7 -15q0 -5 -9 -14q-68 -58 -110.5 -99t-76.5 -89t-51 -87.5t-28.5 -101t-14.5 -123.5t-3 -162z" />
    <glyph glyph-name="parenright" unicode=")" horiz-adv-x="688" 
d="M356 375v280q0 100 -3 162t-14.5 123.5t-28.5 101t-51 87.5t-76.5 89t-110.5 99q-9 9 -9 14q0 8 7 15l92 96q8 8 14 8q8 0 14 -6q89 -74 148.5 -140t97.5 -127t58 -134.5t27 -146t7 -177.5v-408q0 -105 -7 -177.5t-27 -146t-58 -134.5t-97.5 -127t-148.5 -140
q-6 -6 -14 -6q-6 0 -14 8l-92 97q-7 7 -7 14q0 5 9 14q68 58 110.5 99t76.5 89t51 87.5t28.5 101t14.5 123.5t3 162z" />
    <glyph glyph-name="asterisk" unicode="*" horiz-adv-x="884" 
d="M98 1147l33 98q3 15 14 15q5 0 11 -3l215 -69v225q0 21 20 21h103q20 0 20 -21v-225l215 69q6 3 10 3q12 0 15 -15l32 -98v-4q0 -2 2 -4q0 -11 -16 -17l-215 -69l131 -185q6 -9 6 -14t-10 -12l-84 -62q-8 -4 -12 -4q-5 0 -15 10l-131 183l-131 -183q-10 -10 -14 -10
t-12 4l-84 62q-11 7 -11 12q0 4 7 14l131 185l-215 69q-17 7 -17 17v4q0 2 2 4z" />
    <glyph glyph-name="plus" unicode="+" horiz-adv-x="1105" 
d="M633 1114v-334h334q20 0 20 -20v-119q0 -20 -20 -20h-334v-334q0 -21 -21 -21h-118q-21 0 -21 21v334h-334q-20 0 -20 20v119q0 20 20 20h334v334q0 21 21 21h118q21 0 21 -21z" />
    <glyph glyph-name="comma" unicode="," horiz-adv-x="489" 
d="M158 -111q58 0 74 19.5t16 77.5v14h-90q-21 0 -21 20v168q0 21 21 21h168q20 0 20 -21v-200q0 -89 -36.5 -137t-108.5 -48h-43q-21 0 -21 21v45q0 20 21 20z" />
    <glyph glyph-name="hyphen" unicode="-" horiz-adv-x="1007" 
d="M139 780h729q21 0 21 -20v-119q0 -20 -21 -20h-729q-20 0 -20 20v119q0 20 20 20z" />
    <glyph glyph-name="period" unicode="." horiz-adv-x="489" 
d="M158 209h168q20 0 20 -21v-168q0 -20 -20 -20h-168q-21 0 -21 20v168q0 21 21 21z" />
    <glyph glyph-name="slash" unicode="/" horiz-adv-x="841" 
d="M49 20l600 1393q9 21 29 21h131q21 0 12 -21l-600 -1393q-9 -20 -26 -20h-132q-23 0 -14 20z" />
    <glyph glyph-name="zero" unicode="0" horiz-adv-x="1220" 
d="M90 717q0 346 142.5 541.5t377.5 195.5t377.5 -195.5t142.5 -541.5t-142.5 -541.5t-377.5 -195.5t-377.5 195.5t-142.5 541.5zM262 717q0 -361 135 -496l293 1065q-31 8 -80 8q-348 0 -348 -577zM958 717q0 360 -135 495l-293 -1065q31 -8 80 -8q348 0 348 578z" />
    <glyph glyph-name="one" unicode="1" horiz-adv-x="999" 
d="M57 20v119q0 21 21 21h338v1046l-305 -166q-12 -6 -23 -6q-14 0 -14 19v141q0 18 22 31l363 198q18 11 30 11h74q21 0 21 -21v-1253h338q20 0 20 -21v-119q0 -20 -20 -20h-844q-21 0 -21 20z" />
    <glyph glyph-name="two" unicode="2" horiz-adv-x="1103" 
d="M86 20v86q0 28 23 48l567 553q76 72 103.5 142t27.5 179q0 124 -73.5 195t-203.5 71q-134 0 -206 -79t-72 -197q0 -18 -6.5 -24.5t-20.5 -6.5h-112q-25 0 -25 31q3 123 53.5 220.5t151.5 156.5t237 59q135 0 238 -60t155 -155t52 -207q0 -138 -43 -237.5t-141 -194.5
l-457 -440h657q21 0 21 -21v-119q0 -20 -21 -20h-885q-20 0 -20 20z" />
    <glyph glyph-name="three" unicode="3" horiz-adv-x="1095" 
d="M389 707v114q0 23 23 23h92q129 0 202.5 58.5t73.5 176.5q0 104 -63 159.5t-174 55.5q-110 0 -175.5 -61t-76.5 -172q-1 -16 -7 -20.5t-20 -4.5h-112q-27 0 -27 35q3 109 61.5 197.5t153 137t203.5 48.5q181 0 289 -99t108 -255q0 -121 -42 -192.5t-136 -127.5
q57 -28 96.5 -57.5t72.5 -73t49.5 -104t16.5 -139.5q0 -187 -125 -306.5t-335 -119.5q-121 0 -222 51t-164.5 149.5t-68.5 225.5q0 34 27 34h110q27 0 29 -26q13 -132 89.5 -203.5t199.5 -71.5q125 0 208.5 71.5t83.5 199.5q0 126 -77 200t-215 74h-125q-23 7 -23 23z" />
    <glyph glyph-name="four" unicode="4" horiz-adv-x="1171" 
d="M688 20v275h-600q-20 0 -20 20v76q0 25 16 47l627 979q10 17 26 17h99q20 0 20 -21v-958h197q20 0 20 -21v-119q0 -20 -20 -20h-197v-275q0 -20 -22 -20h-125q-21 0 -21 20zM688 1090l-409 -635h409v635z" />
    <glyph glyph-name="five" unicode="5" horiz-adv-x="1126" 
d="M102 668l88 745q3 21 21 21h713q20 0 20 -21v-119q0 -20 -20 -20h-588l-57 -422q146 98 307 98q208 0 325 -131t117 -358q0 -148 -67.5 -259.5t-176 -166.5t-239.5 -55q-129 0 -233.5 56.5t-162 152t-57.5 210.5q0 31 25 31h116q12 0 17 -6t10 -25q18 -117 90.5 -188.5
t194.5 -71.5q147 0 231 87t84 231q0 153 -79.5 243.5t-225.5 90.5q-82 0 -145 -30t-134 -95q-19 -19 -34 -19h-119q-21 0 -21 21z" />
    <glyph glyph-name="six" unicode="6" horiz-adv-x="1103" 
d="M74 653q0 201 36.5 356t102 251t152 145t190.5 49q163 0 273 -97.5t135 -258.5q0 -21 -23 -21h-123q-16 0 -22 21q-54 205 -250 205q-121 0 -208 -137.5t-91 -387.5q59 71 146.5 109.5t180.5 38.5q202 0 323.5 -127.5t121.5 -345.5q0 -143 -65 -252.5t-169.5 -165
t-228.5 -55.5q-81 0 -149.5 20t-131 68.5t-106 124t-69 193t-25.5 267.5zM272 453q0 -139 77 -226.5t212 -87.5t212 87.5t77 226.5t-77 226t-212 87t-212 -87t-77 -226z" />
    <glyph glyph-name="seven" unicode="7" horiz-adv-x="968" 
d="M63 1294v119q0 21 21 21h827q21 0 21 -21v-78q0 -21 -10 -51l-510 -1270q-6 -14 -23 -14h-127q-20 0 -20 16q0 3 4 15l495 1243h-657q-21 0 -21 20z" />
    <glyph glyph-name="eight" unicode="8" horiz-adv-x="1081" 
d="M139 1075q0 173 117.5 276t284.5 103t284 -103t117 -276q0 -204 -174 -309q98 -51 160.5 -141.5t62.5 -218.5q0 -187 -131 -306.5t-319 -119.5q-192 0 -321.5 119t-129.5 307q0 128 62.5 218.5t160.5 141.5q-174 105 -174 309zM258 406q0 -125 78 -196t205 -71
q126 0 204 71t78 196q0 126 -77.5 198t-204.5 72t-205 -72.5t-78 -197.5zM299 1067q0 -102 68.5 -169t173.5 -67q104 0 172.5 66.5t68.5 169.5q0 106 -70.5 168.5t-170.5 62.5t-171 -62.5t-71 -168.5z" />
    <glyph glyph-name="nine" unicode="9" horiz-adv-x="1103" 
d="M1030 780q0 -201 -36.5 -356t-102 -251t-152 -144.5t-190.5 -48.5q-163 0 -273 97.5t-135 258.5q0 12 5.5 16t17.5 4h123q16 0 22 -20q54 -205 250 -205q122 0 207 136t92 388q-59 -70 -147 -108.5t-181 -38.5q-202 0 -323 127.5t-121 345.5q0 143 65 252.5t169.5 165
t228.5 55.5q80 0 148.5 -20t131 -69t106 -124.5t69.5 -193t26 -267.5zM831 981q0 139 -76.5 226t-211.5 87t-212 -87t-77 -226t77 -226t212 -87t211.5 87t76.5 226z" />
    <glyph glyph-name="colon" unicode=":" horiz-adv-x="489" 
d="M158 209h168q20 0 20 -21v-168q0 -20 -20 -20h-168q-21 0 -21 20v168q0 21 21 21zM158 967h168q20 0 20 -21v-168q0 -20 -20 -20h-168q-21 0 -21 20v168q0 21 21 21z" />
    <glyph glyph-name="semicolon" unicode=";" horiz-adv-x="489" 
d="M158 967h168q20 0 20 -21v-168q0 -20 -20 -20h-168q-21 0 -21 20v168q0 21 21 21zM158 -111q58 0 74 19.5t16 77.5v14h-90q-21 0 -21 20v168q0 21 21 21h168q20 0 20 -21v-200q0 -89 -36.5 -137t-108.5 -48h-43q-21 0 -21 21v45q0 20 21 20z" />
    <glyph glyph-name="less" unicode="&#x3c;" horiz-adv-x="923" 
d="M823 287v-148q0 -14 -10 -14q-8 0 -10 2l-711 371q-20 9 -20 26v152q0 17 20 26l711 371q2 2 10 2q10 0 10 -14v-148q0 -19 -20 -28l-572 -285l572 -285q20 -9 20 -28z" />
    <glyph glyph-name="equal" unicode="=" horiz-adv-x="1105" 
d="M139 903h828q20 0 20 -20v-119q0 -21 -20 -21h-828q-20 0 -20 21v119q0 20 20 20zM139 487h828q20 0 20 -20v-119q0 -20 -20 -20h-828q-20 0 -20 20v119q0 20 20 20z" />
    <glyph glyph-name="greater" unicode="&#x3e;" horiz-adv-x="923" 
d="M100 139v148q0 19 21 28l571 285l-571 285q-21 9 -21 28v148q0 14 11 14q8 0 10 -2l710 -371q21 -9 21 -26v-152q0 -17 -21 -26l-710 -371q-2 -2 -10 -2q-11 0 -11 14z" />
    <glyph glyph-name="question" unicode="?" horiz-adv-x="931" 
d="M70 1049q6 82 33.5 153t76.5 128.5t127 90.5t176 33q187 0 288 -100t101 -275q0 -58 -17 -109t-44 -88.5t-59.5 -73t-65.5 -68.5t-60 -66.5t-44 -76t-17 -89.5v-109q0 -20 -20 -20h-131q-21 0 -21 20v95q0 66 17 123.5t44 98.5t59.5 78t65.5 69.5t60 64t44 70t17 81.5
q0 99 -57 155t-160 56q-215 0 -245 -241q-3 -21 -21 -21h-127q-20 0 -20 21zM389 221h180q21 0 21 -20v-181q0 -20 -21 -20h-180q-20 0 -20 20v181q0 20 20 20z" />
    <glyph glyph-name="at" unicode="@" horiz-adv-x="1363" 
d="M1249 971v-793q0 -18 -18 -18h-107q-18 0 -18 18v80q-50 -58 -110 -86.5t-148 -28.5q-172 0 -276.5 123.5t-104.5 325.5t104.5 325t276.5 123q176 0 258 -110v41q0 144 -100 233.5t-275 89.5q-151 0 -263 -94t-168 -251.5t-56 -356.5q0 -148 35.5 -274.5t102 -220
t168.5 -146.5t228 -53q122 0 208 21t167 69q2 2 10 2t15 -10l49 -97q2 -2 2 -8q0 -13 -10 -16q-100 -55 -203 -78t-238 -23q-167 0 -298.5 62.5t-215.5 174.5t-128 263.5t-44 333.5q0 244 73.5 433t220 299t345.5 110q128 0 228 -35.5t162.5 -98.5t95 -146.5t32.5 -182.5z
M1118 592q0 148 -63 228.5t-185 80.5q-120 0 -186 -85.5t-66 -223.5q0 -137 66.5 -223t185.5 -86q122 0 185 80.5t63 228.5z" />
    <glyph glyph-name="A" unicode="A" horiz-adv-x="1118" 
d="M317 416l-116 -396q-5 -12 -9.5 -16t-15.5 -4h-135q-23 0 -23 20q0 9 2 13l435 1380q1 2 2.5 6t2 5.5t2 4t3.5 3.5t4.5 1.5t5.5 0.5h168q6 0 9.5 -2t5.5 -5t4 -9q1 -3 2 -5l434 -1380q2 -4 2 -13q0 -20 -23 -20h-135q-11 0 -15 4t-9 16l-117 396h-484zM559 1214
l-192 -634h385z" />
    <glyph glyph-name="B" unicode="B" horiz-adv-x="1187" 
d="M674 0h-498q-20 0 -20 20v1393q0 21 20 21h451q84 0 155 -21t126.5 -63.5t86.5 -112.5t31 -162q0 -235 -182 -315q121 -46 182 -128.5t61 -223.5q0 -183 -107 -295.5t-306 -112.5zM328 672v-502h317q127 0 198.5 61t71.5 189q0 125 -72 188.5t-198 63.5h-317zM328 1264
v-428h309q101 0 159 51t58 164q0 103 -60 158t-157 55h-309z" />
    <glyph glyph-name="C" unicode="C" horiz-adv-x="1302" 
d="M1079 485h125q23 0 23 -20q-31 -240 -174 -362.5t-367 -122.5q-119 0 -223.5 47t-186.5 136t-130 232t-48 322t48 322t130 232t186.5 136t223.5 47q224 0 367 -122.5t174 -362.5q0 -21 -23 -21h-125q-21 0 -24 21q-33 162 -122 241.5t-247 79.5q-184 0 -295.5 -149.5
t-111.5 -423.5t111.5 -424t295.5 -150q158 0 247 80t122 242q3 20 24 20z" />
    <glyph glyph-name="D" unicode="D" horiz-adv-x="1228" 
d="M156 20v1393q0 21 20 21h346q133 0 243 -43.5t192 -129.5t127.5 -225t45.5 -319t-45.5 -319t-127.5 -225t-192 -129.5t-243 -43.5h-346q-20 0 -20 20zM328 164h170q213 0 332.5 137t119.5 416t-119.5 416t-332.5 137h-170v-1106z" />
    <glyph glyph-name="E" unicode="E" horiz-adv-x="1052" 
d="M328 672v-508h594q20 0 20 -21v-123q0 -20 -20 -20h-746q-20 0 -20 20v1393q0 21 20 21h731q21 0 21 -21v-123q0 -20 -21 -20h-579v-434h516q20 0 20 -21v-123q0 -20 -20 -20h-516z" />
    <glyph glyph-name="F" unicode="F" horiz-adv-x="1056" 
d="M328 641v-621q0 -20 -21 -20h-131q-20 0 -20 20v1393q0 21 20 21h737q21 0 21 -21v-123q0 -20 -21 -20h-585v-465h522q20 0 20 -21v-122q0 -21 -20 -21h-522z" />
    <glyph glyph-name="G" unicode="G" horiz-adv-x="1323" 
d="M723 729h498q20 0 20 -20v-371q0 -42 -20 -78q-69 -123 -202.5 -201.5t-295.5 -78.5q-133 0 -246.5 48t-198 138.5t-132.5 232t-48 318.5q0 178 50.5 321.5t135.5 232.5t192 136t226 47q204 0 344.5 -112t180.5 -326q0 -21 -23 -21h-131q-18 0 -24 21q-38 141 -122 207.5
t-225 66.5q-186 0 -304.5 -150.5t-118.5 -422.5q0 -276 119.5 -425t324.5 -149q127 0 214.5 50.5t131.5 142.5v229h-346q-21 0 -21 21v123q0 20 21 20z" />
    <glyph glyph-name="H" unicode="H" horiz-adv-x="1249" 
d="M328 666v-646q0 -20 -21 -20h-131q-20 0 -20 20v1393q0 21 20 21h131q21 0 21 -21v-584h594v584q0 21 20 21h131q21 0 21 -21v-1393q0 -20 -21 -20h-131q-20 0 -20 20v646h-594z" />
    <glyph glyph-name="I" unicode="I" horiz-adv-x="942" 
d="M109 1290v123q0 21 20 21h684q21 0 21 -21v-123q0 -20 -21 -20h-256v-1106h277q20 0 20 -21v-123q0 -20 -20 -20h-725q-21 0 -21 20v123q0 21 21 21h276v1106h-256q-20 0 -20 20z" />
    <glyph glyph-name="J" unicode="J" horiz-adv-x="1040" 
d="M934 1413v-899q0 -268 -118 -401t-324 -133q-142 0 -242 61t-146.5 162t-46.5 233q0 21 21 21h131q20 0 20 -21q0 -130 70.5 -211.5t192.5 -81.5q140 0 205 91.5t65 277.5v901q0 21 20 21h131q21 0 21 -21z" />
    <glyph glyph-name="K" unicode="K" horiz-adv-x="1157" 
d="M924 31l-422 731l-174 -203v-539q0 -20 -21 -20h-131q-20 0 -20 20v1393q0 21 20 21h131q21 0 21 -21v-604l518 604l5 5l5 5l4 4t4.5 3.5t4 1.5t5 1.5t5.5 0.5h168q12 0 15 -9t-7 -20l-426 -502l516 -874q4 -12 4 -15q0 -14 -16 -14h-172q-11 0 -18.5 6.5t-18.5 24.5z
" />
    <glyph glyph-name="L" unicode="L" horiz-adv-x="1052" 
d="M156 20v1393q0 21 20 21h131q21 0 21 -21v-1249h639q20 0 20 -21v-123q0 -20 -20 -20h-791q-20 0 -20 20z" />
    <glyph glyph-name="M" unicode="M" horiz-adv-x="1392" 
d="M1237 1413v-1393q0 -20 -20 -20h-132q-20 0 -20 20v1147l-293 -766q-9 -18 -27 -18h-98q-17 0 -26 18l-293 766v-1147q0 -20 -21 -20h-131q-20 0 -20 20v1393q0 21 20 21h203q24 0 33 -21l284 -772l285 772q9 21 33 21h203q20 0 20 -21z" />
    <glyph glyph-name="N" unicode="N" horiz-adv-x="1259" 
d="M1083 0h-165q-26 0 -33 16l-557 1123v-1119q0 -20 -21 -20h-131q-20 0 -20 20v1393q0 21 20 21h166q26 0 33 -17l557 -1122v1118q0 21 20 21h131q21 0 21 -21v-1393q0 -20 -21 -20z" />
    <glyph glyph-name="O" unicode="O" horiz-adv-x="1355" 
d="M678 -20q-121 0 -225 47t-183.5 136.5t-125.5 232t-46 321.5t46 321.5t125.5 232t183.5 136.5t225 47t224.5 -47t183.5 -136.5t125.5 -232t45.5 -321.5t-45.5 -321.5t-125.5 -232t-183.5 -136.5t-224.5 -47zM678 143q186 0 292.5 148t106.5 426t-106.5 425.5
t-292.5 147.5t-292.5 -147.5t-106.5 -425.5t106.5 -426t292.5 -148z" />
    <glyph glyph-name="P" unicode="P" horiz-adv-x="1126" 
d="M156 20v1393q0 21 20 21h422q222 0 339.5 -106.5t117.5 -293.5t-117.5 -293t-339.5 -106h-270v-615q0 -20 -21 -20h-131q-20 0 -20 20zM328 1270v-471h301q126 0 185.5 58.5t59.5 176.5t-59.5 177t-185.5 59h-301z" />
    <glyph glyph-name="Q" unicode="Q" horiz-adv-x="1355" 
d="M1120 -18l-110 106q-140 -108 -332 -108q-122 0 -226.5 47t-184 136.5t-124.5 231.5t-45 322t45 322t124.5 231.5t184 136.5t226.5 47t226.5 -47t183.5 -136.5t124 -231.5t45 -322q0 -304 -129 -502l113 -109q8 -8 8 -14t-8 -14l-92 -96q-9 -9 -14 -9q-6 0 -15 9z
M678 143q121 0 209 64l-121 117q-8 8 -8 14t8 14l92 97q8 8 14 8q7 0 15 -8l112 -109q78 146 78 377q0 278 -106.5 425.5t-292.5 147.5t-292.5 -147.5t-106.5 -425.5t106.5 -426t292.5 -148z" />
    <glyph glyph-name="R" unicode="R" horiz-adv-x="1155" 
d="M156 20v1393q0 21 20 21h436q435 0 435 -379q0 -143 -72.5 -232.5t-196.5 -128.5l312 -674q2 -2 2 -8q0 -12 -19 -12h-149q-18 0 -29 20l-307 656h-260v-656q0 -20 -21 -20h-131q-20 0 -20 20zM328 1270v-430h305q125 0 183 53.5t58 161.5t-58 161.5t-183 53.5h-305z" />
    <glyph glyph-name="S" unicode="S" horiz-adv-x="1114" 
d="M100 1059q0 182 128.5 288.5t316.5 106.5q209 0 334 -112t125 -279q0 -21 -21 -21h-131q-21 0 -21 21q0 94 -82.5 160.5t-203.5 66.5q-119 0 -196 -60.5t-77 -158.5q0 -28 6.5 -52.5t15 -43t27.5 -36.5t33.5 -30t43.5 -25.5t47 -21t55 -18.5t56.5 -16.5t61.5 -16.5
q84 -24 142.5 -45.5t116 -53.5t91.5 -70t55 -91.5t21 -120.5q0 -113 -39 -201t-106.5 -141.5t-152.5 -80.5t-183 -27q-220 0 -358.5 121.5t-138.5 322.5q0 20 20 20h131q21 0 21 -20q0 -115 86.5 -198t238.5 -83q156 0 232.5 70.5t76.5 202.5q0 52 -24 91.5t-72.5 68.5
t-102 48t-132.5 40q-89 24 -150.5 46t-120.5 54.5t-93.5 72t-55.5 95.5t-21 127z" />
    <glyph glyph-name="T" unicode="T" horiz-adv-x="1015" 
d="M43 1290v123q0 21 20 21h889q21 0 21 -21v-123q0 -20 -21 -20h-358v-1250q0 -20 -21 -20h-131q-20 0 -20 20v1250h-359q-20 0 -20 20z" />
    <glyph glyph-name="U" unicode="U" horiz-adv-x="1167" 
d="M121 489v924q0 21 20 21h131q21 0 21 -21v-901q0 -180 69 -274.5t222 -94.5t221.5 94t68.5 275v901q0 21 21 21h131q21 0 21 -21v-924q0 -238 -124.5 -373.5t-338.5 -135.5t-338.5 135.5t-124.5 373.5z" />
    <glyph glyph-name="V" unicode="V" horiz-adv-x="1118" 
d="M1102 1413l-422 -1393q-6 -20 -23 -20h-196q-17 0 -23 20l-422 1393q-6 21 17 21h151q19 0 25 -21l350 -1202l350 1202q6 21 25 21h151q23 0 17 -21z" />
    <glyph glyph-name="W" unicode="W" horiz-adv-x="1441" 
d="M1419 1413l-262 -1393q-3 -20 -22 -20h-185q-18 0 -24 20l-205 957l-205 -957q-6 -20 -24 -20h-185q-19 0 -22 20l-262 1393q0 21 20 21h141q22 0 25 -21l197 -1186l215 1006q6 20 24 20h152q18 0 24 -20l215 -1006l197 1186q3 21 24 21h142q20 0 20 -21z" />
    <glyph glyph-name="X" unicode="X" horiz-adv-x="1060" 
d="M268 1413l262 -467l263 467q7 14 12 17.5t16 3.5h150q8 0 13 -5.5t1 -15.5l-358 -639l424 -754q4 -10 -1 -15t-14 -5h-149q-11 0 -16.5 3.5t-12.5 16.5l-328 582l-327 -582q-7 -13 -12.5 -16.5t-16.5 -3.5h-149q-9 0 -14 5t-1 15l424 754l-358 639q-4 10 1 15.5t13 5.5
h150q10 0 15.5 -3.5t12.5 -17.5z" />
    <glyph glyph-name="Y" unicode="Y" horiz-adv-x="950" 
d="M936 1413l-375 -805v-588q0 -20 -20 -20h-131q-21 0 -21 20v588l-375 805q-9 21 13 21h159q16 0 23 -17l266 -604l266 604q7 17 23 17h160q21 0 12 -21z" />
    <glyph glyph-name="Z" unicode="Z" horiz-adv-x="1071" 
d="M100 1290v123q0 21 21 21h813q20 0 20 -21v-123q0 -17 -12 -35l-674 -1091h701q20 0 20 -21v-123q0 -20 -20 -20h-875q-20 0 -20 20v123q0 17 12 35l676 1092h-641q-21 0 -21 20z" />
    <glyph glyph-name="bracketleft" unicode="[" horiz-adv-x="737" 
d="M156 -385v1798q0 21 20 21h457q20 0 20 -21v-123q0 -20 -20 -20h-305v-1512h305q20 0 20 -20v-123q0 -21 -20 -21h-457q-20 0 -20 21z" />
    <glyph glyph-name="backslash" unicode="\" horiz-adv-x="841" 
d="M193 1413l600 -1393q9 -20 -15 -20h-131q-17 0 -26 20l-601 1393q-9 21 13 21h131q20 0 29 -21z" />
    <glyph glyph-name="bracketright" unicode="]" horiz-adv-x="737" 
d="M582 1413v-1798q0 -21 -21 -21h-457q-20 0 -20 21v123q0 20 20 20h306v1512h-306q-20 0 -20 20v123q0 21 20 21h457q21 0 21 -21z" />
    <glyph glyph-name="asciicircum" unicode="^" horiz-adv-x="978" 
d="M213 805h-147q-15 0 -15 12q0 6 2 8l334 588q9 21 27 21h151q18 0 27 -21l334 -588q2 -2 2 -8q0 -12 -15 -12h-147q-20 0 -29 20l-248 445l-247 -445q-9 -20 -29 -20z" />
    <glyph glyph-name="underscore" unicode="_" horiz-adv-x="1105" 
d="M139 0h828q20 0 20 -20v-119q0 -21 -20 -21h-828q-20 0 -20 21v119q0 20 20 20z" />
    <glyph glyph-name="grave" unicode="`" horiz-adv-x="561" 
d="M324 1413l141 -258q5 -7 2.5 -13.5t-12.5 -6.5h-111q-22 0 -37 18l-209 260q-6 7 -2.5 14t13.5 7h184q19 0 31 -21z" />
    <glyph glyph-name="a" unicode="a" horiz-adv-x="1056" 
d="M266 723h-131q-14 0 -14 12q0 13 2 21q30 123 135 208t266 85q178 0 293 -98.5t115 -254.5v-499q0 -70 7 -105.5t28 -71.5q11 -20 -15 -20h-159q-21 0 -21 20v107q-108 -147 -313 -147q-73 0 -139 20t-119.5 58.5t-85 102t-31.5 144.5q0 110 57.5 188.5t151 116
t211.5 37.5q137 0 268 -43v51q0 242 -248 242q-167 0 -229 -156q-7 -18 -29 -18zM772 453q-117 43 -266 43q-112 0 -183 -49t-71 -142q0 -80 58 -127t165 -47q122 0 209.5 87.5t87.5 234.5z" />
    <glyph glyph-name="b" unicode="b" horiz-adv-x="1144" 
d="M143 20v1393q0 21 21 21h119q20 0 20 -21v-502q56 63 139.5 100.5t178.5 37.5q200 0 320 -145t120 -390t-120 -389.5t-320 -144.5q-102 0 -186 37t-132 100v-97q0 -20 -20 -20h-119q-21 0 -21 20zM287 514q0 -167 79.5 -275t221.5 -108t223.5 108t81.5 275t-81.5 275
t-223.5 108t-221.5 -108t-79.5 -275z" />
    <glyph glyph-name="c" unicode="c" horiz-adv-x="1101" 
d="M578 897q-145 0 -235.5 -107.5t-90.5 -275.5t90.5 -275.5t235.5 -107.5q102 0 173 55t101 150q7 18 29 18h125q14 0 14 -12t-2 -20q-42 -164 -152 -253t-288 -89q-150 0 -263.5 70.5t-172 191t-58.5 272.5q0 113 34.5 211t97 170t156 113t206.5 41q178 0 288 -89
t152 -253q2 -8 2 -21q0 -12 -14 -12h-125q-22 0 -29 18q-30 95 -101 150t-173 55z" />
    <glyph glyph-name="d" unicode="d" horiz-adv-x="1144" 
d="M1001 1413v-1393q0 -20 -20 -20h-119q-20 0 -20 20v97q-48 -63 -132 -100t-186 -37q-200 0 -320 144.5t-120 389.5t120 390t320 145q95 0 178.5 -37.5t139.5 -100.5v502q0 21 20 21h119q20 0 20 -21zM858 514q0 167 -79.5 275t-221.5 108t-223.5 -108t-81.5 -275
t81.5 -275t223.5 -108t221.5 108t79.5 275z" />
    <glyph glyph-name="e" unicode="e" horiz-adv-x="1132" 
d="M1026 465h-770q13 -152 93 -243t224 -91q110 0 177 45t104 143q7 19 29 19h133q14 0 14 -14q0 -12 -4 -21q-111 -323 -453 -323q-155 0 -267.5 71.5t-167 190.5t-54.5 272q0 150 60 271.5t172.5 192.5t256.5 71q113 0 204.5 -43t149.5 -117t89 -170t31 -205v-29
q0 -20 -21 -20zM573 897q-117 0 -200.5 -75.5t-108.5 -205.5h610q-25 127 -107.5 204t-193.5 77z" />
    <glyph glyph-name="f" unicode="f" horiz-adv-x="788" 
d="M739 877h-344v-857q0 -20 -20 -20h-119q-20 0 -20 20v857h-185q-20 0 -20 20v111q0 20 20 20h185v90q0 88 32.5 162.5t103.5 124t169 49.5q131 0 223 -57q16 -11 16 -35v-109q0 -20 -14 -20q-6 0 -14 4q-59 37 -103 51.5t-96 14.5q-74 0 -116 -49.5t-42 -135.5v-90h344
q21 0 21 -20v-111q0 -20 -21 -20z" />
    <glyph glyph-name="g" unicode="g" horiz-adv-x="1058" 
d="M31 309q0 165 186 248q-27 65 -27 141q0 161 103 256t252 95q112 0 200 -58l138 123q8 8 16 8q6 0 16 -10l78 -82q8 -8 8 -16q0 -9 -10 -19l-131 -125q41 -74 41 -172q0 -163 -101.5 -255.5t-254.5 -92.5q-152 0 -246 88q-56 -24 -82.5 -56.5t-26.5 -80.5t33 -79.5
t88 -31.5q33 0 125 19.5t168 19.5q200 0 311 -78.5t111 -242.5q0 -154 -120 -244t-335 -90q-231 0 -353 85t-122 237q0 107 56 182q-59 40 -90 94t-31 137zM264 -90q0 -184 307 -184q144 0 215.5 47t71.5 135q0 80 -72 125t-215 45q-56 0 -135.5 -17.5t-116.5 -17.5
q-31 -26 -43 -56t-12 -77zM358 698q0 -96 51 -146t136 -50q88 0 138 49.5t50 146.5q0 100 -50 149.5t-138 49.5q-86 0 -136.5 -50t-50.5 -149z" />
    <glyph glyph-name="h" unicode="h" horiz-adv-x="1085" 
d="M143 20v1393q0 21 21 21h119q20 0 20 -21v-532q47 78 135.5 123t192.5 45q170 0 248.5 -85t78.5 -259v-685q0 -20 -20 -20h-119q-20 0 -20 20v648q0 229 -205 229q-113 0 -202 -99t-89 -257v-521q0 -20 -20 -20h-119q-21 0 -21 20z" />
    <glyph glyph-name="i" unicode="i" horiz-adv-x="862" 
d="M104 901v107q0 20 21 20h360q21 0 21 -20v-856h282q21 0 21 -21v-111q0 -20 -21 -20h-714q-21 0 -21 20v111q0 21 21 21h272v729h-221q-21 0 -21 20zM305 1217v176q0 20 21 20h176q20 0 20 -20v-176q0 -21 -20 -21h-176q-21 0 -21 21z" />
    <glyph glyph-name="j" unicode="j" horiz-adv-x="653" 
d="M53 901v107q0 20 21 20h399q21 0 21 -20v-1063q0 -130 -15 -206t-47 -149q-6 -16 -14 -16q-1 0 -17 4l-110 31q-17 7 -17 14q0 6 2 10q31 85 44.5 144.5t13.5 142.5v961h-260q-21 0 -21 20zM285 1217v176q0 20 20 20h176q21 0 21 -20v-176q0 -21 -21 -21h-176
q-20 0 -20 21z" />
    <glyph glyph-name="k" unicode="k" horiz-adv-x="1021" 
d="M795 18l-320 512l-172 -163v-347q0 -20 -20 -20h-119q-21 0 -21 20v1393q0 21 21 21h119q20 0 20 -21v-835l445 432q18 18 32 18h170q17 0 17 -14q0 -8 -9 -17l-356 -348l385 -618q4 -8 4 -15q0 -16 -18 -16h-146q-23 0 -32 18z" />
    <glyph glyph-name="l" unicode="l" horiz-adv-x="903" 
d="M94 1303v110q0 21 21 21h395q20 0 20 -21v-1261h299q21 0 21 -21v-111q0 -20 -21 -20h-755q-21 0 -21 20v111q0 21 21 21h297v1130h-256q-21 0 -21 21z" />
    <glyph glyph-name="m" unicode="m" horiz-adv-x="1519" 
d="M143 20v988q0 20 21 20h119q20 0 20 -20v-113q33 64 108.5 109t159.5 45q103 0 162.5 -39.5t95.5 -126.5q44 74 120.5 120t166.5 46q142 0 209.5 -77t67.5 -239v-713q0 -20 -21 -20h-119q-20 0 -20 20v685q0 96 -43 144t-123 48q-99 0 -159 -96t-60 -260v-521
q0 -20 -21 -20h-118q-21 0 -21 20v685q0 96 -43 144t-123 48q-99 0 -159 -96t-60 -260v-521q0 -20 -20 -20h-119q-21 0 -21 20z" />
    <glyph glyph-name="n" unicode="n" horiz-adv-x="1069" 
d="M143 20v988q0 20 21 20h119q20 0 20 -20v-123q50 70 137.5 117t186.5 47q152 0 231.5 -88t79.5 -246v-695q0 -20 -20 -20h-119q-21 0 -21 20v658q0 106 -49.5 162.5t-146.5 56.5q-112 0 -195.5 -98.5t-83.5 -257.5v-521q0 -20 -20 -20h-119q-21 0 -21 20z" />
    <glyph glyph-name="o" unicode="o" horiz-adv-x="1167" 
d="M84 514q0 239 141 387t359 148t358.5 -148t140.5 -387t-140.5 -386.5t-358.5 -147.5t-359 147.5t-141 386.5zM252 514q0 -168 92.5 -275.5t239.5 -107.5t239 107.5t92 275.5t-92 275.5t-239 107.5t-239.5 -107.5t-92.5 -275.5z" />
    <glyph glyph-name="p" unicode="p" horiz-adv-x="1144" 
d="M143 -385v1393q0 20 21 20h119q20 0 20 -20v-97q48 63 132 100.5t186 37.5q200 0 320 -145t120 -390t-120 -389.5t-320 -144.5q-95 0 -178.5 37.5t-139.5 99.5v-502q0 -21 -20 -21h-119q-21 0 -21 21zM287 514q0 -167 79.5 -275t221.5 -108t223.5 108t81.5 275t-81.5 275
t-223.5 108t-221.5 -108t-79.5 -275z" />
    <glyph glyph-name="q" unicode="q" horiz-adv-x="1144" 
d="M1001 1008v-1393q0 -21 -20 -21h-119q-20 0 -20 21v502q-56 -62 -139.5 -99.5t-178.5 -37.5q-200 0 -320 144.5t-120 389.5t120 390t320 145q102 0 186 -37.5t132 -100.5v97q0 20 20 20h119q20 0 20 -20zM858 514q0 167 -79.5 275t-221.5 108t-223.5 -108t-81.5 -275
t81.5 -275t223.5 -108t221.5 108t79.5 275z" />
    <glyph glyph-name="r" unicode="r" horiz-adv-x="948" 
d="M887 834l-103 -68q-8 -4 -14 -4q-13 0 -16 10q-42 70 -88 97.5t-117 27.5q-112 0 -179 -110t-67 -265v-502q0 -20 -20 -20h-119q-21 0 -21 20v988q0 20 21 20h119q20 0 20 -20v-113q51 68 129 111t172 43q204 0 291 -181q4 -12 4 -14q0 -14 -12 -20z" />
    <glyph glyph-name="s" unicode="s" horiz-adv-x="954" 
d="M872 301q0 -148 -114.5 -234.5t-284.5 -86.5q-177 0 -288 93.5t-111 239.5q0 21 20 21h131q18 0 21 -21q12 -90 72 -136t161 -46q92 0 159 39.5t67 110.5q0 35 -15.5 62t-37.5 43t-64.5 29.5t-76 20.5t-93.5 17q-171 29 -245.5 99t-74.5 204q0 94 54 162.5t133.5 99.5
t171.5 31q171 0 276 -82t105 -213q0 -21 -21 -21h-115q-3 0 -5.5 0.5t-4.5 1.5t-3.5 3.5t-2 4t-2 5.5t-2.5 6q-34 143 -223 143q-85 0 -143 -36.5t-58 -104.5q0 -63 55 -106t203 -66q65 -11 113 -23.5t96.5 -34.5t78.5 -51t49 -73t19 -101z" />
    <glyph glyph-name="t" unicode="t" horiz-adv-x="1011" 
d="M57 1028h185v295q0 20 20 20h119q20 0 20 -20v-295h392q20 0 20 -20v-111q0 -20 -20 -20h-392v-480q0 -132 52.5 -199t148.5 -67t141.5 51t59.5 160q2 18 22 18h119q12 0 15.5 -2.5t3.5 -15.5q0 -152 -95 -257t-266 -105q-175 0 -267.5 104t-92.5 311v482h-185
q-20 0 -20 20v111q0 20 20 20z" />
    <glyph glyph-name="u" unicode="u" horiz-adv-x="1069" 
d="M926 1008v-988q0 -20 -21 -20h-119q-20 0 -20 20v123q-50 -70 -137 -116.5t-187 -46.5q-311 0 -311 333v695q0 20 21 20h118q21 0 21 -20v-658q0 -106 49.5 -162.5t146.5 -56.5q112 0 195.5 98.5t83.5 257.5v521q0 20 20 20h119q21 0 21 -20z" />
    <glyph glyph-name="v" unicode="v" horiz-adv-x="942" 
d="M926 995l-359 -975q-9 -20 -24 -20h-144q-15 0 -24 20l-359 975q-2 4 -2 15q0 18 19 18h139q23 0 29 -20l270 -791l270 791q6 20 29 20h139q19 0 19 -18q0 -11 -2 -15z" />
    <glyph glyph-name="w" unicode="w" horiz-adv-x="1359" 
d="M1337 997l-268 -977q-6 -20 -27 -20h-145q-21 0 -27 20l-190 711l-191 -711q-6 -20 -26 -20h-146q-23 0 -26 20l-268 977q-3 9 -3 17q0 14 17 14h141q11 0 16.5 -3t7 -5t5.5 -12l186 -791l187 725q1 2 2.5 5.5t2 5t1.5 3.5t2.5 3t3.5 2t4.5 1.5t5.5 0.5h156q3 0 5.5 -0.5
t4.5 -1.5t3.5 -2t2.5 -3t1.5 -3.5t2 -5t2.5 -5.5l187 -725l186 791q1 1 2 4t1.5 4t1.5 3.5t2 3t2.5 2t3 1.5t4 1t5.5 1h7h141q16 0 16 -14q0 -11 -2 -17z" />
    <glyph glyph-name="x" unicode="x" horiz-adv-x="884" 
d="M815 1001l-280 -454l323 -520q6 -9 6 -17q0 -10 -12 -10h-154q-17 0 -28 20l-228 373l-227 -373q-11 -20 -29 -20h-153q-13 0 -13 10q0 6 7 17l323 520l-280 454q-4 12 -4 13q0 14 14 14h135q21 0 29 -14l198 -316l199 316q8 14 29 14h135q14 0 14 -14q0 -1 -4 -13z" />
    <glyph glyph-name="y" unicode="y" horiz-adv-x="919" 
d="M20 -360v110q0 21 17 21q12 0 30 -11t47.5 -22.5t69.5 -11.5q76 0 122.5 62.5t84.5 207.5l-360 999q-4 16 -4 17q0 16 16 16h147q21 0 27 -20l254 -781l242 781q4 9 5.5 12t6.5 5.5t14 2.5h142q16 0 16 -14q0 -11 -2 -15l-363 -1099q-62 -187 -139.5 -256.5t-199.5 -69.5
q-85 0 -152 33q-21 12 -21 33z" />
    <glyph glyph-name="z" unicode="z" horiz-adv-x="909" 
d="M82 897v111q0 20 20 20h682q21 0 21 -20v-111q0 -15 -17 -43l-538 -702h573q21 0 21 -21v-111q0 -20 -21 -20h-747q-21 0 -21 20v111q0 14 13 31l548 715h-514q-20 0 -20 20z" />
    <glyph glyph-name="braceleft" unicode="{" horiz-adv-x="727" 
d="M406 346v-352q0 -139 24.5 -187.5t112.5 -48.5h80q20 0 20 -20v-123q0 -21 -20 -21h-80q-160 0 -235 94.5t-75 305.5v319q0 119 -108 119h-47q-21 0 -21 21v122q0 21 21 21h47q108 0 108 119v319q0 211 75 305.5t235 94.5h80q20 0 20 -21v-123q0 -20 -20 -20h-80
q-88 0 -112.5 -48.5t-24.5 -187.5v-352q0 -65 -24.5 -107t-92.5 -61q68 -19 92.5 -61t24.5 -107z" />
    <glyph glyph-name="bar" unicode="|" horiz-adv-x="483" 
d="M156 -184v1597q0 21 20 21h131q21 0 21 -21v-1597q0 -21 -21 -21h-131q-20 0 -20 21z" />
    <glyph glyph-name="braceright" unicode="}" horiz-adv-x="727" 
d="M322 -6v352q0 65 24 107t92 61q-68 19 -92 61t-24 107v352q0 139 -25 187.5t-113 48.5h-80q-20 0 -20 20v123q0 21 20 21h80q160 0 235 -94.5t75 -305.5v-319q0 -119 108 -119h47q21 0 21 -21v-122q0 -21 -21 -21h-47q-108 0 -108 -119v-319q0 -211 -75 -305.5
t-235 -94.5h-80q-20 0 -20 21v123q0 20 20 20h80q88 0 113 48.5t25 187.5z" />
    <glyph glyph-name="asciitilde" unicode="~" horiz-adv-x="1028" 
d="M100 745q45 33 113 53.5t121 20.5q67 0 133.5 -21t124 -42t102.5 -21t77.5 11.5t76.5 39.5q2 1 5 2t5 2t4 1q11 0 21 -17l61 -102q2 -2 2 -8q0 -15 -18 -27q-45 -33 -113 -53.5t-121 -20.5q-67 0 -133.5 21t-124 42t-102.5 21t-77.5 -11.5t-76.5 -39.5q-12 -4 -14 -4
q-11 0 -21 16l-61 103q-2 2 -2 8q0 14 18 26z" />
    <glyph glyph-name="uni00A0" unicode="&#xa0;" horiz-adv-x="499" 
 />
    <glyph glyph-name="exclamdown" unicode="&#xa1;" horiz-adv-x="487" 
d="M334 807h-180q-21 0 -21 20v181q0 20 21 20h180q20 0 20 -20v-181q0 -20 -20 -20zM309 -406h-131q-20 0 -20 21v1014q0 20 20 20h131q21 0 21 -20v-1014q0 -21 -21 -21z" />
    <glyph glyph-name="cent" unicode="&#xa2;" horiz-adv-x="1101" 
d="M483 20v170q-187 29 -293 174.5t-106 352.5q0 208 105.5 351.5t293.5 176.5v168q0 21 21 21h131q20 0 20 -21v-168q145 -18 236 -105t127 -231q2 -8 2 -20t-14 -12h-125q-22 0 -29 18q-23 74 -74.5 125t-122.5 70v-748q71 18 122 70t75 127q7 18 29 18h125q14 0 14 -12
q0 -13 -2 -21q-75 -298 -363 -338v-166q0 -20 -20 -20h-131q-21 0 -21 20zM252 717q0 -140 62.5 -239.5t168.5 -131.5v744q-106 -32 -168.5 -133t-62.5 -240z" />
    <glyph glyph-name="sterling" unicode="&#xa3;" horiz-adv-x="1128" 
d="M260 569q0 33 -6 68h-152q-20 0 -20 20v119q0 21 20 21h107q-45 133 -45 237q0 195 114.5 307.5t301.5 112.5q198 0 312 -116.5t114 -288.5q0 -21 -21 -21h-131q-20 0 -20 21q0 97 -70 169t-184 72t-179 -66.5t-65 -189.5q0 -31 2.5 -57.5t10 -54t12 -40.5t17 -45
t15.5 -40h420q21 0 21 -21v-119q0 -20 -21 -20h-387q6 -75 6 -78q0 -215 -135 -395h715q20 0 20 -21v-123q0 -20 -20 -20h-877q-20 0 -20 20v144q0 19 16 41q70 92 99.5 170t29.5 194z" />
    <glyph glyph-name="currency" unicode="&#xa4;" horiz-adv-x="1040" 
d="M100 225l99 99q-64 98 -64 215t64 215l-99 98q-8 8 -8 14q0 7 8 15l78 77q9 9 15 9q5 0 14 -9l98 -98q98 64 215 64q112 0 215 -64l99 98q9 9 14 9t14 -9l78 -77q8 -8 8 -15q0 -6 -8 -14l-98 -98q63 -102 63 -215t-63 -215l98 -99q8 -8 8 -14t-8 -14l-78 -78
q-8 -8 -14 -8t-14 8l-99 98q-97 -63 -215 -63q-123 0 -215 63l-98 -98q-8 -8 -14 -8q-7 0 -15 8l-78 78q-8 8 -8 14t8 14zM287 539q0 -114 64 -180t169 -66q106 0 170 66t64 180t-64 179.5t-170 65.5t-169.5 -65.5t-63.5 -179.5z" />
    <glyph glyph-name="yen" unicode="&#xa5;" horiz-adv-x="962" 
d="M84 774h233l-305 639q-4 10 1 15.5t12 5.5h159q16 0 23 -17l274 -598l275 598q7 17 22 17h160q7 0 11.5 -5.5t0.5 -15.5l-305 -639h234q20 0 20 -20v-119q0 -21 -20 -21h-312v-155h275q20 0 20 -21v-119q0 -20 -20 -20h-275v-279q0 -20 -20 -20h-131q-21 0 -21 20v279
h-274q-21 0 -21 20v119q0 21 21 21h274v155h-311q-21 0 -21 21v119q0 20 21 20z" />
    <glyph glyph-name="brokenbar" unicode="&#xa6;" horiz-adv-x="483" 
d="M156 758v655q0 21 20 21h131q21 0 21 -21v-655q0 -21 -21 -21h-131q-20 0 -20 21zM156 -184v655q0 21 20 21h131q21 0 21 -21v-655q0 -21 -21 -21h-131q-20 0 -20 21z" />
    <glyph glyph-name="section" unicode="&#xa7;" horiz-adv-x="964" 
d="M879 -76q0 -164 -115.5 -257t-282.5 -93q-183 0 -294 109.5t-111 269.5q0 20 20 20h131q21 0 21 -20q0 -93 65.5 -154t167.5 -61t164 48t62 138q0 84 -55.5 140t-221.5 155q-178 106 -233 150q-95 76 -115 169q-6 31 -6 68q0 71 20 121.5t80 122.5q-100 103 -100 254
q0 164 115 257t282 93q183 0 294.5 -109.5t111.5 -269.5q0 -20 -21 -20h-131q-20 0 -20 20q0 93 -66 154t-168 61t-163.5 -48t-61.5 -138q0 -36 9.5 -65t26 -53t54 -53.5t76.5 -55t110 -68.5q176 -107 225 -145q97 -75 120 -162q10 -36 10 -80q0 -71 -20.5 -121.5
t-80.5 -122.5q101 -107 101 -254zM377 698l-68 43q-61 -55 -61 -114q0 -74 50.5 -118t257.5 -166q14 -9 22 -13l67 -43q62 56 62 114q0 74 -50.5 118t-257.5 166q-14 9 -22 13z" />
    <glyph glyph-name="dieresis" unicode="&#xa8;" horiz-adv-x="782" 
d="M127 1253v160q0 21 20 21h160q21 0 21 -21v-160q0 -20 -21 -20h-160q-20 0 -20 20zM455 1253v160q0 21 20 21h160q20 0 20 -21v-160q0 -20 -20 -20h-160q-20 0 -20 20z" />
    <glyph glyph-name="copyright" unicode="&#xa9;" horiz-adv-x="1179" 
d="M760 604h49q14 0 14 -14q-12 -95 -75.5 -147t-157.5 -52q-48 0 -93 19.5t-82.5 56.5t-60 97.5t-22.5 135.5q0 146 78 229t180 83q94 0 157.5 -52t75.5 -147q0 -14 -14 -14h-49q-16 0 -19 14q-27 121 -151 121q-76 0 -124 -60t-48 -174q0 -112 48 -171.5t124 -59.5
q124 0 151 121q3 14 19 14zM590 172q-95 0 -185 35.5t-162 101t-115.5 167.5t-43.5 224q0 98 28.5 184t77.5 148.5t113.5 107.5t138 67t148.5 22t148.5 -22t138 -67t113.5 -107.5t77.5 -148.5t28.5 -184q0 -122 -43.5 -224t-115.5 -167.5t-162 -101t-185 -35.5zM590 262
q78 0 150 28t130.5 80.5t93.5 138t35 191.5t-35 191.5t-93.5 138.5t-130.5 81t-150 28t-150 -28t-131 -81t-94 -138.5t-35 -191.5t35 -191.5t94 -138t131 -80.5t150 -28z" />
    <glyph glyph-name="ordfeminine" unicode="&#xaa;" horiz-adv-x="811" 
d="M717 1419v-737q0 -14 -17 -14h-88q-16 0 -16 14v72q-42 -52 -96.5 -76.5t-134.5 -24.5q-143 0 -235.5 110t-92.5 288t92.5 288.5t235.5 110.5q80 0 134.5 -25t96.5 -77v71q0 15 16 15h88q17 0 17 -15zM608 1051q0 131 -58.5 207.5t-162.5 76.5q-107 0 -166 -79.5
t-59 -204.5t59 -205t166 -80q104 0 162.5 77t58.5 208z" />
    <glyph glyph-name="guillemotleft" unicode="&#xab;" horiz-adv-x="1036" 
d="M528 260v-172q0 -14 -12 -14q-6 0 -12 6l-418 387q-20 17 -20 37v114q0 20 20 37l418 387q7 7 12 7q12 0 12 -15v-172q0 -22 -14 -33l-289 -268l289 -268q14 -11 14 -33zM946 260v-172q0 -14 -12 -14q-6 0 -12 6l-418 387q-21 18 -21 37v114q0 19 21 37l418 387q7 7 12 7
q12 0 12 -15v-172q0 -22 -14 -33l-289 -268l289 -268q14 -11 14 -33z" />
    <glyph glyph-name="logicalnot" unicode="&#xac;" horiz-adv-x="1036" 
d="M74 598v102q0 21 20 21h770q21 0 21 -21v-352q0 -20 -21 -20h-119q-20 0 -20 20v230h-631q-20 0 -20 20z" />
    <glyph glyph-name="registered" unicode="&#xae;" horiz-adv-x="1179" 
d="M590 172q-95 0 -185 35.5t-162 101t-115.5 167.5t-43.5 224q0 98 28.5 184t77.5 148.5t113.5 107.5t138 67t148.5 22t148.5 -22t138 -67t113.5 -107.5t77.5 -148.5t28.5 -184q0 -122 -43.5 -224t-115.5 -167.5t-162 -101t-185 -35.5zM590 262q78 0 150 28t130.5 80.5
t93.5 138t35 191.5t-35 191.5t-93.5 138.5t-130.5 81t-150 28t-150 -28t-131 -81t-94 -138.5t-35 -191.5t35 -191.5t94 -138t131 -80.5t150 -28zM416 412v579q0 15 14 15h180q93 0 143 -43.5t50 -124.5q0 -119 -123 -162l131 -264q2 -2 2 -9q0 -6 -8 -6h-64q-13 0 -20 13
l-129 258h-94v-256q0 -15 -15 -15h-53q-14 0 -14 15zM498 928v-183h120q52 0 77.5 25t25.5 68q0 90 -103 90h-120z" />
    <glyph glyph-name="macron" unicode="&#xaf;" horiz-adv-x="559" 
d="M72 1241v102q0 21 20 21h375q20 0 20 -21v-102q0 -20 -20 -20h-375q-20 0 -20 20z" />
    <glyph glyph-name="degree" unicode="&#xb0;" horiz-adv-x="870" 
d="M78 1106q0 152 102 250t254 98q154 0 256.5 -98t102.5 -250t-102.5 -250t-256.5 -98q-152 0 -254 98t-102 250zM221 1106q0 -98 60 -159.5t153 -61.5q94 0 153.5 61.5t59.5 159.5t-59.5 159.5t-153.5 61.5q-93 0 -153 -61.5t-60 -159.5z" />
    <glyph glyph-name="plusminus" unicode="&#xb1;" horiz-adv-x="1105" 
d="M633 1141v-334h334q20 0 20 -21v-118q0 -21 -20 -21h-334v-334q0 -20 -21 -20h-118q-21 0 -21 20v334h-334q-20 0 -20 21v118q0 21 20 21h334v334q0 20 21 20h118q21 0 21 -20zM139 160h828q20 0 20 -21v-119q0 -20 -20 -20h-828q-20 0 -20 20v119q0 21 20 21z" />
    <glyph glyph-name="twosuperior" unicode="&#xb2;" horiz-adv-x="675" 
d="M78 688v62q0 19 12 28l295 275q42 38 60 70.5t18 80.5q0 56 -34.5 93.5t-92.5 37.5q-109 0 -127 -133q-3 -20 -21 -20h-79q-21 0 -21 20q0 103 68 173.5t180 70.5q113 0 179.5 -70.5t66.5 -169.5q0 -72 -25.5 -124.5t-85.5 -106.5l-221 -197h338q20 0 20 -20v-70
q0 -20 -20 -20h-490q-20 0 -20 20z" />
    <glyph glyph-name="threesuperior" unicode="&#xb3;" horiz-adv-x="681" 
d="M244 1034v70q0 20 20 20h41q129 0 129 119q0 45 -28 72.5t-80 27.5q-48 0 -75.5 -24.5t-37.5 -79.5q-3 -16 -20 -16h-76q-21 0 -21 18q5 91 68 148t162 57q102 0 162.5 -52t60.5 -139q0 -62 -21.5 -101t-66.5 -71q62 -29 91.5 -70.5t29.5 -121.5q0 -106 -68 -171
t-184 -65q-107 0 -181.5 62.5t-74.5 165.5q0 20 20 20h80q18 0 21 -20q19 -117 133 -117q61 0 98 33t37 92q0 60 -36.5 91.5t-104.5 31.5h-58q-20 0 -20 20z" />
    <glyph glyph-name="acute" unicode="&#xb4;" horiz-adv-x="561" 
d="M96 1155l142 258q12 21 30 21h185q10 0 13 -7t-3 -14l-209 -260q-13 -18 -37 -18h-111q-10 0 -12.5 6.5t2.5 13.5z" />
    <glyph glyph-name="mu" unicode="&#xb5;" horiz-adv-x="1069" 
d="M926 1008v-988q0 -20 -21 -20h-119q-20 0 -20 20v123q-50 -70 -137 -116.5t-187 -46.5q-89 0 -151 26v-391q0 -21 -21 -21h-118q-21 0 -21 21v1393q0 20 21 20h118q21 0 21 -20v-678q0 -96 51.5 -147.5t144.5 -51.5q112 0 195.5 98.5t83.5 257.5v521q0 20 20 20h119
q21 0 21 -20z" />
    <glyph glyph-name="paragraph" unicode="&#xb6;" horiz-adv-x="1159" 
d="M422 1434h694q21 0 21 -21v-123q0 -20 -21 -20h-131v-1454q0 -21 -20 -21h-131q-21 0 -21 21v1454h-174v-1454q0 -21 -21 -21h-131q-20 0 -20 21v923h-45q-182 0 -282.5 92.5t-100.5 253.5t101 255t282 94z" />
    <glyph glyph-name="periodcentered" unicode="&#xb7;" horiz-adv-x="489" 
d="M158 823h168q20 0 20 -20v-168q0 -21 -20 -21h-168q-21 0 -21 21v168q0 20 21 20z" />
    <glyph glyph-name="cedilla" unicode="&#xb8;" horiz-adv-x="507" 
d="M100 -211l-24 25q-4 4 -4 12t2 12l73 219q6 21 21 21h90q25 0 16 -21l-81 -182q54 14 102 14q81 0 128.5 -39.5t47.5 -105.5q0 -170 -219 -170q-111 0 -184 20q-18 8 -20 13q-1 3 -1 8v59q0 21 21 21l54 -11q55 -12 124 -12q42 0 66 17t24 47q0 29 -24.5 46t-65.5 17
q-59 0 -117 -14q-4 -2 -12 -2q-11 0 -17 6z" />
    <glyph glyph-name="onesuperior" unicode="&#xb9;" horiz-adv-x="614" 
d="M57 688v70q0 20 21 20h172v500l-148 -80q-9 -6 -18 -6q-16 0 -16 16v97q0 12 14 20l184 100q15 9 31 9h47q21 0 21 -21v-635h172q20 0 20 -20v-70q0 -20 -20 -20h-459q-21 0 -21 20z" />
    <glyph glyph-name="ordmasculine" unicode="&#xba;" horiz-adv-x="860" 
d="M57 1051q0 179 104.5 289t268.5 110q162 0 267.5 -110.5t105.5 -288.5t-105.5 -288t-267.5 -110q-164 0 -268.5 109.5t-104.5 288.5zM182 1051q0 -125 69 -205t179 -80q108 0 177 80t69 205q0 127 -68.5 205.5t-177.5 78.5q-111 0 -179.5 -78.5t-68.5 -205.5z" />
    <glyph glyph-name="guillemotright" unicode="&#xbb;" horiz-adv-x="1036" 
d="M508 88v172q0 22 14 33l289 268l-289 268q-14 11 -14 33v172q0 15 12 15q5 0 12 -7l418 -387q21 -18 21 -37v-114q0 -19 -21 -37l-418 -387q-6 -6 -12 -6q-12 0 -12 14zM90 88v172q0 22 14 33l289 268l-289 268q-14 11 -14 33v172q0 15 12 15q6 0 13 -7l417 -387
q21 -18 21 -37v-114q0 -19 -21 -37l-417 -387q-6 -6 -13 -6q-12 0 -12 14z" />
    <glyph glyph-name="onequarter" unicode="&#xbc;" horiz-adv-x="1462" 
d="M336 76l928 1347q7 11 14 11q4 0 14 -7l60 -41q10 -10 10 -16q0 -4 -4 -12l-928 -1348q-7 -10 -14 -10q-6 0 -15 6l-59 41q-10 10 -10 16q0 5 4 13zM88 688v70q0 20 21 20h172v500l-148 -80q-9 -6 -18 -6q-17 0 -17 16v97q0 11 15 20l184 100q15 9 31 9h47q20 0 20 -21
v-635h172q21 0 21 -20v-70q0 -20 -21 -20h-458q-21 0 -21 20zM1176 20v125h-316q-20 0 -20 21v57q0 14 8 25l332 504q8 14 22 14h68q20 0 20 -21v-489h76q20 0 20 -20v-70q0 -21 -20 -21h-76v-125q0 -20 -20 -20h-74q-20 0 -20 20zM1176 535l-181 -279h181v279z" />
    <glyph glyph-name="onehalf" unicode="&#xbd;" horiz-adv-x="1597" 
d="M336 76l928 1347q7 11 14 11q4 0 14 -7l60 -41q10 -10 10 -16q0 -4 -4 -12l-928 -1348q-7 -10 -14 -10q-6 0 -15 6l-59 41q-10 10 -10 16q0 5 4 13zM88 688v70q0 20 21 20h172v500l-148 -80q-9 -6 -18 -6q-17 0 -17 16v97q0 11 15 20l184 100q15 9 31 9h47q20 0 20 -21
v-635h172q21 0 21 -20v-70q0 -20 -21 -20h-458q-21 0 -21 20zM1001 18v62q0 19 13 29l295 274q41 38 59 71t18 81q0 56 -34 93.5t-92 37.5q-108 0 -127 -134q-3 -20 -21 -20h-80q-20 0 -20 20q0 103 68 173.5t180 70.5q113 0 179 -70t66 -169q0 -72 -25 -125t-85 -107
l-221 -196h337q21 0 21 -21v-70q0 -20 -21 -20h-489q-21 0 -21 20z" />
    <glyph glyph-name="threequarters" unicode="&#xbe;" horiz-adv-x="1417" 
d="M287 76l927 1347q7 11 15 11q3 0 14 -7l60 -41q10 -10 10 -16q0 -4 -4 -12l-928 -1348q-7 -10 -14 -10q-6 0 -15 6l-59 41q-10 10 -10 16q0 5 4 13zM1126 20v125h-315q-20 0 -20 21v57q0 14 8 25l331 504q8 14 23 14h68q20 0 20 -21v-489h76q20 0 20 -20v-70
q0 -21 -20 -21h-76v-125q0 -20 -20 -20h-74q-21 0 -21 20zM1126 535l-180 -279h180v279zM240 1034v70q0 20 20 20h41q129 0 129 119q0 45 -28 72.5t-80 27.5q-48 0 -75.5 -24.5t-37.5 -79.5q-3 -16 -21 -16h-75q-21 0 -21 18q5 91 68 148t162 57q102 0 162.5 -52t60.5 -139
q0 -62 -21.5 -101t-66.5 -71q62 -29 91.5 -70.5t29.5 -121.5q0 -106 -68 -171t-184 -65q-107 0 -181.5 62.5t-74.5 165.5q0 20 20 20h80q17 0 20 -20q20 -117 134 -117q61 0 98 33t37 92q0 60 -37 91.5t-105 31.5h-57q-20 0 -20 20z" />
    <glyph glyph-name="questiondown" unicode="&#xbf;" horiz-adv-x="931" 
d="M862 -20q-6 -82 -33.5 -153t-76.5 -128.5t-127 -91t-176 -33.5q-187 0 -288.5 100t-101.5 275q0 67 23 125t57 98t74 82t74 77.5t57 85t23 103.5v109q0 20 20 20h131q21 0 21 -20v-94q0 -66 -17 -123.5t-44 -99t-60 -78t-66 -69t-60 -64.5t-44 -70.5t-17 -81.5
q0 -99 57 -155t161 -56q215 0 245 242q3 20 21 20h127q20 0 20 -20zM543 807h-181q-20 0 -20 20v181q0 20 20 20h181q20 0 20 -20v-181q0 -20 -20 -20z" />
    <glyph glyph-name="Agrave" unicode="&#xc0;" horiz-adv-x="1118" 
d="M317 416l-116 -396q-5 -12 -9.5 -16t-15.5 -4h-135q-23 0 -23 20q0 9 2 13l435 1380q1 2 2.5 6t2 5.5t2 4t3.5 3.5t4.5 1.5t5.5 0.5h168q6 0 9.5 -2t5.5 -5t4 -9q1 -3 2 -5l434 -1380q2 -4 2 -13q0 -20 -23 -20h-135q-11 0 -15 4t-9 16l-117 396h-484zM559 1214
l-192 -634h385zM492 1819l141 -258q5 -7 2.5 -14t-12.5 -7h-111q-21 0 -37 19l-209 260q-6 7 -3 13.5t13 6.5h185q20 0 31 -20z" />
    <glyph glyph-name="Aacute" unicode="&#xc1;" horiz-adv-x="1118" 
d="M317 416l-116 -396q-5 -12 -9.5 -16t-15.5 -4h-135q-23 0 -23 20q0 9 2 13l435 1380q1 2 2.5 6t2 5.5t2 4t3.5 3.5t4.5 1.5t5.5 0.5h168q6 0 9.5 -2t5.5 -5t4 -9q1 -3 2 -5l434 -1380q2 -4 2 -13q0 -20 -23 -20h-135q-11 0 -15 4t-9 16l-117 396h-484zM559 1214
l-192 -634h385zM492 1561l141 258q11 20 31 20h184q10 0 13 -6.5t-3 -13.5l-209 -260q-14 -19 -37 -19h-110q-10 0 -12.5 7t2.5 14z" />
    <glyph glyph-name="Acircumflex" unicode="&#xc2;" horiz-adv-x="1118" 
d="M317 416l-116 -396q-5 -12 -9.5 -16t-15.5 -4h-135q-23 0 -23 20q0 9 2 13l435 1380q1 2 2.5 6t2 5.5t2 4t3.5 3.5t4.5 1.5t5.5 0.5h168q6 0 9.5 -2t5.5 -5t4 -9q1 -3 2 -5l434 -1380q2 -4 2 -13q0 -20 -23 -20h-135q-11 0 -15 4t-9 16l-117 396h-484zM559 1214
l-192 -634h385zM639 1823l207 -262q6 -7 3 -14t-13 -7h-115q-18 0 -37 19l-125 129l-125 -129q-19 -19 -37 -19h-114q-10 0 -13.5 7t2.5 14l207 262q16 16 31 16h98q15 0 31 -16z" />
    <glyph glyph-name="Atilde" unicode="&#xc3;" horiz-adv-x="1118" 
d="M317 416l-116 -396q-5 -12 -9.5 -16t-15.5 -4h-135q-23 0 -23 20q0 9 2 13l435 1380q1 2 2.5 6t2 5.5t2 4t3.5 3.5t4.5 1.5t5.5 0.5h168q6 0 9.5 -2t5.5 -5t4 -9q1 -3 2 -5l434 -1380q2 -4 2 -13q0 -20 -23 -20h-135q-11 0 -15 4t-9 16l-117 396h-484zM559 1214
l-192 -634h385zM227 1761q105 78 207 78q44 0 76.5 -8.5t51.5 -21t36 -25t40.5 -21t53.5 -8.5q27 0 52.5 11t70.5 40q12 4 14 4q13 0 23 -16l53 -80l2.5 -5t2.5 -5.5t1 -5.5q0 -12 -12 -21q-105 -78 -207 -78q-44 0 -76.5 8.5t-51.5 21t-36 25t-40.5 21t-53.5 8.5
q-27 0 -52.5 -11t-70.5 -40q-12 -4 -14 -4q-13 0 -23 17l-53 79q0 1 -3 7t-3 10q0 11 12 20z" />
    <glyph glyph-name="Adieresis" unicode="&#xc4;" horiz-adv-x="1118" 
d="M317 416l-116 -396q-5 -12 -9.5 -16t-15.5 -4h-135q-23 0 -23 20q0 9 2 13l435 1380q1 2 2.5 6t2 5.5t2 4t3.5 3.5t4.5 1.5t5.5 0.5h168q6 0 9.5 -2t5.5 -5t4 -9q1 -3 2 -5l434 -1380q2 -4 2 -13q0 -20 -23 -20h-135q-11 0 -15 4t-9 16l-117 396h-484zM559 1214
l-192 -634h385zM295 1659v160q0 20 20 20h160q21 0 21 -20v-160q0 -21 -21 -21h-160q-20 0 -20 21zM623 1659v160q0 20 20 20h160q20 0 20 -20v-160q0 -21 -20 -21h-160q-20 0 -20 21z" />
    <glyph glyph-name="Aring" unicode="&#xc5;" horiz-adv-x="1118" 
d="M317 416l-116 -396q-5 -12 -9.5 -16t-15.5 -4h-135q-23 0 -23 20q0 9 2 13l435 1380q1 2 2.5 6t2 5.5t2 4t3.5 3.5t4.5 1.5t5.5 0.5h168q6 0 9.5 -2t5.5 -5t4 -9q1 -3 2 -5l434 -1380q2 -4 2 -13q0 -20 -23 -20h-135q-11 0 -15 4t-9 16l-117 396h-484zM559 1214
l-192 -634h385zM381 1708q0 75 50 123.5t128 48.5t128 -48.5t50 -123.5t-50 -123.5t-128 -48.5t-128 48.5t-50 123.5zM479 1708q0 -38 22 -60t58 -22t58 22t22 60t-22 60t-58 22t-58 -22t-22 -60z" />
    <glyph glyph-name="AE" unicode="&#xc6;" horiz-adv-x="1443" 
d="M739 672v-508h574q20 0 20 -21v-123q0 -20 -20 -20h-725q-21 0 -21 20v396h-256l-106 -396q-5 -12 -9.5 -16t-15.5 -4h-139q-23 0 -23 20q0 9 2 13l396 1380q1 2 2.5 6t2 5.5t2 4t3.5 3.5t4.5 1.5t5.5 0.5h862q21 0 21 -21v-123q0 -20 -21 -20h-559v-434h496q20 0 20 -21
v-123q0 -20 -20 -20h-496zM543 1270l-189 -690h213v690h-24z" />
    <glyph glyph-name="Ccedilla" unicode="&#xc7;" horiz-adv-x="1302" 
d="M586 -211l-25 25q-4 4 -4 12t2 12l49 150q-107 15 -198 67.5t-161.5 141t-110.5 222t-40 298.5q0 179 48 322t130 232t186.5 136t223.5 47q224 0 367 -122.5t174 -362.5q0 -21 -23 -21h-125q-21 0 -24 21q-33 162 -122 241.5t-247 79.5q-184 0 -295.5 -149.5
t-111.5 -423.5t111.5 -424t295.5 -150q158 0 247 80t122 242q3 20 24 20h125q23 0 23 -20q-29 -228 -162.5 -351.5t-339.5 -131.5l-47 -107q54 14 102 14q81 0 128.5 -39.5t47.5 -105.5q0 -170 -219 -170q-111 0 -184 20q-18 8 -20 13q-1 3 -1 8v59q0 21 21 21q7 0 28 -6
t60.5 -11.5t89.5 -5.5q42 0 66 17t24 47q0 29 -24.5 46t-65.5 17q-59 0 -117 -14q-4 -2 -12 -2q-10 0 -16 6z" />
    <glyph glyph-name="Egrave" unicode="&#xc8;" horiz-adv-x="1052" 
d="M328 672v-508h594q20 0 20 -21v-123q0 -20 -20 -20h-746q-20 0 -20 20v1393q0 21 20 21h731q21 0 21 -21v-123q0 -20 -21 -20h-579v-434h516q20 0 20 -21v-123q0 -20 -20 -20h-516zM532 1819l142 -258q5 -7 2.5 -14t-12.5 -7h-111q-21 0 -37 19l-209 260q-6 7 -3 13.5
t13 6.5h185q19 0 30 -20z" />
    <glyph glyph-name="Eacute" unicode="&#xc9;" horiz-adv-x="1052" 
d="M328 672v-508h594q20 0 20 -21v-123q0 -20 -20 -20h-746q-20 0 -20 20v1393q0 21 20 21h731q21 0 21 -21v-123q0 -20 -21 -20h-579v-434h516q20 0 20 -21v-123q0 -20 -20 -20h-516zM406 1561l141 258q11 20 31 20h184q10 0 13 -6.5t-3 -13.5l-209 -260q-14 -19 -37 -19
h-110q-10 0 -12.5 7t2.5 14z" />
    <glyph glyph-name="Ecircumflex" unicode="&#xca;" horiz-adv-x="1052" 
d="M328 672v-508h594q20 0 20 -21v-123q0 -20 -20 -20h-746q-20 0 -20 20v1393q0 21 20 21h731q21 0 21 -21v-123q0 -20 -21 -20h-579v-434h516q20 0 20 -21v-123q0 -20 -20 -20h-516zM627 1823l207 -262q6 -7 2.5 -14t-13.5 -7h-114q-18 0 -37 19l-125 129l-125 -129
q-19 -19 -37 -19h-115q-10 0 -13 7t3 14l207 262q16 16 31 16h98q15 0 31 -16z" />
    <glyph glyph-name="Edieresis" unicode="&#xcb;" horiz-adv-x="1052" 
d="M328 672v-508h594q20 0 20 -21v-123q0 -20 -20 -20h-746q-20 0 -20 20v1393q0 21 20 21h731q21 0 21 -21v-123q0 -20 -21 -20h-579v-434h516q20 0 20 -21v-123q0 -20 -20 -20h-516zM262 1659v160q0 20 21 20h159q21 0 21 -20v-160q0 -21 -21 -21h-159q-21 0 -21 21z
M590 1659v160q0 20 20 20h160q21 0 21 -20v-160q0 -21 -21 -21h-160q-20 0 -20 21z" />
    <glyph glyph-name="Igrave" unicode="&#xcc;" horiz-adv-x="942" 
d="M109 1290v123q0 21 20 21h684q21 0 21 -21v-123q0 -20 -21 -20h-256v-1106h277q20 0 20 -21v-123q0 -20 -20 -20h-725q-21 0 -21 20v123q0 21 21 21h276v1106h-256q-20 0 -20 20zM506 1819l141 -258q5 -7 2.5 -14t-12.5 -7h-111q-21 0 -37 19l-208 260q-6 7 -3 13.5
t13 6.5h184q20 0 31 -20z" />
    <glyph glyph-name="Iacute" unicode="&#xcd;" horiz-adv-x="942" 
d="M109 1290v123q0 21 20 21h684q21 0 21 -21v-123q0 -20 -21 -20h-256v-1106h277q20 0 20 -21v-123q0 -20 -20 -20h-725q-21 0 -21 20v123q0 21 21 21h276v1106h-256q-20 0 -20 20zM311 1561l142 258q11 20 30 20h185q10 0 13 -6.5t-3 -13.5l-209 -260q-14 -19 -37 -19
h-110q-10 0 -13 7t2 14z" />
    <glyph glyph-name="Icircumflex" unicode="&#xce;" horiz-adv-x="942" 
d="M109 1290v123q0 21 20 21h684q21 0 21 -21v-123q0 -20 -21 -20h-256v-1106h277q20 0 20 -21v-123q0 -20 -20 -20h-725q-21 0 -21 20v123q0 21 21 21h276v1106h-256q-20 0 -20 20zM559 1823l207 -262q6 -7 3 -14t-13 -7h-115q-18 0 -37 19l-125 129l-125 -129
q-19 -19 -37 -19h-114q-10 0 -13 7t3 14l206 262q16 16 31 16h98q15 0 31 -16z" />
    <glyph glyph-name="Idieresis" unicode="&#xcf;" horiz-adv-x="942" 
d="M109 1290v123q0 21 20 21h684q21 0 21 -21v-123q0 -20 -21 -20h-256v-1106h277q20 0 20 -21v-123q0 -20 -20 -20h-725q-21 0 -21 20v123q0 21 21 21h276v1106h-256q-20 0 -20 20zM215 1659v160q0 20 21 20h159q21 0 21 -20v-160q0 -21 -21 -21h-159q-21 0 -21 21z
M543 1659v160q0 20 20 20h160q20 0 20 -20v-160q0 -21 -20 -21h-160q-20 0 -20 21z" />
    <glyph glyph-name="Eth" unicode="&#xd0;" horiz-adv-x="1302" 
d="M78 797h151v616q0 21 21 21h346q133 0 243 -43.5t192 -129.5t127.5 -225t45.5 -319t-45.5 -319t-127.5 -225t-192 -129.5t-243 -43.5h-346q-21 0 -21 20v617h-151q-21 0 -21 20v119q0 21 21 21zM401 164h170q213 0 333 137t120 416t-120 416t-333 137h-170v-473h263
q20 0 20 -21v-119q0 -20 -20 -20h-263v-473z" />
    <glyph glyph-name="Ntilde" unicode="&#xd1;" horiz-adv-x="1259" 
d="M1083 0h-165q-26 0 -33 16l-557 1123v-1119q0 -20 -21 -20h-131q-20 0 -20 20v1393q0 21 20 21h166q26 0 33 -17l557 -1122v1118q0 21 20 21h131q21 0 21 -21v-1393q0 -20 -21 -20zM291 1761q105 78 207 78q44 0 76.5 -8.5t51.5 -21t36 -25t40.5 -21t53.5 -8.5
q27 0 52.5 11t70.5 40q12 4 14 4q12 0 22 -16l54 -80l2.5 -5t2.5 -5.5t1 -5.5q0 -12 -12 -21q-105 -78 -207 -78q-44 0 -76.5 8.5t-51.5 21t-36 25t-40.5 21t-53.5 8.5q-27 0 -52.5 -11t-70.5 -40q-12 -4 -15 -4q-12 0 -22 17l-53 79q0 1 -3 7t-3 10q0 11 12 20z" />
    <glyph glyph-name="Ograve" unicode="&#xd2;" horiz-adv-x="1355" 
d="M678 -20q-121 0 -225 47t-183.5 136.5t-125.5 232t-46 321.5t46 321.5t125.5 232t183.5 136.5t225 47t224.5 -47t183.5 -136.5t125.5 -232t45.5 -321.5t-45.5 -321.5t-125.5 -232t-183.5 -136.5t-224.5 -47zM678 143q186 0 292.5 148t106.5 426t-106.5 425.5
t-292.5 147.5t-292.5 -147.5t-106.5 -425.5t106.5 -426t292.5 -148zM659 1819l142 -258q5 -7 2.5 -14t-12.5 -7h-111q-21 0 -37 19l-209 260q-6 7 -3 13.5t13 6.5h185q19 0 30 -20z" />
    <glyph glyph-name="Oacute" unicode="&#xd3;" horiz-adv-x="1355" 
d="M678 -20q-121 0 -225 47t-183.5 136.5t-125.5 232t-46 321.5t46 321.5t125.5 232t183.5 136.5t225 47t224.5 -47t183.5 -136.5t125.5 -232t45.5 -321.5t-45.5 -321.5t-125.5 -232t-183.5 -136.5t-224.5 -47zM678 143q186 0 292.5 148t106.5 426t-106.5 425.5
t-292.5 147.5t-292.5 -147.5t-106.5 -425.5t106.5 -426t292.5 -148zM555 1561l141 258q11 20 31 20h184q10 0 13.5 -6.5t-2.5 -13.5l-209 -260q-14 -19 -37 -19h-111q-10 0 -12.5 7t2.5 14z" />
    <glyph glyph-name="Ocircumflex" unicode="&#xd4;" horiz-adv-x="1355" 
d="M678 -20q-121 0 -225 47t-183.5 136.5t-125.5 232t-46 321.5t46 321.5t125.5 232t183.5 136.5t225 47t224.5 -47t183.5 -136.5t125.5 -232t45.5 -321.5t-45.5 -321.5t-125.5 -232t-183.5 -136.5t-224.5 -47zM678 143q186 0 292.5 148t106.5 426t-106.5 425.5
t-292.5 147.5t-292.5 -147.5t-106.5 -425.5t106.5 -426t292.5 -148zM758 1823l207 -262q6 -7 2.5 -14t-13.5 -7h-114q-18 0 -37 19l-125 129l-125 -129q-19 -19 -37 -19h-115q-10 0 -13 7t3 14l207 262q16 16 31 16h98q15 0 31 -16z" />
    <glyph glyph-name="Otilde" unicode="&#xd5;" horiz-adv-x="1355" 
d="M678 -20q-121 0 -225 47t-183.5 136.5t-125.5 232t-46 321.5t46 321.5t125.5 232t183.5 136.5t225 47t224.5 -47t183.5 -136.5t125.5 -232t45.5 -321.5t-45.5 -321.5t-125.5 -232t-183.5 -136.5t-224.5 -47zM678 143q186 0 292.5 148t106.5 426t-106.5 425.5
t-292.5 147.5t-292.5 -147.5t-106.5 -425.5t106.5 -426t292.5 -148zM342 1761q105 78 207 78q44 0 76.5 -8.5t51.5 -21t36 -25t40.5 -21t53.5 -8.5q27 0 52.5 11t70.5 40q12 4 14 4q13 0 23 -16l53 -80l2.5 -5t2.5 -5.5t1 -5.5q0 -12 -12 -21q-105 -78 -207 -78
q-44 0 -76.5 8.5t-51.5 21t-36 25t-40.5 21t-53.5 8.5q-27 0 -52.5 -11t-70.5 -40q-12 -4 -14 -4q-13 0 -23 17l-53 79q0 1 -3 7t-3 10q0 11 12 20z" />
    <glyph glyph-name="Odieresis" unicode="&#xd6;" horiz-adv-x="1355" 
d="M678 -20q-121 0 -225 47t-183.5 136.5t-125.5 232t-46 321.5t46 321.5t125.5 232t183.5 136.5t225 47t224.5 -47t183.5 -136.5t125.5 -232t45.5 -321.5t-45.5 -321.5t-125.5 -232t-183.5 -136.5t-224.5 -47zM678 143q186 0 292.5 148t106.5 426t-106.5 425.5
t-292.5 147.5t-292.5 -147.5t-106.5 -425.5t106.5 -426t292.5 -148zM414 1659v160q0 20 20 20h160q20 0 20 -20v-160q0 -21 -20 -21h-160q-20 0 -20 21zM741 1659v160q0 20 21 20h160q20 0 20 -20v-160q0 -21 -20 -21h-160q-21 0 -21 21z" />
    <glyph glyph-name="multiply" unicode="&#xd7;" horiz-adv-x="966" 
d="M831 936l-235 -236l235 -235q9 -9 9 -14q0 -6 -9 -15l-83 -84q-8 -8 -15 -8q-6 0 -14 8l-236 236l-235 -236q-8 -8 -15 -8q-6 0 -14 8l-84 84q-8 8 -8 15q0 6 8 14l236 235l-236 236q-8 8 -8 14q0 7 8 15l84 84q8 8 14 8q7 0 15 -8l235 -236l236 236q8 8 14 8q7 0 15 -8
l83 -84q9 -9 9 -15q0 -5 -9 -14z" />
    <glyph glyph-name="Oslash" unicode="&#xd8;" horiz-adv-x="1355" 
d="M678 -20q-171 0 -311 96l-97 -164q-9 -12 -16 -12l-12 4l-56 33q-12 6 -12 14q0 2 4 14l107 182q-187 200 -187 570q0 179 46 321.5t125.5 232t183.5 136.5t225 47q171 0 311 -96l96 164q9 12 17 12q1 0 2.5 -0.5l4.5 -1.5t5 -2l55 -33q13 -7 13 -14q0 -3 -4 -15
l-107 -182q186 -199 186 -569q0 -179 -45.5 -321.5t-125.5 -232t-183.5 -136.5t-224.5 -47zM279 717q0 -261 98 -410l528 905q-96 78 -227 78q-186 0 -292.5 -147.5t-106.5 -425.5zM678 143q186 0 292.5 148t106.5 426q0 260 -98 409l-528 -905q96 -78 227 -78z" />
    <glyph glyph-name="Ugrave" unicode="&#xd9;" horiz-adv-x="1167" 
d="M121 489v924q0 21 20 21h131q21 0 21 -21v-901q0 -180 69 -274.5t222 -94.5t221.5 94t68.5 275v901q0 21 21 21h131q21 0 21 -21v-924q0 -238 -124.5 -373.5t-338.5 -135.5t-338.5 135.5t-124.5 373.5zM573 1819l142 -258q5 -7 2.5 -14t-12.5 -7h-111q-21 0 -37 19
l-209 260q-6 7 -3 13.5t13 6.5h185q19 0 30 -20z" />
    <glyph glyph-name="Uacute" unicode="&#xda;" horiz-adv-x="1167" 
d="M121 489v924q0 21 20 21h131q21 0 21 -21v-901q0 -180 69 -274.5t222 -94.5t221.5 94t68.5 275v901q0 21 21 21h131q21 0 21 -21v-924q0 -238 -124.5 -373.5t-338.5 -135.5t-338.5 135.5t-124.5 373.5zM455 1561l141 258q11 20 31 20h184q10 0 13 -6.5t-3 -13.5
l-209 -260q-14 -19 -37 -19h-110q-10 0 -12.5 7t2.5 14z" />
    <glyph glyph-name="Ucircumflex" unicode="&#xdb;" horiz-adv-x="1167" 
d="M121 489v924q0 21 20 21h131q21 0 21 -21v-901q0 -180 69 -274.5t222 -94.5t221.5 94t68.5 275v901q0 21 21 21h131q21 0 21 -21v-924q0 -238 -124.5 -373.5t-338.5 -135.5t-338.5 135.5t-124.5 373.5zM664 1823l206 -262q6 -7 3 -14t-13 -7h-115q-12 0 -18 3.5t-18 15.5
l-125 129l-125 -129q-19 -19 -37 -19h-115q-10 0 -13 7t3 14l207 262q16 16 31 16h98q15 0 31 -16z" />
    <glyph glyph-name="Udieresis" unicode="&#xdc;" horiz-adv-x="1167" 
d="M121 489v924q0 21 20 21h131q21 0 21 -21v-901q0 -180 69 -274.5t222 -94.5t221.5 94t68.5 275v901q0 21 21 21h131q21 0 21 -21v-924q0 -238 -124.5 -373.5t-338.5 -135.5t-338.5 135.5t-124.5 373.5zM322 1659v160q0 20 20 20h160q20 0 20 -20v-160q0 -21 -20 -21h-160
q-20 0 -20 21zM649 1659v160q0 20 21 20h159q21 0 21 -20v-160q0 -21 -21 -21h-159q-21 0 -21 21z" />
    <glyph glyph-name="Yacute" unicode="&#xdd;" horiz-adv-x="950" 
d="M936 1413l-375 -805v-588q0 -20 -20 -20h-131q-21 0 -21 20v588l-375 805q-9 21 13 21h159q16 0 23 -17l266 -604l266 604q7 17 23 17h160q21 0 12 -21zM371 1561l141 258q11 20 31 20h184q10 0 13 -6.5t-3 -13.5l-209 -260q-14 -19 -36 -19h-111q-10 0 -12.5 7t2.5 14z
" />
    <glyph glyph-name="Thorn" unicode="&#xde;" horiz-adv-x="1126" 
d="M156 20v1393q0 21 20 21h131q21 0 21 -21v-297h270q223 0 340 -105t117 -294t-117 -294.5t-340 -105.5h-270v-297q0 -20 -21 -20h-131q-20 0 -20 20zM328 952v-471h301q126 0 185.5 59t59.5 177t-59.5 176.5t-185.5 58.5h-301z" />
    <glyph glyph-name="germandbls" unicode="&#xdf;" horiz-adv-x="1144" 
d="M735 -20q-132 0 -223.5 81t-91.5 203q0 21 20 21h111q17 0 20 -21q12 -61 55.5 -97t108.5 -36q80 0 126 51.5t46 149.5q0 52 -19.5 92t-51 65t-69.5 46t-76 43t-69.5 48t-51 68t-19.5 97q0 49 20.5 90t49.5 69.5t58.5 55.5t50 59.5t20.5 69.5q0 75 -54.5 121.5
t-140.5 46.5q-104 0 -159.5 -64t-55.5 -186v-1033q0 -20 -21 -20h-118q-21 0 -21 20v857h-137q-20 0 -20 20v111q0 20 20 20h137v66q0 148 102.5 254t272.5 106q171 0 262.5 -86.5t91.5 -224.5q0 -58 -20.5 -106t-49.5 -79t-58 -57.5t-49.5 -54t-20.5 -55.5q0 -30 27 -58
t67.5 -49.5t87.5 -53.5t87.5 -67.5t67.5 -94.5t27 -132q0 -160 -87 -258t-253 -98z" />
    <glyph glyph-name="agrave" unicode="&#xe0;" horiz-adv-x="1056" 
d="M266 723h-131q-14 0 -14 12q0 13 2 21q30 123 135 208t266 85q178 0 293 -98.5t115 -254.5v-499q0 -70 7 -105.5t28 -71.5q11 -20 -15 -20h-159q-21 0 -21 20v107q-108 -147 -313 -147q-73 0 -139 20t-119.5 58.5t-85 102t-31.5 144.5q0 110 57.5 188.5t151 116
t211.5 37.5q137 0 268 -43v51q0 242 -248 242q-167 0 -229 -156q-7 -18 -29 -18zM772 453q-117 43 -266 43q-112 0 -183 -49t-71 -142q0 -80 58 -127t165 -47q122 0 209.5 87.5t87.5 234.5zM512 1413l141 -258q5 -7 2.5 -13.5t-12.5 -6.5h-111q-21 0 -36 18l-209 260
q-6 7 -3 14t13 7h184q19 0 31 -21z" />
    <glyph glyph-name="aacute" unicode="&#xe1;" horiz-adv-x="1056" 
d="M266 723h-131q-14 0 -14 12q0 13 2 21q30 123 135 208t266 85q178 0 293 -98.5t115 -254.5v-499q0 -70 7 -105.5t28 -71.5q11 -20 -15 -20h-159q-21 0 -21 20v107q-108 -147 -313 -147q-73 0 -139 20t-119.5 58.5t-85 102t-31.5 144.5q0 110 57.5 188.5t151 116
t211.5 37.5q137 0 268 -43v51q0 242 -248 242q-167 0 -229 -156q-7 -18 -29 -18zM772 453q-117 43 -266 43q-112 0 -183 -49t-71 -142q0 -80 58 -127t165 -47q122 0 209.5 87.5t87.5 234.5zM408 1155l141 258q12 21 31 21h184q10 0 13 -7t-3 -14l-209 -260q-13 -18 -37 -18
h-110q-10 0 -12.5 6.5t2.5 13.5z" />
    <glyph glyph-name="acircumflex" unicode="&#xe2;" horiz-adv-x="1056" 
d="M266 723h-131q-14 0 -14 12q0 13 2 21q30 123 135 208t266 85q178 0 293 -98.5t115 -254.5v-499q0 -70 7 -105.5t28 -71.5q11 -20 -15 -20h-159q-21 0 -21 20v107q-108 -147 -313 -147q-73 0 -139 20t-119.5 58.5t-85 102t-31.5 144.5q0 110 57.5 188.5t151 116
t211.5 37.5q137 0 268 -43v51q0 242 -248 242q-167 0 -229 -156q-7 -18 -29 -18zM772 453q-117 43 -266 43q-112 0 -183 -49t-71 -142q0 -80 58 -127t165 -47q122 0 209.5 87.5t87.5 234.5zM612 1417l207 -262q6 -7 3 -13.5t-13 -6.5h-115q-19 0 -37 18l-125 129l-124 -129
q-18 -18 -37 -18h-115q-10 0 -13 6.5t3 13.5l207 262q17 17 30 17h99q13 0 30 -17z" />
    <glyph glyph-name="atilde" unicode="&#xe3;" horiz-adv-x="1056" 
d="M266 723h-131q-14 0 -14 12q0 13 2 21q30 123 135 208t266 85q178 0 293 -98.5t115 -254.5v-499q0 -70 7 -105.5t28 -71.5q11 -20 -15 -20h-159q-21 0 -21 20v107q-108 -147 -313 -147q-73 0 -139 20t-119.5 58.5t-85 102t-31.5 144.5q0 110 57.5 188.5t151 116
t211.5 37.5q137 0 268 -43v51q0 242 -248 242q-167 0 -229 -156q-7 -18 -29 -18zM772 453q-117 43 -266 43q-112 0 -183 -49t-71 -142q0 -80 58 -127t165 -47q122 0 209.5 87.5t87.5 234.5zM205 1356q105 78 207 78q44 0 76.5 -8.5t51.5 -21t36 -25t40.5 -21t53.5 -8.5
q27 0 52.5 11t70.5 40q12 4 14 4q12 0 22 -16l54 -80q0 -1 3 -7t3 -10q0 -11 -12 -20q-105 -78 -207 -78q-44 0 -76.5 8.5t-51.5 21t-36 25t-40.5 21t-53.5 8.5q-27 0 -52.5 -11t-70.5 -40q-12 -4 -15 -4q-12 0 -22 16l-53 80q-1 1 -3.5 7t-2.5 9q0 12 12 21z" />
    <glyph glyph-name="adieresis" unicode="&#xe4;" horiz-adv-x="1056" 
d="M266 723h-131q-14 0 -14 12q0 13 2 21q30 123 135 208t266 85q178 0 293 -98.5t115 -254.5v-499q0 -70 7 -105.5t28 -71.5q11 -20 -15 -20h-159q-21 0 -21 20v107q-108 -147 -313 -147q-73 0 -139 20t-119.5 58.5t-85 102t-31.5 144.5q0 110 57.5 188.5t151 116
t211.5 37.5q137 0 268 -43v51q0 242 -248 242q-167 0 -229 -156q-7 -18 -29 -18zM772 453q-117 43 -266 43q-112 0 -183 -49t-71 -142q0 -80 58 -127t165 -47q122 0 209.5 87.5t87.5 234.5zM256 1253v160q0 21 20 21h160q21 0 21 -21v-160q0 -20 -21 -20h-160q-20 0 -20 20z
M584 1253v160q0 21 20 21h160q20 0 20 -21v-160q0 -20 -20 -20h-160q-20 0 -20 20z" />
    <glyph glyph-name="aring" unicode="&#xe5;" horiz-adv-x="1056" 
d="M266 723h-131q-14 0 -14 12q0 13 2 21q30 123 135 208t266 85q178 0 293 -98.5t115 -254.5v-499q0 -70 7 -105.5t28 -71.5q11 -20 -15 -20h-159q-21 0 -21 20v107q-108 -147 -313 -147q-73 0 -139 20t-119.5 58.5t-85 102t-31.5 144.5q0 110 57.5 188.5t151 116
t211.5 37.5q137 0 268 -43v51q0 242 -248 242q-167 0 -229 -156q-7 -18 -29 -18zM772 453q-117 43 -266 43q-112 0 -183 -49t-71 -142q0 -80 58 -127t165 -47q122 0 209.5 87.5t87.5 234.5zM358 1303q0 75 50.5 123.5t128.5 48.5t128 -48.5t50 -123.5t-50 -124t-128 -49
t-128.5 49t-50.5 124zM457 1303q0 -38 22 -60t58 -22t57.5 22t21.5 60t-21.5 59.5t-57.5 21.5t-58 -21.5t-22 -59.5z" />
    <glyph glyph-name="ae" unicode="&#xe6;" horiz-adv-x="1820" 
d="M1714 465h-770q13 -152 93.5 -243t224.5 -91q110 0 176.5 45t103.5 143q7 19 29 19h133q14 0 14 -14q0 -12 -4 -21q-111 -323 -452 -323q-293 0 -422 225q-69 -123 -165 -174t-216 -51q-73 0 -139 20t-119.5 58.5t-85 102t-31.5 144.5q0 110 57.5 188.5t151 116
t211.5 37.5q137 0 268 -43v51q0 242 -248 242q-167 0 -229 -156q-7 -18 -29 -18h-131q-14 0 -14 12q0 13 2 21q30 123 135 208t266 85q122 0 216.5 -48t144.5 -133q141 181 377 181q113 0 204.5 -43t149.5 -117t88.5 -170t30.5 -205v-29q0 -20 -21 -20zM772 453
q-117 43 -266 43q-112 0 -183 -49t-71 -142q0 -80 58 -127t165 -47q122 0 209.5 87.5t87.5 234.5zM1262 897q-118 0 -201.5 -75.5t-108.5 -205.5h611q-25 127 -107.5 204t-193.5 77z" />
    <glyph glyph-name="ccedilla" unicode="&#xe7;" horiz-adv-x="1101" 
d="M455 -211l-25 25q-4 4 -4 12t2 12l49 152q-184 33 -288.5 175.5t-104.5 348.5q0 113 34.5 211t97 170t156 113t206.5 41q178 0 288 -89t152 -253q2 -8 2 -21q0 -12 -14 -12h-125q-22 0 -29 18q-30 95 -101 150t-173 55q-145 0 -235.5 -107.5t-90.5 -275.5t90.5 -275.5
t235.5 -107.5q102 0 173 55t101 150q7 18 29 18h125q14 0 14 -12t-2 -20q-42 -160 -148.5 -249t-275.5 -93l-47 -105q54 14 102 14q81 0 128.5 -39.5t47.5 -105.5q0 -170 -219 -170q-111 0 -184 20q-18 8 -20 13q-1 3 -1 8v59q0 21 21 21l54 -11q55 -12 124 -12q42 0 66 17
t24 47q0 29 -24.5 46t-65.5 17q-59 0 -117 -14q-4 -2 -12 -2q-10 0 -16 6z" />
    <glyph glyph-name="egrave" unicode="&#xe8;" horiz-adv-x="1132" 
d="M1026 465h-770q13 -152 93 -243t224 -91q110 0 177 45t104 143q7 19 29 19h133q14 0 14 -14q0 -12 -4 -21q-111 -323 -453 -323q-155 0 -267.5 71.5t-167 190.5t-54.5 272q0 150 60 271.5t172.5 192.5t256.5 71q113 0 204.5 -43t149.5 -117t89 -170t31 -205v-29
q0 -20 -21 -20zM573 897q-117 0 -200.5 -75.5t-108.5 -205.5h610q-25 127 -107.5 204t-193.5 77zM526 1413l142 -258q5 -7 2 -13.5t-13 -6.5h-110q-22 0 -37 18l-209 260q-6 7 -3 14t13 7h185q18 0 30 -21z" />
    <glyph glyph-name="eacute" unicode="&#xe9;" horiz-adv-x="1132" 
d="M1026 465h-770q13 -152 93 -243t224 -91q110 0 177 45t104 143q7 19 29 19h133q14 0 14 -14q0 -12 -4 -21q-111 -323 -453 -323q-155 0 -267.5 71.5t-167 190.5t-54.5 272q0 150 60 271.5t172.5 192.5t256.5 71q113 0 204.5 -43t149.5 -117t89 -170t31 -205v-29
q0 -20 -21 -20zM573 897q-117 0 -200.5 -75.5t-108.5 -205.5h610q-25 127 -107.5 204t-193.5 77zM457 1155l141 258q12 21 31 21h184q10 0 13 -7t-3 -14l-209 -260q-13 -18 -36 -18h-111q-10 0 -12.5 6.5t2.5 13.5z" />
    <glyph glyph-name="ecircumflex" unicode="&#xea;" horiz-adv-x="1132" 
d="M1026 465h-770q13 -152 93 -243t224 -91q110 0 177 45t104 143q7 19 29 19h133q14 0 14 -14q0 -12 -4 -21q-111 -323 -453 -323q-155 0 -267.5 71.5t-167 190.5t-54.5 272q0 150 60 271.5t172.5 192.5t256.5 71q113 0 204.5 -43t149.5 -117t89 -170t31 -205v-29
q0 -20 -21 -20zM573 897q-117 0 -200.5 -75.5t-108.5 -205.5h610q-25 127 -107.5 204t-193.5 77zM657 1417l207 -262q6 -7 3 -13.5t-13 -6.5h-115q-19 0 -37 18l-124 129l-125 -129q-18 -18 -37 -18h-115q-10 0 -13 6.5t3 13.5l207 262q17 17 30 17h99q13 0 30 -17z" />
    <glyph glyph-name="edieresis" unicode="&#xeb;" horiz-adv-x="1132" 
d="M1026 465h-770q13 -152 93 -243t224 -91q110 0 177 45t104 143q7 19 29 19h133q14 0 14 -14q0 -12 -4 -21q-111 -323 -453 -323q-155 0 -267.5 71.5t-167 190.5t-54.5 272q0 150 60 271.5t172.5 192.5t256.5 71q113 0 204.5 -43t149.5 -117t89 -170t31 -205v-29
q0 -20 -21 -20zM573 897q-117 0 -200.5 -75.5t-108.5 -205.5h610q-25 127 -107.5 204t-193.5 77zM311 1253v160q0 21 21 21h160q20 0 20 -21v-160q0 -20 -20 -20h-160q-21 0 -21 20zM639 1253v160q0 21 20 21h160q21 0 21 -21v-160q0 -20 -21 -20h-160q-20 0 -20 20z" />
    <glyph glyph-name="igrave" unicode="&#xec;" horiz-adv-x="862" 
d="M104 901v107q0 20 21 20h360q21 0 21 -20v-856h282q21 0 21 -21v-111q0 -20 -21 -20h-714q-21 0 -21 20v111q0 21 21 21h272v729h-221q-21 0 -21 20zM352 1413l142 -258q5 -7 2 -13.5t-13 -6.5h-110q-22 0 -37 18l-209 260q-6 7 -3 14t13 7h185q18 0 30 -21z" />
    <glyph glyph-name="iacute" unicode="&#xed;" horiz-adv-x="862" 
d="M104 901v107q0 20 21 20h360q21 0 21 -20v-856h282q21 0 21 -21v-111q0 -20 -21 -20h-714q-21 0 -21 20v111q0 21 21 21h272v729h-221q-21 0 -21 20zM231 1155l142 258q12 21 30 21h185q10 0 13 -7t-3 -14l-209 -260q-13 -18 -37 -18h-110q-10 0 -13 6.5t2 13.5z" />
    <glyph glyph-name="icircumflex" unicode="&#xee;" horiz-adv-x="862" 
d="M104 901v107q0 20 21 20h360q21 0 21 -20v-856h282q21 0 21 -21v-111q0 -20 -21 -20h-714q-21 0 -21 20v111q0 21 21 21h272v729h-221q-21 0 -21 20zM496 1417l206 -262q6 -7 3 -13.5t-13 -6.5h-114q-19 0 -37 18l-125 129l-125 -129q-18 -18 -37 -18h-115q-10 0 -13 6.5
t3 13.5l207 262q17 17 31 17h98q14 0 31 -17z" />
    <glyph glyph-name="idieresis" unicode="&#xef;" horiz-adv-x="862" 
d="M104 901v107q0 20 21 20h360q21 0 21 -20v-856h282q21 0 21 -21v-111q0 -20 -21 -20h-714q-21 0 -21 20v111q0 21 21 21h272v729h-221q-21 0 -21 20zM152 1253v160q0 21 20 21h160q20 0 20 -21v-160q0 -20 -20 -20h-160q-20 0 -20 20zM479 1253v160q0 21 21 21h159
q21 0 21 -21v-160q0 -20 -21 -20h-159q-21 0 -21 20z" />
    <glyph glyph-name="eth" unicode="&#xf0;" horiz-adv-x="1130" 
d="M432 1096l-37 96q-10 17 13 27l106 41q-64 22 -195 36q-19 3 -16 29l19 105q2 14 28 14q211 -23 369 -109l190 76q21 9 27 -10l37 -96q6 -21 -12 -27l-115 -45q98 -101 149.5 -261.5t51.5 -350.5q0 -164 -36.5 -289t-102.5 -200.5t-152.5 -113.5t-190.5 -38
q-208 0 -344.5 147t-136.5 387q0 244 129.5 389.5t345.5 145.5q93 0 159 -29t120 -92q-19 89 -59 145.5t-103 95.5l-217 -84q-20 -9 -27 11zM252 514q0 -177 79.5 -280t233.5 -103q142 0 228 103.5t86 279.5q0 172 -86.5 277.5t-227.5 105.5q-154 0 -233.5 -103t-79.5 -280z
" />
    <glyph glyph-name="ntilde" unicode="&#xf1;" horiz-adv-x="1069" 
d="M143 20v988q0 20 21 20h119q20 0 20 -20v-123q50 70 137.5 117t186.5 47q152 0 231.5 -88t79.5 -246v-695q0 -20 -20 -20h-119q-21 0 -21 20v658q0 106 -49.5 162.5t-146.5 56.5q-112 0 -195.5 -98.5t-83.5 -257.5v-521q0 -20 -20 -20h-119q-21 0 -21 20zM193 1356
q105 78 206 78q44 0 76.5 -8.5t51.5 -21t36 -25t40.5 -21t53.5 -8.5q27 0 52.5 11t70.5 40q12 4 15 4q12 0 22 -16l53 -80l4 -8t3 -9q0 -10 -13 -20q-105 -78 -207 -78q-44 0 -76.5 8.5t-51.5 21t-36 25t-40.5 21t-53.5 8.5q-27 0 -52.5 -11t-70.5 -40q-12 -4 -14 -4
q-12 0 -22 16l-54 80q0 1 -3 7t-3 9q0 11 13 21z" />
    <glyph glyph-name="ograve" unicode="&#xf2;" horiz-adv-x="1167" 
d="M84 514q0 239 141 387t359 148t358.5 -148t140.5 -387t-140.5 -386.5t-358.5 -147.5t-359 147.5t-141 386.5zM252 514q0 -168 92.5 -275.5t239.5 -107.5t239 107.5t92 275.5t-92 275.5t-239 107.5t-239.5 -107.5t-92.5 -275.5zM539 1413l141 -258q5 -7 2.5 -13.5
t-12.5 -6.5h-111q-22 0 -37 18l-209 260q-6 7 -2.5 14t13.5 7h184q19 0 31 -21z" />
    <glyph glyph-name="oacute" unicode="&#xf3;" horiz-adv-x="1167" 
d="M84 514q0 239 141 387t359 148t358.5 -148t140.5 -387t-140.5 -386.5t-358.5 -147.5t-359 147.5t-141 386.5zM252 514q0 -168 92.5 -275.5t239.5 -107.5t239 107.5t92 275.5t-92 275.5t-239 107.5t-239.5 -107.5t-92.5 -275.5zM453 1155l141 258q12 21 31 21h184
q10 0 13 -7t-3 -14l-209 -260q-13 -18 -37 -18h-110q-10 0 -12.5 6.5t2.5 13.5z" />
    <glyph glyph-name="ocircumflex" unicode="&#xf4;" horiz-adv-x="1167" 
d="M84 514q0 239 141 387t359 148t358.5 -148t140.5 -387t-140.5 -386.5t-358.5 -147.5t-359 147.5t-141 386.5zM252 514q0 -168 92.5 -275.5t239.5 -107.5t239 107.5t92 275.5t-92 275.5t-239 107.5t-239.5 -107.5t-92.5 -275.5zM664 1417l206 -262q6 -7 3 -13.5t-13 -6.5
h-115q-13 0 -19 3.5t-17 14.5l-125 129l-125 -129q-18 -18 -37 -18h-115q-10 0 -13 6.5t3 13.5l207 262q17 17 31 17h98q14 0 31 -17z" />
    <glyph glyph-name="otilde" unicode="&#xf5;" horiz-adv-x="1167" 
d="M84 514q0 239 141 387t359 148t358.5 -148t140.5 -387t-140.5 -386.5t-358.5 -147.5t-359 147.5t-141 386.5zM252 514q0 -168 92.5 -275.5t239.5 -107.5t239 107.5t92 275.5t-92 275.5t-239 107.5t-239.5 -107.5t-92.5 -275.5zM248 1356q105 78 207 78q44 0 76.5 -8.5
t51.5 -21t36 -25t40.5 -21t53.5 -8.5q27 0 52.5 11t70.5 40q12 4 14 4q12 0 22 -16l54 -80q0 -1 3 -7t3 -10q0 -11 -12 -20q-105 -78 -207 -78q-44 0 -76.5 8.5t-51.5 21t-36 25t-40.5 21t-53.5 8.5q-27 0 -52.5 -11t-70.5 -40q-12 -4 -15 -4q-12 0 -22 16l-53 80q0 1 -3 7
t-3 9q0 12 12 21z" />
    <glyph glyph-name="odieresis" unicode="&#xf6;" horiz-adv-x="1167" 
d="M84 514q0 239 141 387t359 148t358.5 -148t140.5 -387t-140.5 -386.5t-358.5 -147.5t-359 147.5t-141 386.5zM252 514q0 -168 92.5 -275.5t239.5 -107.5t239 107.5t92 275.5t-92 275.5t-239 107.5t-239.5 -107.5t-92.5 -275.5zM319 1253v160q0 21 21 21h160q20 0 20 -21
v-160q0 -20 -20 -20h-160q-21 0 -21 20zM647 1253v160q0 21 21 21h159q21 0 21 -21v-160q0 -20 -21 -20h-159q-21 0 -21 20z" />
    <glyph glyph-name="divide" unicode="&#xf7;" horiz-adv-x="1105" 
d="M467 209h168q20 0 20 -21v-168q0 -20 -20 -20h-168q-21 0 -21 20v168q0 21 21 21zM467 967h168q20 0 20 -21v-168q0 -20 -20 -20h-168q-21 0 -21 20v168q0 21 21 21zM139 553h828q20 0 20 -21v-118q0 -21 -20 -21h-828q-20 0 -20 21v118q0 21 20 21z" />
    <glyph glyph-name="oslash" unicode="&#xf8;" horiz-adv-x="1167" 
d="M84 514q0 239 141 387t359 148q115 0 221 -50l65 113q9 12 17 12q1 0 2.5 -0.5l4.5 -1.5t5 -2l55 -33q13 -10 13 -16l-4 -12l-68 -115q188 -154 188 -430q0 -239 -140.5 -386.5t-358.5 -147.5q-118 0 -222 49l-65 -113q-9 -12 -16 -12q-1 0 -13 4l-55 33q-12 9 -12 16
q0 1 0.5 2.5l1.5 4.5t2 5l67 115q-188 154 -188 430zM915 514q0 174 -104 287l-369 -637q62 -33 142 -33q147 0 239 107.5t92 275.5zM252 514q0 -174 104 -287l369 637q-62 33 -141 33q-147 0 -239.5 -107.5t-92.5 -275.5z" />
    <glyph glyph-name="ugrave" unicode="&#xf9;" horiz-adv-x="1069" 
d="M926 1008v-988q0 -20 -21 -20h-119q-20 0 -20 20v123q-50 -70 -137 -116.5t-187 -46.5q-311 0 -311 333v695q0 20 21 20h118q21 0 21 -20v-658q0 -106 49.5 -162.5t146.5 -56.5q112 0 195.5 98.5t83.5 257.5v521q0 20 20 20h119q21 0 21 -20zM557 1413l141 -258
q5 -7 2.5 -13.5t-12.5 -6.5h-110q-22 0 -37 18l-209 260q-6 7 -3 14t13 7h184q19 0 31 -21z" />
    <glyph glyph-name="uacute" unicode="&#xfa;" horiz-adv-x="1069" 
d="M926 1008v-988q0 -20 -21 -20h-119q-20 0 -20 20v123q-50 -70 -137 -116.5t-187 -46.5q-311 0 -311 333v695q0 20 21 20h118q21 0 21 -20v-658q0 -106 49.5 -162.5t146.5 -56.5q112 0 195.5 98.5t83.5 257.5v521q0 20 20 20h119q21 0 21 -20zM330 1155l141 258
q12 21 31 21h184q10 0 13 -7t-3 -14l-209 -260q-13 -18 -36 -18h-111q-10 0 -12.5 6.5t2.5 13.5z" />
    <glyph glyph-name="ucircumflex" unicode="&#xfb;" horiz-adv-x="1069" 
d="M926 1008v-988q0 -20 -21 -20h-119q-20 0 -20 20v123q-50 -70 -137 -116.5t-187 -46.5q-311 0 -311 333v695q0 20 21 20h118q21 0 21 -20v-658q0 -106 49.5 -162.5t146.5 -56.5q112 0 195.5 98.5t83.5 257.5v521q0 20 20 20h119q21 0 21 -20zM594 1417l207 -262
q6 -7 3 -13.5t-13 -6.5h-115q-19 0 -37 18l-125 129l-125 -129q-18 -18 -37 -18h-114q-10 0 -13.5 6.5t2.5 13.5l207 262q17 17 31 17h98q14 0 31 -17z" />
    <glyph glyph-name="udieresis" unicode="&#xfc;" horiz-adv-x="1069" 
d="M926 1008v-988q0 -20 -21 -20h-119q-20 0 -20 20v123q-50 -70 -137 -116.5t-187 -46.5q-311 0 -311 333v695q0 20 21 20h118q21 0 21 -20v-658q0 -106 49.5 -162.5t146.5 -56.5q112 0 195.5 98.5t83.5 257.5v521q0 20 20 20h119q21 0 21 -20zM264 1253v160q0 21 21 21
h159q21 0 21 -21v-160q0 -20 -21 -20h-159q-21 0 -21 20zM592 1253v160q0 21 20 21h160q21 0 21 -21v-160q0 -20 -21 -20h-160q-20 0 -20 20z" />
    <glyph glyph-name="yacute" unicode="&#xfd;" horiz-adv-x="919" 
d="M20 -360v110q0 21 17 21q12 0 30 -11t47.5 -22.5t69.5 -11.5q76 0 122.5 62.5t84.5 207.5l-360 999q-4 16 -4 17q0 16 16 16h147q21 0 27 -20l254 -781l242 781q4 9 5.5 12t6.5 5.5t14 2.5h142q16 0 16 -14q0 -11 -2 -15l-363 -1099q-62 -187 -139.5 -256.5t-199.5 -69.5
q-85 0 -152 33q-21 12 -21 33zM346 1155l141 258q12 21 31 21h184q10 0 13.5 -7t-2.5 -14l-209 -260q-13 -18 -37 -18h-111q-10 0 -12.5 6.5t2.5 13.5z" />
    <glyph glyph-name="thorn" unicode="&#xfe;" horiz-adv-x="1144" 
d="M143 -385v1798q0 21 21 21h119q20 0 20 -21v-502q56 63 139.5 100.5t178.5 37.5q200 0 320 -145t120 -390t-120 -389.5t-320 -144.5q-102 0 -186 37t-132 100v-502q0 -21 -20 -21h-119q-21 0 -21 21zM287 514q0 -167 79.5 -275t221.5 -108t223.5 108t81.5 275t-81.5 275
t-223.5 108t-221.5 -108t-79.5 -275z" />
    <glyph glyph-name="ydieresis" unicode="&#xff;" horiz-adv-x="919" 
d="M20 -360v110q0 21 17 21q12 0 30 -11t47.5 -22.5t69.5 -11.5q76 0 122.5 62.5t84.5 207.5l-360 999q-4 16 -4 17q0 16 16 16h147q21 0 27 -20l254 -781l242 781q4 9 5.5 12t6.5 5.5t14 2.5h142q16 0 16 -14q0 -11 -2 -15l-363 -1099q-62 -187 -139.5 -256.5t-199.5 -69.5
q-85 0 -152 33q-21 12 -21 33zM195 1253v160q0 21 20 21h160q20 0 20 -21v-160q0 -20 -20 -20h-160q-20 0 -20 20zM522 1253v160q0 21 21 21h159q21 0 21 -21v-160q0 -20 -21 -20h-159q-21 0 -21 20z" />
    <glyph glyph-name="Amacron" unicode="&#x100;" horiz-adv-x="1118" 
d="M317 416l-116 -396q-5 -12 -9.5 -16t-15.5 -4h-135q-23 0 -23 20q0 9 2 13l435 1380q1 2 2.5 6t2 5.5t2 4t3.5 3.5t4.5 1.5t5.5 0.5h168q6 0 9.5 -2t5.5 -5t4 -9q1 -3 2 -5l434 -1380q2 -4 2 -13q0 -20 -23 -20h-135q-11 0 -15 4t-9 16l-117 396h-484zM559 1214
l-192 -634h385zM352 1647v102q0 20 21 20h375q20 0 20 -20v-102q0 -21 -20 -21h-375q-21 0 -21 21z" />
    <glyph glyph-name="amacron" unicode="&#x101;" horiz-adv-x="1056" 
d="M266 723h-131q-14 0 -14 12q0 13 2 21q30 123 135 208t266 85q178 0 293 -98.5t115 -254.5v-499q0 -70 7 -105.5t28 -71.5q11 -20 -15 -20h-159q-21 0 -21 20v107q-108 -147 -313 -147q-73 0 -139 20t-119.5 58.5t-85 102t-31.5 144.5q0 110 57.5 188.5t151 116
t211.5 37.5q137 0 268 -43v51q0 242 -248 242q-167 0 -229 -156q-7 -18 -29 -18zM772 453q-117 43 -266 43q-112 0 -183 -49t-71 -142q0 -80 58 -127t165 -47q122 0 209.5 87.5t87.5 234.5zM322 1241v102q0 21 20 21h375q20 0 20 -21v-102q0 -20 -20 -20h-375q-20 0 -20 20z
" />
    <glyph glyph-name="Abreve" unicode="&#x102;" horiz-adv-x="1118" 
d="M317 416l-116 -396q-5 -12 -9.5 -16t-15.5 -4h-135q-23 0 -23 20q0 9 2 13l435 1380q1 2 2.5 6t2 5.5t2 4t3.5 3.5t4.5 1.5t5.5 0.5h168q6 0 9.5 -2t5.5 -5t4 -9q1 -3 2 -5l434 -1380q2 -4 2 -13q0 -20 -23 -20h-135q-11 0 -15 4t-9 16l-117 396h-484zM559 1214
l-192 -634h385zM326 1808h98q20 0 20 -20q0 -46 30.5 -76.5t84.5 -30.5t84.5 30.5t30.5 76.5q0 20 20 20h99q20 0 20 -20q0 -110 -70.5 -176t-183.5 -66t-183.5 66t-70.5 176q0 20 21 20z" />
    <glyph glyph-name="abreve" unicode="&#x103;" horiz-adv-x="1056" 
d="M266 723h-131q-14 0 -14 12q0 13 2 21q30 123 135 208t266 85q178 0 293 -98.5t115 -254.5v-499q0 -70 7 -105.5t28 -71.5q11 -20 -15 -20h-159q-21 0 -21 20v107q-108 -147 -313 -147q-73 0 -139 20t-119.5 58.5t-85 102t-31.5 144.5q0 110 57.5 188.5t151 116
t211.5 37.5q137 0 268 -43v51q0 242 -248 242q-167 0 -229 -156q-7 -18 -29 -18zM772 453q-117 43 -266 43q-112 0 -183 -49t-71 -142q0 -80 58 -127t165 -47q122 0 209.5 87.5t87.5 234.5zM293 1403h98q21 0 21 -21q0 -46 30 -76t84 -30t84.5 30t30.5 76q0 21 21 21h98
q20 0 20 -21q0 -109 -70.5 -175t-183.5 -66t-183.5 66t-70.5 175q0 21 21 21z" />
    <glyph glyph-name="Aogonek" unicode="&#x104;" horiz-adv-x="1118" 
d="M317 416l-116 -396q-5 -12 -9.5 -16t-15.5 -4h-135q-23 0 -23 20q0 9 2 13l435 1380q1 2 2.5 6t2 5.5t2 4t3.5 3.5t4.5 1.5t5.5 0.5h168q6 0 9.5 -2t5.5 -5t4 -9q1 -3 2 -5l434 -1380q2 -6 2 -13q0 -17 -17 -20q-56 -13 -89 -51t-33 -84q0 -113 114 -113h25q20 0 20 -20
v-70q0 -20 -20 -20h-60q-102 0 -167.5 47t-65.5 139q0 56 33 103.5t82 76.5l-121 408h-484zM559 1214l-192 -634h385z" />
    <glyph glyph-name="aogonek" unicode="&#x105;" horiz-adv-x="1056" 
d="M266 723h-131q-14 0 -14 12q0 13 2 21q30 123 135 208t266 85q178 0 293 -98.5t115 -254.5v-499q0 -70 7 -105.5t28 -71.5q10 -16 -9 -20q-56 -13 -89 -51t-33 -84q0 -113 114 -113h25q20 0 20 -20v-70q0 -20 -20 -20h-60q-102 0 -167.5 47t-65.5 139t90 164v135
q-108 -147 -313 -147q-73 0 -139 20t-119.5 58.5t-85 102t-31.5 144.5q0 110 57.5 188.5t151 116t211.5 37.5q137 0 268 -43v51q0 242 -248 242q-167 0 -229 -156q-7 -18 -29 -18zM772 453q-117 43 -266 43q-112 0 -183 -49t-71 -142q0 -80 58 -127t165 -47
q122 0 209.5 87.5t87.5 234.5z" />
    <glyph glyph-name="Cacute" unicode="&#x106;" horiz-adv-x="1302" 
d="M1079 485h125q23 0 23 -20q-31 -240 -174 -362.5t-367 -122.5q-119 0 -223.5 47t-186.5 136t-130 232t-48 322t48 322t130 232t186.5 136t223.5 47q224 0 367 -122.5t174 -362.5q0 -21 -23 -21h-125q-21 0 -24 21q-33 162 -122 241.5t-247 79.5q-184 0 -295.5 -149.5
t-111.5 -423.5t111.5 -424t295.5 -150q158 0 247 80t122 242q3 20 24 20zM549 1561l141 258q11 20 31 20h184q10 0 13 -6.5t-3 -13.5l-208 -260q-14 -19 -37 -19h-111q-10 0 -12.5 7t2.5 14z" />
    <glyph glyph-name="cacute" unicode="&#x107;" horiz-adv-x="1101" 
d="M578 897q-145 0 -235.5 -107.5t-90.5 -275.5t90.5 -275.5t235.5 -107.5q102 0 173 55t101 150q7 18 29 18h125q14 0 14 -12t-2 -20q-42 -164 -152 -253t-288 -89q-150 0 -263.5 70.5t-172 191t-58.5 272.5q0 113 34.5 211t97 170t156 113t206.5 41q178 0 288 -89
t152 -253q2 -8 2 -21q0 -12 -14 -12h-125q-22 0 -29 18q-30 95 -101 150t-173 55zM438 1155l142 258q12 21 30 21h185q10 0 13 -7t-3 -14l-209 -260q-13 -18 -37 -18h-110q-10 0 -13 6.5t2 13.5z" />
    <glyph glyph-name="Ccircumflex" unicode="&#x108;" horiz-adv-x="1302" 
d="M1079 485h125q23 0 23 -20q-31 -240 -174 -362.5t-367 -122.5q-119 0 -223.5 47t-186.5 136t-130 232t-48 322t48 322t130 232t186.5 136t223.5 47q224 0 367 -122.5t174 -362.5q0 -21 -23 -21h-125q-21 0 -24 21q-33 162 -122 241.5t-247 79.5q-184 0 -295.5 -149.5
t-111.5 -423.5t111.5 -424t295.5 -150q158 0 247 80t122 242q3 20 24 20zM780 1823l207 -262q6 -7 3 -14t-13 -7h-115q-18 0 -37 19l-125 129l-125 -129q-9 -9 -12 -11.5t-9 -5t-15 -2.5h-115q-10 0 -13 7t3 14l207 262q16 16 30 16h99q14 0 30 -16z" />
    <glyph glyph-name="ccircumflex" unicode="&#x109;" horiz-adv-x="1101" 
d="M578 897q-145 0 -235.5 -107.5t-90.5 -275.5t90.5 -275.5t235.5 -107.5q102 0 173 55t101 150q7 18 29 18h125q14 0 14 -12t-2 -20q-42 -164 -152 -253t-288 -89q-150 0 -263.5 70.5t-172 191t-58.5 272.5q0 113 34.5 211t97 170t156 113t206.5 41q178 0 288 -89
t152 -253q2 -8 2 -21q0 -12 -14 -12h-125q-22 0 -29 18q-30 95 -101 150t-173 55zM657 1417l207 -262q6 -7 3 -13.5t-13 -6.5h-115q-19 0 -37 18l-124 129l-125 -129q-18 -18 -37 -18h-115q-10 0 -13 6.5t3 13.5l207 262q17 17 30 17h99q13 0 30 -17z" />
    <glyph glyph-name="Cdotaccent" unicode="&#x10a;" horiz-adv-x="1302" 
d="M1079 485h125q23 0 23 -20q-31 -240 -174 -362.5t-367 -122.5q-119 0 -223.5 47t-186.5 136t-130 232t-48 322t48 322t130 232t186.5 136t223.5 47q224 0 367 -122.5t174 -362.5q0 -21 -23 -21h-125q-21 0 -24 21q-33 162 -122 241.5t-247 79.5q-184 0 -295.5 -149.5
t-111.5 -423.5t111.5 -424t295.5 -150q158 0 247 80t122 242q3 20 24 20zM592 1622v176q0 21 20 21h176q21 0 21 -21v-176q0 -20 -21 -20h-176q-20 0 -20 20z" />
    <glyph glyph-name="cdotaccent" unicode="&#x10b;" horiz-adv-x="1101" 
d="M578 897q-145 0 -235.5 -107.5t-90.5 -275.5t90.5 -275.5t235.5 -107.5q102 0 173 55t101 150q7 18 29 18h125q14 0 14 -12t-2 -20q-42 -164 -152 -253t-288 -89q-150 0 -263.5 70.5t-172 191t-58.5 272.5q0 113 34.5 211t97 170t156 113t206.5 41q178 0 288 -89
t152 -253q2 -8 2 -21q0 -12 -14 -12h-125q-22 0 -29 18q-30 95 -101 150t-173 55zM469 1217v176q0 20 20 20h177q20 0 20 -20v-176q0 -21 -20 -21h-177q-20 0 -20 21z" />
    <glyph glyph-name="Ccaron" unicode="&#x10c;" horiz-adv-x="1302" 
d="M1079 485h125q23 0 23 -20q-31 -240 -174 -362.5t-367 -122.5q-119 0 -223.5 47t-186.5 136t-130 232t-48 322t48 322t130 232t186.5 136t223.5 47q224 0 367 -122.5t174 -362.5q0 -21 -23 -21h-125q-21 0 -24 21q-33 162 -122 241.5t-247 79.5q-184 0 -295.5 -149.5
t-111.5 -423.5t111.5 -424t295.5 -150q158 0 247 80t122 242q3 20 24 20zM973 1819l-207 -263q-16 -16 -31 -16h-98q-15 0 -31 16l-207 263q-6 7 -2.5 13.5t13.5 6.5h114q19 0 37 -18l125 -129l125 129q18 18 37 18h115q10 0 13 -6.5t-3 -13.5z" />
    <glyph glyph-name="ccaron" unicode="&#x10d;" horiz-adv-x="1101" 
d="M578 897q-145 0 -235.5 -107.5t-90.5 -275.5t90.5 -275.5t235.5 -107.5q102 0 173 55t101 150q7 18 29 18h125q14 0 14 -12t-2 -20q-42 -164 -152 -253t-288 -89q-150 0 -263.5 70.5t-172 191t-58.5 272.5q0 113 34.5 211t97 170t156 113t206.5 41q178 0 288 -89
t152 -253q2 -8 2 -21q0 -12 -14 -12h-125q-22 0 -29 18q-30 95 -101 150t-173 55zM864 1413l-207 -262q-16 -16 -30 -16h-99q-14 0 -30 16l-207 262q-6 7 -3 14t13 7h115q18 0 37 -19l125 -129l124 129q19 19 37 19h115q10 0 13 -7t-3 -14z" />
    <glyph glyph-name="Dcaron" unicode="&#x10e;" horiz-adv-x="1228" 
d="M156 20v1393q0 21 20 21h346q133 0 243 -43.5t192 -129.5t127.5 -225t45.5 -319t-45.5 -319t-127.5 -225t-192 -129.5t-243 -43.5h-346q-20 0 -20 20zM328 164h170q213 0 332.5 137t119.5 416t-119.5 416t-332.5 137h-170v-1106zM780 1819l-207 -263q-16 -16 -30 -16h-99
q-14 0 -30 16l-207 263q-6 7 -3 13.5t13 6.5h115q19 0 37 -18l125 -129l124 129q18 18 37 18h115q10 0 13 -6.5t-3 -13.5z" />
    <glyph glyph-name="dcaron" unicode="&#x10f;" horiz-adv-x="1417" 
d="M1001 1413v-1393q0 -20 -20 -20h-119q-20 0 -20 20v97q-48 -63 -132 -100t-186 -37q-200 0 -320 144.5t-120 389.5t120 390t320 145q95 0 178.5 -37.5t139.5 -100.5v502q0 21 20 21h119q20 0 20 -21zM858 514q0 167 -79.5 275t-221.5 108t-223.5 -108t-81.5 -275
t81.5 -275t223.5 -108t221.5 108t79.5 275zM1151 1073q63 0 83.5 26.5t20.5 90.5v35h-90q-20 0 -20 20v168q0 21 20 21h168q21 0 21 -21v-237q0 -86 -48.5 -137.5t-123.5 -51.5h-31q-21 0 -21 21v45q0 20 21 20z" />
    <glyph glyph-name="Dcroat" unicode="&#x110;" horiz-adv-x="1302" 
d="M78 797h151v616q0 21 21 21h346q133 0 243 -43.5t192 -129.5t127.5 -225t45.5 -319t-45.5 -319t-127.5 -225t-192 -129.5t-243 -43.5h-346q-21 0 -21 20v617h-151q-21 0 -21 20v119q0 21 21 21zM401 164h170q213 0 333 137t120 416t-120 416t-333 137h-170v-473h263
q20 0 20 -21v-119q0 -20 -20 -20h-263v-473z" />
    <glyph glyph-name="dcroat" unicode="&#x111;" horiz-adv-x="1144" 
d="M1001 1413v-139h140q20 0 20 -21v-106q0 -21 -20 -21h-140v-1106q0 -20 -20 -20h-119q-20 0 -20 20v97q-48 -63 -132 -100t-186 -37q-200 0 -320 144.5t-120 389.5t120 390t320 145q95 0 178.5 -37.5t139.5 -100.5v215h-230q-20 0 -20 21v106q0 21 20 21h230v139
q0 21 20 21h119q20 0 20 -21zM858 514q0 167 -79.5 275t-221.5 108t-223.5 -108t-81.5 -275t81.5 -275t223.5 -108t221.5 108t79.5 275z" />
    <glyph glyph-name="Emacron" unicode="&#x112;" horiz-adv-x="1052" 
d="M328 672v-508h594q20 0 20 -21v-123q0 -20 -20 -20h-746q-20 0 -20 20v1393q0 21 20 21h731q21 0 21 -21v-123q0 -20 -21 -20h-579v-434h516q20 0 20 -21v-123q0 -20 -20 -20h-516zM346 1647v102q0 20 21 20h374q21 0 21 -20v-102q0 -21 -21 -21h-374q-21 0 -21 21z" />
    <glyph glyph-name="emacron" unicode="&#x113;" horiz-adv-x="1132" 
d="M1026 465h-770q13 -152 93 -243t224 -91q110 0 177 45t104 143q7 19 29 19h133q14 0 14 -14q0 -12 -4 -21q-111 -323 -453 -323q-155 0 -267.5 71.5t-167 190.5t-54.5 272q0 150 60 271.5t172.5 192.5t256.5 71q113 0 204.5 -43t149.5 -117t89 -170t31 -205v-29
q0 -20 -21 -20zM573 897q-117 0 -200.5 -75.5t-108.5 -205.5h610q-25 127 -107.5 204t-193.5 77zM369 1241v102q0 21 20 21h375q20 0 20 -21v-102q0 -20 -20 -20h-375q-20 0 -20 20z" />
    <glyph glyph-name="Ebreve" unicode="&#x114;" horiz-adv-x="1052" 
d="M328 672v-508h594q20 0 20 -21v-123q0 -20 -20 -20h-746q-20 0 -20 20v1393q0 21 20 21h731q21 0 21 -21v-123q0 -20 -21 -20h-579v-434h516q20 0 20 -21v-123q0 -20 -20 -20h-516zM303 1808h98q21 0 21 -20q0 -46 30.5 -76.5t84.5 -30.5t84 30.5t30 76.5q0 20 21 20h98
q21 0 21 -20q0 -110 -70.5 -176t-183.5 -66t-183.5 66t-70.5 176q0 20 20 20z" />
    <glyph glyph-name="ebreve" unicode="&#x115;" horiz-adv-x="1132" 
d="M1026 465h-770q13 -152 93 -243t224 -91q110 0 177 45t104 143q7 19 29 19h133q14 0 14 -14q0 -12 -4 -21q-111 -323 -453 -323q-155 0 -267.5 71.5t-167 190.5t-54.5 272q0 150 60 271.5t172.5 192.5t256.5 71q113 0 204.5 -43t149.5 -117t89 -170t31 -205v-29
q0 -20 -21 -20zM573 897q-117 0 -200.5 -75.5t-108.5 -205.5h610q-25 127 -107.5 204t-193.5 77zM340 1403h98q21 0 21 -21q0 -46 30 -76t84 -30t84.5 30t30.5 76q0 21 21 21h98q20 0 20 -21q0 -109 -70.5 -175t-183.5 -66t-183.5 66t-70.5 175q0 21 21 21z" />
    <glyph glyph-name="Edotaccent" unicode="&#x116;" horiz-adv-x="1052" 
d="M328 672v-508h594q20 0 20 -21v-123q0 -20 -20 -20h-746q-20 0 -20 20v1393q0 21 20 21h731q21 0 21 -21v-123q0 -20 -21 -20h-579v-434h516q20 0 20 -21v-123q0 -20 -20 -20h-516zM444 1622v176q0 21 21 21h176q21 0 21 -21v-176q0 -20 -21 -20h-176q-21 0 -21 20z" />
    <glyph glyph-name="edotaccent" unicode="&#x117;" horiz-adv-x="1132" 
d="M1026 465h-770q13 -152 93 -243t224 -91q110 0 177 45t104 143q7 19 29 19h133q14 0 14 -14q0 -12 -4 -21q-111 -323 -453 -323q-155 0 -267.5 71.5t-167 190.5t-54.5 272q0 150 60 271.5t172.5 192.5t256.5 71q113 0 204.5 -43t149.5 -117t89 -170t31 -205v-29
q0 -20 -21 -20zM573 897q-117 0 -200.5 -75.5t-108.5 -205.5h610q-25 127 -107.5 204t-193.5 77zM465 1217v176q0 20 20 20h177q20 0 20 -20v-176q0 -21 -20 -21h-177q-20 0 -20 21z" />
    <glyph glyph-name="Eogonek" unicode="&#x118;" horiz-adv-x="1052" 
d="M328 672v-508h594q20 0 20 -21v-123q0 -17 -14 -20q-56 -13 -89.5 -51.5t-33.5 -83.5q0 -53 28.5 -83t86.5 -30h24q21 0 21 -20v-70q0 -20 -21 -20h-59q-102 0 -168 47t-66 139q0 100 101 172h-576q-20 0 -20 20v1393q0 21 20 21h731q21 0 21 -21v-123q0 -20 -21 -20
h-579v-434h516q20 0 20 -21v-123q0 -20 -20 -20h-516z" />
    <glyph glyph-name="eogonek" unicode="&#x119;" horiz-adv-x="1132" 
d="M1026 465h-770q13 -152 93 -243t224 -91q110 0 177 45t104 143q7 19 29 19h133q14 0 14 -14q0 -12 -4 -21q-42 -125 -118 -198t-195 -109q-50 -17 -78.5 -53t-28.5 -78q0 -53 28.5 -83t86.5 -30h24q21 0 21 -20v-70q0 -20 -21 -20h-59q-102 0 -167.5 47t-65.5 139
q0 86 75 154q-211 17 -327.5 163.5t-116.5 368.5q0 150 60 271.5t172.5 192.5t256.5 71q113 0 204.5 -43t149.5 -117t89 -170t31 -205v-29q0 -20 -21 -20zM573 897q-117 0 -200.5 -75.5t-108.5 -205.5h610q-25 127 -107.5 204t-193.5 77z" />
    <glyph glyph-name="Ecaron" unicode="&#x11a;" horiz-adv-x="1052" 
d="M328 672v-508h594q20 0 20 -21v-123q0 -20 -20 -20h-746q-20 0 -20 20v1393q0 21 20 21h731q21 0 21 -21v-123q0 -20 -21 -20h-579v-434h516q20 0 20 -21v-123q0 -20 -20 -20h-516zM834 1819l-207 -263q-16 -16 -31 -16h-98q-15 0 -31 16l-207 263q-6 7 -3 13.5t13 6.5
h115q19 0 37 -18l125 -129l125 129q18 18 37 18h114q10 0 13.5 -6.5t-2.5 -13.5z" />
    <glyph glyph-name="ecaron" unicode="&#x11b;" horiz-adv-x="1132" 
d="M1026 465h-770q13 -152 93 -243t224 -91q110 0 177 45t104 143q7 19 29 19h133q14 0 14 -14q0 -12 -4 -21q-111 -323 -453 -323q-155 0 -267.5 71.5t-167 190.5t-54.5 272q0 150 60 271.5t172.5 192.5t256.5 71q113 0 204.5 -43t149.5 -117t89 -170t31 -205v-29
q0 -20 -21 -20zM573 897q-117 0 -200.5 -75.5t-108.5 -205.5h610q-25 127 -107.5 204t-193.5 77zM860 1413l-207 -262q-16 -16 -30 -16h-99q-14 0 -30 16l-207 262q-6 7 -3 14t13 7h115q18 0 37 -19l124 -129l125 129q19 19 37 19h115q10 0 13 -7t-3 -14z" />
    <glyph glyph-name="Gcircumflex" unicode="&#x11c;" horiz-adv-x="1323" 
d="M723 729h498q20 0 20 -20v-371q0 -42 -20 -78q-69 -123 -202.5 -201.5t-295.5 -78.5q-133 0 -246.5 48t-198 138.5t-132.5 232t-48 318.5q0 178 50.5 321.5t135.5 232.5t192 136t226 47q204 0 344.5 -112t180.5 -326q0 -21 -23 -21h-131q-18 0 -24 21q-38 141 -122 207.5
t-225 66.5q-186 0 -304.5 -150.5t-118.5 -422.5q0 -276 119.5 -425t324.5 -149q127 0 214.5 50.5t131.5 142.5v229h-346q-21 0 -21 21v123q0 20 21 20zM782 1823l207 -262q6 -7 3 -14t-13 -7h-115q-18 0 -37 19l-125 129l-124 -129q-19 -19 -37 -19h-115q-10 0 -13 7t3 14
l207 262q16 16 30 16h99q14 0 30 -16z" />
    <glyph glyph-name="gcircumflex" unicode="&#x11d;" horiz-adv-x="1058" 
d="M31 309q0 165 186 248q-27 65 -27 141q0 161 103 256t252 95q112 0 200 -58l138 123q8 8 16 8q6 0 16 -10l78 -82q8 -8 8 -16q0 -9 -10 -19l-131 -125q41 -74 41 -172q0 -163 -101.5 -255.5t-254.5 -92.5q-152 0 -246 88q-56 -24 -82.5 -56.5t-26.5 -80.5t33 -79.5
t88 -31.5q33 0 125 19.5t168 19.5q200 0 311 -78.5t111 -242.5q0 -154 -120 -244t-335 -90q-231 0 -353 85t-122 237q0 107 56 182q-59 40 -90 94t-31 137zM264 -90q0 -184 307 -184q144 0 215.5 47t71.5 135q0 80 -72 125t-215 45q-56 0 -135.5 -17.5t-116.5 -17.5
q-31 -26 -43 -56t-12 -77zM358 698q0 -96 51 -146t136 -50q88 0 138 49.5t50 146.5q0 100 -50 149.5t-138 49.5q-86 0 -136.5 -50t-50.5 -149zM621 1417l206 -262q6 -7 3 -13.5t-13 -6.5h-115q-13 0 -19 3.5t-17 14.5l-125 129l-125 -129q-18 -18 -37 -18h-115
q-10 0 -13 6.5t3 13.5l207 262q17 17 31 17h98q14 0 31 -17z" />
    <glyph glyph-name="Gbreve" unicode="&#x11e;" horiz-adv-x="1323" 
d="M723 729h498q20 0 20 -20v-371q0 -42 -20 -78q-69 -123 -202.5 -201.5t-295.5 -78.5q-133 0 -246.5 48t-198 138.5t-132.5 232t-48 318.5q0 178 50.5 321.5t135.5 232.5t192 136t226 47q204 0 344.5 -112t180.5 -326q0 -21 -23 -21h-131q-18 0 -24 21q-38 141 -122 207.5
t-225 66.5q-186 0 -304.5 -150.5t-118.5 -422.5q0 -276 119.5 -425t324.5 -149q127 0 214.5 50.5t131.5 142.5v229h-346q-21 0 -21 21v123q0 20 21 20zM469 1808h98q21 0 21 -20q0 -46 30 -76.5t84 -30.5t84.5 30.5t30.5 76.5q0 20 21 20h98q20 0 20 -20q0 -110 -70.5 -176
t-183.5 -66t-183 66t-70 176q0 20 20 20z" />
    <glyph glyph-name="gbreve" unicode="&#x11f;" horiz-adv-x="1058" 
d="M31 309q0 165 186 248q-27 65 -27 141q0 161 103 256t252 95q112 0 200 -58l138 123q8 8 16 8q6 0 16 -10l78 -82q8 -8 8 -16q0 -9 -10 -19l-131 -125q41 -74 41 -172q0 -163 -101.5 -255.5t-254.5 -92.5q-152 0 -246 88q-56 -24 -82.5 -56.5t-26.5 -80.5t33 -79.5
t88 -31.5q33 0 125 19.5t168 19.5q200 0 311 -78.5t111 -242.5q0 -154 -120 -244t-335 -90q-231 0 -353 85t-122 237q0 107 56 182q-59 40 -90 94t-31 137zM264 -90q0 -184 307 -184q144 0 215.5 47t71.5 135q0 80 -72 125t-215 45q-56 0 -135.5 -17.5t-116.5 -17.5
q-31 -26 -43 -56t-12 -77zM358 698q0 -96 51 -146t136 -50q88 0 138 49.5t50 146.5q0 100 -50 149.5t-138 49.5q-86 0 -136.5 -50t-50.5 -149zM313 1403h99q20 0 20 -21q0 -46 30.5 -76t84.5 -30t84.5 30t30.5 76q0 21 20 21h98q21 0 21 -21q0 -109 -70.5 -175t-183.5 -66
t-183.5 66t-70.5 175q0 21 20 21z" />
    <glyph glyph-name="Gdotaccent" unicode="&#x120;" horiz-adv-x="1323" 
d="M723 729h498q20 0 20 -20v-371q0 -42 -20 -78q-69 -123 -202.5 -201.5t-295.5 -78.5q-133 0 -246.5 48t-198 138.5t-132.5 232t-48 318.5q0 178 50.5 321.5t135.5 232.5t192 136t226 47q204 0 344.5 -112t180.5 -326q0 -21 -23 -21h-131q-18 0 -24 21q-38 141 -122 207.5
t-225 66.5q-186 0 -304.5 -150.5t-118.5 -422.5q0 -276 119.5 -425t324.5 -149q127 0 214.5 50.5t131.5 142.5v229h-346q-21 0 -21 21v123q0 20 21 20zM596 1622v176q0 21 20 21h177q20 0 20 -21v-176q0 -20 -20 -20h-177q-20 0 -20 20z" />
    <glyph glyph-name="gdotaccent" unicode="&#x121;" horiz-adv-x="1058" 
d="M31 309q0 165 186 248q-27 65 -27 141q0 161 103 256t252 95q112 0 200 -58l138 123q8 8 16 8q6 0 16 -10l78 -82q8 -8 8 -16q0 -9 -10 -19l-131 -125q41 -74 41 -172q0 -163 -101.5 -255.5t-254.5 -92.5q-152 0 -246 88q-56 -24 -82.5 -56.5t-26.5 -80.5t33 -79.5
t88 -31.5q33 0 125 19.5t168 19.5q200 0 311 -78.5t111 -242.5q0 -154 -120 -244t-335 -90q-231 0 -353 85t-122 237q0 107 56 182q-59 40 -90 94t-31 137zM264 -90q0 -184 307 -184q144 0 215.5 47t71.5 135q0 80 -72 125t-215 45q-56 0 -135.5 -17.5t-116.5 -17.5
q-31 -26 -43 -56t-12 -77zM358 698q0 -96 51 -146t136 -50q88 0 138 49.5t50 146.5q0 100 -50 149.5t-138 49.5q-86 0 -136.5 -50t-50.5 -149zM438 1217v176q0 20 21 20h176q20 0 20 -20v-176q0 -21 -20 -21h-176q-21 0 -21 21z" />
    <glyph glyph-name="Gcommaaccent" unicode="&#x122;" horiz-adv-x="1323" 
d="M723 729h498q20 0 20 -20v-371q0 -42 -20 -78q-69 -123 -202.5 -201.5t-295.5 -78.5q-133 0 -246.5 48t-198 138.5t-132.5 232t-48 318.5q0 178 50.5 321.5t135.5 232.5t192 136t226 47q204 0 344.5 -112t180.5 -326q0 -21 -23 -21h-131q-18 0 -24 21q-38 141 -122 207.5
t-225 66.5q-186 0 -304.5 -150.5t-118.5 -422.5q0 -276 119.5 -425t324.5 -149q127 0 214.5 50.5t131.5 142.5v229h-346q-21 0 -21 21v123q0 20 21 20zM637 -406q58 0 74 19.5t16 77.5v14h-90q-21 0 -21 21v168q0 20 21 20h168q20 0 20 -20v-201q0 -89 -36.5 -137
t-108.5 -48h-43q-21 0 -21 21v45q0 20 21 20z" />
    <glyph glyph-name="gcommaaccent" unicode="&#x123;" horiz-adv-x="1058" 
d="M31 309q0 165 186 248q-27 65 -27 141q0 161 103 256t252 95q112 0 200 -58l138 123q8 8 16 8q6 0 16 -10l78 -82q8 -8 8 -16q0 -9 -10 -19l-131 -125q41 -74 41 -172q0 -163 -101.5 -255.5t-254.5 -92.5q-152 0 -246 88q-56 -24 -82.5 -56.5t-26.5 -80.5t33 -79.5
t88 -31.5q33 0 125 19.5t168 19.5q200 0 311 -78.5t111 -242.5q0 -154 -120 -244t-335 -90q-231 0 -353 85t-122 237q0 107 56 182q-59 40 -90 94t-31 137zM264 -90q0 -184 307 -184q144 0 215.5 47t71.5 135q0 80 -72 125t-215 45q-56 0 -135.5 -17.5t-116.5 -17.5
q-31 -26 -43 -56t-12 -77zM358 698q0 -96 51 -146t136 -50q88 0 138 49.5t50 146.5q0 100 -50 149.5t-138 49.5q-86 0 -136.5 -50t-50.5 -149zM639 1516q-63 0 -83.5 -26.5t-20.5 -90.5v-35h90q20 0 20 -21v-167q0 -21 -20 -21h-168q-21 0 -21 21v237q0 86 48.5 137.5
t123.5 51.5h31q20 0 20 -21v-45q0 -20 -20 -20z" />
    <glyph glyph-name="Hcircumflex" unicode="&#x124;" horiz-adv-x="1249" 
d="M328 666v-646q0 -20 -21 -20h-131q-20 0 -20 20v1393q0 21 20 21h131q21 0 21 -21v-584h594v584q0 21 20 21h131q21 0 21 -21v-1393q0 -20 -21 -20h-131q-20 0 -20 20v646h-594zM705 1823l206 -262q6 -7 3 -14t-13 -7h-115q-12 0 -18 3.5t-18 15.5l-125 129l-125 -129
q-19 -19 -37 -19h-115q-10 0 -13 7t3 14l207 262q16 16 30 16h99q15 0 31 -16z" />
    <glyph glyph-name="hcircumflex" unicode="&#x125;" horiz-adv-x="1085" 
d="M143 20v1393q0 21 21 21h119q20 0 20 -21v-532q47 78 135.5 123t192.5 45q170 0 248.5 -85t78.5 -259v-685q0 -20 -20 -20h-119q-20 0 -20 20v648q0 229 -205 229q-113 0 -202 -99t-89 -257v-521q0 -20 -20 -20h-119q-21 0 -21 20zM602 1823l207 -262q6 -7 3 -14t-13 -7
h-115q-18 0 -37 19l-125 129l-125 -129q-19 -19 -37 -19h-114q-10 0 -13 7t3 14l206 262q16 16 31 16h98q15 0 31 -16z" />
    <glyph glyph-name="Hbar" unicode="&#x126;" horiz-adv-x="1249" 
d="M328 666v-646q0 -20 -21 -20h-131q-20 0 -20 20v1024h-136q-20 0 -20 21v111q0 20 20 20h136v217q0 21 20 21h131q21 0 21 -21v-217h594v217q0 21 20 21h131q21 0 21 -21v-217h135q20 0 20 -20v-111q0 -21 -20 -21h-135v-1024q0 -20 -21 -20h-131q-20 0 -20 20v646h-594z
M328 829h594v215h-594v-215z" />
    <glyph glyph-name="hbar" unicode="&#x127;" horiz-adv-x="1085" 
d="M143 20v1106h-129q-20 0 -20 21v106q0 21 20 21h129v139q0 21 21 21h119q20 0 20 -21v-139h240q20 0 20 -21v-106q0 -21 -20 -21h-240v-245q47 78 135.5 123t192.5 45q170 0 248.5 -85t78.5 -259v-685q0 -20 -20 -20h-119q-20 0 -20 20v648q0 229 -205 229
q-113 0 -202 -99t-89 -257v-521q0 -20 -20 -20h-119q-21 0 -21 20z" />
    <glyph glyph-name="Itilde" unicode="&#x128;" horiz-adv-x="942" 
d="M109 1290v123q0 21 20 21h684q21 0 21 -21v-123q0 -20 -21 -20h-256v-1106h277q20 0 20 -21v-123q0 -20 -20 -20h-725q-21 0 -21 20v123q0 21 21 21h276v1106h-256q-20 0 -20 20zM141 1761q105 78 207 78q44 0 76.5 -8.5t51.5 -21t36 -25t40.5 -21t53.5 -8.5
q27 0 52.5 11t70.5 40q12 4 14 4q13 0 23 -16l53 -80l2.5 -5t2.5 -5.5t1 -5.5q0 -12 -12 -21q-105 -78 -207 -78q-44 0 -76.5 8.5t-51.5 21t-36 25t-40.5 21t-53.5 8.5q-27 0 -52.5 -11t-70.5 -40q-12 -4 -14 -4q-13 0 -23 17l-53 79q0 1 -3 7t-3 10q0 11 12 20z" />
    <glyph glyph-name="itilde" unicode="&#x129;" horiz-adv-x="862" 
d="M104 901v107q0 20 21 20h360q21 0 21 -20v-856h282q21 0 21 -21v-111q0 -20 -21 -20h-714q-21 0 -21 20v111q0 21 21 21h272v729h-221q-21 0 -21 20zM72 1356q105 78 207 78q44 0 76.5 -8.5t51.5 -21t36 -25t40.5 -21t53.5 -8.5q27 0 51.5 11t70.5 40q12 4 15 4
q12 0 22 -16l54 -80q0 -1 3 -7t3 -10q0 -10 -13 -20q-105 -78 -206 -78q-44 0 -76.5 8.5t-51.5 21t-36 25t-40.5 21t-53.5 8.5q-27 0 -52.5 -11t-70.5 -40q-12 -4 -15 -4q-12 0 -22 16l-53 80q-1 2 -4 7.5t-3 8.5q0 11 13 21z" />
    <glyph glyph-name="uni012A" unicode="&#x12a;" horiz-adv-x="942" 
d="M109 1290v123q0 21 20 21h684q21 0 21 -21v-123q0 -20 -21 -20h-256v-1106h277q20 0 20 -21v-123q0 -20 -20 -20h-725q-21 0 -21 20v123q0 21 21 21h276v1106h-256q-20 0 -20 20zM270 1647v102q0 20 21 20h375q20 0 20 -20v-102q0 -21 -20 -21h-375q-21 0 -21 21z" />
    <glyph glyph-name="imacron" unicode="&#x12b;" horiz-adv-x="862" 
d="M104 901v107q0 20 21 20h360q21 0 21 -20v-856h282q21 0 21 -21v-111q0 -20 -21 -20h-714q-21 0 -21 20v111q0 21 21 21h272v729h-221q-21 0 -21 20zM209 1241v102q0 21 20 21h375q21 0 21 -21v-102q0 -20 -21 -20h-375q-20 0 -20 20z" />
    <glyph glyph-name="Ibreve" unicode="&#x12c;" horiz-adv-x="942" 
d="M109 1290v123q0 21 20 21h684q21 0 21 -21v-123q0 -20 -21 -20h-256v-1106h277q20 0 20 -21v-123q0 -20 -20 -20h-725q-21 0 -21 20v123q0 21 21 21h276v1106h-256q-20 0 -20 20zM246 1808h98q21 0 21 -20q0 -46 30 -76.5t84 -30.5t84.5 30.5t30.5 76.5q0 20 20 20h99
q20 0 20 -20q0 -110 -70.5 -176t-183.5 -66t-183.5 66t-70.5 176q0 20 21 20z" />
    <glyph glyph-name="uni012D" unicode="&#x12d;" horiz-adv-x="862" 
d="M104 901v107q0 20 21 20h360q21 0 21 -20v-856h282q21 0 21 -21v-111q0 -20 -21 -20h-714q-21 0 -21 20v111q0 21 21 21h272v729h-221q-21 0 -21 20zM182 1403h99q20 0 20 -21q0 -46 30.5 -76t84.5 -30t84 30t30 76q0 21 21 21h98q21 0 21 -21q0 -109 -70.5 -175
t-183.5 -66t-183.5 66t-70.5 175q0 21 20 21z" />
    <glyph glyph-name="Iogonek" unicode="&#x12e;" horiz-adv-x="942" 
d="M109 1290v123q0 21 20 21h684q21 0 21 -21v-123q0 -20 -21 -20h-256v-1106h277q20 0 20 -21v-123q0 -17 -16 -20q-57 -10 -90 -49t-33 -86q0 -113 114 -113h25q20 0 20 -20v-70q0 -20 -20 -20h-59q-102 0 -168 47t-66 139q0 100 101 172h-553q-21 0 -21 20v123
q0 21 21 21h276v1106h-256q-20 0 -20 20z" />
    <glyph glyph-name="iogonek" unicode="&#x12f;" horiz-adv-x="862" 
d="M104 901v107q0 20 21 20h360q21 0 21 -20v-856h282q21 0 21 -21v-111q0 -17 -14 -20q-56 -13 -89.5 -51.5t-33.5 -83.5q0 -113 114 -113h25q20 0 20 -20v-70q0 -20 -20 -20h-59q-102 0 -168 47t-66 139q0 101 100 172h-544q-21 0 -21 20v111q0 21 21 21h272v729h-221
q-21 0 -21 20zM305 1217v176q0 20 21 20h176q20 0 20 -20v-176q0 -21 -20 -21h-176q-21 0 -21 21z" />
    <glyph glyph-name="Idotaccent" unicode="&#x130;" horiz-adv-x="942" 
d="M109 1290v123q0 21 20 21h684q21 0 21 -21v-123q0 -20 -21 -20h-256v-1106h277q20 0 20 -21v-123q0 -20 -20 -20h-725q-21 0 -21 20v123q0 21 21 21h276v1106h-256q-20 0 -20 20zM365 1622v176q0 21 20 21h176q21 0 21 -21v-176q0 -20 -21 -20h-176q-20 0 -20 20z" />
    <glyph glyph-name="dotlessi" unicode="&#x131;" horiz-adv-x="862" 
d="M104 901v107q0 20 21 20h360q21 0 21 -20v-856h282q21 0 21 -21v-111q0 -20 -21 -20h-714q-21 0 -21 20v111q0 21 21 21h272v729h-221q-21 0 -21 20z" />
    <glyph glyph-name="IJ" unicode="&#x132;" horiz-adv-x="1929" 
d="M109 1290v123q0 21 20 21h684q21 0 21 -21v-123q0 -20 -21 -20h-256v-1106h277q20 0 20 -21v-123q0 -20 -20 -20h-725q-21 0 -21 20v123q0 21 21 21h276v1106h-256q-20 0 -20 20zM1823 1413v-899q0 -268 -118.5 -401t-324.5 -133q-211 0 -322.5 126.5t-111.5 329.5
q0 21 21 21h131q20 0 20 -21q0 -130 70 -211.5t192 -81.5q140 0 205.5 91.5t65.5 277.5v901q0 21 20 21h131q21 0 21 -21z" />
    <glyph glyph-name="ij" unicode="&#x133;" horiz-adv-x="1355" 
d="M104 901v107q0 20 21 20h360q21 0 21 -20v-856h282q21 0 21 -21v-111q0 -20 -21 -20h-714q-21 0 -21 20v111q0 21 21 21h272v729h-221q-21 0 -21 20zM305 1217v176q0 20 21 20h176q20 0 20 -20v-176q0 -21 -20 -21h-176q-21 0 -21 21zM756 901v107q0 20 20 20h400
q20 0 20 -20v-1063q0 -131 -14.5 -206.5t-46.5 -148.5q-6 -16 -15 -16l-16 4l-111 31q-16 6 -16 14q0 6 2 10q30 83 43.5 143.5t13.5 143.5v961h-260q-20 0 -20 20zM987 1217v176q0 20 21 20h176q20 0 20 -20v-176q0 -21 -20 -21h-176q-21 0 -21 21z" />
    <glyph glyph-name="Jcircumflex" unicode="&#x134;" horiz-adv-x="1040" 
d="M934 1413v-899q0 -268 -118 -401t-324 -133q-142 0 -242 61t-146.5 162t-46.5 233q0 21 21 21h131q20 0 20 -21q0 -130 70.5 -211.5t192.5 -81.5q140 0 205 91.5t65 277.5v901q0 21 20 21h131q21 0 21 -21zM930 1823l207 -262q6 -7 2.5 -14t-13.5 -7h-114q-18 0 -37 19
l-125 129l-125 -129q-19 -19 -37 -19h-115q-10 0 -13 7t3 14l207 262q16 16 31 16h98q15 0 31 -16z" />
    <glyph glyph-name="jcircumflex" unicode="&#x135;" horiz-adv-x="653" 
d="M53 901v107q0 20 21 20h399q21 0 21 -20v-1063q0 -130 -15 -206t-47 -149q-6 -16 -14 -16q-1 0 -17 4l-110 31q-17 7 -17 14q0 6 2 10q31 85 44.5 144.5t13.5 142.5v961h-260q-21 0 -21 20zM418 1417l207 -262q6 -7 2.5 -13.5t-13.5 -6.5h-114q-19 0 -37 18l-125 129
l-125 -129q-18 -18 -37 -18h-115q-10 0 -13 6.5t3 13.5l207 262q17 17 31 17h98q14 0 31 -17z" />
    <glyph glyph-name="Kcommaaccent" unicode="&#x136;" horiz-adv-x="1157" 
d="M924 31l-422 731l-174 -203v-539q0 -20 -21 -20h-131q-20 0 -20 20v1393q0 21 20 21h131q21 0 21 -21v-604l518 604l5 5l5 5l4 4t4.5 3.5t4 1.5t5 1.5t5.5 0.5h168q12 0 15 -9t-7 -20l-426 -502l516 -874q4 -12 4 -15q0 -14 -16 -14h-172q-11 0 -18.5 6.5t-18.5 24.5z
M532 -406q58 0 74.5 19.5t16.5 77.5v14h-91q-20 0 -20 21v168q0 20 20 20h168q21 0 21 -20v-201q0 -89 -37 -137t-109 -48h-43q-20 0 -20 21v45q0 20 20 20z" />
    <glyph glyph-name="kcommaaccent" unicode="&#x137;" horiz-adv-x="1021" 
d="M795 18l-320 512l-172 -163v-347q0 -20 -20 -20h-119q-21 0 -21 20v1393q0 21 21 21h119q20 0 20 -21v-835l445 432q18 18 32 18h170q17 0 17 -14q0 -8 -9 -17l-356 -348l385 -618q4 -8 4 -15q0 -16 -18 -16h-146q-23 0 -32 18zM477 -406q58 0 74 19.5t16 77.5v14h-90
q-20 0 -20 21v168q0 20 20 20h168q21 0 21 -20v-201q0 -89 -37 -137t-109 -48h-43q-20 0 -20 21v45q0 20 20 20z" />
    <glyph glyph-name="kgreenlandic" unicode="&#x138;" horiz-adv-x="1021" 
d="M795 18l-320 512l-172 -163v-347q0 -20 -20 -20h-119q-21 0 -21 20v988q0 20 21 20h119q20 0 20 -20v-430l445 432q18 18 32 18h170q17 0 17 -14q0 -8 -9 -17l-356 -348l385 -618q4 -8 4 -15q0 -16 -18 -16h-146q-23 0 -32 18z" />
    <glyph glyph-name="Lacute" unicode="&#x139;" horiz-adv-x="1052" 
d="M156 20v1393q0 21 20 21h131q21 0 21 -21v-1249h639q20 0 20 -21v-123q0 -20 -20 -20h-791q-20 0 -20 20zM162 1561l141 258q11 20 31 20h184q10 0 13 -6.5t-3 -13.5l-209 -260q-14 -19 -36 -19h-111q-10 0 -12.5 7t2.5 14z" />
    <glyph glyph-name="lacute" unicode="&#x13a;" horiz-adv-x="903" 
d="M94 1303v110q0 21 21 21h395q20 0 20 -21v-1261h299q21 0 21 -21v-111q0 -20 -21 -20h-755q-21 0 -21 20v111q0 21 21 21h297v1130h-256q-21 0 -21 21zM311 1561l142 258q11 20 30 20h185q10 0 13 -6.5t-3 -13.5l-209 -260q-14 -19 -37 -19h-110q-10 0 -13 7t2 14z" />
    <glyph glyph-name="Lcommaaccent" unicode="&#x13b;" horiz-adv-x="1052" 
d="M156 20v1393q0 21 20 21h131q21 0 21 -21v-1249h639q20 0 20 -21v-123q0 -20 -20 -20h-791q-20 0 -20 20zM479 -406q58 0 74 19.5t16 77.5v14h-90q-20 0 -20 21v168q0 20 20 20h168q21 0 21 -20v-201q0 -89 -37 -137t-109 -48h-43q-20 0 -20 21v45q0 20 20 20z" />
    <glyph glyph-name="lcommaaccent" unicode="&#x13c;" horiz-adv-x="903" 
d="M94 1303v110q0 21 21 21h395q20 0 20 -21v-1261h299q21 0 21 -21v-111q0 -20 -21 -20h-755q-21 0 -21 20v111q0 21 21 21h297v1130h-256q-21 0 -21 21zM356 -406q58 0 74 19.5t16 77.5v14h-90q-20 0 -20 21v168q0 20 20 20h168q21 0 21 -20v-201q0 -89 -37 -137t-109 -48
h-43q-20 0 -20 21v45q0 20 20 20z" />
    <glyph glyph-name="Lcaron" unicode="&#x13d;" horiz-adv-x="1052" 
d="M156 20v1393q0 21 20 21h131q21 0 21 -21v-1249h639q20 0 20 -21v-123q0 -20 -20 -20h-791q-20 0 -20 20zM535 1073q63 0 83.5 26.5t20.5 90.5v35h-90q-21 0 -21 20v168q0 21 21 21h168q20 0 20 -21v-237q0 -86 -48.5 -137.5t-123.5 -51.5h-30q-21 0 -21 21v45
q0 20 21 20z" />
    <glyph glyph-name="lcaron" unicode="&#x13e;" horiz-adv-x="944" 
d="M94 1303v110q0 21 21 21h395q20 0 20 -21v-1261h299q21 0 21 -21v-111q0 -20 -21 -20h-755q-21 0 -21 20v111q0 21 21 21h297v1130h-256q-21 0 -21 21zM711 1073q63 0 83.5 26.5t20.5 90.5v35h-90q-20 0 -20 20v168q0 21 20 21h168q20 0 20 -21v-237q0 -86 -48.5 -137.5
t-123.5 -51.5h-30q-21 0 -21 21v45q0 20 21 20z" />
    <glyph glyph-name="Ldot" unicode="&#x13f;" horiz-adv-x="1052" 
d="M156 20v1393q0 21 20 21h131q21 0 21 -21v-1249h639q20 0 20 -21v-123q0 -20 -20 -20h-791q-20 0 -20 20zM563 823h168q21 0 21 -20v-168q0 -21 -21 -21h-168q-20 0 -20 21v168q0 20 20 20z" />
    <glyph glyph-name="ldot" unicode="&#x140;" horiz-adv-x="985" 
d="M94 1303v110q0 21 21 21h395q20 0 20 -21v-1261h299q21 0 21 -21v-111q0 -20 -21 -20h-755q-21 0 -21 20v111q0 21 21 21h297v1130h-256q-21 0 -21 21zM766 823h168q20 0 20 -20v-168q0 -21 -20 -21h-168q-21 0 -21 21v168q0 20 21 20z" />
    <glyph glyph-name="Lslash" unicode="&#x141;" horiz-adv-x="1052" 
d="M176 20v496l-139 -74q-19 -9 -29 11l-51 96q-9 21 8 29l211 110v725q0 21 21 21h131q20 0 20 -21v-633l184 99q19 9 29 -11l51 -96q9 -21 -8 -29l-256 -137v-442h619q20 0 20 -21v-123q0 -20 -20 -20h-770q-21 0 -21 20z" />
    <glyph glyph-name="lslash" unicode="&#x142;" horiz-adv-x="903" 
d="M94 1303v110q0 21 21 21h395q20 0 20 -21v-625l168 91q19 9 29 -11l51 -96q9 -21 -8 -29l-240 -127v-464h299q21 0 21 -21v-111q0 -20 -21 -20h-755q-21 0 -21 20v111q0 21 21 21h297v378l-168 -88q-19 -9 -29 11l-51 96q-9 21 8 29l240 127v577h-256q-21 0 -21 21z" />
    <glyph glyph-name="Nacute" unicode="&#x143;" horiz-adv-x="1259" 
d="M1083 0h-165q-26 0 -33 16l-557 1123v-1119q0 -20 -21 -20h-131q-20 0 -20 20v1393q0 21 20 21h166q26 0 33 -17l557 -1122v1118q0 21 20 21h131q21 0 21 -21v-1393q0 -20 -21 -20zM510 1561l141 258q11 20 31 20h184q10 0 13.5 -6.5t-2.5 -13.5l-209 -260
q-14 -19 -37 -19h-111q-10 0 -12.5 7t2.5 14z" />
    <glyph glyph-name="nacute" unicode="&#x144;" horiz-adv-x="1069" 
d="M143 20v988q0 20 21 20h119q20 0 20 -20v-123q50 70 137.5 117t186.5 47q152 0 231.5 -88t79.5 -246v-695q0 -20 -20 -20h-119q-21 0 -21 20v658q0 106 -49.5 162.5t-146.5 56.5q-112 0 -195.5 -98.5t-83.5 -257.5v-521q0 -20 -20 -20h-119q-21 0 -21 20zM440 1155
l142 258q12 21 30 21h185q10 0 13 -7t-3 -14l-209 -260q-13 -18 -37 -18h-110q-10 0 -13 6.5t2 13.5z" />
    <glyph glyph-name="Ncommaaccent" unicode="&#x145;" horiz-adv-x="1259" 
d="M1083 0h-165q-26 0 -33 16l-557 1123v-1119q0 -20 -21 -20h-131q-20 0 -20 20v1393q0 21 20 21h166q26 0 33 -17l557 -1122v1118q0 21 20 21h131q21 0 21 -21v-1393q0 -20 -21 -20zM578 -406q58 0 74 19.5t16 77.5v14h-90q-21 0 -21 21v168q0 20 21 20h167q21 0 21 -20
v-201q0 -89 -36.5 -137t-108.5 -48h-43q-21 0 -21 21v45q0 20 21 20z" />
    <glyph glyph-name="ncommaaccent" unicode="&#x146;" horiz-adv-x="1069" 
d="M143 20v988q0 20 21 20h119q20 0 20 -20v-123q50 70 137.5 117t186.5 47q152 0 231.5 -88t79.5 -246v-695q0 -20 -20 -20h-119q-21 0 -21 20v658q0 106 -49.5 162.5t-146.5 56.5q-112 0 -195.5 -98.5t-83.5 -257.5v-521q0 -20 -20 -20h-119q-21 0 -21 20zM461 -406
q58 0 74 19.5t16 77.5v14h-90q-21 0 -21 21v168q0 20 21 20h168q20 0 20 -20v-201q0 -89 -36.5 -137t-108.5 -48h-43q-21 0 -21 21v45q0 20 21 20z" />
    <glyph glyph-name="Ncaron" unicode="&#x147;" horiz-adv-x="1259" 
d="M1083 0h-165q-26 0 -33 16l-557 1123v-1119q0 -20 -21 -20h-131q-20 0 -20 20v1393q0 21 20 21h166q26 0 33 -17l557 -1122v1118q0 21 20 21h131q21 0 21 -21v-1393q0 -20 -21 -20zM928 1819l-207 -263q-16 -16 -31 -16h-98q-15 0 -31 16l-207 263q-6 7 -2.5 13.5
t13.5 6.5h114q19 0 37 -18l125 -129l125 129q18 18 37 18h115q10 0 13 -6.5t-3 -13.5z" />
    <glyph glyph-name="ncaron" unicode="&#x148;" horiz-adv-x="1069" 
d="M143 20v988q0 20 21 20h119q20 0 20 -20v-123q50 70 137.5 117t186.5 47q152 0 231.5 -88t79.5 -246v-695q0 -20 -20 -20h-119q-21 0 -21 20v658q0 106 -49.5 162.5t-146.5 56.5q-112 0 -195.5 -98.5t-83.5 -257.5v-521q0 -20 -20 -20h-119q-21 0 -21 20zM850 1413
l-207 -262q-16 -16 -31 -16h-98q-15 0 -31 16l-207 262q-6 7 -2.5 14t13.5 7h114q18 0 37 -19l125 -129l125 129q19 19 37 19h115q10 0 13 -7t-3 -14z" />
    <glyph glyph-name="napostrophe" unicode="&#x149;" horiz-adv-x="1245" 
d="M319 20v988q0 20 21 20h119q20 0 20 -20v-123q50 70 137.5 117t186.5 47q152 0 231.5 -88t79.5 -246v-695q0 -20 -20 -20h-119q-21 0 -21 20v658q0 106 -49.5 162.5t-146.5 56.5q-112 0 -195.5 -98.5t-83.5 -257.5v-521q0 -20 -20 -20h-119q-21 0 -21 20zM59 1135
q63 0 84 26t21 90v35h-90q-21 0 -21 21v168q0 20 21 20h168q20 0 20 -20v-238q0 -86 -48.5 -137t-123.5 -51h-31q-20 0 -20 20v45q0 21 20 21z" />
    <glyph glyph-name="Eng" unicode="&#x14a;" horiz-adv-x="1259" 
d="M932 362v1051q0 21 20 21h131q21 0 21 -21v-1407q0 -229 -103.5 -330.5t-306.5 -101.5q-20 0 -20 20v123q0 21 20 21q77 0 124 13.5t72 48t33.5 79.5t8.5 121l-604 1139v-1119q0 -20 -21 -20h-131q-20 0 -20 20v1393q0 21 20 21h166q23 0 33 -17z" />
    <glyph glyph-name="eng" unicode="&#x14b;" horiz-adv-x="1089" 
d="M778 -80v758q0 106 -49.5 162.5t-146.5 56.5q-112 0 -195.5 -98.5t-83.5 -257.5v-521q0 -20 -20 -20h-119q-21 0 -21 20v988q0 20 21 20h119q20 0 20 -20v-123q50 70 137.5 117t186.5 47q152 0 231.5 -88t79.5 -246v-770q0 -131 -14.5 -206.5t-46.5 -148.5
q-6 -16 -15 -16l-16 4l-111 31q-16 6 -16 14q0 6 2 10q30 83 43.5 143.5t13.5 143.5z" />
    <glyph glyph-name="Omacron" unicode="&#x14c;" horiz-adv-x="1355" 
d="M678 -20q-121 0 -225 47t-183.5 136.5t-125.5 232t-46 321.5t46 321.5t125.5 232t183.5 136.5t225 47t224.5 -47t183.5 -136.5t125.5 -232t45.5 -321.5t-45.5 -321.5t-125.5 -232t-183.5 -136.5t-224.5 -47zM678 143q186 0 292.5 148t106.5 426t-106.5 425.5
t-292.5 147.5t-292.5 -147.5t-106.5 -425.5t106.5 -426t292.5 -148zM471 1647v102q0 20 21 20h374q21 0 21 -20v-102q0 -21 -21 -21h-374q-21 0 -21 21z" />
    <glyph glyph-name="omacron" unicode="&#x14d;" horiz-adv-x="1167" 
d="M84 514q0 239 141 387t359 148t358.5 -148t140.5 -387t-140.5 -386.5t-358.5 -147.5t-359 147.5t-141 386.5zM252 514q0 -168 92.5 -275.5t239.5 -107.5t239 107.5t92 275.5t-92 275.5t-239 107.5t-239.5 -107.5t-92.5 -275.5zM377 1241v102q0 21 20 21h375q21 0 21 -21
v-102q0 -20 -21 -20h-375q-20 0 -20 20z" />
    <glyph glyph-name="Obreve" unicode="&#x14e;" horiz-adv-x="1355" 
d="M678 -20q-121 0 -225 47t-183.5 136.5t-125.5 232t-46 321.5t46 321.5t125.5 232t183.5 136.5t225 47t224.5 -47t183.5 -136.5t125.5 -232t45.5 -321.5t-45.5 -321.5t-125.5 -232t-183.5 -136.5t-224.5 -47zM678 143q186 0 292.5 148t106.5 426t-106.5 425.5
t-292.5 147.5t-292.5 -147.5t-106.5 -425.5t106.5 -426t292.5 -148zM444 1808h99q20 0 20 -20q0 -46 30.5 -76.5t84.5 -30.5t84.5 30.5t30.5 76.5q0 20 20 20h98q21 0 21 -20q0 -110 -70.5 -176t-183.5 -66t-183.5 66t-70.5 176q0 20 20 20z" />
    <glyph glyph-name="obreve" unicode="&#x14f;" horiz-adv-x="1167" 
d="M84 514q0 239 141 387t359 148t358.5 -148t140.5 -387t-140.5 -386.5t-358.5 -147.5t-359 147.5t-141 386.5zM252 514q0 -168 92.5 -275.5t239.5 -107.5t239 107.5t92 275.5t-92 275.5t-239 107.5t-239.5 -107.5t-92.5 -275.5zM350 1403h99q20 0 20 -21q0 -46 30.5 -76
t84.5 -30t84 30t30 76q0 21 21 21h98q21 0 21 -21q0 -109 -70.5 -175t-183.5 -66t-183.5 66t-70.5 175q0 21 20 21z" />
    <glyph glyph-name="Ohungarumlaut" unicode="&#x150;" horiz-adv-x="1355" 
d="M678 -20q-121 0 -225 47t-183.5 136.5t-125.5 232t-46 321.5t46 321.5t125.5 232t183.5 136.5t225 47t224.5 -47t183.5 -136.5t125.5 -232t45.5 -321.5t-45.5 -321.5t-125.5 -232t-183.5 -136.5t-224.5 -47zM678 143q186 0 292.5 148t106.5 426t-106.5 425.5
t-292.5 147.5t-292.5 -147.5t-106.5 -425.5t106.5 -426t292.5 -148zM387 1561l141 258q11 20 31 20h184q10 0 13.5 -6.5t-2.5 -13.5l-209 -260q-14 -19 -37 -19h-111q-10 0 -12.5 7t2.5 14zM735 1561l142 258q11 20 30 20h185q10 0 13 -6.5t-3 -13.5l-209 -260
q-14 -19 -37 -19h-111q-10 0 -12.5 7t2.5 14z" />
    <glyph glyph-name="ohungarumlaut" unicode="&#x151;" horiz-adv-x="1167" 
d="M84 514q0 239 141 387t359 148t358.5 -148t140.5 -387t-140.5 -386.5t-358.5 -147.5t-359 147.5t-141 386.5zM252 514q0 -168 92.5 -275.5t239.5 -107.5t239 107.5t92 275.5t-92 275.5t-239 107.5t-239.5 -107.5t-92.5 -275.5zM297 1155l141 258q12 21 31 21h184
q10 0 13.5 -7t-2.5 -14l-209 -260q-13 -18 -37 -18h-111q-10 0 -12.5 6.5t2.5 13.5zM645 1155l141 258q12 21 31 21h184q10 0 13.5 -7t-2.5 -14l-209 -260q-13 -18 -37 -18h-111q-10 0 -12.5 6.5t2.5 13.5z" />
    <glyph glyph-name="OE" unicode="&#x152;" horiz-adv-x="1513" 
d="M831 672v-508h551q21 0 21 -21v-123q0 -20 -21 -20h-723q-123 0 -224 43.5t-177 129.5t-118 225t-42 319t42 319t118 225t177 129.5t224 43.5h709q21 0 21 -21v-123q0 -20 -21 -20h-537v-434h474q20 0 20 -21v-123q0 -20 -20 -20h-474zM659 164v1106q-186 0 -283 -137
t-97 -416t97 -416t283 -137z" />
    <glyph glyph-name="oe" unicode="&#x153;" horiz-adv-x="1964" 
d="M1858 465h-771q13 -152 93.5 -243t224.5 -91q110 0 177 45t104 143q7 19 28 19h133q15 0 15 -14q0 -12 -4 -21q-111 -323 -453 -323q-281 0 -410 215q-66 -103 -172 -159t-239 -56q-218 0 -359 147.5t-141 386.5t141 387t359 148q134 0 241 -58.5t174 -163.5
q64 105 168.5 163.5t237.5 58.5q113 0 204.5 -43t149.5 -117t88.5 -170t30.5 -205v-29q0 -20 -20 -20zM252 514q0 -168 92.5 -275.5t239.5 -107.5t239 107.5t92 275.5t-92 275.5t-239 107.5t-239.5 -107.5t-92.5 -275.5zM1405 897q-117 0 -200.5 -75.5t-108.5 -205.5h610
q-25 127 -107.5 204t-193.5 77z" />
    <glyph glyph-name="Racute" unicode="&#x154;" horiz-adv-x="1155" 
d="M156 20v1393q0 21 20 21h436q435 0 435 -379q0 -143 -72.5 -232.5t-196.5 -128.5l312 -674q2 -2 2 -8q0 -12 -19 -12h-149q-18 0 -29 20l-307 656h-260v-656q0 -20 -21 -20h-131q-20 0 -20 20zM328 1270v-430h305q125 0 183 53.5t58 161.5t-58 161.5t-183 53.5h-305z
M424 1561l141 258q11 20 31 20h184q10 0 13.5 -6.5t-2.5 -13.5l-209 -260q-14 -19 -37 -19h-111q-10 0 -12.5 7t2.5 14z" />
    <glyph glyph-name="racute" unicode="&#x155;" horiz-adv-x="948" 
d="M887 834l-103 -68q-8 -4 -14 -4q-13 0 -16 10q-42 70 -88 97.5t-117 27.5q-112 0 -179 -110t-67 -265v-502q0 -20 -20 -20h-119q-21 0 -21 20v988q0 20 21 20h119q20 0 20 -20v-113q51 68 129 111t172 43q204 0 291 -181q4 -12 4 -14q0 -14 -12 -20zM360 1155l142 258
q12 21 30 21h185q10 0 13 -7t-3 -14l-209 -260q-13 -18 -37 -18h-110q-10 0 -13 6.5t2 13.5z" />
    <glyph glyph-name="Rcommaaccent" unicode="&#x156;" horiz-adv-x="1155" 
d="M156 20v1393q0 21 20 21h436q435 0 435 -379q0 -143 -72.5 -232.5t-196.5 -128.5l312 -674q2 -2 2 -8q0 -12 -19 -12h-149q-18 0 -29 20l-307 656h-260v-656q0 -20 -21 -20h-131q-20 0 -20 20zM328 1270v-430h305q125 0 183 53.5t58 161.5t-58 161.5t-183 53.5h-305z
M489 -406q58 0 74.5 19.5t16.5 77.5v14h-91q-20 0 -20 21v168q0 20 20 20h168q21 0 21 -20v-201q0 -89 -37 -137t-109 -48h-43q-20 0 -20 21v45q0 20 20 20z" />
    <glyph glyph-name="rcommaaccent" unicode="&#x157;" horiz-adv-x="948" 
d="M887 834l-103 -68q-8 -4 -14 -4q-13 0 -16 10q-42 70 -88 97.5t-117 27.5q-112 0 -179 -110t-67 -265v-502q0 -20 -20 -20h-119q-21 0 -21 20v988q0 20 21 20h119q20 0 20 -20v-113q51 68 129 111t172 43q204 0 291 -181q4 -12 4 -14q0 -14 -12 -20zM393 -406
q58 0 74 19.5t16 77.5v14h-90q-20 0 -20 21v168q0 20 20 20h168q21 0 21 -20v-201q0 -89 -37 -137t-109 -48h-43q-20 0 -20 21v45q0 20 20 20z" />
    <glyph glyph-name="Rcaron" unicode="&#x158;" horiz-adv-x="1155" 
d="M156 20v1393q0 21 20 21h436q435 0 435 -379q0 -143 -72.5 -232.5t-196.5 -128.5l312 -674q2 -2 2 -8q0 -12 -19 -12h-149q-18 0 -29 20l-307 656h-260v-656q0 -20 -21 -20h-131q-20 0 -20 20zM328 1270v-430h305q125 0 183 53.5t58 161.5t-58 161.5t-183 53.5h-305z
M829 1819l-206 -263q-16 -16 -31 -16h-98q-15 0 -31 16l-207 263q-6 7 -3 13.5t13 6.5h115q19 0 37 -18l125 -129l125 129q18 18 37 18h114q10 0 13 -6.5t-3 -13.5z" />
    <glyph glyph-name="rcaron" unicode="&#x159;" horiz-adv-x="948" 
d="M887 834l-103 -68q-8 -4 -14 -4q-13 0 -16 10q-42 70 -88 97.5t-117 27.5q-112 0 -179 -110t-67 -265v-502q0 -20 -20 -20h-119q-21 0 -21 20v988q0 20 21 20h119q20 0 20 -20v-113q51 68 129 111t172 43q204 0 291 -181q4 -12 4 -14q0 -14 -12 -20zM793 1413l-207 -262
q-16 -16 -31 -16h-98q-15 0 -31 16l-207 262q-6 7 -3 14t13 7h115q18 0 37 -19l125 -129l125 129q19 19 37 19h114q10 0 13.5 -7t-2.5 -14z" />
    <glyph glyph-name="Sacute" unicode="&#x15a;" horiz-adv-x="1114" 
d="M100 1059q0 182 128.5 288.5t316.5 106.5q209 0 334 -112t125 -279q0 -21 -21 -21h-131q-21 0 -21 21q0 94 -82.5 160.5t-203.5 66.5q-119 0 -196 -60.5t-77 -158.5q0 -28 6.5 -52.5t15 -43t27.5 -36.5t33.5 -30t43.5 -25.5t47 -21t55 -18.5t56.5 -16.5t61.5 -16.5
q84 -24 142.5 -45.5t116 -53.5t91.5 -70t55 -91.5t21 -120.5q0 -113 -39 -201t-106.5 -141.5t-152.5 -80.5t-183 -27q-220 0 -358.5 121.5t-138.5 322.5q0 20 20 20h131q21 0 21 -20q0 -115 86.5 -198t238.5 -83q156 0 232.5 70.5t76.5 202.5q0 52 -24 91.5t-72.5 68.5
t-102 48t-132.5 40q-89 24 -150.5 46t-120.5 54.5t-93.5 72t-55.5 95.5t-21 127zM434 1561l141 258q11 20 31 20h185q10 0 13 -6.5t-3 -13.5l-209 -260q-14 -19 -37 -19h-111q-10 0 -12.5 7t2.5 14z" />
    <glyph glyph-name="sacute" unicode="&#x15b;" horiz-adv-x="954" 
d="M872 301q0 -148 -114.5 -234.5t-284.5 -86.5q-177 0 -288 93.5t-111 239.5q0 21 20 21h131q18 0 21 -21q12 -90 72 -136t161 -46q92 0 159 39.5t67 110.5q0 35 -15.5 62t-37.5 43t-64.5 29.5t-76 20.5t-93.5 17q-171 29 -245.5 99t-74.5 204q0 94 54 162.5t133.5 99.5
t171.5 31q171 0 276 -82t105 -213q0 -21 -21 -21h-115q-3 0 -5.5 0.5t-4.5 1.5t-3.5 3.5t-2 4t-2 5.5t-2.5 6q-34 143 -223 143q-85 0 -143 -36.5t-58 -104.5q0 -63 55 -106t203 -66q65 -11 113 -23.5t96.5 -34.5t78.5 -51t49 -73t19 -101zM348 1155l141 258q12 21 31 21
h185q10 0 13 -7t-3 -14l-209 -260q-13 -18 -37 -18h-111q-10 0 -12.5 6.5t2.5 13.5z" />
    <glyph glyph-name="Scircumflex" unicode="&#x15c;" horiz-adv-x="1114" 
d="M100 1059q0 182 128.5 288.5t316.5 106.5q209 0 334 -112t125 -279q0 -21 -21 -21h-131q-21 0 -21 21q0 94 -82.5 160.5t-203.5 66.5q-119 0 -196 -60.5t-77 -158.5q0 -28 6.5 -52.5t15 -43t27.5 -36.5t33.5 -30t43.5 -25.5t47 -21t55 -18.5t56.5 -16.5t61.5 -16.5
q84 -24 142.5 -45.5t116 -53.5t91.5 -70t55 -91.5t21 -120.5q0 -113 -39 -201t-106.5 -141.5t-152.5 -80.5t-183 -27q-220 0 -358.5 121.5t-138.5 322.5q0 20 20 20h131q21 0 21 -20q0 -115 86.5 -198t238.5 -83q156 0 232.5 70.5t76.5 202.5q0 52 -24 91.5t-72.5 68.5
t-102 48t-132.5 40q-89 24 -150.5 46t-120.5 54.5t-93.5 72t-55.5 95.5t-21 127zM631 1823l207 -262q6 -7 2.5 -14t-13.5 -7h-114q-18 0 -37 19l-125 129l-125 -129q-19 -19 -37 -19h-115q-10 0 -13 7t3 14l207 262q16 16 31 16h98q15 0 31 -16z" />
    <glyph glyph-name="scircumflex" unicode="&#x15d;" horiz-adv-x="954" 
d="M872 301q0 -148 -114.5 -234.5t-284.5 -86.5q-177 0 -288 93.5t-111 239.5q0 21 20 21h131q18 0 21 -21q12 -90 72 -136t161 -46q92 0 159 39.5t67 110.5q0 35 -15.5 62t-37.5 43t-64.5 29.5t-76 20.5t-93.5 17q-171 29 -245.5 99t-74.5 204q0 94 54 162.5t133.5 99.5
t171.5 31q171 0 276 -82t105 -213q0 -21 -21 -21h-115q-3 0 -5.5 0.5t-4.5 1.5t-3.5 3.5t-2 4t-2 5.5t-2.5 6q-34 143 -223 143q-85 0 -143 -36.5t-58 -104.5q0 -63 55 -106t203 -66q65 -11 113 -23.5t96.5 -34.5t78.5 -51t49 -73t19 -101zM535 1417l206 -262q6 -7 3 -13.5
t-13 -6.5h-115q-13 0 -18.5 3.5t-17.5 14.5l-125 129l-125 -129q-18 -18 -37 -18h-115q-10 0 -13 6.5t3 13.5l207 262q17 17 31 17h98q14 0 31 -17z" />
    <glyph glyph-name="Scedilla" unicode="&#x15e;" horiz-adv-x="1114" 
d="M446 -211l-24 25q-4 4 -4 12t2 12l49 148q-182 25 -292.5 142t-110.5 296q0 20 20 20h131q21 0 21 -20q0 -115 86.5 -198t238.5 -83q156 0 232.5 70.5t76.5 202.5q0 52 -24 91.5t-72.5 68.5t-102 48t-132.5 40q-89 24 -150.5 46t-120.5 54.5t-93.5 72t-55.5 95.5t-21 127
q0 182 128.5 288.5t316.5 106.5q209 0 334 -112t125 -279q0 -21 -21 -21h-131q-21 0 -21 21q0 94 -82.5 160.5t-203.5 66.5q-119 0 -196 -60.5t-77 -158.5q0 -28 6.5 -52.5t15 -43t27.5 -36.5t33.5 -30t43.5 -25.5t47 -21t55 -18.5t56.5 -16.5t61.5 -16.5
q84 -24 142.5 -45.5t116 -53.5t91.5 -70t55 -91.5t21 -120.5q0 -109 -37 -195.5t-101 -140.5t-145 -83t-175 -31l-47 -105q54 14 102 14q81 0 128.5 -39.5t47.5 -105.5q0 -170 -219 -170q-111 0 -184 20q-18 8 -20 13q-1 3 -1 8v59q0 21 21 21l54 -11q55 -12 124 -12
q42 0 66 17t24 47q0 29 -24.5 46t-65.5 17q-59 0 -117 -14q-4 -2 -12 -2q-11 0 -17 6z" />
    <glyph glyph-name="scedilla" unicode="&#x15f;" horiz-adv-x="954" 
d="M365 -211l-25 25q-4 4 -4 12t2 12l49 148q-143 23 -228 111.5t-85 215.5q0 21 20 21h131q18 0 21 -21q12 -90 72 -136t161 -46q92 0 159 39.5t67 110.5q0 35 -15.5 62t-37.5 43t-64.5 29.5t-76 20.5t-93.5 17q-171 29 -245.5 99t-74.5 204q0 94 54 162.5t133.5 99.5
t171.5 31q171 0 276 -82t105 -213q0 -21 -21 -21h-115q-3 0 -5.5 0.5t-4.5 1.5t-3.5 3.5t-2 4t-2 5.5t-2.5 6q-34 143 -223 143q-85 0 -143 -36.5t-58 -104.5q0 -63 55 -106t203 -66q65 -11 113 -23.5t96.5 -34.5t78.5 -51t49 -73t19 -101q0 -141 -104.5 -227t-263.5 -94
l-47 -105q54 14 102 14q81 0 128.5 -39.5t47.5 -105.5q0 -170 -219 -170q-111 0 -184 20q-18 8 -20 13q-1 3 -1 8v59q0 21 21 21l54 -11q55 -12 124 -12q42 0 66 17t24 47q0 29 -24.5 46t-65.5 17q-59 0 -117 -14q-4 -2 -12 -2q-10 0 -16 6z" />
    <glyph glyph-name="Scaron" unicode="&#x160;" horiz-adv-x="1114" 
d="M100 1059q0 182 128.5 288.5t316.5 106.5q209 0 334 -112t125 -279q0 -21 -21 -21h-131q-21 0 -21 21q0 94 -82.5 160.5t-203.5 66.5q-119 0 -196 -60.5t-77 -158.5q0 -28 6.5 -52.5t15 -43t27.5 -36.5t33.5 -30t43.5 -25.5t47 -21t55 -18.5t56.5 -16.5t61.5 -16.5
q84 -24 142.5 -45.5t116 -53.5t91.5 -70t55 -91.5t21 -120.5q0 -113 -39 -201t-106.5 -141.5t-152.5 -80.5t-183 -27q-220 0 -358.5 121.5t-138.5 322.5q0 20 20 20h131q21 0 21 -20q0 -115 86.5 -198t238.5 -83q156 0 232.5 70.5t76.5 202.5q0 52 -24 91.5t-72.5 68.5
t-102 48t-132.5 40q-89 24 -150.5 46t-120.5 54.5t-93.5 72t-55.5 95.5t-21 127zM846 1819l-207 -263q-16 -16 -31 -16h-98q-15 0 -31 16l-207 263q-6 7 -2.5 13.5t13.5 6.5h114q19 0 37 -18l125 -129l125 129q18 18 37 18h115q10 0 13 -6.5t-3 -13.5z" />
    <glyph glyph-name="scaron" unicode="&#x161;" horiz-adv-x="954" 
d="M872 301q0 -148 -114.5 -234.5t-284.5 -86.5q-177 0 -288 93.5t-111 239.5q0 21 20 21h131q18 0 21 -21q12 -90 72 -136t161 -46q92 0 159 39.5t67 110.5q0 35 -15.5 62t-37.5 43t-64.5 29.5t-76 20.5t-93.5 17q-171 29 -245.5 99t-74.5 204q0 94 54 162.5t133.5 99.5
t171.5 31q171 0 276 -82t105 -213q0 -21 -21 -21h-115q-3 0 -5.5 0.5t-4.5 1.5t-3.5 3.5t-2 4t-2 5.5t-2.5 6q-34 143 -223 143q-85 0 -143 -36.5t-58 -104.5q0 -63 55 -106t203 -66q65 -11 113 -23.5t96.5 -34.5t78.5 -51t49 -73t19 -101zM745 1413l-206 -262
q-16 -16 -31 -16h-98q-15 0 -31 16l-207 262q-6 7 -3 14t13 7h115q18 0 37 -19l125 -129l125 129q19 19 37 19h114q10 0 13 -7t-3 -14z" />
    <glyph glyph-name="uni0162" unicode="&#x162;" horiz-adv-x="1015" 
d="M43 1290v123q0 21 20 21h889q21 0 21 -21v-123q0 -20 -21 -20h-358v-1250q0 -20 -21 -20h-6l-55 -125q54 14 102 14q81 0 129 -39.5t48 -105.5q0 -170 -220 -170q-111 0 -184 20q-17 7 -19 13q-1 3 -1 8v59q0 21 20 21l55 -11q54 -12 123 -12q42 0 66 17t24 47
q0 29 -24.5 46t-65.5 17q-58 0 -116 -14q-4 -2 -13 -2q-10 0 -16 6l-25 25q-4 4 -4 12t2 12l53 162h-4q-20 0 -20 20v1250h-359q-20 0 -20 20z" />
    <glyph glyph-name="uni0163" unicode="&#x163;" horiz-adv-x="1011" 
d="M442 -211l-24 25q-4 4 -4 12t2 12l53 160q-227 73 -227 397v482h-185q-20 0 -20 20v111q0 20 20 20h185v295q0 20 20 20h119q20 0 20 -20v-295h392q20 0 20 -20v-111q0 -20 -20 -20h-392v-480q0 -132 52.5 -199t148.5 -67t141.5 51t59.5 160q2 18 22 18h119
q12 0 15.5 -2.5t3.5 -15.5q0 -152 -95 -257t-266 -105h-20l-47 -105q54 14 102 14q81 0 128.5 -39.5t47.5 -105.5q0 -170 -219 -170q-111 0 -184 20q-18 8 -20 13q-1 3 -1 8v59q0 21 21 21q7 0 28 -6t60.5 -11.5t89.5 -5.5q42 0 66 17t24 47q0 29 -24.5 46t-65.5 17
q-59 0 -117 -14q-4 -2 -12 -2q-11 0 -17 6z" />
    <glyph glyph-name="Tcaron" unicode="&#x164;" horiz-adv-x="1015" 
d="M43 1290v123q0 21 20 21h889q21 0 21 -21v-123q0 -20 -21 -20h-358v-1250q0 -20 -21 -20h-131q-20 0 -20 20v1250h-359q-20 0 -20 20zM795 1819l-207 -263q-16 -16 -31 -16h-98q-15 0 -31 16l-207 263q-6 7 -3 13.5t13 6.5h115q19 0 37 -18l125 -129l125 129q18 18 37 18
h114q10 0 13.5 -6.5t-2.5 -13.5z" />
    <glyph glyph-name="tcaron" unicode="&#x165;" horiz-adv-x="1011" 
d="M57 1028h185v295q0 20 20 20h119q20 0 20 -20v-295h392q20 0 20 -20v-111q0 -20 -20 -20h-392v-480q0 -132 52.5 -199t148.5 -67t141.5 51t59.5 160q2 18 22 18h119q12 0 15.5 -2.5t3.5 -15.5q0 -152 -95 -257t-266 -105q-175 0 -267.5 104t-92.5 311v482h-185
q-20 0 -20 20v111q0 20 20 20zM657 1176q63 0 84 26t21 90v35h-90q-21 0 -21 21v168q0 20 21 20h168q20 0 20 -20v-238q0 -86 -48.5 -137t-123.5 -51h-31q-20 0 -20 20v45q0 21 20 21z" />
    <glyph glyph-name="Tbar" unicode="&#x166;" horiz-adv-x="1015" 
d="M43 1290v123q0 21 20 21h889q21 0 21 -21v-123q0 -20 -21 -20h-358v-279h313q21 0 21 -20v-111q0 -20 -21 -20h-313v-820q0 -20 -21 -20h-131q-20 0 -20 20v820h-311q-21 0 -21 20v111q0 20 21 20h311v279h-359q-20 0 -20 20z" />
    <glyph glyph-name="tbar" unicode="&#x167;" horiz-adv-x="1011" 
d="M57 1028h185v295q0 20 20 20h119q20 0 20 -20v-295h392q20 0 20 -20v-111q0 -20 -20 -20h-392v-220h357q20 0 20 -20v-102q0 -21 -20 -21h-357v-117q0 -132 52.5 -199t148.5 -67t141.5 51t59.5 160q2 18 22 18h119q12 0 15.5 -2.5t3.5 -15.5q0 -152 -95 -257t-266 -105
q-175 0 -267.5 104t-92.5 311v119h-156q-20 0 -20 21v102q0 20 20 20h156v220h-185q-20 0 -20 20v111q0 20 20 20z" />
    <glyph glyph-name="Utilde" unicode="&#x168;" horiz-adv-x="1167" 
d="M121 489v924q0 21 20 21h131q21 0 21 -21v-901q0 -180 69 -274.5t222 -94.5t221.5 94t68.5 275v901q0 21 21 21h131q21 0 21 -21v-924q0 -238 -124.5 -373.5t-338.5 -135.5t-338.5 135.5t-124.5 373.5zM248 1761q105 78 207 78q44 0 76.5 -8.5t51.5 -21t36 -25t40.5 -21
t53.5 -8.5q27 0 52.5 11t70.5 40q12 4 14 4q12 0 22 -16l54 -80l2.5 -5t2.5 -5.5t1 -5.5q0 -12 -12 -21q-105 -78 -207 -78q-44 0 -76.5 8.5t-51.5 21t-36 25t-40.5 21t-53.5 8.5q-27 0 -52.5 -11t-70.5 -40q-12 -4 -15 -4q-12 0 -22 17l-53 79q0 1 -3 7t-3 10q0 11 12 20z
" />
    <glyph glyph-name="utilde" unicode="&#x169;" horiz-adv-x="1069" 
d="M926 1008v-988q0 -20 -21 -20h-119q-20 0 -20 20v123q-50 -70 -137 -116.5t-187 -46.5q-311 0 -311 333v695q0 20 21 20h118q21 0 21 -20v-658q0 -106 49.5 -162.5t146.5 -56.5q112 0 195.5 98.5t83.5 257.5v521q0 20 20 20h119q21 0 21 -20zM178 1356q105 78 207 78
q44 0 76.5 -8.5t51.5 -21t36 -25t40.5 -21t53.5 -8.5q27 0 52.5 11t70.5 40q12 4 14 4q13 0 23 -16l53 -80q0 -1 3 -7t3 -10q0 -11 -12 -20q-105 -78 -207 -78q-44 0 -76.5 8.5t-51.5 21t-36 25t-40.5 21t-53.5 8.5q-27 0 -52.5 -11t-70.5 -40q-12 -4 -14 -4q-13 0 -23 16
l-53 80q0 1 -3 7t-3 9q0 12 12 21z" />
    <glyph glyph-name="Umacron" unicode="&#x16a;" horiz-adv-x="1167" 
d="M121 489v924q0 21 20 21h131q21 0 21 -21v-901q0 -180 69 -274.5t222 -94.5t221.5 94t68.5 275v901q0 21 21 21h131q21 0 21 -21v-924q0 -238 -124.5 -373.5t-338.5 -135.5t-338.5 135.5t-124.5 373.5zM377 1647v102q0 20 20 20h375q21 0 21 -20v-102q0 -21 -21 -21h-375
q-20 0 -20 21z" />
    <glyph glyph-name="umacron" unicode="&#x16b;" horiz-adv-x="1069" 
d="M926 1008v-988q0 -20 -21 -20h-119q-20 0 -20 20v123q-50 -70 -137 -116.5t-187 -46.5q-311 0 -311 333v695q0 20 21 20h118q21 0 21 -20v-658q0 -106 49.5 -162.5t146.5 -56.5q112 0 195.5 98.5t83.5 257.5v521q0 20 20 20h119q21 0 21 -20zM315 1241v102q0 21 21 21
h375q20 0 20 -21v-102q0 -20 -20 -20h-375q-21 0 -21 20z" />
    <glyph glyph-name="Ubreve" unicode="&#x16c;" horiz-adv-x="1167" 
d="M121 489v924q0 21 20 21h131q21 0 21 -21v-901q0 -180 69 -274.5t222 -94.5t221.5 94t68.5 275v901q0 21 21 21h131q21 0 21 -21v-924q0 -238 -124.5 -373.5t-338.5 -135.5t-338.5 135.5t-124.5 373.5zM350 1808h99q20 0 20 -20q0 -46 30.5 -76.5t84.5 -30.5t84 30.5
t30 76.5q0 20 21 20h98q21 0 21 -20q0 -110 -70.5 -176t-183.5 -66t-183.5 66t-70.5 176q0 20 20 20z" />
    <glyph glyph-name="ubreve" unicode="&#x16d;" horiz-adv-x="1069" 
d="M926 1008v-988q0 -20 -21 -20h-119q-20 0 -20 20v123q-50 -70 -137 -116.5t-187 -46.5q-311 0 -311 333v695q0 20 21 20h118q21 0 21 -20v-658q0 -106 49.5 -162.5t146.5 -56.5q112 0 195.5 98.5t83.5 257.5v521q0 20 20 20h119q21 0 21 -20zM297 1403h98q21 0 21 -21
q0 -46 30 -76t84 -30t84.5 30t30.5 76q0 21 21 21h98q20 0 20 -21q0 -109 -70.5 -175t-183.5 -66t-183.5 66t-70.5 175q0 21 21 21z" />
    <glyph glyph-name="Uring" unicode="&#x16e;" horiz-adv-x="1167" 
d="M121 489v924q0 21 20 21h131q21 0 21 -21v-901q0 -180 69 -274.5t222 -94.5t221.5 94t68.5 275v901q0 21 21 21h131q21 0 21 -21v-924q0 -238 -124.5 -373.5t-338.5 -135.5t-338.5 135.5t-124.5 373.5zM406 1708q0 75 50 123.5t128 48.5t128 -48.5t50 -123.5t-50 -123.5
t-128 -48.5t-128 48.5t-50 123.5zM504 1708q0 -38 22 -60t58 -22t58 22t22 60t-22 60t-58 22t-58 -22t-22 -60z" />
    <glyph glyph-name="uring" unicode="&#x16f;" horiz-adv-x="1069" 
d="M926 1008v-988q0 -20 -21 -20h-119q-20 0 -20 20v123q-50 -70 -137 -116.5t-187 -46.5q-311 0 -311 333v695q0 20 21 20h118q21 0 21 -20v-658q0 -106 49.5 -162.5t146.5 -56.5q112 0 195.5 98.5t83.5 257.5v521q0 20 20 20h119q21 0 21 -20zM336 1303q0 75 50 123.5
t128 48.5t128 -48.5t50 -123.5t-50 -124t-128 -49t-128 49t-50 124zM434 1303q0 -38 22 -60t58 -22t58 22t22 60t-22 59.5t-58 21.5t-58 -21.5t-22 -59.5z" />
    <glyph glyph-name="Uhungarumlaut" unicode="&#x170;" horiz-adv-x="1167" 
d="M121 489v924q0 21 20 21h131q21 0 21 -21v-901q0 -180 69 -274.5t222 -94.5t221.5 94t68.5 275v901q0 21 21 21h131q21 0 21 -21v-924q0 -238 -124.5 -373.5t-338.5 -135.5t-338.5 135.5t-124.5 373.5zM297 1561l141 258q11 20 31 20h184q10 0 13.5 -6.5t-2.5 -13.5
l-209 -260q-14 -19 -37 -19h-111q-10 0 -12.5 7t2.5 14zM645 1561l141 258q11 20 31 20h184q10 0 13.5 -6.5t-2.5 -13.5l-209 -260q-14 -19 -37 -19h-111q-10 0 -12.5 7t2.5 14z" />
    <glyph glyph-name="uhungarumlaut" unicode="&#x171;" horiz-adv-x="1069" 
d="M926 1008v-988q0 -20 -21 -20h-119q-20 0 -20 20v123q-50 -70 -137 -116.5t-187 -46.5q-311 0 -311 333v695q0 20 21 20h118q21 0 21 -20v-658q0 -106 49.5 -162.5t146.5 -56.5q112 0 195.5 98.5t83.5 257.5v521q0 20 20 20h119q21 0 21 -20zM221 1155l141 258
q12 21 31 21h185q10 0 13 -7t-3 -14l-209 -260q-13 -18 -37 -18h-111q-10 0 -12.5 6.5t2.5 13.5zM569 1155l142 258q12 21 30 21h185q10 0 13 -7t-3 -14l-209 -260q-13 -18 -37 -18h-110q-10 0 -13 6.5t2 13.5z" />
    <glyph glyph-name="Uogonek" unicode="&#x172;" horiz-adv-x="1167" 
d="M121 489v924q0 21 20 21h131q21 0 21 -21v-901q0 -180 69 -274.5t222 -94.5t221.5 94t68.5 275v901q0 21 21 21h131q21 0 21 -21v-924q0 -193 -82.5 -319.5t-231.5 -169.5q-57 -18 -90 -53.5t-33 -81.5q0 -53 28.5 -83t86.5 -30h25q20 0 20 -20v-70q0 -20 -20 -20h-60
q-102 0 -167.5 47t-65.5 139q0 88 75 156q-194 17 -302.5 148.5t-108.5 356.5z" />
    <glyph glyph-name="uogonek" unicode="&#x173;" horiz-adv-x="1069" 
d="M926 1008v-988q0 -17 -15 -20q-56 -13 -89.5 -51.5t-33.5 -83.5q0 -53 28.5 -83t86.5 -30h25q20 0 20 -20v-70q0 -20 -20 -20h-60q-102 0 -167.5 47t-65.5 139q0 62 38 112.5t93 77.5v125q-50 -70 -137 -116.5t-187 -46.5q-311 0 -311 333v695q0 20 21 20h118
q21 0 21 -20v-658q0 -106 49.5 -162.5t146.5 -56.5q112 0 195.5 98.5t83.5 257.5v521q0 20 20 20h119q21 0 21 -20z" />
    <glyph glyph-name="Wcircumflex" unicode="&#x174;" horiz-adv-x="1441" 
d="M1419 1413l-262 -1393q-3 -20 -22 -20h-185q-18 0 -24 20l-205 957l-205 -957q-6 -20 -24 -20h-185q-19 0 -22 20l-262 1393q0 21 20 21h141q22 0 25 -21l197 -1186l215 1006q6 20 24 20h152q18 0 24 -20l215 -1006l197 1186q3 21 24 21h142q20 0 20 -21zM799 1823
l207 -262q6 -7 2.5 -14t-13.5 -7h-114q-18 0 -37 19l-125 129l-125 -129q-19 -19 -37 -19h-115q-10 0 -13 7t3 14l207 262q16 16 31 16h98q15 0 31 -16z" />
    <glyph glyph-name="wcircumflex" unicode="&#x175;" horiz-adv-x="1359" 
d="M1337 997l-268 -977q-6 -20 -27 -20h-145q-21 0 -27 20l-190 711l-191 -711q-6 -20 -26 -20h-146q-23 0 -26 20l-268 977q-3 9 -3 17q0 14 17 14h141q11 0 16.5 -3t7 -5t5.5 -12l186 -791l187 725q1 2 2.5 5.5t2 5t1.5 3.5t2.5 3t3.5 2t4.5 1.5t5.5 0.5h156q3 0 5.5 -0.5
t4.5 -1.5t3.5 -2t2.5 -3t1.5 -3.5t2 -5t2.5 -5.5l187 -725l186 791q1 1 2 4t1.5 4t1.5 3.5t2 3t2.5 2t3 1.5t4 1t5.5 1h7h141q16 0 16 -14q0 -11 -2 -17zM780 1417l207 -262q6 -7 3 -13.5t-13 -6.5h-115q-19 0 -37 18l-125 129l-125 -129q-11 -11 -17 -14.5t-19 -3.5h-115
q-10 0 -13 6.5t3 13.5l207 262q17 17 30 17h99q13 0 30 -17z" />
    <glyph glyph-name="Ycircumflex" unicode="&#x176;" horiz-adv-x="950" 
d="M936 1413l-375 -805v-588q0 -20 -20 -20h-131q-21 0 -21 20v588l-375 805q-9 21 13 21h159q16 0 23 -17l266 -604l266 604q7 17 23 17h160q21 0 12 -21zM555 1823l207 -262q6 -7 3 -14t-13 -7h-115q-18 0 -37 19l-125 129l-125 -129q-19 -19 -37 -19h-114q-10 0 -13.5 7
t2.5 14l207 262q16 16 31 16h98q15 0 31 -16z" />
    <glyph glyph-name="ycircumflex" unicode="&#x177;" horiz-adv-x="919" 
d="M20 -360v110q0 21 17 21q12 0 30 -11t47.5 -22.5t69.5 -11.5q76 0 122.5 62.5t84.5 207.5l-360 999q-4 16 -4 17q0 16 16 16h147q21 0 27 -20l254 -781l242 781q4 9 5.5 12t6.5 5.5t14 2.5h142q16 0 16 -14q0 -11 -2 -15l-363 -1099q-62 -187 -139.5 -256.5t-199.5 -69.5
q-85 0 -152 33q-21 12 -21 33zM551 1417l207 -262q6 -7 3 -13.5t-13 -6.5h-115q-19 0 -37 18l-125 129l-125 -129q-18 -18 -37 -18h-114q-10 0 -13.5 6.5t2.5 13.5l207 262q17 17 31 17h98q14 0 31 -17z" />
    <glyph glyph-name="Ydieresis" unicode="&#x178;" horiz-adv-x="950" 
d="M936 1413l-375 -805v-588q0 -20 -20 -20h-131q-21 0 -21 20v588l-375 805q-9 21 13 21h159q16 0 23 -17l266 -604l266 604q7 17 23 17h160q21 0 12 -21zM211 1659v160q0 20 20 20h160q21 0 21 -20v-160q0 -21 -21 -21h-160q-20 0 -20 21zM539 1659v160q0 20 20 20h160
q20 0 20 -20v-160q0 -21 -20 -21h-160q-20 0 -20 21z" />
    <glyph glyph-name="Zacute" unicode="&#x179;" horiz-adv-x="1071" 
d="M100 1290v123q0 21 21 21h813q20 0 20 -21v-123q0 -17 -12 -35l-674 -1091h701q20 0 20 -21v-123q0 -20 -20 -20h-875q-20 0 -20 20v123q0 17 12 35l676 1092h-641q-21 0 -21 20zM383 1561l141 258q11 20 31 20h184q10 0 13.5 -6.5t-2.5 -13.5l-209 -260q-14 -19 -37 -19
h-111q-10 0 -12.5 7t2.5 14z" />
    <glyph glyph-name="zacute" unicode="&#x17a;" horiz-adv-x="909" 
d="M82 897v111q0 20 20 20h682q21 0 21 -20v-111q0 -15 -17 -43l-538 -702h573q21 0 21 -21v-111q0 -20 -21 -20h-747q-21 0 -21 20v111q0 14 13 31l548 715h-514q-20 0 -20 20zM287 1155l141 258q12 21 31 21h184q10 0 13 -7t-3 -14l-209 -260q-13 -18 -36 -18h-111
q-10 0 -12.5 6.5t2.5 13.5z" />
    <glyph glyph-name="Zdotaccent" unicode="&#x17b;" horiz-adv-x="1071" 
d="M100 1290v123q0 21 21 21h813q20 0 20 -21v-123q0 -17 -12 -35l-674 -1091h701q20 0 20 -21v-123q0 -20 -20 -20h-875q-20 0 -20 20v123q0 17 12 35l676 1092h-641q-21 0 -21 20zM428 1622v176q0 21 21 21h176q20 0 20 -21v-176q0 -20 -20 -20h-176q-21 0 -21 20z" />
    <glyph glyph-name="zdotaccent" unicode="&#x17c;" horiz-adv-x="909" 
d="M82 897v111q0 20 20 20h682q21 0 21 -20v-111q0 -15 -17 -43l-538 -702h573q21 0 21 -21v-111q0 -20 -21 -20h-747q-21 0 -21 20v111q0 14 13 31l548 715h-514q-20 0 -20 20zM334 1217v176q0 20 20 20h176q21 0 21 -20v-176q0 -21 -21 -21h-176q-20 0 -20 21z" />
    <glyph glyph-name="Zcaron" unicode="&#x17d;" horiz-adv-x="1071" 
d="M100 1290v123q0 21 21 21h813q20 0 20 -21v-123q0 -17 -12 -35l-674 -1091h701q20 0 20 -21v-123q0 -20 -20 -20h-875q-20 0 -20 20v123q0 17 12 35l676 1092h-641q-21 0 -21 20zM844 1819l-207 -263q-16 -16 -31 -16h-98q-15 0 -31 16l-207 263q-6 7 -2.5 13.5t13.5 6.5
h114q19 0 37 -18l125 -129l125 129q18 18 37 18h115q10 0 13 -6.5t-3 -13.5z" />
    <glyph glyph-name="zcaron" unicode="&#x17e;" horiz-adv-x="909" 
d="M82 897v111q0 20 20 20h682q21 0 21 -20v-111q0 -15 -17 -43l-538 -702h573q21 0 21 -21v-111q0 -20 -21 -20h-747q-21 0 -21 20v111q0 14 13 31l548 715h-514q-20 0 -20 20zM739 1413l-207 -262q-16 -16 -30 -16h-99q-14 0 -30 16l-207 262q-6 7 -3 14t13 7h115
q18 0 37 -19l125 -129l125 129q9 9 12 11.5t9 5t15 2.5h115q10 0 13 -7t-3 -14z" />
    <glyph glyph-name="longs" unicode="&#x17f;" horiz-adv-x="720" 
d="M395 1092v-1072q0 -20 -20 -20h-119q-20 0 -20 20v857h-185q-20 0 -20 20v111q0 20 20 20h185v90q0 142 97 239t253 97q70 0 115.5 -13t95.5 -44q16 -11 16 -35v-109q0 -13 -6 -18.5t-23 2.5q-61 39 -101.5 52.5t-96.5 13.5q-85 0 -138 -57.5t-53 -153.5z" />
    <glyph glyph-name="uni018E" unicode="&#x18e;" horiz-adv-x="1052" 
d="M725 164v508h-516q-21 0 -21 20v123q0 21 21 21h516v434h-580q-20 0 -20 20v123q0 21 20 21h732q20 0 20 -21v-1393q0 -20 -20 -20h-746q-20 0 -20 20v123q0 21 20 21h594z" />
    <glyph glyph-name="uni018F" unicode="&#x18f;" horiz-adv-x="1132" 
d="M106 563h771q-13 152 -93.5 243t-224.5 91q-110 0 -176.5 -45t-103.5 -143q-7 -19 -29 -19h-133q-15 0 -15 15q0 11 4 20q112 324 453 324q155 0 267.5 -71.5t167.5 -191t55 -272.5q0 -229 -136 -381.5t-354 -152.5q-113 0 -204.5 43t-149.5 116.5t-88.5 169.5t-30.5 205
v29q0 20 20 20zM559 131q117 0 200.5 75.5t108.5 205.5h-610q25 -127 107.5 -204t193.5 -77z" />
    <glyph glyph-name="florin" unicode="&#x192;" horiz-adv-x="872" 
d="M197 -117l133 994h-160q-18 0 -18 20v111q0 20 22 20h176l19 131q19 137 102 216t215 79q99 0 168 -29q10 -4 13 -10.5t3 -23.5v-107q0 -20 -14 -20q-4 0 -16 4q-46 21 -75 28t-75 7q-142 0 -164 -158l-16 -117h297q20 0 20 -20v-111q0 -20 -20 -20h-318l-135 -1008
q-21 -148 -86 -221.5t-190 -73.5q-117 0 -189 35q-11 6 -13.5 12t-2.5 23v106q0 21 14 21q5 0 17 -4q78 -41 149 -41q69 0 100.5 32.5t43.5 124.5z" />
    <glyph glyph-name="uni01B5" unicode="&#x1b5;" horiz-adv-x="1071" 
d="M100 1290v123q0 21 21 21h813q20 0 20 -21v-123q0 -17 -12 -35l-291 -469h262q21 0 21 -20v-111q0 -20 -21 -20h-354l-291 -471h701q20 0 20 -21v-123q0 -20 -20 -20h-875q-20 0 -20 20v123q0 17 12 35l283 457h-234q-20 0 -20 20v111q0 20 20 20h328l299 484h-641
q-21 0 -21 20z" />
    <glyph glyph-name="uni01B6" unicode="&#x1b6;" horiz-adv-x="909" 
d="M82 897v111q0 20 20 20h682q21 0 21 -20v-111q0 -15 -17 -43l-184 -238h144q20 0 20 -20v-107q0 -20 -20 -20h-252l-246 -317h573q21 0 21 -21v-111q0 -20 -21 -20h-747q-21 0 -21 20v111q0 14 13 31l237 307h-160q-20 0 -20 20v107q0 20 20 20h269l202 261h-514
q-20 0 -20 20z" />
    <glyph glyph-name="Aringacute" unicode="&#x1fa;" horiz-adv-x="1118" 
d="M381 1516q0 75 50 123.5t128 48.5t128 -48.5t50 -123.5q0 -86 -63 -136l424 -1347q2 -4 2 -13q0 -20 -23 -20h-135q-11 0 -15 4t-9 16l-117 396h-484l-116 -396q-5 -12 -9.5 -16t-15.5 -4h-135q-23 0 -23 20q0 9 2 13l424 1347q-63 45 -63 136zM559 1214l-192 -634h385z
M418 1765l141 258q12 21 31 21h184q10 0 13 -7t-3 -14l-209 -260q-13 -18 -36 -18h-111q-10 0 -12.5 6.5t2.5 13.5zM479 1516q0 -38 22 -60t58 -22t58 22t22 60t-22 59.5t-58 21.5t-58 -21.5t-22 -59.5z" />
    <glyph glyph-name="aringacute" unicode="&#x1fb;" horiz-adv-x="1056" 
d="M266 723h-131q-14 0 -14 12q0 13 2 21q30 123 135 208t266 85q178 0 293 -98.5t115 -254.5v-499q0 -70 7 -105.5t28 -71.5q11 -20 -15 -20h-159q-21 0 -21 20v107q-108 -147 -313 -147q-73 0 -139 20t-119.5 58.5t-85 102t-31.5 144.5q0 110 57.5 188.5t151 116
t211.5 37.5q137 0 268 -43v51q0 242 -248 242q-167 0 -229 -156q-7 -18 -29 -18zM772 453q-117 43 -266 43q-112 0 -183 -49t-71 -142q0 -80 58 -127t165 -47q122 0 209.5 87.5t87.5 234.5zM346 1303q0 75 50 123.5t128 48.5t128 -48.5t50 -123.5t-50 -124t-128 -49t-128 49
t-50 124zM444 1303q0 -38 22 -60t58 -22t58 22t22 60t-22 59.5t-58 21.5t-58 -21.5t-22 -59.5zM379 1585l141 258q12 21 31 21h184q10 0 13 -7t-3 -14l-208 -260q-13 -18 -37 -18h-111q-10 0 -12.5 6.5t2.5 13.5z" />
    <glyph glyph-name="AEacute" unicode="&#x1fc;" horiz-adv-x="1443" 
d="M739 672v-508h574q20 0 20 -21v-123q0 -20 -20 -20h-725q-21 0 -21 20v396h-256l-106 -396q-5 -12 -9.5 -16t-15.5 -4h-139q-23 0 -23 20q0 9 2 13l396 1380q1 2 2.5 6t2 5.5t2 4t3.5 3.5t4.5 1.5t5.5 0.5h862q21 0 21 -21v-123q0 -20 -21 -20h-559v-434h496q20 0 20 -21
v-123q0 -20 -20 -20h-496zM543 1270l-189 -690h213v690h-24zM696 1561l142 258q11 20 30 20h185q10 0 13 -6.5t-3 -13.5l-209 -260q-14 -19 -37 -19h-110q-10 0 -13 7t2 14z" />
    <glyph glyph-name="aeacute" unicode="&#x1fd;" horiz-adv-x="1820" 
d="M793 1155l141 258q12 21 31 21h184q10 0 13 -7t-3 -14l-209 -260q-13 -18 -37 -18h-110q-10 0 -12.5 6.5t2.5 13.5zM1714 465h-770q13 -152 93.5 -243t224.5 -91q110 0 176.5 45t103.5 143q7 19 29 19h133q14 0 14 -14q0 -12 -4 -21q-111 -323 -452 -323q-293 0 -422 225
q-69 -123 -165 -174t-216 -51q-73 0 -139 20t-119.5 58.5t-85 102t-31.5 144.5q0 110 57.5 188.5t151 116t211.5 37.5q137 0 268 -43v51q0 242 -248 242q-167 0 -229 -156q-7 -18 -29 -18h-131q-14 0 -14 12q0 13 2 21q30 123 135 208t266 85q122 0 216.5 -48t144.5 -133
q141 181 377 181q113 0 204.5 -43t149.5 -117t88.5 -170t30.5 -205v-29q0 -20 -21 -20zM772 453q-117 43 -266 43q-112 0 -183 -49t-71 -142q0 -80 58 -127t165 -47q122 0 209.5 87.5t87.5 234.5zM1262 897q-118 0 -201.5 -75.5t-108.5 -205.5h611q-25 127 -107.5 204
t-193.5 77z" />
    <glyph glyph-name="Scommaaccent" unicode="&#x218;" horiz-adv-x="1114" 
d="M100 1059q0 182 128.5 288.5t316.5 106.5q209 0 334 -112t125 -279q0 -21 -21 -21h-131q-21 0 -21 21q0 94 -82.5 160.5t-203.5 66.5q-119 0 -196 -60.5t-77 -158.5q0 -28 6.5 -52.5t15 -43t27.5 -36.5t33.5 -30t43.5 -25.5t47 -21t55 -18.5t56.5 -16.5t61.5 -16.5
q84 -24 142.5 -45.5t116 -53.5t91.5 -70t55 -91.5t21 -120.5q0 -113 -39 -201t-106.5 -141.5t-152.5 -80.5t-183 -27q-220 0 -358.5 121.5t-138.5 322.5q0 20 20 20h131q21 0 21 -20q0 -115 86.5 -198t238.5 -83q156 0 232.5 70.5t76.5 202.5q0 52 -24 91.5t-72.5 68.5
t-102 48t-132.5 40q-89 24 -150.5 46t-120.5 54.5t-93.5 72t-55.5 95.5t-21 127zM479 -406q58 0 74 19.5t16 77.5v14h-90q-20 0 -20 21v168q0 20 20 20h168q21 0 21 -20v-201q0 -89 -37 -137t-109 -48h-43q-20 0 -20 21v45q0 20 20 20z" />
    <glyph glyph-name="scommaaccent" unicode="&#x219;" horiz-adv-x="954" 
d="M872 301q0 -148 -114.5 -234.5t-284.5 -86.5q-177 0 -288 93.5t-111 239.5q0 21 20 21h131q18 0 21 -21q12 -90 72 -136t161 -46q92 0 159 39.5t67 110.5q0 35 -15.5 62t-37.5 43t-64.5 29.5t-76 20.5t-93.5 17q-171 29 -245.5 99t-74.5 204q0 94 54 162.5t133.5 99.5
t171.5 31q171 0 276 -82t105 -213q0 -21 -21 -21h-115q-3 0 -5.5 0.5t-4.5 1.5t-3.5 3.5t-2 4t-2 5.5t-2.5 6q-34 143 -223 143q-85 0 -143 -36.5t-58 -104.5q0 -63 55 -106t203 -66q65 -11 113 -23.5t96.5 -34.5t78.5 -51t49 -73t19 -101zM393 -406q58 0 74 19.5t16 77.5
v14h-90q-20 0 -20 21v168q0 20 20 20h168q21 0 21 -20v-201q0 -89 -37 -137t-109 -48h-43q-20 0 -20 21v45q0 20 20 20z" />
    <glyph glyph-name="uni021A" unicode="&#x21a;" horiz-adv-x="1015" 
d="M43 1290v123q0 21 20 21h889q21 0 21 -21v-123q0 -20 -21 -20h-358v-1250q0 -20 -21 -20h-131q-20 0 -20 20v1250h-359q-20 0 -20 20zM422 -406q58 0 74 19.5t16 77.5v14h-90q-21 0 -21 21v168q0 20 21 20h168q20 0 20 -20v-201q0 -89 -36.5 -137t-108.5 -48h-43
q-21 0 -21 21v45q0 20 21 20z" />
    <glyph glyph-name="uni021B" unicode="&#x21b;" horiz-adv-x="1011" 
d="M57 1028h185v295q0 20 20 20h119q20 0 20 -20v-295h392q20 0 20 -20v-111q0 -20 -20 -20h-392v-480q0 -132 52.5 -199t148.5 -67t141.5 51t59.5 160q2 18 22 18h119q12 0 15.5 -2.5t3.5 -15.5q0 -152 -95 -257t-266 -105q-175 0 -267.5 104t-92.5 311v482h-185
q-20 0 -20 20v111q0 20 20 20zM520 -406q58 0 74 19.5t16 77.5v14h-90q-20 0 -20 21v168q0 20 20 20h168q21 0 21 -20v-201q0 -89 -37 -137t-109 -48h-43q-20 0 -20 21v45q0 20 20 20z" />
    <glyph glyph-name="circumflex" unicode="&#x2c6;" horiz-adv-x="765" 
d="M463 1417l207 -262q6 -7 2.5 -13.5t-13.5 -6.5h-114q-19 0 -37 18l-125 129l-125 -129q-18 -18 -37 -18h-115q-10 0 -13 6.5t3 13.5l207 262q17 17 31 17h98q14 0 31 -17z" />
    <glyph glyph-name="caron" unicode="&#x2c7;" horiz-adv-x="765" 
d="M670 1413l-207 -262q-16 -16 -31 -16h-98q-15 0 -31 16l-207 262q-6 7 -3 14t13 7h115q18 0 37 -19l125 -129l125 129q19 19 37 19h114q10 0 13.5 -7t-2.5 -14z" />
    <glyph glyph-name="breve" unicode="&#x2d8;" horiz-adv-x="675" 
d="M104 1403h99q20 0 20 -21q0 -46 30.5 -76t84.5 -30t84.5 30t30.5 76q0 21 20 21h98q21 0 21 -21q0 -109 -70.5 -175t-183.5 -66t-183.5 66t-70.5 175q0 21 20 21z" />
    <glyph glyph-name="dotaccent" unicode="&#x2d9;" horiz-adv-x="413" 
d="M98 1217v176q0 20 21 20h176q20 0 20 -20v-176q0 -21 -20 -21h-176q-21 0 -21 21z" />
    <glyph glyph-name="ring" unicode="&#x2da;" horiz-adv-x="520" 
d="M82 1303q0 75 50 123.5t128 48.5t128 -48.5t50 -123.5t-50 -124t-128 -49t-128 49t-50 124zM180 1303q0 -38 22 -60t58 -22t58 22t22 60t-22 59.5t-58 21.5t-58 -21.5t-22 -59.5z" />
    <glyph glyph-name="ogonek" unicode="&#x2db;" horiz-adv-x="368" 
d="M250 31l78 -17l2 -2q4 -4 4 -6q0 -4 -4 -4l-2 -2q-56 -13 -89.5 -51.5t-33.5 -83.5q0 -113 114 -113h25q21 0 21 -20v-70q0 -20 -21 -20h-59q-102 0 -168 47t-66 139q0 68 47.5 123t108.5 78q4 1 9 2l7.5 1.5t3.5 0.5q9 0 23 -2z" />
    <glyph glyph-name="tilde" unicode="&#x2dc;" horiz-adv-x="856" 
d="M92 1356q105 78 207 78q44 0 76.5 -8.5t51.5 -21t36 -25t40.5 -21t53.5 -8.5q27 0 52.5 11t70.5 40q12 4 14 4q13 0 23 -16l53 -80q0 -1 3 -7t3 -10q0 -11 -12 -20q-105 -78 -207 -78q-44 0 -76.5 8.5t-51.5 21t-36 25t-40.5 21t-53.5 8.5q-27 0 -52.5 -11t-70.5 -40
q-12 -4 -14 -4q-13 0 -23 16l-53 80q0 1 -3 7t-3 9q0 12 12 21z" />
    <glyph glyph-name="hungarumlaut" unicode="&#x2dd;" horiz-adv-x="909" 
d="M96 1155l142 258q12 21 30 21h185q10 0 13 -7t-3 -14l-209 -260q-13 -18 -37 -18h-111q-10 0 -12.5 6.5t2.5 13.5zM444 1155l142 258q12 21 30 21h185q10 0 13 -7t-3 -14l-209 -260q-13 -18 -37 -18h-110q-10 0 -13 6.5t2 13.5z" />
    <glyph glyph-name="uni03A9" unicode="&#x3a9;" horiz-adv-x="1470" 
d="M735 1290q-212 0 -332 -121.5t-120 -332.5q0 -196 83 -349.5t236 -293.5q16 -16 16 -41v-132q0 -20 -20 -20h-426q-20 0 -20 20v123q0 21 20 21h264q-62 53 -115.5 118t-103 149t-78 189t-28.5 216q0 279 172.5 448.5t451.5 169.5t452 -169.5t173 -448.5
q0 -111 -28.5 -216t-78 -189t-103.5 -148.5t-116 -118.5h264q21 0 21 -21v-123q0 -20 -21 -20h-426q-20 0 -20 20v132q0 25 16 41q154 141 237 294t83 349q0 212 -119.5 333t-333.5 121z" />
    <glyph glyph-name="pi" unicode="&#x3c0;" horiz-adv-x="1214" 
d="M1096 881h-185v-617q0 -62 23 -87t82 -25h20q21 0 21 -21v-111q0 -20 -21 -20h-75q-209 0 -209 203v678h-306v-861q0 -20 -20 -20h-119q-20 0 -20 20v861h-195q-20 0 -20 20v107q0 20 20 20h1004q20 0 20 -20v-107q0 -20 -20 -20z" />
    <glyph glyph-name="endash" unicode="&#x2013;" horiz-adv-x="1105" 
d="M139 780h828q20 0 20 -20v-119q0 -20 -20 -20h-828q-20 0 -20 20v119q0 20 20 20z" />
    <glyph glyph-name="emdash" unicode="&#x2014;" horiz-adv-x="1335" 
d="M139 780h1057q21 0 21 -20v-119q0 -20 -21 -20h-1057q-20 0 -20 20v119q0 20 20 20z" />
    <glyph glyph-name="quoteleft" unicode="&#x2018;" horiz-adv-x="423" 
d="M309 1348q-63 0 -83.5 -26.5t-20.5 -90.5v-35h90q20 0 20 -20v-168q0 -21 -20 -21h-168q-21 0 -21 21v237q0 86 49 137.5t124 51.5h30q21 0 21 -21v-45q0 -20 -21 -20z" />
    <glyph glyph-name="quoteright" unicode="&#x2019;" horiz-adv-x="423" 
d="M115 1073q63 0 83.5 26.5t20.5 90.5v35h-90q-20 0 -20 20v168q0 21 20 21h168q20 0 20 -21v-237q0 -86 -48.5 -137.5t-123.5 -51.5h-30q-21 0 -21 21v45q0 20 21 20z" />
    <glyph glyph-name="quotesinglbase" unicode="&#x201a;" horiz-adv-x="423" 
d="M115 -152q63 0 83.5 26.5t20.5 90.5v35h-90q-20 0 -20 20v168q0 21 20 21h168q20 0 20 -21v-237q0 -86 -48.5 -137.5t-123.5 -51.5h-30q-21 0 -21 21v45q0 20 21 20z" />
    <glyph glyph-name="quotedblleft" unicode="&#x201c;" horiz-adv-x="763" 
d="M649 1348q-63 0 -83.5 -26.5t-20.5 -90.5v-35h90q20 0 20 -20v-168q0 -21 -20 -21h-168q-21 0 -21 21v237q0 86 48.5 137.5t123.5 51.5h31q21 0 21 -21v-45q0 -20 -21 -20zM309 1348q-63 0 -83.5 -26.5t-20.5 -90.5v-35h90q20 0 20 -20v-168q0 -21 -20 -21h-168
q-21 0 -21 21v237q0 86 49 137.5t124 51.5h30q21 0 21 -21v-45q0 -20 -21 -20z" />
    <glyph glyph-name="quotedblright" unicode="&#x201d;" horiz-adv-x="763" 
d="M115 1073q63 0 83.5 26.5t20.5 90.5v35h-90q-20 0 -20 20v168q0 21 20 21h168q20 0 20 -21v-237q0 -86 -48.5 -137.5t-123.5 -51.5h-30q-21 0 -21 21v45q0 20 21 20zM455 1073q63 0 83.5 26.5t20.5 90.5v35h-90q-20 0 -20 20v168q0 21 20 21h168q20 0 20 -21v-237
q0 -86 -48.5 -137.5t-123.5 -51.5h-30q-21 0 -21 21v45q0 20 21 20z" />
    <glyph glyph-name="quotedblbase" unicode="&#x201e;" horiz-adv-x="763" 
d="M115 -152q63 0 83.5 26.5t20.5 90.5v35h-90q-20 0 -20 20v168q0 21 20 21h168q20 0 20 -21v-237q0 -86 -48.5 -137.5t-123.5 -51.5h-30q-21 0 -21 21v45q0 20 21 20zM455 -152q63 0 83.5 26.5t20.5 90.5v35h-90q-20 0 -20 20v168q0 21 20 21h168q20 0 20 -21v-237
q0 -86 -48.5 -137.5t-123.5 -51.5h-30q-21 0 -21 21v45q0 20 21 20z" />
    <glyph glyph-name="dagger" unicode="&#x2020;" horiz-adv-x="876" 
d="M74 1028h278v385q0 21 21 21h131q20 0 20 -21v-385h279q20 0 20 -20v-119q0 -21 -20 -21h-279v-1253q0 -21 -20 -21h-131q-21 0 -21 21v1253h-278q-21 0 -21 21v119q0 20 21 20z" />
    <glyph glyph-name="daggerdbl" unicode="&#x2021;" horiz-adv-x="876" 
d="M74 1028h278v385q0 21 21 21h131q20 0 20 -21v-385h279q20 0 20 -20v-119q0 -21 -20 -21h-279v-708h279q20 0 20 -21v-119q0 -20 -20 -20h-279v-385q0 -21 -20 -21h-131q-21 0 -21 21v385h-278q-21 0 -21 20v119q0 21 21 21h278v708h-278q-21 0 -21 21v119q0 20 21 20z
" />
    <glyph glyph-name="bullet" unicode="&#x2022;" horiz-adv-x="729" 
d="M152 668q0 88 62.5 150.5t150.5 62.5t150.5 -62.5t62.5 -150.5t-62.5 -150.5t-150.5 -62.5t-150.5 62.5t-62.5 150.5z" />
    <glyph glyph-name="ellipsis" unicode="&#x2026;" horiz-adv-x="1378" 
d="M158 209h168q20 0 20 -21v-168q0 -20 -20 -20h-168q-21 0 -21 20v168q0 21 21 21zM602 209h168q21 0 21 -21v-168q0 -20 -21 -20h-168q-20 0 -20 20v168q0 21 20 21zM1047 209h167q21 0 21 -21v-168q0 -20 -21 -20h-167q-21 0 -21 20v168q0 21 21 21z" />
    <glyph glyph-name="perthousand" unicode="&#x2030;" horiz-adv-x="1560" 
d="M1485 307q0 -98 -42.5 -169.5t-105.5 -104.5t-135 -33q-136 0 -217 100q-81 -100 -217 -100q-72 0 -135 33t-105.5 104.5t-42.5 169.5t42.5 169.5t105.5 104.5t135 33q62 0 119.5 -26t97.5 -76q83 102 217 102q72 0 135 -33t105.5 -104.5t42.5 -169.5zM641 1126
q0 -98 -42.5 -169.5t-105.5 -104.5t-135 -33t-135 33t-105 104.5t-42 169.5q0 145 84.5 226.5t197.5 81.5t198 -81.5t85 -226.5zM106 475l879 580q8 4 12 4q5 0 15 -10l41 -60q6 -9 6 -14q0 -8 -12 -17l-879 -579q-8 -4 -12 -4q-5 0 -15 10l-41 59q-6 9 -6 15q0 7 12 16z
M510 1126q0 90 -46.5 137.5t-105.5 47.5t-105 -47t-46 -138q0 -90 46 -137t105 -47t105.5 47t46.5 137zM1051 307q0 -90 46 -137t105 -47t105.5 47t46.5 137t-46.5 137.5t-105.5 47.5q-57 0 -104 -47.5t-47 -137.5zM768 123q58 0 105 47t47 137t-47 137.5t-105 47.5
q-59 0 -105.5 -47.5t-46.5 -137.5t46.5 -137t105.5 -47z" />
    <glyph glyph-name="guilsinglleft" unicode="&#x2039;" horiz-adv-x="618" 
d="M528 260v-172q0 -14 -12 -14q-6 0 -12 6l-418 387q-20 17 -20 37v114q0 20 20 37l418 387q7 7 12 7q12 0 12 -15v-172q0 -22 -14 -33l-289 -268l289 -268q14 -11 14 -33z" />
    <glyph glyph-name="guilsinglright" unicode="&#x203a;" horiz-adv-x="618" 
d="M90 88v172q0 22 14 33l289 268l-289 268q-14 11 -14 33v172q0 15 12 15q6 0 13 -7l417 -387q21 -18 21 -37v-114q0 -19 -21 -37l-417 -387q-6 -6 -13 -6q-12 0 -12 14z" />
    <glyph glyph-name="fraction" unicode="&#x2044;" horiz-adv-x="1071" 
d="M31 76l927 1347q7 11 15 11q3 0 14 -7l60 -41q10 -10 10 -16q0 -4 -4 -12l-928 -1348q-7 -10 -14 -10q-6 0 -15 6l-59 41q-10 10 -10 16q0 5 4 13z" />
    <glyph glyph-name="zerosuperior" unicode="&#x2070;" horiz-adv-x="741" 
d="M78 1051q0 185 83 290t210 105t210 -105t83 -290t-83 -290.5t-210 -105.5t-210 105.5t-83 290.5zM197 1051q0 -167 57 -236l141 520h-24q-174 0 -174 -284zM545 1051q0 165 -58 235l-141 -520h25q174 0 174 285z" />
    <glyph glyph-name="foursuperior" unicode="&#x2074;" horiz-adv-x="628" 
d="M373 688v125h-316q-20 0 -20 21v57q0 13 8 24l332 504q9 15 22 15h68q20 0 20 -21v-489h76q21 0 21 -21v-69q0 -21 -21 -21h-76v-125q0 -20 -20 -20h-74q-20 0 -20 20zM373 1202l-180 -278h180v278z" />
    <glyph glyph-name="fivesuperior" unicode="&#x2075;" horiz-adv-x="655" 
d="M84 1034l53 383q3 17 21 17h370q21 0 21 -21v-70q0 -20 -21 -20h-292l-31 -195q60 48 149 48q112 0 176 -68t64 -195q0 -122 -75.5 -190t-186.5 -68q-106 0 -177 63t-71 161q0 20 20 20h80q18 0 21 -20q16 -113 127 -113q68 0 105.5 39t37.5 106q0 69 -35.5 110.5
t-101.5 41.5q-70 0 -127 -57q-10 -10 -25 -7l-92 19q-10 3 -10 16z" />
    <glyph glyph-name="sixsuperior" unicode="&#x2076;" horiz-adv-x="653" 
d="M70 1016q0 213 73.5 321.5t196.5 108.5q89 0 147 -52.5t72 -140.5q0 -10 -12 -10h-92q-8 0 -11 10q-34 82 -110 82q-122 0 -133 -235q55 61 149 61q108 0 176 -68.5t68 -183.5t-73.5 -184.5t-180.5 -69.5q-53 0 -99 18.5t-85.5 58t-62.5 112.5t-23 172zM207 909
q0 -67 35 -105t100 -38t100 38t35 105q0 65 -35 103.5t-100 38.5t-100 -38.5t-35 -103.5z" />
    <glyph glyph-name="sevensuperior" unicode="&#x2077;" horiz-adv-x="536" 
d="M29 1343v70q0 21 20 21h430q21 0 21 -21v-33q0 -16 -8 -32l-259 -662q-6 -18 -24 -18h-82q-16 0 -16 12q0 2 4 14l243 629h-309q-20 0 -20 20z" />
    <glyph glyph-name="eightsuperior" unicode="&#x2078;" horiz-adv-x="671" 
d="M104 1243q0 93 68 148t164 55q95 0 163 -55t68 -148q0 -113 -90 -170q115 -61 115 -188q0 -103 -73 -166.5t-183 -63.5t-183 63.5t-73 166.5q0 127 115 188q-91 58 -91 170zM199 885q0 -55 37.5 -87t99.5 -32t99.5 32t37.5 87q0 54 -38 88.5t-99 34.5t-99 -34.5
t-38 -88.5zM213 1233q0 -50 34.5 -82.5t88.5 -32.5t88.5 32.5t34.5 82.5q0 51 -37.5 80.5t-85.5 29.5t-85.5 -29.5t-37.5 -80.5z" />
    <glyph glyph-name="ninesuperior" unicode="&#x2079;" horiz-adv-x="653" 
d="M584 1085q0 -213 -74 -321.5t-197 -108.5q-89 0 -147 52.5t-72 140.5q0 10 12 10h93q7 0 10 -10q34 -82 110 -82q123 0 134 235q-55 -61 -150 -61q-108 0 -176 68.5t-68 183.5t73.5 184.5t180.5 69.5q53 0 99 -18.5t86 -58t63 -112.5t23 -172zM446 1192q0 67 -35 105
t-100 38t-100 -38t-35 -105q0 -64 35 -102.5t100 -38.5t100 38.5t35 102.5z" />
    <glyph glyph-name="zeroinferior" unicode="&#x2080;" horiz-adv-x="741" 
d="M78 -23q0 185 83 290.5t210 105.5t210 -105.5t83 -290.5t-83 -290t-210 -105t-210 105t-83 290zM197 -23q0 -166 57 -235l141 520h-24q-174 0 -174 -285zM545 -23q0 166 -58 236l-141 -520h25q174 0 174 284z" />
    <glyph glyph-name="oneinferior" unicode="&#x2081;" horiz-adv-x="614" 
d="M57 -385v70q0 20 21 20h172v500l-148 -80q-9 -6 -18 -6q-16 0 -16 16v96q0 13 14 21l184 100q13 8 31 8h47q21 0 21 -20v-635h172q20 0 20 -20v-70q0 -21 -20 -21h-459q-21 0 -21 21z" />
    <glyph glyph-name="twoinferior" unicode="&#x2082;" horiz-adv-x="675" 
d="M78 -385v61q0 20 12 29l295 275q42 38 60 70.5t18 80.5q0 56 -34.5 93.5t-92.5 37.5q-109 0 -127 -133q-3 -20 -21 -20h-79q-21 0 -21 20q0 103 68 173.5t180 70.5q113 0 179.5 -70.5t66.5 -169.5q0 -72 -25.5 -124.5t-85.5 -106.5l-221 -197h338q20 0 20 -20v-70
q0 -21 -20 -21h-490q-20 0 -20 21z" />
    <glyph glyph-name="threeinferior" unicode="&#x2083;" horiz-adv-x="681" 
d="M244 -39v70q0 20 20 20h41q129 0 129 119q0 45 -28 72.5t-80 27.5q-48 0 -75.5 -24.5t-37.5 -79.5q-3 -16 -20 -16h-76q-21 0 -21 18q5 91 68 148t162 57q102 0 162.5 -52t60.5 -139q0 -62 -21.5 -101t-66.5 -71q62 -29 91.5 -70.5t29.5 -121.5q0 -106 -68 -171t-184 -65
q-107 0 -181.5 62.5t-74.5 165.5q0 20 20 20h80q18 0 21 -20q19 -117 133 -117q61 0 98 33t37 92q0 60 -36.5 91.5t-104.5 31.5h-58q-20 0 -20 20z" />
    <glyph glyph-name="fourinferior" unicode="&#x2084;" horiz-adv-x="628" 
d="M373 -385v125h-316q-20 0 -20 20v58q0 13 8 24l332 504q8 14 22 14h68q20 0 20 -20v-490h76q21 0 21 -20v-70q0 -20 -21 -20h-76v-125q0 -21 -20 -21h-74q-20 0 -20 21zM373 129l-180 -279h180v279z" />
    <glyph glyph-name="fiveinferior" unicode="&#x2085;" horiz-adv-x="655" 
d="M84 -39l53 383q3 16 21 16h370q21 0 21 -20v-70q0 -20 -21 -20h-292l-31 -195q59 47 149 47q112 0 176 -67.5t64 -194.5q0 -122 -75.5 -190t-186.5 -68q-107 0 -177.5 62.5t-70.5 160.5q0 21 20 21h80q18 0 21 -21q16 -112 127 -112q68 0 105.5 39t37.5 106
q0 69 -35.5 110.5t-101.5 41.5q-69 0 -127 -58q-9 -9 -25 -6l-92 19q-10 3 -10 16z" />
    <glyph glyph-name="sixinferior" unicode="&#x2086;" horiz-adv-x="653" 
d="M70 -57q0 213 73.5 321.5t196.5 108.5q89 0 147 -52.5t72 -140.5q0 -10 -12 -10h-92q-8 0 -11 10q-34 82 -110 82q-122 0 -133 -235q55 61 149 61q108 0 176 -68.5t68 -183.5t-73.5 -184.5t-180.5 -69.5q-53 0 -99 18.5t-85.5 58t-62.5 112.5t-23 172zM207 -164
q0 -67 35 -105t100 -38t100 38t35 105q0 64 -35 102.5t-100 38.5t-100 -38.5t-35 -102.5z" />
    <glyph glyph-name="seveninferior" unicode="&#x2087;" horiz-adv-x="536" 
d="M29 270v70q0 20 20 20h430q21 0 21 -20v-33q0 -17 -8 -33l-259 -661q-6 -19 -24 -19h-82q-16 0 -16 13q0 2 4 14l243 629h-309q-20 0 -20 20z" />
    <glyph glyph-name="eightinferior" unicode="&#x2088;" horiz-adv-x="671" 
d="M104 170q0 93 68 148t164 55q95 0 163 -55t68 -148q0 -113 -90 -170q115 -61 115 -188q0 -103 -73 -166.5t-183 -63.5t-183 63.5t-73 166.5q0 127 115 188q-91 58 -91 170zM199 -188q0 -55 37.5 -87t99.5 -32t99.5 32t37.5 87q0 54 -38 88t-99 34t-99 -34t-38 -88z
M213 160q0 -50 34.5 -82.5t88.5 -32.5t88.5 32.5t34.5 82.5q0 51 -37.5 80.5t-85.5 29.5t-85.5 -29.5t-37.5 -80.5z" />
    <glyph glyph-name="nineinferior" unicode="&#x2089;" horiz-adv-x="653" 
d="M584 12q0 -213 -74 -321.5t-197 -108.5q-89 0 -147 52.5t-72 140.5q0 10 12 10h93q7 0 10 -10q34 -82 110 -82q123 0 134 235q-55 -61 -150 -61q-108 0 -176 68.5t-68 183.5t73.5 184.5t180.5 69.5q53 0 99 -18.5t86 -58t63 -112.5t23 -172zM446 119q0 67 -35 105
t-100 38t-100 -38t-35 -105q0 -65 35 -103.5t100 -38.5t100 38.5t35 103.5z" />
    <glyph glyph-name="Euro" unicode="&#x20ac;" horiz-adv-x="1304" 
d="M66 985h137q54 227 186 348t318 121q214 0 345 -142.5t152 -369.5q0 -20 -20 -20h-127q-18 0 -21 20q-24 184 -107.5 268t-221.5 84q-265 0 -336 -309h432q20 0 20 -20v-119q0 -21 -20 -21h-455q-2 -33 -2 -108q0 -76 2 -109h455q20 0 20 -20v-119q0 -20 -20 -20h-432
q72 -310 336 -310q283 0 329 353q3 20 21 20h127q20 0 20 -20q-21 -227 -152 -369.5t-345 -142.5q-186 0 -318 121t-186 348h-137q-21 0 -21 20v119q0 20 21 20h114q-6 52 -6 109q0 55 6 108h-114q-21 0 -21 21v119q0 20 21 20z" />
    <glyph glyph-name="uni2117" unicode="&#x2117;" horiz-adv-x="1179" 
d="M590 172q-95 0 -185 35.5t-162 101t-115.5 167.5t-43.5 224q0 98 28.5 184t77.5 148.5t113.5 107.5t138 67t148.5 22t148.5 -22t138 -67t113.5 -107.5t77.5 -148.5t28.5 -184q0 -122 -43.5 -224t-115.5 -167.5t-162 -101t-185 -35.5zM590 262q78 0 150 28t130.5 80.5
t93.5 138t35 191.5t-35 191.5t-93.5 138.5t-130.5 81t-150 28t-150 -28t-131 -81t-94 -138.5t-35 -191.5t35 -191.5t94 -138t131 -80.5t150 -28zM416 412v579q0 15 14 15h197q93 0 145.5 -46.5t52.5 -132.5q0 -85 -52.5 -131.5t-145.5 -46.5h-129v-237q0 -15 -15 -15h-53
q-14 0 -14 15zM498 928v-201h137q54 0 81 27.5t27 72.5t-27 73t-81 28h-137z" />
    <glyph glyph-name="trademark" unicode="&#x2122;" horiz-adv-x="1349" 
d="M43 1343v70q0 21 20 21h455q21 0 21 -21v-70q0 -20 -21 -20h-170v-635q0 -20 -20 -20h-74q-21 0 -21 20v635h-170q-20 0 -20 20zM1264 1413v-725q0 -20 -21 -20h-74q-20 0 -20 20v582l-160 -387q-7 -13 -16 -13h-62q-9 0 -16 13l-160 387v-582q0 -20 -20 -20h-74
q-20 0 -20 20v725q0 21 20 21h125q18 0 25 -17l151 -375l152 375q7 17 24 17h125q21 0 21 -21z" />
    <glyph glyph-name="Omega" unicode="&#x2126;" horiz-adv-x="1470" 
d="M735 1290q-212 0 -332 -121.5t-120 -332.5q0 -196 83 -349.5t236 -293.5q16 -16 16 -41v-132q0 -20 -20 -20h-426q-20 0 -20 20v123q0 21 20 21h264q-62 53 -115.5 118t-103 149t-78 189t-28.5 216q0 279 172.5 448.5t451.5 169.5t452 -169.5t173 -448.5
q0 -111 -28.5 -216t-78 -189t-103.5 -148.5t-116 -118.5h264q21 0 21 -21v-123q0 -20 -21 -20h-426q-20 0 -20 20v132q0 25 16 41q154 141 237 294t83 349q0 212 -119.5 333t-333.5 121z" />
    <glyph glyph-name="onethird" unicode="&#x2153;" horiz-adv-x="1599" 
d="M88 688v70q0 20 21 20h172v500l-148 -80q-9 -6 -18 -6q-17 0 -17 16v97q0 11 15 20l184 100q15 9 31 9h47q20 0 20 -21v-635h172q21 0 21 -20v-70q0 -20 -21 -20h-458q-21 0 -21 20zM336 76l928 1347q7 11 14 11q4 0 14 -7l60 -41q10 -10 10 -16q0 -4 -4 -12l-928 -1348
q-7 -10 -14 -10q-6 0 -15 6l-59 41q-10 10 -10 16q0 5 4 13zM1180 367v69q0 21 20 21h41q129 0 129 118q0 45 -28 73t-80 28q-48 0 -75.5 -25t-37.5 -80q-3 -16 -21 -16h-75q-21 0 -21 18q5 91 68 148t162 57q102 0 162.5 -51.5t60.5 -138.5q0 -62 -21.5 -101t-66.5 -71
q62 -29 91.5 -71t29.5 -122q0 -105 -68 -170t-184 -65q-107 0 -181.5 62.5t-74.5 164.5q0 21 20 21h80q17 0 20 -21q20 -117 134 -117q61 0 98 33t37 92q0 60 -37 91.5t-105 31.5h-57q-20 0 -20 21z" />
    <glyph glyph-name="twothirds" unicode="&#x2154;" horiz-adv-x="1619" 
d="M356 76l928 1347q7 11 14 11q4 0 15 -7l59 -41q10 -10 10 -16q0 -4 -4 -12l-927 -1348q-7 -10 -15 -10q-5 0 -14 6l-60 41q-10 10 -10 16q0 5 4 13zM1200 367v69q0 21 21 21h41q129 0 129 118q0 45 -28.5 73t-80.5 28q-48 0 -75.5 -25t-37.5 -80q-3 -16 -20 -16h-76
q-20 0 -20 18q5 91 67.5 148t161.5 57q102 0 162.5 -51.5t60.5 -138.5q0 -62 -21.5 -101t-66.5 -71q62 -29 91.5 -71t29.5 -122q0 -105 -68 -170t-184 -65q-107 0 -181.5 62.5t-74.5 164.5q0 21 21 21h79q18 0 21 -21q19 -117 133 -117q61 0 98 33t37 92q0 60 -36.5 91.5
t-104.5 31.5h-57q-21 0 -21 21zM80 688v62q0 19 12 28l295 275q42 38 60 70.5t18 80.5q0 56 -34.5 93.5t-92.5 37.5q-109 0 -127 -133q-3 -20 -21 -20h-79q-21 0 -21 20q0 103 68 173.5t180 70.5q113 0 179.5 -70.5t66.5 -169.5q0 -72 -25.5 -124.5t-85.5 -106.5l-221 -197
h338q20 0 20 -20v-70q0 -20 -20 -20h-490q-20 0 -20 20z" />
    <glyph glyph-name="oneeighth" unicode="&#x215b;" horiz-adv-x="1603" 
d="M88 688v70q0 20 21 20h172v500l-148 -80q-9 -6 -18 -6q-17 0 -17 16v97q0 11 15 20l184 100q15 9 31 9h47q20 0 20 -21v-635h172q21 0 21 -20v-70q0 -20 -21 -20h-458q-21 0 -21 20zM336 76l928 1347q7 11 14 11q4 0 14 -7l60 -41q10 -10 10 -16q0 -4 -4 -12l-928 -1348
q-7 -10 -14 -10q-6 0 -15 6l-59 41q-10 10 -10 16q0 5 4 13zM1036 575q0 93 68 148t164 55q95 0 163 -55t68 -148q0 -112 -90 -169q115 -61 115 -189q0 -103 -72.5 -166t-183.5 -63t-183.5 63t-72.5 166q0 129 114 189q-90 57 -90 169zM1130 217q0 -55 38 -87t100 -32
t99.5 32t37.5 87q0 54 -38 88.5t-99 34.5t-99.5 -34.5t-38.5 -88.5zM1145 565q0 -50 34.5 -82t88.5 -32t88.5 32t34.5 82q0 51 -37.5 81t-85.5 30t-85.5 -30t-37.5 -81z" />
    <glyph glyph-name="threeeighths" unicode="&#x215c;" horiz-adv-x="1591" 
d="M324 76l927 1347q7 11 15 11q4 0 14 -7l59 -41q11 -11 11 -16q0 -4 -4 -12l-928 -1348q-7 -10 -15 -10q-5 0 -14 6l-59 41q-11 11 -11 16q0 3 5 13zM1024 575q0 93 68 148t163 55q96 0 164 -55t68 -148q0 -112 -90 -169q114 -60 114 -189q0 -103 -72.5 -166t-183.5 -63
t-183.5 63t-72.5 166q0 128 115 189q-90 57 -90 169zM1118 217q0 -55 37.5 -87t99.5 -32t100 32t38 87q0 54 -38.5 88.5t-99.5 34.5t-99 -34.5t-38 -88.5zM1133 565q0 -50 34 -82t88 -32t88.5 32t34.5 82q0 51 -37.5 81t-85.5 30t-85 -30t-37 -81zM262 1034v70q0 20 21 20
h41q129 0 129 119q0 44 -28.5 72t-80.5 28q-48 0 -75.5 -24.5t-37.5 -79.5q-3 -16 -20 -16h-76q-20 0 -20 18q5 91 67.5 148t161.5 57q102 0 162.5 -52t60.5 -139q0 -62 -21.5 -101t-66.5 -71q62 -29 91.5 -70.5t29.5 -121.5q0 -106 -68 -171t-184 -65q-107 0 -181.5 62.5
t-74.5 165.5q0 20 21 20h80q17 0 20 -20q19 -117 133 -117q61 0 98 33t37 92q0 60 -36.5 91.5t-104.5 31.5h-57q-21 0 -21 20z" />
    <glyph glyph-name="fiveeighths" unicode="&#x215d;" horiz-adv-x="1601" 
d="M334 76l928 1347q7 11 14 11q4 0 14 -7l60 -41q10 -10 10 -16q0 -4 -4 -12l-928 -1348q-7 -10 -14 -10q-6 0 -15 6l-59 41q-10 10 -10 16q0 5 4 13zM1034 575q0 93 68 148t164 55q95 0 163 -55t68 -148q0 -112 -90 -169q115 -61 115 -189q0 -103 -72.5 -166t-183.5 -63
t-183.5 63t-72.5 166q0 129 114 189q-90 57 -90 169zM1128 217q0 -55 38 -87t100 -32t99.5 32t37.5 87q0 54 -38 88.5t-99 34.5t-99.5 -34.5t-38.5 -88.5zM1143 565q0 -50 34.5 -82t88.5 -32t88.5 32t34.5 82q0 51 -37.5 81t-85.5 30t-85.5 -30t-37.5 -81zM106 1034l54 383
q3 17 20 17h371q20 0 20 -21v-70q0 -20 -20 -20h-293l-31 -195q60 48 150 48q112 0 175.5 -68t63.5 -195q0 -122 -75.5 -190t-186.5 -68q-106 0 -177 63t-71 161q0 20 21 20h80q17 0 20 -20q16 -113 127 -113q68 0 106 39t38 106q0 69 -36 110.5t-102 41.5q-70 0 -127 -57
q-10 -10 -24 -7l-92 19q-11 4 -11 16z" />
    <glyph glyph-name="seveneighths" unicode="&#x215e;" horiz-adv-x="1396" 
d="M129 76l928 1347q7 11 14 11q3 0 14 -7l60 -41q10 -10 10 -16q0 -4 -4 -12l-928 -1348q-7 -10 -14 -10q-5 0 -14 6l-60 41q-10 10 -10 16q0 5 4 13zM829 575q0 93 68 148t164 55q95 0 163 -55t68 -148q0 -112 -90 -169q115 -61 115 -189q0 -103 -72.5 -166t-183.5 -63
t-183.5 63t-72.5 166q0 128 115 189q-91 58 -91 169zM924 217q0 -55 37.5 -87t99.5 -32t99.5 32t37.5 87q0 54 -38 88.5t-99 34.5t-99 -34.5t-38 -88.5zM938 565q0 -50 34.5 -82t88.5 -32t88.5 32t34.5 82q0 51 -37.5 81t-85.5 30t-85.5 -30t-37.5 -81zM100 1343v70
q0 21 21 21h430q20 0 20 -21v-33q0 -16 -8 -32l-258 -662q-6 -18 -24 -18h-82q-17 0 -17 12q0 2 4 14l244 629h-309q-21 0 -21 20z" />
    <glyph glyph-name="partialdiff" unicode="&#x2202;" horiz-adv-x="1110" 
d="M838 928q-52 196 -182.5 277t-356.5 81q-16 0 -16 29v104q0 15 28 15q370 0 542.5 -203.5t172.5 -609.5q0 -322 -126.5 -481.5t-344.5 -159.5q-201 0 -336 147.5t-135 386.5q0 241 127 388t324 147q101 0 172.5 -28t130.5 -93zM252 514q0 -173 77.5 -278t225.5 -105
q150 0 226.5 103t76.5 280q0 173 -77.5 278t-225.5 105t-225.5 -105t-77.5 -278z" />
    <glyph glyph-name="Delta" unicode="&#x2206;" 
d="M725 1413l426 -1237q8 -23 8 -53v-103q0 -20 -20 -20h-1045q-20 0 -20 20v103q0 30 8 53l426 1237q9 21 27 21h163q21 0 27 -21zM979 164l-363 1073l-362 -1073h725z" />
    <glyph glyph-name="product" unicode="&#x220f;" horiz-adv-x="1228" 
d="M328 1270v-1655q0 -21 -21 -21h-131q-20 0 -20 21v1798q0 21 20 21h877q20 0 20 -21v-1798q0 -21 -20 -21h-131q-21 0 -21 21v1655h-573z" />
    <glyph glyph-name="summation" unicode="&#x2211;" horiz-adv-x="1167" 
d="M78 -385v131q0 19 16 41l453 682q18 24 18 45t-18 45l-453 682q-16 19 -16 41v131q0 21 20 21h965q20 0 20 -21v-123q0 -20 -20 -20h-780l452 -690q21 -37 21 -66q0 -28 -21 -65l-452 -691h813q20 0 20 -20v-123q0 -21 -20 -21h-998q-20 0 -20 21z" />
    <glyph glyph-name="minus" unicode="&#x2212;" horiz-adv-x="1105" 
d="M139 780h828q20 0 20 -20v-119q0 -20 -20 -20h-828q-20 0 -20 20v119q0 20 20 20z" />
    <glyph glyph-name="radical" unicode="&#x221a;" horiz-adv-x="1089" 
d="M219 659h-147q-21 0 -21 21v111q0 20 21 20h256q22 0 28 -20l187 -574l366 1196q6 21 29 21h135q14 0 14 -11q0 -6 -2 -10l-436 -1393q-9 -20 -28 -20h-154q-19 0 -25 20z" />
    <glyph glyph-name="infinity" unicode="&#x221e;" horiz-adv-x="1597" 
d="M82 653q0 163 88.5 264t241.5 101q71 0 131 -21.5t107 -63t80.5 -85.5t68.5 -103q35 59 68.5 103t80.5 85.5t107 63t131 21.5q153 0 241.5 -101t88.5 -264t-88.5 -263.5t-241.5 -100.5q-71 0 -131 21.5t-107 62.5t-80.5 85t-68.5 103q-35 -59 -68.5 -103t-80.5 -85
t-107 -62.5t-131 -21.5q-153 0 -241.5 100.5t-88.5 263.5zM854 653q71 -138 148 -201t184 -63q113 0 168 69t55 195q0 127 -55 196t-168 69q-107 0 -184 -63.5t-148 -201.5zM188 653q0 -126 55.5 -195t168.5 -69q107 0 183.5 63t147.5 201q-71 138 -147.5 201.5t-183.5 63.5
q-113 0 -168.5 -69.5t-55.5 -195.5z" />
    <glyph glyph-name="integral" unicode="&#x222b;" horiz-adv-x="872" 
d="M197 -117l172 1276q19 137 102 216t215 79q99 0 168 -29q10 -4 13 -10.5t3 -23.5v-107q0 -20 -14 -20l-16 4q-46 21 -75 28t-75 7q-144 0 -164 -158l-172 -1276q-21 -148 -86 -221.5t-190 -73.5q-117 0 -189 35q-11 6 -13.5 12t-2.5 23v106q0 21 14 21q5 0 17 -4
q78 -41 149 -41q69 0 100.5 32.5t43.5 124.5z" />
    <glyph glyph-name="approxequal" unicode="&#x2248;" horiz-adv-x="1028" 
d="M100 889q45 33 113 53.5t121 20.5q67 0 133.5 -21t124 -42t102.5 -21t77.5 11.5t76.5 39.5q12 4 14 4q11 0 21 -16l61 -103q2 -2 2 -8q0 -15 -18 -27q-45 -33 -113 -53t-121 -20q-67 0 -133.5 21t-124 42t-102.5 21t-77 -11.5t-77 -40.5q-12 -4 -14 -4q-11 0 -21 17
l-61 102q-2 2 -2 8q0 15 18 27zM100 500q45 33 113 53t121 20q67 0 133.5 -21t124 -42t102.5 -21t77 11.5t77 40.5q12 4 14 4q11 0 21 -17l61 -102q2 -2 2 -8q0 -15 -18 -27q-45 -33 -113 -53.5t-121 -20.5q-67 0 -133.5 21t-124 42t-102.5 21t-77.5 -11.5t-76.5 -39.5
q-12 -4 -14 -4q-11 0 -21 16l-61 103q-2 2 -2 8q0 15 18 27z" />
    <glyph glyph-name="notequal" unicode="&#x2260;" horiz-adv-x="1105" 
d="M139 985h488l141 248q3 10 14 10q3 0 15 -4l102 -59q12 -6 12 -15l-4 -12l-96 -168h156q20 0 20 -20v-119q0 -21 -20 -21h-248l-148 -256h396q20 0 20 -20v-119q0 -20 -20 -20h-488l-141 -248q-7 -10 -14 -10q-3 0 -15 4l-102 59q-12 6 -12 14q0 1 4 13l96 168h-156
q-20 0 -20 20v119q0 20 20 20h248l148 256h-396q-20 0 -20 21v119q0 20 20 20z" />
    <glyph glyph-name="lessequal" unicode="&#x2264;" horiz-adv-x="1105" 
d="M139 160h828q20 0 20 -21v-119q0 -20 -20 -20h-828q-20 0 -20 20v119q0 21 20 21zM926 440v-147q0 -14 -11 -14q-8 0 -10 2l-710 370q-21 9 -21 27v151q0 18 21 27l710 371q2 2 10 2q11 0 11 -15v-147q0 -20 -21 -29l-571 -284l571 -285q21 -9 21 -29z" />
    <glyph glyph-name="greaterequal" unicode="&#x2265;" horiz-adv-x="1105" 
d="M139 160h828q20 0 20 -21v-119q0 -20 -20 -20h-828q-20 0 -20 20v119q0 21 20 21zM180 293v147q0 20 21 29l571 285l-571 284q-21 9 -21 29v147q0 15 10 15q9 0 11 -2l710 -371q21 -9 21 -27v-151q0 -18 -21 -27l-710 -370q-2 -2 -11 -2q-10 0 -10 14z" />
    <glyph glyph-name="lozenge" unicode="&#x25ca;" horiz-adv-x="1015" 
d="M618 1413l353 -676q6 -12 6 -20q0 -9 -6 -21l-353 -676q-9 -20 -28 -20h-162q-20 0 -29 20l-354 676q-6 12 -6 21q0 8 6 20l354 676q9 21 29 21h162q19 0 28 -21zM508 1286l-299 -569l299 -570l299 570z" />
    <glyph glyph-name="apple" unicode="&#xf8ff;" horiz-adv-x="1523" 
d="M1368 1264v-1219q0 -18 -12.5 -31.5t-32.5 -13.5q-8 0 -14 2l-547 158l-547 -158q-6 -2 -14 -2q-20 0 -32.5 13.5t-12.5 31.5v1219q0 37 32 45l553 159q20 5 21 5l20 -5l553 -159q33 -9 33 -45zM717 750v620l-471 -137q12 -190 146 -328t325 -155zM807 1370v-620
q191 17 325 155t146 328zM244 948v-844l473 138v417q-151 12 -275 88.5t-198 200.5zM1280 104v844q-76 -125 -199 -201t-274 -88v-417z" />
    <glyph glyph-name="fi" unicode="&#xfb01;" horiz-adv-x="1632" 
d="M739 877h-344v-857q0 -20 -20 -20h-119q-20 0 -20 20v857h-185q-20 0 -20 20v111q0 20 20 20h185v90q0 88 32.5 162.5t103.5 124t169 49.5q131 0 223 -57q16 -11 16 -35v-109q0 -20 -14 -20q-6 0 -14 4q-59 37 -103 51.5t-96 14.5q-74 0 -116 -49.5t-42 -135.5v-90h344
q21 0 21 -20v-111q0 -20 -21 -20zM874 901v107q0 20 21 20h360q21 0 21 -20v-856h283q20 0 20 -21v-111q0 -20 -20 -20h-715q-21 0 -21 20v111q0 21 21 21h272v729h-221q-21 0 -21 20zM1075 1217v176q0 20 21 20h176q20 0 20 -20v-176q0 -21 -20 -21h-176q-21 0 -21 21z" />
    <glyph glyph-name="fl" unicode="&#xfb02;" horiz-adv-x="1677" 
d="M739 877h-344v-857q0 -20 -20 -20h-119q-20 0 -20 20v857h-185q-20 0 -20 20v111q0 20 20 20h185v90q0 88 32.5 162.5t103.5 124t169 49.5q131 0 223 -57q16 -11 16 -35v-109q0 -20 -14 -20q-6 0 -14 4q-59 37 -103 51.5t-96 14.5q-74 0 -116 -49.5t-42 -135.5v-90h344
q21 0 21 -20v-111q0 -20 -21 -20zM868 1303v110q0 21 21 21h395q21 0 21 -21v-1261h299q20 0 20 -21v-111q0 -20 -20 -20h-756q-21 0 -21 20v111q0 21 21 21h297v1130h-256q-21 0 -21 21z" />
    <glyph glyph-name="sterling.tosn" 
d="M367 395q0 4 -1 12.5t-1 12.5q-3 6 -3 12h-135q-20 0 -20 21v106q0 21 20 21h84q-26 61 -26 120q0 163 100 256t256 93q163 0 256 -85t104 -235q0 -20 -20 -20h-119q-17 0 -20 20q-11 77 -61.5 122.5t-139.5 45.5q-95 0 -143.5 -53.5t-48.5 -143.5q0 -70 26 -120h340
q21 0 21 -21v-106q0 -21 -21 -21h-289v-22q0 -87 -31 -146.5t-92 -111.5h594q21 0 21 -21v-111q0 -20 -21 -20h-751q-21 0 -21 20v97q0 24 17 41q70 67 97.5 118.5t27.5 118.5z" />
    <glyph glyph-name="dollar.tosn" 
d="M1034 301q0 -127 -90 -212t-229 -103v-170q0 -21 -21 -21h-119q-20 0 -20 21v170q-147 20 -233 108.5t-86 218.5q0 21 20 21h131q18 0 21 -21q18 -137 147 -172v316q-159 31 -227 100t-68 199q0 123 84.5 196t210.5 92v164q0 21 20 21h119q21 0 21 -21v-168
q132 -23 208 -99t76 -187q0 -21 -20 -21h-115q-3 0 -5.5 0.5t-4.5 1.5t-3.5 3.5t-2 4t-2 5.5t-2.5 6q-28 104 -129 131v-307q73 -13 126.5 -32t99.5 -50.5t69.5 -80.5t23.5 -114zM866 281q0 59 -38.5 91.5t-112.5 53.5v-289q67 15 109 51t42 93zM420 756q0 -48 30 -83.5
t105 -60.5v281q-63 -13 -99 -47.5t-36 -89.5z" />
    <glyph glyph-name="yen.tosn" 
d="M270 625h185l-203 383q-4 10 0.5 15t11.5 5h150q16 0 22 -16l180 -365l181 365q6 16 22 16h150q8 0 12.5 -5.5t-0.5 -14.5l-205 -383h187q20 0 20 -21v-110q0 -21 -20 -21h-267v-145h226q20 0 20 -21v-110q0 -21 -20 -21h-226v-156q0 -20 -20 -20h-119q-20 0 -20 20v156
h-226q-20 0 -20 21v110q0 21 20 21h226v145h-267q-20 0 -20 21v110q0 21 20 21z" />
    <glyph glyph-name="cent.tosn" 
d="M561 -182v170q-187 29 -293 174t-106 352q0 208 105.5 351.5t293.5 176.5v168q0 21 21 21h131q20 0 20 -21v-168q288 -37 363 -335q2 -8 2 -21q0 -12 -15 -12h-125q-21 0 -28 18q-23 74 -74.5 125t-122.5 70v-748q71 18 122 70t75 127q7 18 28 18h125q15 0 15 -12t-2 -20
q-75 -298 -363 -338v-166q0 -21 -20 -21h-131q-21 0 -21 21zM330 514q0 -140 62.5 -239.5t168.5 -131.5v744q-106 -32 -168.5 -133t-62.5 -240z" />
    <glyph glyph-name="multiply.tosn" 
d="M965 752l-236 -236l236 -235q8 -8 8 -15q0 -6 -8 -14l-84 -84q-8 -8 -15 -8q-6 0 -14 8l-236 235l-235 -235q-8 -8 -14 -8q-7 0 -15 8l-84 84q-8 8 -8 14q0 7 8 15l236 235l-236 236q-8 8 -8 14t8 14l84 84q8 8 15 8q6 0 14 -8l235 -235l236 235q8 8 14 8q7 0 15 -8
l84 -84q8 -8 8 -14t-8 -14z" />
    <glyph glyph-name="plus.tosn" 
d="M696 930v-334h334q21 0 21 -21v-118q0 -21 -21 -21h-334v-334q0 -20 -20 -20h-119q-20 0 -20 20v334h-334q-21 0 -21 21v118q0 21 21 21h334v334q0 20 20 20h119q20 0 20 -20z" />
    <glyph glyph-name="minus.tosn" 
d="M203 596h827q21 0 21 -21v-118q0 -21 -21 -21h-827q-21 0 -21 21v118q0 21 21 21z" />
    <glyph glyph-name="divide.tosn" 
d="M530 209h168q21 0 21 -21v-168q0 -20 -21 -20h-168q-20 0 -20 20v168q0 21 20 21zM530 877h168q21 0 21 -21v-168q0 -20 -21 -20h-168q-20 0 -20 20v168q0 21 20 21zM203 512h827q21 0 21 -20v-119q0 -21 -21 -21h-827q-21 0 -21 21v119q0 20 21 20z" />
    <glyph glyph-name="Euro.tosn" 
d="M145 453h99q-2 18 -2 61q0 38 2 61h-99q-20 0 -20 21v111q0 20 20 20h127q49 151 160.5 236.5t247.5 85.5q176 0 274.5 -93t126.5 -256q0 -20 -20 -20h-117q-3 0 -5 0.5t-4 1.5l-3 1.5t-2 2.5t-1.5 3.5t-2 5t-2.5 5.5q-49 197 -244 197q-93 0 -154.5 -46.5t-89.5 -123.5
h236q20 0 20 -20v-111q0 -21 -20 -21h-269q-2 -23 -2 -61q0 -43 2 -61h269q20 0 20 -21v-110q0 -21 -20 -21h-236q28 -77 89.5 -123.5t154.5 -46.5q200 0 244 197q1 2 2.5 6t2 5.5t2 3.5t3 3t4.5 1.5t6 0.5h117q20 0 20 -20q-28 -163 -126.5 -255.5t-274.5 -92.5
q-137 0 -248 85t-160 236h-127q-20 0 -20 21v110q0 21 20 21z" />
    <glyph glyph-name="equal.tosn" 
d="M203 784h827q21 0 21 -20v-119q0 -20 -21 -20h-827q-21 0 -21 20v119q0 20 21 20zM203 369h827q21 0 21 -21v-119q0 -20 -21 -20h-827q-21 0 -21 20v119q0 21 21 21z" />
    <glyph glyph-name="zero.tosn" 
d="M86 514q0 157 72 280.5t192.5 189t265.5 65.5q108 0 205 -39t169 -107.5t114.5 -169.5t42.5 -219q0 -157 -72.5 -280t-193 -188.5t-265.5 -65.5q-146 0 -266 65.5t-192 188.5t-72 280zM254 514q0 -181 117 -289l360 656q-59 16 -115 16q-160 0 -261 -108t-101 -275z
M979 514q0 181 -117 289l-360 -656q40 -16 114 -16q160 0 261.5 108t101.5 275z" />
    <glyph glyph-name="one.tosn" 
d="M221 20v111q0 21 21 21h309v657l-285 -152q-12 -6 -22 -6q-15 0 -15 19v133q0 18 23 31l338 184q17 10 31 10h69q21 0 21 -20v-856h309q20 0 20 -21v-111q0 -20 -20 -20h-778q-21 0 -21 20z" />
    <glyph glyph-name="two.tosn" 
d="M254 20v86q0 29 22 48l414 352q64 54 95.5 103.5t31.5 117.5q0 77 -48 123.5t-138 46.5q-89 0 -141 -53t-58 -133q-1 -18 -6.5 -24.5t-19.5 -6.5h-109q-25 0 -25 31q3 105 54 183t130 116.5t175 38.5q156 0 251 -87.5t95 -211.5q0 -104 -38 -178.5t-112 -139.5l-327 -280
h491q21 0 21 -21v-111q0 -20 -21 -20h-717q-20 0 -20 20z" />
    <glyph glyph-name="three.tosn" 
d="M496 371v110q0 21 20 21h84q109 0 172.5 51.5t63.5 157.5q0 89 -58 137.5t-153 48.5t-156 -53t-68 -150q-1 -16 -6 -19t-18 -3h-107q-24 0 -24 30q4 159 112.5 253t274.5 94q159 0 260.5 -90t101.5 -230q0 -109 -47 -175.5t-127 -109.5q70 -26 116 -65t74.5 -109
t28.5 -168q0 -167 -114 -276t-293 -109q-108 0 -200.5 45.5t-152.5 134.5t-65 205q0 31 25 31h108q13 0 19.5 -4t7.5 -20q12 -114 83.5 -177t174.5 -63q244 0 244 237q0 110 -70.5 177t-177.5 67h-113q-20 6 -20 21z" />
    <glyph glyph-name="four.tosn" 
d="M717 -262v262h-524q-21 0 -21 20v60q0 25 16 47l564 885q10 16 26 16h78q21 0 21 -20v-856h172q20 0 20 -21v-111q0 -20 -20 -20h-172v-262q0 -21 -23 -21h-117q-20 0 -20 21zM717 686l-344 -534h344v534z" />
    <glyph glyph-name="five.tosn" 
d="M219 322l80 686q3 20 20 20h635q21 0 21 -20v-111q0 -20 -21 -20h-520l-43 -379q47 47 123 72.5t145 25.5q180 0 294 -110t114 -316q0 -202 -118 -327.5t-310 -125.5q-115 0 -214 46t-160.5 134.5t-61.5 200.5q0 31 24 31h113q25 0 27 -31q10 -112 85.5 -170.5
t186.5 -58.5q124 0 196 80.5t72 216.5q0 134 -76 206t-192 72q-163 0 -252 -125q-15 -18 -35 -18h-112q-21 0 -21 21z" />
    <glyph glyph-name="six.tosn" 
d="M197 578q0 360 112.5 546.5t329.5 186.5q154 0 258 -93t121 -253q0 -21 -23 -21h-108q-17 0 -23 21q-27 101 -81 147.5t-150 46.5q-122 0 -190 -99t-81 -319q51 61 132.5 90t164.5 29q81 0 152 -29t125.5 -83t85.5 -139.5t31 -190.5q0 -200 -122 -319t-300 -119
q-77 0 -140.5 19t-119 63.5t-93.5 112.5t-59.5 170t-21.5 233zM369 418q0 -125 71.5 -206t186.5 -81t186.5 81t71.5 206t-71.5 208t-186.5 83t-186.5 -83t-71.5 -208z" />
    <glyph glyph-name="seven.tosn" 
d="M215 897v111q0 20 21 20h716q21 0 21 -20v-70q0 -13 -10 -43l-447 -1163q-3 -15 -22 -15h-119q-21 0 -21 17q0 8 2 10l437 1133h-557q-21 0 -21 20z" />
    <glyph glyph-name="eight.tosn" 
d="M252 963q0 108 53 189t134.5 120t176.5 39t177 -39t135 -120t53 -189q0 -88 -40 -159t-105 -116q186 -102 186 -323q0 -119 -55.5 -208t-146.5 -133t-204 -44t-204 44t-146 133t-55 208q0 221 186 323q-65 45 -105 116t-40 159zM379 365q0 -113 66.5 -173.5t170.5 -60.5
q105 0 171.5 60.5t66.5 173.5t-66.5 173t-171.5 60t-171 -60t-66 -173zM412 954q0 -100 56.5 -152t147.5 -52t148 52t57 152t-60 152.5t-145 52.5t-144.5 -52.5t-59.5 -152.5z" />
    <glyph glyph-name="nine.tosn" 
d="M1036 451q0 -361 -112.5 -547.5t-329.5 -186.5q-154 0 -258 93t-121 253q0 21 23 21h108q17 0 23 -21q27 -101 81 -147.5t150 -46.5q121 0 187 98.5t83 319.5q-51 -61 -132.5 -90t-164.5 -29q-81 0 -152 29t-125 83t-85 139.5t-31 190.5q0 101 33.5 184.5t91.5 139
t134.5 85.5t162.5 30q77 0 140.5 -19t119 -63.5t93.5 -112.5t59.5 -170t21.5 -233zM864 610q0 125 -71 206t-187 81t-187 -81t-71 -206t71.5 -208t186.5 -83t186.5 83t71.5 208z" />
    <glyph glyph-name="sterling.posn" horiz-adv-x="991" 
d="M248 395q0 4 -1 12.5t-1 12.5q-2 4 -2 12h-135q-21 0 -21 21v106q0 21 21 21h84q-27 64 -27 120q0 163 100 256t256 93q163 0 256.5 -85t104.5 -235q0 -20 -21 -20h-119q-17 0 -20 20q-11 77 -61.5 122.5t-139.5 45.5q-95 0 -143.5 -53.5t-48.5 -143.5q0 -70 26 -120h340
q21 0 21 -21v-106q0 -21 -21 -21h-288v-22q0 -87 -31 -146.5t-92 -111.5h594q20 0 20 -21v-111q0 -20 -20 -20h-752q-21 0 -21 20v97q0 24 17 41q70 67 97.5 118.5t27.5 118.5z" />
    <glyph glyph-name="dollar.posn" horiz-adv-x="954" 
d="M872 301q0 -127 -90 -212t-229 -103v-170q0 -21 -21 -21h-118q-21 0 -21 21v170q-147 20 -233 108.5t-86 218.5q0 21 20 21h131q18 0 21 -21q18 -137 147 -172v316q-159 31 -227 100t-68 199q0 123 84.5 196t210.5 92v164q0 21 21 21h118q21 0 21 -21v-168
q132 -24 208.5 -99.5t76.5 -186.5q0 -21 -21 -21h-115q-3 0 -5.5 0.5t-4.5 1.5t-3.5 3.5t-2 4t-2 5.5t-2.5 6q-28 104 -129 131v-307q73 -13 126.5 -32t99.5 -50.5t69.5 -80.5t23.5 -114zM705 281q0 59 -38.5 91.5t-113.5 53.5v-289q67 15 109.5 51t42.5 93zM258 756
q0 -48 30 -83.5t105 -60.5v281q-63 -13 -99 -47.5t-36 -89.5z" />
    <glyph glyph-name="yen.posn" horiz-adv-x="907" 
d="M106 625h185l-203 383q-4 10 0.5 15t11.5 5h150q16 0 22 -16l181 -365l180 365q6 16 22 16h150q8 0 12.5 -5.5t-0.5 -14.5l-205 -383h187q20 0 20 -21v-110q0 -21 -20 -21h-267v-145h226q20 0 20 -21v-110q0 -21 -20 -21h-226v-156q0 -20 -20 -20h-119q-20 0 -20 20v156
h-226q-20 0 -20 21v110q0 21 20 21h226v145h-267q-20 0 -20 21v110q0 21 20 21z" />
    <glyph glyph-name="cent.posn" horiz-adv-x="1101" 
d="M483 -182v170q-187 29 -293 174t-106 352q0 208 105.5 351.5t293.5 176.5v168q0 21 21 21h131q20 0 20 -21v-168q288 -37 363 -335q2 -8 2 -21q0 -12 -14 -12h-125q-22 0 -29 18q-23 74 -74.5 125t-122.5 70v-748q71 18 122 70t75 127q7 18 29 18h125q14 0 14 -12t-2 -20
q-75 -298 -363 -338v-166q0 -21 -20 -21h-131q-21 0 -21 21zM252 514q0 -140 62.5 -239.5t168.5 -131.5v744q-106 -32 -168.5 -133t-62.5 -240z" />
    <glyph glyph-name="multiply.posn" horiz-adv-x="966" 
d="M831 752l-235 -236l235 -235q9 -9 9 -15q0 -5 -9 -14l-83 -84q-8 -8 -15 -8q-6 0 -14 8l-236 235l-235 -235q-8 -8 -15 -8q-6 0 -14 8l-84 84q-8 8 -8 14q0 7 8 15l236 235l-236 236q-8 8 -8 14t8 14l84 84q8 8 14 8q7 0 15 -8l235 -235l236 235q8 8 14 8q7 0 15 -8
l83 -84q9 -9 9 -14t-9 -14z" />
    <glyph glyph-name="plus.posn" horiz-adv-x="1105" 
d="M633 930v-334h334q20 0 20 -21v-118q0 -21 -20 -21h-334v-334q0 -20 -21 -20h-118q-21 0 -21 20v334h-334q-20 0 -20 21v118q0 21 20 21h334v334q0 20 21 20h118q21 0 21 -20z" />
    <glyph glyph-name="minus.posn" horiz-adv-x="1105" 
d="M139 596h828q20 0 20 -21v-118q0 -21 -20 -21h-828q-20 0 -20 21v118q0 21 20 21z" />
    <glyph glyph-name="divide.posn" horiz-adv-x="1105" 
d="M467 209h168q20 0 20 -21v-168q0 -20 -20 -20h-168q-21 0 -21 20v168q0 21 21 21zM467 877h168q20 0 20 -21v-168q0 -20 -20 -20h-168q-21 0 -21 20v168q0 21 21 21zM139 512h828q20 0 20 -20v-119q0 -21 -20 -21h-828q-20 0 -20 21v119q0 20 20 20z" />
    <glyph glyph-name="Euro.posn" horiz-adv-x="1079" 
d="M63 453h99q-2 18 -2 61q0 38 2 61h-99q-20 0 -20 21v111q0 20 20 20h127q49 151 160.5 236.5t247.5 85.5q176 0 274.5 -93t126.5 -256q0 -20 -20 -20h-117q-3 0 -5 0.5t-4 1.5l-3 1.5t-2 2.5t-1.5 3.5t-2 5t-2.5 5.5q-49 197 -244 197q-93 0 -154.5 -46.5t-89.5 -123.5
h236q20 0 20 -20v-111q0 -21 -20 -21h-268q-3 -35 -3 -61q0 -34 3 -61h268q20 0 20 -21v-110q0 -21 -20 -21h-236q28 -77 89.5 -123.5t154.5 -46.5q200 0 244 197q1 2 2.5 6t2 5.5t2 3.5t3 3t4.5 1.5t6 0.5h117q20 0 20 -20q-28 -163 -126.5 -255.5t-274.5 -92.5
q-137 0 -248 85t-160 236h-127q-20 0 -20 21v110q0 21 20 21z" />
    <glyph glyph-name="equal.posn" horiz-adv-x="1105" 
d="M139 784h828q20 0 20 -20v-119q0 -20 -20 -20h-828q-20 0 -20 20v119q0 20 20 20zM139 369h828q20 0 20 -21v-119q0 -20 -20 -20h-828q-20 0 -20 20v119q0 21 20 21z" />
    <glyph glyph-name="zero.posn" horiz-adv-x="1241" 
d="M90 514q0 118 42 219t114 169.5t169 107.5t206 39q145 0 265 -65.5t192.5 -189t72.5 -280.5t-72.5 -280t-192.5 -188.5t-265 -65.5q-146 0 -266.5 65.5t-192.5 188.5t-72 280zM258 514q0 -181 117 -289l360 656q-59 16 -114 16q-160 0 -261.5 -108t-101.5 -275zM983 514
q0 181 -117 289l-360 -656q40 -16 115 -16q160 0 261 108t101 275z" />
    <glyph glyph-name="one.posn" horiz-adv-x="995" 
d="M98 20v111q0 21 21 21h297v657l-269 -143q-14 -7 -22 -7q-14 0 -14 19v133q0 18 22 31l322 176q17 10 30 10h70q20 0 20 -20v-856h297q21 0 21 -21v-111q0 -20 -21 -20h-753q-21 0 -21 20z" />
    <glyph glyph-name="two.posn" horiz-adv-x="897" 
d="M76 20v86q0 29 22 48l414 352q64 54 95.5 103.5t31.5 117.5q0 77 -48 123.5t-138 46.5q-89 0 -141 -53t-58 -133q-1 -18 -7 -24.5t-20 -6.5h-108q-25 0 -25 31q3 105 54 183t130 116.5t175 38.5q156 0 251 -87.5t95 -211.5q0 -104 -38 -178.5t-112 -139.5l-327 -280h491
q21 0 21 -21v-111q0 -20 -21 -20h-717q-20 0 -20 20z" />
    <glyph glyph-name="three.posn" horiz-adv-x="968" 
d="M356 371v110q0 21 21 21h84q109 0 172 51.5t63 157.5q0 89 -58 137.5t-153 48.5t-155.5 -53t-67.5 -150q-1 -16 -6 -19t-18 -3h-107q-25 0 -25 30q4 158 113 252.5t275 94.5q159 0 260.5 -90t101.5 -230q0 -109 -47 -175.5t-127 -109.5q70 -26 116 -65t74.5 -109
t28.5 -168q0 -167 -114 -276t-293 -109q-108 0 -200.5 45.5t-152.5 134.5t-65 205q0 31 24 31h109q13 0 19.5 -4t7.5 -20q12 -114 83.5 -177t174.5 -63q243 0 243 237q0 110 -70.5 177t-177.5 67h-112q-21 6 -21 21z" />
    <glyph glyph-name="four.posn" horiz-adv-x="1005" 
d="M602 -262v262h-524q-21 0 -21 20v60q0 23 17 47l563 885q10 16 27 16h77q21 0 21 -20v-856h172q20 0 20 -21v-111q0 -20 -20 -20h-172v-262q0 -21 -23 -21h-116q-21 0 -21 21zM602 686l-344 -534h344v534z" />
    <glyph glyph-name="five.posn" horiz-adv-x="1013" 
d="M94 322l80 686q3 20 21 20h634q21 0 21 -20v-111q0 -20 -21 -20h-520l-43 -379q47 47 123.5 72.5t145.5 25.5q180 0 293.5 -110t113.5 -316q0 -202 -118 -327.5t-310 -125.5q-115 0 -214 46t-160.5 134.5t-61.5 200.5q0 31 24 31h113q25 0 27 -31q10 -112 85.5 -170.5
t186.5 -58.5q124 0 196 80.5t72 216.5q0 134 -76 206t-192 72q-163 0 -252 -125q-15 -18 -35 -18h-112q-21 0 -21 21z" />
    <glyph glyph-name="six.posn" horiz-adv-x="1036" 
d="M92 578q0 360 113 546.5t330 186.5q154 0 257.5 -93t120.5 -253q0 -21 -22 -21h-109q-16 0 -22 21q-27 101 -81.5 147.5t-150.5 46.5q-122 0 -189.5 -99t-80.5 -319q51 61 132.5 90t164.5 29q81 0 152 -29t125 -83t85 -139.5t31 -190.5q0 -200 -122 -319t-300 -119
q-77 0 -140.5 19t-119 63.5t-93.5 112.5t-59.5 170t-21.5 233zM264 418q0 -125 71 -206t187 -81t187 81t71 206t-71.5 208t-186.5 83t-186.5 -83t-71.5 -208z" />
    <glyph glyph-name="seven.posn" horiz-adv-x="878" 
d="M68 897v111q0 20 20 20h717q20 0 20 -20v-70q0 -13 -10 -43l-446 -1163q-3 -15 -23 -15h-119q-20 0 -20 17q0 8 2 10l436 1133h-557q-20 0 -20 20z" />
    <glyph glyph-name="eight.posn" horiz-adv-x="950" 
d="M111 963q0 108 53 189t134.5 120t176.5 39t177 -39t135 -120t53 -189q0 -88 -40 -158.5t-106 -116.5q85 -47 136 -127t51 -196q0 -119 -55.5 -208t-146.5 -133t-204 -44t-204 44t-146 133t-55 208q0 221 186 323q-65 45 -105 116t-40 159zM238 365q0 -113 66.5 -173.5
t170.5 -60.5q105 0 171.5 60.5t66.5 173.5t-66.5 173t-171.5 60t-171 -60t-66 -173zM270 954q0 -100 57 -152t148 -52t148 52t57 152t-60 152.5t-145 52.5t-145 -52.5t-60 -152.5z" />
    <glyph glyph-name="nine.posn" horiz-adv-x="1036" 
d="M944 451q0 -361 -112.5 -547.5t-329.5 -186.5q-154 0 -258 93t-121 253q0 21 22 21h109q16 0 22 -21q27 -101 81.5 -147.5t150.5 -46.5q121 0 187 98.5t83 319.5q-51 -61 -132.5 -90t-164.5 -29q-81 0 -152 29t-125 83t-85 139.5t-31 190.5q0 101 33.5 184.5t91.5 139
t134.5 85.5t162.5 30q77 0 140.5 -19t119 -63.5t93.5 -112.5t59.5 -170t21.5 -233zM772 610q0 125 -71 206t-187 81t-187 -81t-71 -206t71.5 -208t186.5 -83t186.5 83t71.5 208z" />
    <glyph glyph-name="ampersand.alt" horiz-adv-x="1216" 
d="M819 856v193q0 20 21 20h127q20 0 20 -20v-193h172q23 0 23 -22v-115q0 -16 -23 -23h-172v-245q0 -151 -62.5 -259t-165 -160t-233.5 -52q-206 0 -327 119.5t-121 306.5q0 151 62.5 240.5t172.5 146.5q-85 57 -131.5 129.5t-46.5 185.5q0 156 107.5 251t289.5 95h162
q21 0 21 -20v-119q0 -21 -21 -21h-162q-112 0 -174.5 -52t-62.5 -155q0 -117 73 -174t203 -57h248zM250 410q0 -131 75.5 -201t200.5 -70t209 82.5t84 229.5v245h-280q-122 0 -205.5 -79.5t-83.5 -206.5z" />
    <glyph glyph-name="braceleft.ss04" horiz-adv-x="698" 
d="M393 549v-150q0 -139 24.5 -187t112.5 -48h80q21 0 21 -21v-123q0 -20 -21 -20h-80q-160 0 -234.5 94t-74.5 305v117q0 119 -108 119h-47q-21 0 -21 20v123q0 21 21 21h47q108 0 108 119v116q0 211 74.5 305.5t234.5 94.5h80q21 0 21 -21v-123q0 -20 -21 -20h-80
q-88 0 -112.5 -48.5t-24.5 -187.5v-149q0 -65 -24.5 -107t-92.5 -61q68 -19 92.5 -61t24.5 -107z" />
    <glyph glyph-name="braceright.ss04" horiz-adv-x="698" 
d="M305 399v150q0 65 24.5 107t92.5 61q-68 19 -92.5 61t-24.5 107v149q0 139 -24.5 187.5t-112.5 48.5h-80q-20 0 -20 20v123q0 21 20 21h80q160 0 234.5 -94.5t74.5 -305.5v-116q0 -119 109 -119h47q20 0 20 -21v-123q0 -20 -20 -20h-47q-109 0 -109 -119v-117
q0 -211 -74.5 -305t-234.5 -94h-80q-20 0 -20 20v123q0 21 20 21h80q88 0 112.5 48t24.5 187z" />
    <glyph glyph-name="bracketleft.ss04" horiz-adv-x="647" 
d="M82 20v1393q0 21 20 21h457q21 0 21 -21v-123q0 -20 -21 -20h-305v-1106h305q21 0 21 -21v-123q0 -20 -21 -20h-457q-20 0 -20 20z" />
    <glyph glyph-name="bracketright.ss04" horiz-adv-x="647" 
d="M565 1413v-1393q0 -20 -20 -20h-457q-20 0 -20 20v123q0 21 20 21h305v1106h-305q-20 0 -20 20v123q0 21 20 21h457q20 0 20 -21z" />
    <glyph glyph-name="parenleft.ss04" horiz-adv-x="587" 
d="M250 743v-49q0 -58 4 -106t14.5 -90t21 -74t32.5 -66t38.5 -57t50 -55.5t57 -53.5t67.5 -59q8 -8 8 -14t-6 -15l-78 -102q-5 -8 -15 -8q-5 0 -14 6q-87 65 -147.5 124.5t-109 132t-72 157t-23.5 184.5v242q0 99 23.5 183t72 156.5t109 132t147.5 124.5q9 6 14 6
q10 0 15 -8l78 -103q6 -9 6 -14q0 -6 -8 -14q-45 -38 -67.5 -58.5t-56.5 -53.5t-50.5 -55.5t-38.5 -56.5t-32.5 -66t-21 -74t-14.5 -90t-4 -106z" />
    <glyph glyph-name="parenright.ss04" horiz-adv-x="587" 
d="M338 694v49q0 58 -4 106t-14.5 90t-21 74t-32.5 66t-38.5 56.5t-50.5 55.5t-56.5 53.5t-67.5 58.5q-8 8 -8 14q0 5 6 14l78 103q5 8 14 8q6 0 15 -6q87 -65 147.5 -124.5t109 -132t72 -156.5t23.5 -183v-242q0 -100 -23.5 -184.5t-72 -157t-109 -132t-147.5 -124.5
q-9 -6 -15 -6q-9 0 -14 8l-78 102q-6 9 -6 15t8 14q44 38 67.5 59t57 53.5t50 55.5t38.5 57t32.5 66t21 74t14.5 90t4 106z" />
    <glyph glyph-name="braceleft.case" horiz-adv-x="727" 
d="M406 551v-352q0 -139 24.5 -187.5t112.5 -48.5h80q20 0 20 -20v-123q0 -21 -20 -21h-80q-160 0 -235 94.5t-75 305.5v319q0 119 -108 119h-47q-21 0 -21 20v123q0 21 21 21h47q108 0 108 119v319q0 211 75 305t235 94h80q20 0 20 -20v-123q0 -20 -20 -20h-80
q-88 0 -112.5 -48.5t-24.5 -187.5v-352q0 -65 -24.5 -107t-92.5 -61q68 -19 92.5 -61t24.5 -107z" />
    <glyph glyph-name="braceright.case" horiz-adv-x="727" 
d="M322 199v352q0 65 24 107t92 61q-68 19 -92 61t-24 107v352q0 139 -25 187.5t-113 48.5h-80q-20 0 -20 20v123q0 20 20 20h80q160 0 235 -94t75 -305v-319q0 -119 108 -119h47q21 0 21 -21v-123q0 -20 -21 -20h-47q-108 0 -108 -119v-319q0 -211 -75 -305.5t-235 -94.5
h-80q-20 0 -20 21v123q0 20 20 20h80q88 0 113 48.5t25 187.5z" />
    <glyph glyph-name="bracketleft.case" horiz-adv-x="737" 
d="M156 -180v1798q0 20 20 20h457q20 0 20 -20v-123q0 -20 -20 -20h-305v-1512h305q20 0 20 -20v-123q0 -21 -20 -21h-457q-20 0 -20 21z" />
    <glyph glyph-name="bracketright.case" horiz-adv-x="737" 
d="M582 1618v-1798q0 -21 -21 -21h-457q-20 0 -20 21v123q0 20 20 20h306v1512h-306q-20 0 -20 20v123q0 20 20 20h457q21 0 21 -20z" />
    <glyph glyph-name="parenleft.case" horiz-adv-x="688" 
d="M332 860v-280q0 -100 3 -162t14.5 -123.5t28.5 -101t51 -87.5t76.5 -89t110.5 -99q9 -9 9 -14q0 -8 -7 -15l-92 -96q-8 -8 -14 -8q-8 0 -14 6q-89 74 -148.5 140t-97.5 127t-58 134.5t-27 146t-7 177.5v408q0 105 7 177.5t27 146t58 134.5t97.5 127t148.5 140q6 6 14 6
q6 0 14 -8l92 -97q7 -7 7 -14q0 -5 -9 -14q-68 -58 -110.5 -99t-76.5 -89t-51 -87.5t-28.5 -101t-14.5 -123.5t-3 -162z" />
    <glyph glyph-name="parenright.case" horiz-adv-x="688" 
d="M356 580v280q0 100 -3 162t-14.5 123.5t-28.5 101t-51 87.5t-76.5 89t-110.5 99q-9 9 -9 14q0 7 7 14l92 97q8 8 14 8q8 0 14 -6q89 -74 148.5 -140t97.5 -127t58 -134.5t27 -146t7 -177.5v-408q0 -105 -7 -177.5t-27 -146t-58 -134.5t-97.5 -127t-148.5 -140
q-6 -6 -14 -6q-6 0 -14 8l-92 96q-7 7 -7 15q0 5 9 14q68 58 110.5 99t76.5 89t51 87.5t28.5 101t14.5 123.5t3 162z" />
    <glyph glyph-name="bullet.case" horiz-adv-x="729" 
d="M152 717q0 88 62.5 150.5t150.5 62.5t150.5 -62.5t62.5 -150.5t-62.5 -150.5t-150.5 -62.5t-150.5 62.5t-62.5 150.5z" />
    <glyph glyph-name="exclamdown.case" horiz-adv-x="487" 
d="M334 1212h-180q-21 0 -21 21v180q0 21 21 21h180q20 0 20 -21v-180q0 -21 -20 -21zM309 0h-131q-20 0 -20 20v1014q0 21 20 21h131q21 0 21 -21v-1014q0 -20 -21 -20z" />
    <glyph glyph-name="questiondown.case" horiz-adv-x="931" 
d="M862 385q-6 -82 -33.5 -153t-76.5 -128.5t-127 -90.5t-176 -33q-187 0 -288.5 99.5t-101.5 274.5q0 58 17 109t44 89t60 73t66 68t60 67t44 76.5t17 89.5v108q0 21 20 21h131q21 0 21 -21v-94q0 -66 -17 -123.5t-44 -99t-60 -78t-66 -69t-60 -64.5t-44 -70.5t-17 -81.5
q0 -99 57 -155t161 -56q215 0 245 242q3 21 21 21h127q20 0 20 -21zM543 1212h-181q-20 0 -20 21v180q0 21 20 21h181q20 0 20 -21v-180q0 -21 -20 -21z" />
    <glyph glyph-name="at.case" horiz-adv-x="1363" 
d="M1249 1096v-793q0 -18 -18 -18h-107q-18 0 -18 18v80q-50 -58 -110 -86.5t-148 -28.5q-172 0 -276.5 123.5t-104.5 325.5t104.5 325t276.5 123q176 0 258 -110v41q0 144 -100 233.5t-275 89.5q-151 0 -263 -94t-168 -251.5t-56 -356.5q0 -148 35.5 -274.5t102 -220
t168.5 -146.5t228 -53q122 0 208 21t167 69q2 2 10 2t15 -11l49 -96q2 -2 2 -8q0 -13 -10 -16q-100 -55 -203 -78t-238 -23q-167 0 -298.5 62.5t-215.5 174.5t-128 263.5t-44 333.5q0 244 73.5 433t220 299t345.5 110q128 0 228 -35.5t162.5 -98.5t95 -146.5t32.5 -182.5z
M1118 717q0 148 -63 228.5t-185 80.5q-120 0 -186 -85.5t-66 -223.5q0 -137 66.5 -223t185.5 -86q122 0 185 80.5t63 228.5z" />
    <glyph glyph-name="at.altcase" horiz-adv-x="1636" 
d="M1403 760q0 112 -33.5 211.5t-99 180t-174.5 128t-248 47.5q-120 0 -229 -42.5t-193.5 -120t-135 -197t-50.5 -262.5q0 -292 170 -472t438 -180q229 0 387 90q2 2 10 2t15 -10l40 -88q3 -3 3 -8q0 -12 -11 -16q-176 -97 -444 -97q-161 0 -299 55t-238 155t-156.5 246.5
t-56.5 322.5q0 137 41 257.5t113 209.5t166.5 153t204.5 96.5t225 32.5q161 0 294 -57t218 -152.5t131.5 -216.5t46.5 -252q0 -245 -84 -363t-221 -118q-71 0 -126.5 36t-74.5 91q-57 -67 -124 -97t-158 -30q-142 0 -232 96.5t-90 270.5q0 85 28 165t77 142t124 99.5
t162 37.5q155 0 223 -105l9 74q3 17 16 17h90q17 0 17 -17l-48 -430q-4 -50 -4 -72q0 -89 30 -126t93 -37q67 0 112.5 90t45.5 260zM1026 733q0 124 -51 191t-148 67q-67 0 -119 -30.5t-81.5 -79.5t-44.5 -105t-15 -114q0 -124 49.5 -188t147.5 -64q67 0 119.5 29t82.5 77
t45 103t15 114z" />
    <glyph glyph-name="guilsinglleft.case" horiz-adv-x="618" 
d="M528 416v-172q0 -15 -12 -15q-5 0 -12 7l-418 387q-20 17 -20 36v115q0 20 20 37l418 387q6 6 12 6q12 0 12 -14v-172q0 -22 -14 -33l-289 -268l289 -268q14 -11 14 -33z" />
    <glyph glyph-name="guilsinglright.case" horiz-adv-x="618" 
d="M90 244v172q0 22 14 33l289 268l-289 268q-14 11 -14 33v172q0 14 12 14q7 0 13 -6l417 -387q21 -18 21 -37v-115q0 -18 -21 -36l-417 -387q-7 -7 -13 -7q-12 0 -12 15z" />
    <glyph glyph-name="guillemotleft.case" horiz-adv-x="1036" 
d="M528 416v-172q0 -15 -12 -15q-5 0 -12 7l-418 387q-20 17 -20 36v115q0 20 20 37l418 387q6 6 12 6q12 0 12 -14v-172q0 -22 -14 -33l-289 -268l289 -268q14 -11 14 -33zM946 416v-172q0 -15 -12 -15q-5 0 -12 7l-418 387q-21 18 -21 36v115q0 19 21 37l418 387q6 6 12 6
q12 0 12 -14v-172q0 -22 -14 -33l-289 -268l289 -268q14 -11 14 -33z" />
    <glyph glyph-name="guillemotright.case" horiz-adv-x="1036" 
d="M508 244v172q0 22 14 33l289 268l-289 268q-14 11 -14 33v172q0 14 12 14q6 0 12 -6l418 -387q21 -18 21 -37v-115q0 -18 -21 -36l-418 -387q-7 -7 -12 -7q-12 0 -12 15zM90 244v172q0 22 14 33l289 268l-289 268q-14 11 -14 33v172q0 14 12 14q7 0 13 -6l417 -387
q21 -18 21 -37v-115q0 -18 -21 -36l-417 -387q-7 -7 -13 -7q-12 0 -12 15z" />
    <glyph glyph-name="zero.tn" 
d="M96 717q0 346 142.5 541.5t377.5 195.5t378 -195.5t143 -541.5t-143 -541.5t-378 -195.5t-377.5 195.5t-142.5 541.5zM965 717q0 361 -136 497l-292 -1067q31 -8 79 -8q349 0 349 578zM268 717q0 -363 135 -498l293 1067q-31 8 -80 8q-348 0 -348 -577z" />
    <glyph glyph-name="one.tn" 
d="M186 20v119q0 21 21 21h338v1046l-305 -166q-12 -6 -23 -6q-14 0 -14 19v141q0 18 22 31l363 198q18 11 30 11h74q21 0 21 -21v-1253h338q20 0 20 -21v-119q0 -20 -20 -20h-844q-21 0 -21 20z" />
    <glyph glyph-name="two.tn" 
d="M141 20v86q0 28 23 48l573 553q75 71 103 142.5t28 178.5q0 124 -73 195t-203 71q-134 0 -206.5 -79t-72.5 -197q0 -18 -6 -24.5t-20 -6.5h-113q-24 0 -24 31q3 123 53.5 220.5t151.5 156.5t237 59q135 0 238 -60t154.5 -155t51.5 -207q0 -137 -45 -239.5t-139 -192.5
l-463 -440h658q20 0 20 -21v-119q0 -20 -20 -20h-885q-21 0 -21 20z" />
    <glyph glyph-name="three.tn" 
d="M440 707v114q0 23 23 23h92q129 0 202.5 58.5t73.5 176.5q0 104 -63 159.5t-174 55.5q-110 0 -175.5 -61t-76.5 -172q-1 -16 -7 -20.5t-20 -4.5h-112q-27 0 -27 35q3 109 61.5 197.5t153 137t203.5 48.5q181 0 289 -99t108 -255q0 -121 -42 -192.5t-136 -127.5
q57 -28 96.5 -57.5t73 -73t50 -104t16.5 -139.5q0 -188 -119.5 -307t-329.5 -119q-121 0 -222 51t-164.5 149.5t-68.5 225.5q0 34 27 34h111q14 0 20.5 -5t7.5 -21q13 -132 89.5 -203.5t199.5 -71.5t202 71t79 200q0 126 -77.5 200t-215.5 74h-125q-23 7 -23 23z" />
    <glyph glyph-name="four.tn" 
d="M731 20v275h-600q-20 0 -20 20v76q0 25 16 47l627 979q10 17 26 17h99q20 0 20 -21v-958h197q20 0 20 -21v-119q0 -20 -20 -20h-197v-275q0 -20 -22 -20h-125q-21 0 -21 20zM731 1090l-409 -635h409v635z" />
    <glyph glyph-name="five.tn" 
d="M162 668l88 745q3 21 20 21h713q21 0 21 -21v-119q0 -20 -21 -20h-588l-57 -422q146 98 307 98q208 0 325 -131t117 -358q0 -148 -67.5 -259.5t-176 -166.5t-239.5 -55q-195 0 -323.5 121.5t-128.5 297.5q0 31 24 31h117q12 0 16.5 -6t9.5 -25q18 -117 90.5 -188.5
t194.5 -71.5q147 0 231.5 87t84.5 231q0 153 -80 243.5t-226 90.5q-82 0 -144.5 -30t-133.5 -95q-19 -19 -35 -19h-119q-20 0 -20 21z" />
    <glyph glyph-name="six.tn" 
d="M160 653q0 201 36.5 356t102 251t152 145t190.5 49q163 0 273 -97.5t135 -258.5q0 -21 -23 -21h-123q-16 0 -22 21q-54 205 -250 205q-122 0 -207.5 -137t-89.5 -388q59 71 145.5 109.5t179.5 38.5q202 0 323.5 -127.5t121.5 -345.5q0 -143 -65 -252.5t-169.5 -165
t-228.5 -55.5q-81 0 -149.5 20t-131 68.5t-106 124t-69 193t-25.5 267.5zM358 453q0 -139 77 -226.5t212 -87.5t212 87.5t77 226.5t-77 226t-212 87t-212 -87t-77 -226z" />
    <glyph glyph-name="seven.tn" 
d="M231 1294v119q0 21 21 21h827q21 0 21 -21v-78q0 -21 -10 -51l-510 -1272q-6 -14 -23 -14h-127q-20 0 -20 16q0 3 4 15l495 1245h-657q-21 0 -21 20z" />
    <glyph glyph-name="eight.tn" 
d="M215 1075q0 173 117 276t284 103t284.5 -103t117.5 -276q0 -204 -174 -309q98 -51 160.5 -141.5t62.5 -218.5q0 -124 -61.5 -222t-164 -151t-225.5 -53q-192 0 -321 119t-129 307q0 128 62.5 218.5t160.5 141.5q-174 105 -174 309zM334 406q0 -125 77.5 -196t204.5 -71
q126 0 204.5 71t78.5 196t-78 197.5t-205 72.5t-204.5 -72t-77.5 -198zM375 1067q0 -103 68.5 -169.5t172.5 -66.5q105 0 173.5 67t68.5 169q0 106 -71 168.5t-171 62.5t-170.5 -62.5t-70.5 -168.5z" />
    <glyph glyph-name="nine.tn" 
d="M1081 780q0 -201 -36.5 -356t-102 -251t-152 -144.5t-190.5 -48.5q-163 0 -272.5 97.5t-134.5 258.5q0 13 5 16.5t17 3.5h123q16 0 22 -20q54 -205 250 -205q122 0 206 135.5t91 388.5q-59 -71 -145.5 -109t-179.5 -38q-203 0 -324 127.5t-121 347.5q0 108 37.5 198
t101.5 149t147.5 91.5t176.5 32.5q80 0 148.5 -20t131 -69t106 -124.5t69.5 -193t26 -267.5zM883 981q0 139 -77 226t-212 87t-212 -87t-77 -226t77 -226t212 -87t212 87t77 226z" />
    <glyph glyph-name="zero.nslash" horiz-adv-x="1220" 
d="M90 717q0 346 142.5 541.5t377.5 195.5t377.5 -195.5t142.5 -541.5t-142.5 -541.5t-377.5 -195.5t-377.5 195.5t-142.5 541.5zM262 717q0 -578 348 -578t348 578q0 577 -348 577t-348 -577z" />
    <glyph glyph-name="zero.nslashtn" 
d="M96 717q0 346 142.5 541.5t377.5 195.5t378 -195.5t143 -541.5t-143 -541.5t-378 -195.5t-377.5 195.5t-142.5 541.5zM268 717q0 -578 348 -578q349 0 349 578q0 577 -349 577q-348 0 -348 -577z" />
    <glyph glyph-name="zero.nslashposn" 
d="M86 514q0 157 72 280.5t192.5 189t265.5 65.5q108 0 205 -39t169 -107.5t114.5 -169.5t42.5 -219q0 -157 -72.5 -280t-193 -188.5t-265.5 -65.5q-146 0 -266 65.5t-192 188.5t-72 280zM254 514q0 -167 101 -275t261 -108t261.5 108t101.5 275t-101.5 275t-261.5 108
t-261 -108t-101 -275z" />
    <glyph glyph-name="zero.nslashtosn" 
d="M86 514q0 157 72 280.5t192.5 189t265.5 65.5q108 0 205 -39t169 -107.5t114.5 -169.5t42.5 -219q0 -157 -72.5 -280t-193 -188.5t-265.5 -65.5q-146 0 -266 65.5t-192 188.5t-72 280zM254 514q0 -167 101 -275t261 -108t261.5 108t101.5 275t-101.5 275t-261.5 108
t-261 -108t-101 -275z" />
    <glyph glyph-name="zero.nslashsuperior" horiz-adv-x="739" 
d="M78 1051q0 185 82 290t209 105t210 -105t83 -290t-83 -290.5t-210 -105.5t-209 105.5t-82 290.5zM197 1051q0 -285 172 -285q174 0 174 285q0 284 -174 284q-172 0 -172 -284z" />
    <glyph glyph-name="zero.nslashinferior" horiz-adv-x="739" 
d="M78 -23q0 185 82 290.5t209 105.5t210 -105.5t83 -290.5t-83 -290t-210 -105t-209 105t-82 290zM197 -23q0 -284 172 -284q174 0 174 284q0 285 -174 285q-172 0 -172 -285z" />
    <glyph glyph-name="a.alt" horiz-adv-x="1138" 
d="M995 1008v-988q0 -20 -20 -20h-119q-20 0 -20 20v97q-57 -71 -130.5 -104t-181.5 -33q-191 0 -315.5 147.5t-124.5 386.5t124.5 387t315.5 148q108 0 181.5 -33.5t130.5 -104.5v97q0 20 20 20h119q20 0 20 -20zM852 514q0 175 -78.5 279t-218.5 104q-143 0 -223 -108.5
t-80 -274.5t80 -274.5t223 -108.5q140 0 218.5 104t78.5 279z" />
    <glyph glyph-name="aacute.alt" horiz-adv-x="1138" 
d="M995 1008v-988q0 -20 -20 -20h-119q-20 0 -20 20v97q-57 -71 -130.5 -104t-181.5 -33q-191 0 -315.5 147.5t-124.5 386.5t124.5 387t315.5 148q108 0 181.5 -33.5t130.5 -104.5v97q0 20 20 20h119q20 0 20 -20zM852 514q0 175 -78.5 279t-218.5 104q-143 0 -223 -108.5
t-80 -274.5t80 -274.5t223 -108.5q140 0 218.5 104t78.5 279zM403 1155l142 258q12 21 30 21h185q10 0 13 -7t-3 -14l-209 -260q-13 -18 -37 -18h-110q-10 0 -13 6.5t2 13.5z" />
    <glyph glyph-name="agrave.alt" horiz-adv-x="1138" 
d="M995 1008v-988q0 -20 -20 -20h-119q-20 0 -20 20v97q-57 -71 -130.5 -104t-181.5 -33q-191 0 -315.5 147.5t-124.5 386.5t124.5 387t315.5 148q108 0 181.5 -33.5t130.5 -104.5v97q0 20 20 20h119q20 0 20 -20zM852 514q0 175 -78.5 279t-218.5 104q-143 0 -223 -108.5
t-80 -274.5t80 -274.5t223 -108.5q140 0 218.5 104t78.5 279zM516 1413l141 -258q5 -7 2.5 -13.5t-12.5 -6.5h-110q-22 0 -37 18l-209 260q-6 7 -3 14t13 7h184q19 0 31 -21z" />
    <glyph glyph-name="acircumflex.alt" horiz-adv-x="1138" 
d="M995 1008v-988q0 -20 -20 -20h-119q-20 0 -20 20v97q-57 -71 -130.5 -104t-181.5 -33q-191 0 -315.5 147.5t-124.5 386.5t124.5 387t315.5 148q108 0 181.5 -33.5t130.5 -104.5v97q0 20 20 20h119q20 0 20 -20zM852 514q0 175 -78.5 279t-218.5 104q-143 0 -223 -108.5
t-80 -274.5t80 -274.5t223 -108.5q140 0 218.5 104t78.5 279zM647 1417l207 -262q6 -7 3 -13.5t-13 -6.5h-115q-19 0 -37 18l-125 129l-125 -129q-11 -11 -17 -14.5t-19 -3.5h-115q-10 0 -13 6.5t3 13.5l206 262q17 17 31 17h98q14 0 31 -17z" />
    <glyph glyph-name="adieresis.alt" horiz-adv-x="1138" 
d="M995 1008v-988q0 -20 -20 -20h-119q-20 0 -20 20v97q-57 -71 -130.5 -104t-181.5 -33q-191 0 -315.5 147.5t-124.5 386.5t124.5 387t315.5 148q108 0 181.5 -33.5t130.5 -104.5v97q0 20 20 20h119q20 0 20 -20zM852 514q0 175 -78.5 279t-218.5 104q-143 0 -223 -108.5
t-80 -274.5t80 -274.5t223 -108.5q140 0 218.5 104t78.5 279zM283 1253v160q0 21 20 21h160q20 0 20 -21v-160q0 -20 -20 -20h-160q-20 0 -20 20zM610 1253v160q0 21 21 21h160q20 0 20 -21v-160q0 -20 -20 -20h-160q-21 0 -21 20z" />
    <glyph glyph-name="atilde.alt" horiz-adv-x="1138" 
d="M995 1008v-988q0 -20 -20 -20h-119q-20 0 -20 20v97q-57 -71 -130.5 -104t-181.5 -33q-191 0 -315.5 147.5t-124.5 386.5t124.5 387t315.5 148q108 0 181.5 -33.5t130.5 -104.5v97q0 20 20 20h119q20 0 20 -20zM852 514q0 175 -78.5 279t-218.5 104q-143 0 -223 -108.5
t-80 -274.5t80 -274.5t223 -108.5q140 0 218.5 104t78.5 279zM219 1356q105 78 207 78q44 0 76.5 -8.5t51.5 -21t36 -25t40.5 -21t53.5 -8.5q27 0 52.5 11t70.5 40q12 4 14 4q13 0 23 -16l53 -80q0 -1 3 -7t3 -10q0 -11 -12 -20q-105 -78 -207 -78q-44 0 -76.5 8.5t-51.5 21
t-36 25t-40.5 21t-53.5 8.5q-27 0 -52.5 -11t-70.5 -40q-12 -4 -14 -4q-13 0 -23 16l-53 80q-1 1 -3.5 7t-2.5 9q0 12 12 21z" />
    </font>
</defs>
</svg>
