<?xml version="1.0" standalone="no"?>
<!DOCTYPE svg PUBLIC "-//W3C//DTD SVG 1.1//EN" "http://www.w3.org/Graphics/SVG/1.1/DTD/svg11.dtd" >
<svg xmlns="http://www.w3.org/2000/svg" xmlns:xlink="http://www.w3.org/1999/xlink" version="1.1">
<metadata>
Created by FontForge 20201107 at Wed Sep 11 12:56:52 2024
 By 
Copyright (c) 2011 by Colophon Foundry. All rights reserved. |DCNT
</metadata>
<defs>
<font id="Relative-MediumItalic" horiz-adv-x="1269" >
  <font-face 
    font-family="Relative"
    font-weight="500"
    font-style="italic"
    font-stretch="normal"
    units-per-em="2048"
    panose-1="2 0 5 6 4 0 0 2 0 4"
    ascent="1638"
    descent="-410"
    x-height="1028"
    cap-height="1434"
    bbox="-307 -528 2429 2044"
    underline-thickness="102"
    underline-position="-204"
    unicode-range="U+000D-FB02"
  />
<missing-glyph horiz-adv-x="1331" 
d="M1294 1413l-272 -1393q-3 -20 -25 -20h-944q-16 0 -16 20l272 1393q3 21 25 21h944q16 0 16 -21zM1036 1229h-542l-199 -1024h543z" />
    <glyph glyph-name=".notdef" horiz-adv-x="1331" 
d="M1294 1413l-272 -1393q-3 -20 -25 -20h-944q-16 0 -16 20l272 1393q3 21 25 21h944q16 0 16 -21zM1036 1229h-542l-199 -1024h543z" />
    <glyph glyph-name=".null" horiz-adv-x="0" 
 />
    <glyph glyph-name=".null" horiz-adv-x="0" 
 />
    <glyph glyph-name="nonmarkingreturn" horiz-adv-x="682" 
 />
    <glyph glyph-name="CR" unicode="&#xd;" horiz-adv-x="0" 
 />
    <glyph glyph-name="space" unicode=" " horiz-adv-x="475" 
 />
    <glyph glyph-name="exclam" unicode="!" horiz-adv-x="718" 
d="M428 1434h172q16 0 16 -21l-194 -997q-3 -21 -25 -21h-172q-16 0 -16 21l194 997q3 21 25 21zM180 246h205q16 0 16 -21l-41 -205q-3 -20 -24 -20h-205q-16 0 -16 20l41 205q3 21 24 21z" />
    <glyph glyph-name="quotedbl" unicode="&#x22;" horiz-adv-x="782" 
d="M127 971l84 442q3 21 25 21h163q17 0 17 -21l-84 -442q-3 -21 -25 -21h-164q-16 0 -16 21zM516 971l84 442q3 21 27 21h161q17 0 17 -21l-84 -442q-3 -21 -25 -21h-164q-16 0 -16 21z" />
    <glyph glyph-name="numbersign" unicode="#" horiz-adv-x="1533" 
d="M659 20l142 386h-285l-141 -386q-6 -20 -27 -20h-180q-20 0 -14 20l141 386h-225q-17 0 -17 20l31 164q6 20 25 20h262l78 213h-216q-16 0 -16 21l31 164q3 20 24 20h252l142 385q9 21 26 21h180q21 0 15 -21l-142 -385h285l141 385q6 21 27 21h180q21 0 15 -21
l-142 -385h226q16 0 16 -20l-31 -164q-3 -21 -24 -21h-262l-78 -213h215q22 0 16 -20l-31 -164q-3 -20 -24 -20h-252l-141 -386q-6 -20 -27 -20h-180q-21 0 -15 20zM670 823l-78 -213h285l77 213h-284z" />
    <glyph glyph-name="dollar" unicode="$" horiz-adv-x="1206" 
d="M156 1028q0 96 39.5 175t108.5 130.5t158 82t191 36.5l33 166q3 20 25 20h159q17 0 17 -20l-37 -180q307 -81 307 -396q-3 -20 -24 -20h-177q-16 0 -16 20q0 131 -131 183l-80 -416q78 -24 138 -52t113.5 -69t82.5 -98t29 -127q0 -146 -69 -253.5t-186 -163.5t-270 -64
l-30 -166q-3 -21 -25 -21h-160q-16 0 -16 21l35 178q-165 35 -260 142t-95 255q0 19 4 55q3 21 25 21h176q17 0 17 -21q0 -102 39.5 -163.5t132.5 -85.5l90 465q-176 57 -260 140.5t-84 225.5zM870 424q0 58 -46 101.5t-136 76.5l-80 -414q115 19 188.5 77.5t73.5 158.5z
M373 1051q0 -64 43.5 -106.5t124.5 -74.5l73 375q-62 -5 -115 -27t-89.5 -66t-36.5 -101z" />
    <glyph glyph-name="percent" unicode="%" horiz-adv-x="1746" 
d="M868 1130q0 -187 -120 -308.5t-299 -121.5q-140 0 -229 87t-89 217q0 187 120.5 308.5t299.5 121.5q139 0 228 -87t89 -217zM463 858q104 0 170.5 74.5t66.5 181.5q0 71 -47.5 116.5t-115.5 45.5q-104 0 -171 -75t-67 -181q0 -70 48 -116t116 -46zM1606 430
q0 -187 -120.5 -308.5t-299.5 -121.5q-140 0 -229 86.5t-89 216.5q0 187 120.5 308.5t299.5 121.5q140 0 229 -86.5t89 -216.5zM1200 158q104 0 171 75t67 181q0 70 -48 115.5t-116 45.5q-104 0 -171 -75t-67 -181q0 -70 48 -115.5t116 -45.5zM137 102l1379 1325q7 7 14 7
t14 -7l62 -67q8 -8 8 -14q0 -7 -8 -15l-1379 -1325q-6 -6 -14 -6t-14 6l-62 68q-8 8 -8 14t8 14z" />
    <glyph glyph-name="ampersand" unicode="&#x26;" horiz-adv-x="1376" 
d="M1268 555h-166q-48 -196 -121 -301l117 -221q4 -12 4 -19q0 -14 -17 -14h-192q-14 0 -23 18l-43 84q-165 -122 -366 -122q-188 0 -298 93.5t-110 274.5q0 318 375 498q-55 112 -55 223q0 162 109 273.5t288 111.5q153 0 240.5 -79.5t87.5 -198.5q0 -122 -66 -203.5
t-209 -149.5l-118 -55l167 -311q50 108 78 272q3 19 23 19h332q16 0 16 -21l-29 -152q-3 -20 -24 -20zM485 172q144 0 254 94l-223 414q-246 -124 -246 -309q0 -91 60 -145t155 -54zM575 1075q0 -61 50 -153l112 51q82 40 117 76t35 100q0 54 -36.5 83.5t-102.5 29.5
q-74 0 -124.5 -52t-50.5 -135z" />
    <glyph glyph-name="quotesingle" unicode="'" horiz-adv-x="393" 
d="M127 971l84 442q3 21 25 21h163q17 0 17 -21l-84 -442q-3 -21 -25 -21h-164q-16 0 -16 21z" />
    <glyph glyph-name="parenleft" unicode="(" horiz-adv-x="792" 
d="M379 629l-43 -228q-37 -182 -37 -286q0 -109 43 -193t143 -184q7 -7 7 -12q0 -6 -11 -17l-119 -121q-8 -8 -16 -8t-14 6q-131 121 -190.5 251.5t-59.5 287.5q0 89 22 215l68 350q21 106 43.5 185t55.5 147t68 117.5t91.5 103t114 97t147.5 104.5q9 6 15 6q7 0 12 -8
l96 -135q4 -8 4 -13q0 -7 -12 -16q-82 -58 -127.5 -93.5t-94 -82t-74 -85t-52.5 -98t-44 -126.5t-36 -164z" />
    <glyph glyph-name="parenright" unicode=")" horiz-adv-x="792" 
d="M348 401l43 228q37 182 37 286q0 109 -43 193t-143 184q-6 6 -6 13q0 6 10 16l119 121q8 8 16 8t14 -6q131 -121 190.5 -251.5t59.5 -287.5q0 -89 -22 -215l-68 -350q-25 -126 -55 -217.5t-67.5 -162.5t-97.5 -134t-126.5 -116t-173.5 -124q-9 -6 -15 -6q-7 0 -12 8
l-96 136q-4 8 -4 12q0 7 12 16q81 58 127 93.5t94 82t73.5 85.5t52.5 98.5t44.5 126t36.5 163.5z" />
    <glyph glyph-name="asterisk" unicode="*" horiz-adv-x="919" 
d="M168 1112l51 133q7 17 19 17q6 0 10 -2l192 -68l45 221q3 21 25 21h147q17 0 17 -21l-41 -229l211 65q4 2 10 2q8 0 14 -16l41 -127v-4q0 -2 2 -4q0 -13 -18 -19l-238 -77l103 -183q2 -2 2 -10q0 -9 -15 -18l-127 -72q-12 -4 -14 -4q-7 0 -12 8l-107 178l-155 -184
q-10 -10 -17 -10q-8 0 -14 6l-117 96q-8 8 -8 12q0 9 8 17l168 180l-174 65q-12 3 -12 13q0 1 0.5 2.5t1.5 5t2 6.5z" />
    <glyph glyph-name="plus" unicode="+" horiz-adv-x="1202" 
d="M793 1145l-68 -344h340q16 0 16 -21l-30 -159q-3 -21 -25 -21h-340l-68 -344q-3 -20 -24 -20h-168q-16 0 -16 20l67 344h-340q-16 0 -16 21l31 159q3 21 24 21h340l68 344q3 20 24 20h168q17 0 17 -20z" />
    <glyph glyph-name="comma" unicode="," horiz-adv-x="559" 
d="M35 -111q54 0 76.5 18t33.5 68l5 25h-97q-16 0 -16 20l37 189q3 20 22 20h189q18 0 18 -20l-49 -248q-18 -88 -63 -131t-125 -43h-50q-18 0 -18 20l12 62q6 20 25 20z" />
    <glyph glyph-name="hyphen" unicode="-" horiz-adv-x="1075" 
d="M172 801h770q16 0 16 -21l-30 -159q-3 -21 -25 -21h-770q-16 0 -16 21l30 159q3 21 25 21z" />
    <glyph glyph-name="period" unicode="." horiz-adv-x="559" 
d="M96 229h189q16 0 16 -20l-35 -189q-3 -20 -24 -20h-189q-16 0 -16 20l35 189q3 20 24 20z" />
    <glyph glyph-name="slash" unicode="/" horiz-adv-x="1032" 
d="M-135 20l981 1393q15 21 33 21h190q23 0 8 -21l-983 -1393q-14 -20 -31 -20h-188q-24 0 -10 20z" />
    <glyph glyph-name="zero" unicode="0" horiz-adv-x="1288" 
d="M68 551q0 119 26.5 242t83.5 242t137 212t197.5 150t255.5 57q208 0 330.5 -143t122.5 -428q0 -119 -26.5 -242t-83.5 -242t-137.5 -212t-198 -150t-255.5 -57q-209 0 -330.5 143t-121.5 428zM741 1253q-112 0 -201 -63t-142.5 -166t-81 -224.5t-27.5 -248.5
q0 -201 66.5 -286t191.5 -85q75 0 141 29t114.5 80.5t87 119t62 146.5t35.5 162t12 166q0 200 -66.5 285t-191.5 85z" />
    <glyph glyph-name="one" unicode="1" horiz-adv-x="798" 
d="M205 20l221 1133l-285 -137q-12 -6 -24 -6q-11 0 -11 18l35 182q6 18 29 31l369 182q26 11 34 11h103q18 0 18 -21l-272 -1393q-3 -20 -25 -20h-176q-16 0 -16 20z" />
    <glyph glyph-name="two" unicode="2" horiz-adv-x="1236" 
d="M8 20l23 127q6 28 32 48l656 530q100 79 149.5 158t49.5 182q0 85 -55 136.5t-161 51.5q-112 0 -191 -70t-105 -177q-7 -31 -33 -31h-146q-26 0 -26 31q38 204 175.5 326t348.5 122q196 0 305 -102.5t109 -261.5q0 -151 -73 -269.5t-222 -238.5l-471 -381h616
q19 0 19 -21l-33 -160q-3 -20 -25 -20h-927q-15 0 -15 20z" />
    <glyph glyph-name="three" unicode="3" horiz-adv-x="1222" 
d="M446 686l29 156q3 22 27 22h116q127 0 203 58t76 165q0 76 -54 121t-147 45q-98 0 -177 -52.5t-109 -147.5q-4 -16 -10.5 -20.5t-20.5 -4.5h-148q-26 0 -26 35q32 173 174.5 282t339.5 109q174 0 280.5 -90.5t106.5 -226.5q0 -125 -47.5 -210.5t-161.5 -156.5
q63 -39 107.5 -113.5t44.5 -187.5q0 -227 -147.5 -358t-401.5 -131q-208 0 -328.5 112t-120.5 299q0 29 2 43q1 17 11 26t22 9h154q13 0 17.5 -5t4.5 -22q0 -5 -1 -19.5t-1 -19.5q0 -108 67.5 -165.5t180.5 -57.5q150 0 236.5 77t86.5 212q0 94 -61.5 144.5t-183.5 50.5
h-121q-19 0 -19 22z" />
    <glyph glyph-name="four" unicode="4" horiz-adv-x="1204" 
d="M565 20l49 246h-608q-14 0 -14 21l20 116q8 31 25 48l831 966q14 17 31 17h139q17 0 17 -21l-185 -946h193q18 0 18 -21l-30 -159q-3 -21 -25 -21h-195l-49 -246q-3 -20 -26 -20h-174q-17 0 -17 20zM756 997l-453 -530h350z" />
    <glyph glyph-name="five" unicode="5" horiz-adv-x="1265" 
d="M137 643l240 770q6 21 24 21h783q16 0 16 -21l-33 -160q-3 -20 -24 -20h-608l-123 -369q148 86 301 86q183 0 287 -107.5t104 -293.5q0 -260 -160 -414.5t-420 -154.5q-201 0 -318.5 114t-117.5 299v19q0 30 29 30h157q13 0 18 -6t5 -24q0 -110 68.5 -171t191.5 -61
q149 0 237.5 95t88.5 241q0 109 -65 171.5t-183 62.5q-156 0 -289 -109q-21 -18 -45 -18h-145q-19 0 -19 20z" />
    <glyph glyph-name="six" unicode="6" 
d="M104 496q0 132 26 265t82.5 258t135.5 221.5t194 155t249 58.5q188 0 295.5 -104t107.5 -265q0 -20 -25 -20h-163q-18 0 -21 20q-30 177 -225 177q-55 0 -110 -25.5t-107.5 -77t-96.5 -141.5t-69 -207q149 115 348 115q176 0 282.5 -109.5t106.5 -288.5
q0 -164 -72.5 -289.5t-200.5 -192t-290 -66.5q-94 0 -173 30.5t-141.5 91t-97.5 161.5t-35 233zM647 725q-139 0 -230 -87t-91 -214q0 -115 66.5 -179.5t182.5 -64.5q135 0 228.5 92.5t93.5 223.5q0 106 -64.5 167.5t-185.5 61.5z" />
    <glyph glyph-name="seven" unicode="7" horiz-adv-x="1032" 
d="M137 1253l33 160q3 21 25 21h895q16 0 16 -21l-25 -119q-7 -27 -20 -51l-709 -1229q-8 -14 -26 -14h-181q-16 0 -16 12q0 1 6 19l690 1202h-671q-17 0 -17 20z" />
    <glyph glyph-name="eight" unicode="8" horiz-adv-x="1232" 
d="M236 1028q0 182 140.5 304t362.5 122q176 0 285 -95t109 -255q0 -107 -58.5 -197t-173.5 -145q60 -39 105 -116t45 -183q0 -145 -73 -256t-197.5 -169t-280.5 -58q-195 0 -316 101t-121 275q0 143 77.5 247t213.5 163q-118 102 -118 262zM584 655q-122 0 -212.5 -73.5
t-90.5 -194.5q0 -102 62 -154.5t169 -52.5q60 0 116.5 18t103 51.5t74.5 87t28 118.5q0 91 -63 145.5t-187 54.5zM709 1257q-108 0 -189.5 -62t-81.5 -163q0 -86 54.5 -133t154.5 -47q111 0 194 62.5t83 166.5q0 77 -58.5 126.5t-156.5 49.5z" />
    <glyph glyph-name="nine" unicode="9" 
d="M1176 938q0 -132 -26.5 -265t-82.5 -258t-135.5 -221.5t-194 -155t-248.5 -58.5q-188 0 -295.5 103.5t-107.5 264.5q0 21 25 21h163q18 0 21 -21q30 -176 225 -176q55 0 110 25.5t107.5 77t96.5 141.5t69 207q-149 -115 -348 -115q-177 0 -283 109t-106 288
q0 248 158 398.5t405 150.5q94 0 173 -30.5t141.5 -91t97.5 -161.5t35 -233zM633 709q139 0 230 87t91 214q0 115 -66.5 179t-182.5 64q-135 0 -228.5 -92t-93.5 -223q0 -106 64.5 -167.5t185.5 -61.5z" />
    <glyph glyph-name="colon" unicode=":" horiz-adv-x="559" 
d="M96 229h189q18 0 18 -20l-37 -189q-3 -20 -24 -20h-189q-16 0 -16 20l37 189q3 20 22 20zM252 1028h188q17 0 17 -20l-37 -189q-3 -20 -23 -20h-188q-19 0 -19 20l37 189q6 20 25 20z" />
    <glyph glyph-name="semicolon" unicode=";" horiz-adv-x="559" 
d="M35 -111q54 0 76.5 18t33.5 68l5 25h-97q-16 0 -16 20l37 189q3 20 22 20h189q18 0 18 -20l-49 -248q-18 -88 -63 -131t-125 -43h-50q-18 0 -18 20l12 62q6 20 25 20zM252 1028h188q17 0 17 -20l-37 -189q-3 -20 -23 -20h-188q-19 0 -19 20l37 189q6 20 25 20z" />
    <glyph glyph-name="less" unicode="&#x3c;" horiz-adv-x="1052" 
d="M858 270l-33 -168q-3 -14 -12 -14q-8 0 -10 2l-684 412q-17 10 -17 26l35 168q4 18 25 27l844 403q2 2 8 2q10 0 10 -14l-39 -194q-3 -20 -27 -29l-628 -291l514 -301q14 -8 14 -29z" />
    <glyph glyph-name="equal" unicode="=" horiz-adv-x="1267" 
d="M240 924h888q17 0 17 -21l-31 -160q-3 -20 -24 -20h-889q-17 0 -17 20l31 160q3 21 25 21zM158 508h889q16 0 16 -21l-31 -159q-3 -21 -24 -21h-889q-17 0 -17 21l31 159q3 21 25 21z" />
    <glyph glyph-name="greater" unicode="&#x3e;" horiz-adv-x="1052" 
d="M201 946l32 168q3 14 13 14q8 0 10 -2l684 -411q16 -10 16 -27l-34 -168q-3 -17 -25 -26l-844 -404q-2 -2 -8 -2q-10 0 -10 14l39 195q3 20 26 29l629 290l-514 302q-14 6 -14 28z" />
    <glyph glyph-name="question" unicode="?" horiz-adv-x="1120" 
d="M162 1036q29 186 170.5 302t345.5 116q193 0 298 -91t105 -243q0 -72 -22.5 -131.5t-60 -101.5t-83 -79.5t-94 -73t-90 -72t-74 -86.5t-43.5 -109l-10 -51q-3 -21 -24 -21h-172q-10 0 -12.5 4.5t-2.5 16.5l8 51q12 78 43.5 142.5t72.5 107t88.5 79.5t92 68t81 63t59 74
t22.5 93q0 70 -53 112.5t-145 42.5q-97 0 -177 -54t-114 -159q-9 -20 -25 -20h-168q-16 0 -16 20zM362 246h205q17 0 17 -21l-41 -205q-3 -20 -25 -20h-205q-16 0 -16 20l41 205q3 21 24 21z" />
    <glyph glyph-name="at" unicode="@" horiz-adv-x="1654" 
d="M1415 713q0 219 -122.5 340t-379.5 121q-193 0 -346 -89t-237 -245.5t-84 -352.5q0 -236 140 -375t370 -139q124 0 206 23.5t183 75.5q2 2 10 2q7 0 14 -11l52 -114q2 -2 2 -8q0 -11 -15 -17q-231 -114 -475 -114q-136 0 -257 47t-213 132.5t-146 216t-54 288.5
q0 183 63 339.5t174.5 267.5t271.5 173.5t348 62.5q306 0 488.5 -165t182.5 -427q0 -158 -45.5 -285t-137.5 -204.5t-216 -77.5q-74 0 -120.5 28.5t-78.5 80.5q-120 -109 -286 -109q-127 0 -216.5 86.5t-89.5 243.5q0 103 39 194t102 153t144 98t164 36q95 0 150.5 -22
t97.5 -64l16 55q7 17 21 17h116q17 0 17 -17l-127 -417l-19 -72q-4 -28 -4 -37q0 -53 27 -77.5t69 -24.5q87 0 144 116t57 267zM1020 659q0 92 -38.5 135.5t-123.5 43.5q-116 0 -202.5 -99t-86.5 -219q0 -190 162 -190q67 0 124 31.5t91.5 81t54 106t19.5 110.5z" />
    <glyph glyph-name="A" unicode="A" horiz-adv-x="1255" 
d="M907 20l-61 375h-551l-207 -375q-11 -20 -29 -20h-188q-18 0 -18 16q0 8 6 17l770 1380q7 12 11.5 16.5t14.5 4.5h209q20 0 23 -21l235 -1380q0 -33 -28 -33h-166q-18 0 -21 20zM721 1161l-311 -561h403z" />
    <glyph glyph-name="B" unicode="B" horiz-adv-x="1310" 
d="M610 0h-553q-16 0 -16 20l272 1393q3 21 25 21h510q166 0 272.5 -81t106.5 -233q0 -232 -215 -356q73 -44 114 -110t41 -179q0 -94 -37.5 -179t-106 -151.5t-176 -105.5t-237.5 -39zM385 651l-86 -446h336q132 0 217.5 70.5t85.5 191.5q0 92 -56 138t-161 46h-336z
M498 1229l-72 -373h324q111 0 179 56t68 153q0 164 -186 164h-313z" />
    <glyph glyph-name="C" unicode="C" horiz-adv-x="1413" 
d="M1118 506h176q21 0 21 -21q-68 -239 -254 -372t-443 -133q-118 0 -219.5 40.5t-176.5 115.5t-118 189.5t-43 254.5q0 135 34.5 263t103.5 238.5t164.5 194t226 131t278.5 47.5q244 0 391.5 -134t147.5 -372q0 -20 -25 -20h-172q-19 0 -22 20q-20 148 -108.5 224.5
t-243.5 76.5q-119 0 -223 -55.5t-173.5 -146t-109 -207t-39.5 -238.5q0 -208 97 -313t265 -105q150 0 258 73.5t181 227.5q9 21 26 21z" />
    <glyph glyph-name="D" unicode="D" horiz-adv-x="1376" 
d="M41 20l272 1393q3 21 25 21h403q252 0 408 -151t156 -419q0 -180 -56 -336.5t-159.5 -274t-263 -185.5t-355.5 -68h-414q-16 0 -16 20zM696 1229h-198l-199 -1024h182q142 0 256.5 49.5t187 135t111.5 196.5t39 237q0 406 -379 406z" />
    <glyph glyph-name="E" unicode="E" horiz-adv-x="1165" 
d="M385 651l-86 -446h676q18 0 18 -21l-32 -164q-3 -20 -25 -20h-879q-16 0 -16 20l272 1393q3 21 25 21h846q18 0 18 -21l-33 -164q-3 -20 -24 -20h-647l-72 -373h584q18 0 18 -20l-33 -164q-3 -21 -24 -21h-586z" />
    <glyph glyph-name="F" unicode="F" horiz-adv-x="1161" 
d="M379 621l-117 -601q-3 -20 -24 -20h-181q-16 0 -16 20l272 1393q3 21 25 21h876q17 0 17 -21l-33 -164q-3 -20 -24 -20h-676l-78 -404h610q17 0 17 -20l-33 -164q-3 -20 -25 -20h-610z" />
    <glyph glyph-name="G" unicode="G" horiz-adv-x="1474" 
d="M768 741h588q16 0 16 -20l-72 -375q-8 -46 -36 -78q-133 -152 -278.5 -220t-336.5 -68q-127 0 -232.5 37t-184 109.5t-122.5 189t-44 266.5q0 136 36 264.5t106.5 238.5t167 192.5t226.5 129.5t277 47q150 0 267 -50t186 -151t69 -241q-3 -21 -25 -21h-176q-19 0 -22 21
q-31 237 -326 237q-100 0 -189.5 -39t-155.5 -105t-114.5 -150t-73 -176t-24.5 -181q0 -199 96 -306.5t275 -107.5q134 0 243.5 48t177.5 135l33 170h-393q-16 0 -16 20l32 164q3 20 25 20z" />
    <glyph glyph-name="H" unicode="H" horiz-adv-x="1435" 
d="M391 645l-123 -625q-3 -20 -24 -20h-181q-16 0 -16 20l272 1393q3 21 25 21h180q17 0 17 -21l-111 -563h627l110 563q3 21 25 21h180q17 0 17 -21l-273 -1393q-3 -20 -24 -20h-181q-16 0 -16 20l123 625h-627z" />
    <glyph glyph-name="I" unicode="I" horiz-adv-x="567" 
d="M37 20l272 1393q3 21 25 21h180q16 0 16 -21l-272 -1393q-3 -20 -25 -20h-180q-16 0 -16 20z" />
    <glyph glyph-name="J" unicode="J" horiz-adv-x="1161" 
d="M1128 1413l-172 -878q-32 -160 -86 -270t-129.5 -171.5t-162.5 -87.5t-199 -26q-188 0 -291.5 102.5t-103.5 271.5q0 60 6 95q3 20 26 20h177q18 0 18 -20q0 -2 -1.5 -14.5t-3 -30t-1.5 -31.5q0 -91 53 -140t152 -49q128 0 208.5 82t116.5 266l172 881q3 21 25 21h178
q18 0 18 -21z" />
    <glyph glyph-name="K" unicode="K" horiz-adv-x="1282" 
d="M535 1413l-109 -549l623 549q21 21 36 21h226q14 0 17 -9t-7 -20l-571 -516l387 -860q6 -13 -1 -21t-20 -8h-196q-27 0 -39 31l-314 704l-200 -178l-105 -537q-3 -20 -24 -20h-181q-16 0 -16 20l272 1393q3 21 25 21h180q17 0 17 -21z" />
    <glyph glyph-name="L" unicode="L" horiz-adv-x="1122" 
d="M41 20l272 1393q3 21 25 21h180q17 0 17 -21l-236 -1208h713q16 0 16 -21l-33 -164q-3 -20 -24 -20h-914q-16 0 -16 20z" />
    <glyph glyph-name="M" unicode="M" horiz-adv-x="1677" 
d="M1636 1413l-272 -1393q-3 -20 -25 -20h-180q-16 0 -16 20l203 1043l-490 -805q-9 -18 -31 -18h-133q-19 0 -22 18l-203 805l-205 -1043q-3 -20 -24 -20h-181q-16 0 -16 20l272 1393q3 21 25 21h227q23 0 29 -21l211 -874l538 874q12 21 37 21h240q16 0 16 -21z" />
    <glyph glyph-name="N" unicode="N" horiz-adv-x="1468" 
d="M1130 0h-186q-22 0 -29 16l-446 1053l-207 -1049q-3 -20 -24 -20h-181q-16 0 -16 20l272 1393q3 21 25 21h186q22 0 29 -17l446 -1052l207 1048q3 21 25 21h180q16 0 16 -21l-272 -1393q-3 -20 -25 -20z" />
    <glyph glyph-name="O" unicode="O" horiz-adv-x="1538" 
d="M643 -20q-123 0 -229.5 40.5t-186.5 115.5t-126 191.5t-46 260.5q0 170 59 326.5t164.5 276.5t265.5 191.5t349 71.5q123 0 229.5 -40.5t186.5 -115.5t126 -191.5t46 -260.5q0 -170 -59 -326.5t-164.5 -276.5t-265.5 -191.5t-349 -71.5zM670 184q103 0 195.5 36
t161.5 97.5t120.5 141.5t77.5 171.5t26 184.5q0 214 -105 324t-280 110q-103 0 -195.5 -36t-161.5 -97.5t-120.5 -141.5t-77.5 -171.5t-26 -184.5q0 -214 105 -324t280 -110z" />
    <glyph glyph-name="P" unicode="P" horiz-adv-x="1267" 
d="M41 20l272 1393q3 21 25 21h516q187 0 298.5 -94t111.5 -255q0 -221 -150.5 -341.5t-408.5 -120.5h-324l-119 -603q-3 -20 -24 -20h-181q-16 0 -16 20zM498 1229l-78 -402h330q131 0 207.5 57t76.5 160q0 185 -207 185h-329z" />
    <glyph glyph-name="Q" unicode="Q" horiz-adv-x="1538" 
d="M643 -20q-123 0 -229.5 40.5t-186.5 115.5t-126 191.5t-46 260.5q0 170 59 326.5t164.5 276.5t265.5 191.5t349 71.5q123 0 229.5 -40.5t186.5 -115.5t126 -191.5t46 -260.5q0 -180 -63.5 -342t-182.5 -285l80 -94q6 -9 6 -14q-3 -9 -12 -15l-142 -123q-8 -8 -16 -8
q-7 0 -12 8l-90 105q-179 -98 -406 -98zM670 184q126 0 241 56l-106 129q-6 9 -6 14q3 8 12 14l143 123q8 8 15 8q6 0 14 -8l113 -135q155 188 155 430q0 214 -105 324t-280 110q-103 0 -195.5 -36t-161.5 -97.5t-120.5 -141.5t-77.5 -171.5t-26 -184.5q0 -214 105 -324
t280 -110z" />
    <glyph glyph-name="R" unicode="R" horiz-adv-x="1300" 
d="M41 20l272 1393q3 21 25 21h528q177 0 280 -87t103 -249q0 -157 -90 -261t-256 -157l180 -660v-4q0 -1 1 -3t1 -3q0 -10 -14 -10h-197q-18 0 -24 20l-174 644h-289l-125 -644q-3 -20 -24 -20h-181q-16 0 -16 20zM498 1229l-70 -361h332q124 0 192 51t68 152
q0 158 -193 158h-329z" />
    <glyph glyph-name="S" unicode="S" horiz-adv-x="1206" 
d="M156 1028q0 101 44.5 183.5t120 134.5t172.5 80t205 28q214 0 336.5 -109t122.5 -278v-25q-3 -20 -24 -20h-177q-16 0 -16 20q0 96 -74 151.5t-198 55.5q-52 0 -102 -11.5t-94 -34t-71.5 -62.5t-27.5 -90q0 -32 10 -58.5t33.5 -48t47.5 -37.5t66 -32.5t74 -27t86 -26.5
q69 -20 121.5 -40.5t108 -51.5t91 -67t58.5 -87t23 -112q0 -117 -43.5 -209.5t-121 -152t-182.5 -90.5t-231 -31q-226 0 -362 115t-136 296q0 19 4 55q3 21 25 21h176q17 0 17 -21q0 -127 67 -194.5t223 -67.5q66 0 125.5 14t109 42t78.5 75.5t29 108.5q0 75 -75 125
t-232 94q-208 57 -307.5 144.5t-99.5 240.5z" />
    <glyph glyph-name="T" unicode="T" horiz-adv-x="1058" 
d="M88 1249l33 164q3 21 24 21h1020q17 0 17 -21l-33 -164q-3 -20 -25 -20h-399l-236 -1209q-3 -20 -24 -20h-180q-17 0 -17 20l236 1209h-400q-16 0 -16 20z" />
    <glyph glyph-name="U" unicode="U" horiz-adv-x="1349" 
d="M117 547l168 866q3 21 24 21h180q17 0 17 -21l-172 -876q-10 -49 -10 -105q0 -122 66.5 -185t187.5 -63q146 0 243 92.5t129 260.5l172 876q3 21 25 21h180q16 0 16 -21l-174 -889q-54 -275 -210.5 -409.5t-399.5 -134.5q-211 0 -332 118.5t-121 341.5q0 36 11 107z" />
    <glyph glyph-name="V" unicode="V" horiz-adv-x="1228" 
d="M1370 1413l-760 -1393q-9 -20 -26 -20h-230q-15 0 -18 20l-225 1393q0 21 20 21h191q17 0 20 -21l170 -1149l604 1149q9 21 29 21h215q14 0 14 -9z" />
    <glyph glyph-name="W" unicode="W" horiz-adv-x="1763" 
d="M1843 1413l-586 -1393q-9 -20 -26 -20h-227q-16 0 -19 20l-57 984l-436 -984q-9 -20 -27 -20h-227q-16 0 -19 20l-61 1393q0 21 20 21h176q21 0 21 -21l39 -1106l446 1008q9 20 29 20h188q18 0 21 -20l65 -1008l457 1106q9 21 29 21h182q14 0 14 -11q0 -6 -2 -10z" />
    <glyph glyph-name="X" unicode="X" horiz-adv-x="1198" 
d="M438 1413l213 -467l389 467q18 21 37 21h209q10 0 13 -7t-3 -14l-553 -668l332 -725q9 -20 -14 -20h-193q-10 0 -14 3t-10 17l-250 545l-451 -545q-10 -13 -15.5 -16.5t-16.5 -3.5h-224q-8 0 -11 6t3 14l623 748l-297 645q-4 10 0 15.5t12 5.5h197q15 0 24 -21z" />
    <glyph glyph-name="Y" unicode="Y" horiz-adv-x="1081" 
d="M1212 1413l-614 -897l-96 -496q-3 -20 -25 -20h-180q-16 0 -16 20l96 496l-268 897q0 21 18 21h195q19 0 22 -17l182 -655l443 655q10 17 26 17h209q20 0 8 -21z" />
    <glyph glyph-name="Z" unicode="Z" horiz-adv-x="1230" 
d="M219 1249l33 164q3 21 24 21h945q16 0 16 -21l-33 -164q-2 -12 -18 -35l-936 -1009h780q17 0 17 -21l-33 -164q-3 -20 -25 -20h-1026q-16 0 -16 20l33 164q2 12 18 35l942 1010h-704q-17 0 -17 20z" />
    <glyph glyph-name="bracketleft" unicode="[" horiz-adv-x="915" 
d="M18 -385l349 1798q3 21 24 21h547q16 0 16 -21l-32 -164q-3 -20 -25 -20h-346l-277 -1430h347q16 0 16 -20l-33 -164q-3 -21 -24 -21h-547q-15 0 -15 21z" />
    <glyph glyph-name="backslash" unicode="\" horiz-adv-x="616" 
d="M197 1413l438 -1393q6 -20 -19 -20h-174q-16 0 -22 20l-438 1393q-6 21 16 21h174q19 0 25 -21z" />
    <glyph glyph-name="bracketright" unicode="]" horiz-adv-x="915" 
d="M817 1413l-350 -1798q-3 -21 -25 -21h-544q-17 0 -17 21l33 164q3 20 25 20h344l276 1430h-346q-16 0 -16 20l32 164q3 21 25 21h547q16 0 16 -21z" />
    <glyph glyph-name="asciicircum" unicode="^" horiz-adv-x="1146" 
d="M256 748h-199q-10 0 -12 6t4 14l518 645q15 21 31 21h186q16 0 25 -21l270 -645q6 -20 -16 -20h-172q-16 0 -25 20l-196 473l-381 -473q-14 -20 -33 -20z" />
    <glyph glyph-name="underscore" unicode="_" horiz-adv-x="950" 
d="M-63 0h864q16 0 16 -20l-31 -160q-3 -21 -24 -21h-864q-17 0 -17 21l31 160q3 20 25 20z" />
    <glyph glyph-name="grave" unicode="`" horiz-adv-x="608" 
d="M444 1413l91 -258q9 -20 -15 -20h-147q-23 0 -33 18l-160 260q-5 8 0 14.5t15 6.5h223q17 0 26 -21z" />
    <glyph glyph-name="a" unicode="a" horiz-adv-x="1239" 
d="M1139 1008l-191 -988q-3 -20 -24 -20h-168q-17 0 -17 20l11 56q-64 -50 -135.5 -73t-168.5 -23q-85 0 -157.5 28.5t-128.5 83.5t-87.5 143t-31.5 201q0 129 41.5 241.5t117 195t187 129.5t244.5 47q181 0 289 -101l10 60q3 20 24 20h168q17 0 17 -20zM504 172
q153 0 254.5 119.5t101.5 298.5q0 124 -64.5 195t-181.5 71q-157 0 -254.5 -120.5t-97.5 -295.5q0 -127 65 -197.5t177 -70.5z" />
    <glyph glyph-name="b" unicode="b" horiz-adv-x="1263" 
d="M47 20l272 1393q3 21 25 21h168q16 0 16 -21l-90 -467q139 103 334 103q166 0 267.5 -114.5t101.5 -328.5q0 -120 -39.5 -232.5t-110.5 -200t-178 -140.5t-233 -53q-192 0 -308 116l-16 -76q-3 -20 -25 -20h-168q-16 0 -16 20zM686 856q-156 0 -257 -114.5t-101 -292.5
q0 -133 65 -205t174 -72q154 0 251 118.5t97 287.5q0 132 -59 205t-170 73z" />
    <glyph glyph-name="c" unicode="c" horiz-adv-x="1148" 
d="M629 856q-155 0 -259 -115.5t-104 -283.5q0 -285 250 -285q186 0 287 176q9 19 33 19h174q12 0 12 -13q0 -5 -6 -20q-145 -354 -522 -354q-210 0 -329.5 122t-119.5 338q0 173 76.5 311.5t216 218t317.5 79.5q191 0 308.5 -103.5t117.5 -251.5q0 -4 -1 -10.5t-1 -9.5
q-3 -12 -18 -12h-166q-11 0 -16 3t-9 15q-32 176 -241 176z" />
    <glyph glyph-name="d" unicode="d" horiz-adv-x="1247" 
d="M1219 1413l-273 -1393q-3 -20 -24 -20h-168q-17 0 -17 20l15 66q-122 -106 -299 -106q-184 0 -296 116t-112 336q0 123 40.5 235t113 196.5t181 135t236.5 50.5q184 0 299 -119l95 483q3 21 24 21h168q17 0 17 -21zM860 586q0 120 -63 195t-181 75q-157 0 -253.5 -125
t-96.5 -299q0 -123 62.5 -191.5t169.5 -68.5q165 0 263.5 121t98.5 293z" />
    <glyph glyph-name="e" unicode="e" horiz-adv-x="1196" 
d="M512 172q100 0 169 36t124 118q11 18 31 18h178q12 0 12 -14q0 -7 -6 -21q-77 -170 -206 -249.5t-316 -79.5q-202 0 -327.5 124t-125.5 345q0 160 77.5 297t219 220t315.5 83q142 0 242.5 -60.5t146.5 -158t46 -220.5q0 -37 -11 -102l-8 -39q-3 -20 -24 -20h-783v-25
q0 -119 64 -185.5t182 -66.5zM635 856q-102 0 -194.5 -56t-143.5 -167h577q-9 223 -239 223z" />
    <glyph glyph-name="f" unicode="f" horiz-adv-x="749" 
d="M737 836h-295l-159 -816q-3 -20 -25 -20h-168q-19 0 -16 20l159 816h-163q-17 0 -17 20l29 152q3 20 24 20h164l21 109q29 152 125 234.5t235 82.5q114 0 213 -45q13 -10 13 -18t-3 -17l-28 -141q-3 -21 -19 -21q-2 0 -4 1t-5 2t-5 2q-86 45 -156 45q-73 0 -111 -39
t-52 -119l-15 -76h295q17 0 17 -20l-29 -152q-6 -20 -25 -20z" />
    <glyph glyph-name="g" unicode="g" horiz-adv-x="1247" 
d="M424 -426q-196 0 -294.5 87.5t-98.5 258.5q3 21 24 21h160q16 0 16 -21q0 -153 215 -153q254 0 308 294l6 35q-89 -53 -149 -72.5t-152 -19.5q-180 0 -281.5 107t-101.5 311q0 122 38 234t107 200t177 140.5t239 52.5q189 0 287 -107l14 66q3 20 25 20h167q17 0 17 -20
l-180 -926q-53 -274 -182.5 -391t-360.5 -117zM537 197q97 0 175 59t118 149.5t40 190.5q0 260 -225 260q-106 0 -187.5 -58t-123 -149t-41.5 -196q0 -125 61 -190.5t183 -65.5z" />
    <glyph glyph-name="h" unicode="h" horiz-adv-x="1243" 
d="M41 20l272 1393q3 21 25 21h168q16 0 16 -21l-94 -485q86 63 169.5 92t180.5 29q150 0 231 -74.5t81 -200.5q0 -32 -11 -96l-129 -658q-3 -20 -24 -20h-168q-17 0 -17 20l119 603q8 33 8 69q0 76 -41 120t-129 44q-123 0 -221 -90t-133 -260l-94 -486q-3 -20 -25 -20
h-168q-16 0 -16 20z" />
    <glyph glyph-name="i" unicode="i" horiz-adv-x="548" 
d="M43 20l190 988q3 20 25 20h168q16 0 16 -20l-192 -988q-3 -20 -25 -20h-166q-16 0 -16 20zM250 1208l41 205q3 21 24 21h213q17 0 17 -21l-41 -205q-3 -20 -25 -20h-213q-16 0 -16 20z" />
    <glyph glyph-name="j" unicode="j" horiz-adv-x="548" 
d="M27 -63l206 1071q3 20 25 20h168q16 0 16 -20l-204 -1063q-26 -128 -56 -204.5t-76 -150.5q-10 -16 -18 -16q-5 0 -20 6l-144 53q-12 6 -12 15q0 8 2 10q47 82 72 140.5t41 138.5zM250 1208l41 205q3 21 24 21h213q17 0 17 -21l-41 -205q-3 -20 -23 -20h-213
q-18 0 -18 20z" />
    <glyph glyph-name="k" unicode="k" horiz-adv-x="1116" 
d="M1090 997l-424 -350l272 -616q2 -4 2 -15q-3 -16 -22 -16h-177q-19 0 -28 18l-219 500l-162 -131l-72 -367q-3 -20 -24 -20h-168q-17 0 -17 20l273 1393q3 21 24 21h168q16 0 16 -21l-147 -756l444 353q25 18 37 18h221q15 0 15 -12q0 -10 -12 -19z" />
    <glyph glyph-name="l" unicode="l" horiz-adv-x="550" 
d="M43 20l272 1393q3 21 25 21h168q16 0 16 -21l-272 -1393q-3 -20 -25 -20h-168q-16 0 -16 20z" />
    <glyph glyph-name="m" unicode="m" horiz-adv-x="1677" 
d="M43 20l190 988q3 20 25 20h168q16 0 16 -20l-14 -78q113 119 274 119q97 0 150 -33t98 -105q138 138 322 138q122 0 187 -64t65 -182q0 -46 -8 -90l-134 -693q-3 -20 -24 -20h-168q-16 0 -16 20l124 644q9 37 9 69q0 123 -125 123q-97 0 -167.5 -91.5t-105.5 -264.5
l-92 -480q-3 -20 -24 -20h-168q-17 0 -17 20l125 644q8 36 8 69q0 123 -133 123q-94 0 -162 -87.5t-102 -268.5l-92 -480q-3 -20 -25 -20h-168q-16 0 -16 20z" />
    <glyph glyph-name="n" unicode="n" horiz-adv-x="1218" 
d="M41 20l190 988q3 20 25 20h168q16 0 16 -20l-16 -93q157 134 352 134q140 0 216.5 -71.5t76.5 -195.5q0 -37 -10 -92l-129 -670q-3 -20 -25 -20h-168q-16 0 -16 20l119 611q8 31 8 71q0 71 -43 112.5t-123 41.5q-116 0 -211.5 -91t-126.5 -259l-94 -486q-3 -20 -25 -20
h-168q-16 0 -16 20z" />
    <glyph glyph-name="o" unicode="o" horiz-adv-x="1245" 
d="M45 434q0 175 80 315.5t223.5 220t323.5 79.5q211 0 339 -128.5t128 -326.5q0 -131 -47 -245t-129.5 -195t-199 -127.5t-251.5 -46.5q-211 0 -339 128t-128 326zM651 856q-163 0 -274 -113.5t-111 -289.5q0 -135 69 -208t197 -73q164 0 275 113.5t111 289.5
q0 135 -69.5 208t-197.5 73z" />
    <glyph glyph-name="p" unicode="p" horiz-adv-x="1255" 
d="M-29 -385l273 1393q3 20 24 20h168q17 0 17 -20l-15 -66q123 107 299 107q184 0 296 -116.5t112 -336.5q0 -123 -40.5 -234.5t-113.5 -196.5t-181.5 -135t-236.5 -50q-184 0 -299 118l-94 -483q-3 -21 -24 -21h-168q-17 0 -17 21zM330 442q0 -120 63 -195t180 -75
q157 0 254 125t97 299q0 123 -62.5 191.5t-169.5 68.5q-165 0 -263.5 -121t-98.5 -293z" />
    <glyph glyph-name="q" unicode="q" horiz-adv-x="1247" 
d="M1141 1008l-273 -1393q-3 -21 -24 -21h-168q-17 0 -17 21l91 467q-74 -57 -148 -79.5t-164 -22.5q-181 0 -286 113.5t-105 328.5q0 120 39.5 232.5t110.5 200.5t178 141t233 53q190 0 307 -117l17 76q6 20 24 20h166q19 0 19 -20zM502 172q156 0 257 115t101 293
q0 133 -65 204.5t-174 71.5q-155 0 -254 -118.5t-99 -286.5q0 -131 61 -205t173 -74z" />
    <glyph glyph-name="r" unicode="r" horiz-adv-x="905" 
d="M918 979l-33 -162q-3 -22 -21 -22l-12 4q-64 33 -103 45t-92 12q-108 0 -191 -80.5t-112 -220.5l-102 -535q-3 -20 -25 -20h-168q-16 0 -16 20l190 988q3 20 25 20h168q16 0 16 -20l-12 -74q128 115 291 115q105 0 178 -33q21 -9 21 -23q0 -8 -2 -14z" />
    <glyph glyph-name="s" unicode="s" horiz-adv-x="1036" 
d="M889 340q0 -169 -129 -264.5t-336 -95.5q-202 0 -300.5 90.5t-98.5 255.5q0 20 24 20h168q16 0 16 -20q4 -84 53 -119t150 -35q43 0 81.5 7.5t73.5 23t56 45t21 69.5q0 45 -51 69.5t-193 55.5q-157 33 -231 100t-74 183q0 149 127.5 236.5t310.5 87.5q175 0 277 -87
t102 -221q0 -20 -25 -20h-174q-13 0 -16 20q-21 115 -195 115q-46 0 -88.5 -11t-76 -40t-33.5 -72q0 -48 54 -79.5t187 -55.5q320 -59 320 -258z" />
    <glyph glyph-name="t" unicode="t" horiz-adv-x="845" 
d="M481 1028h322q16 0 16 -20l-28 -152q-3 -20 -25 -20h-322l-92 -471q-4 -15 -4 -62q0 -65 28.5 -98t94.5 -33q102 0 186 35q2 2 13 2q14 0 14 -19l-29 -145q-1 -3 -3 -9.5t-3 -9t-3 -6.5t-5 -6t-8 -4q-77 -30 -217 -30q-139 0 -212 68.5t-73 189.5q0 42 6 81l99 517h-177
q-16 0 -16 20l29 152q3 20 24 20h176l58 295q3 20 24 20h166q19 0 19 -20z" />
    <glyph glyph-name="u" unicode="u" horiz-adv-x="1206" 
d="M1108 1008l-190 -988q-3 -20 -25 -20h-168q-16 0 -16 20l16 93q-77 -65 -161 -99t-191 -34q-140 0 -216.5 71.5t-76.5 194.5q0 37 10 92l129 670q3 20 25 20h168q16 0 16 -20l-119 -611q-8 -31 -8 -71q0 -71 43 -112.5t123 -41.5q116 0 211.5 91t126.5 259l94 486
q3 20 25 20h168q16 0 16 -20z" />
    <glyph glyph-name="v" unicode="v" horiz-adv-x="960" 
d="M1004 995l-558 -975q-14 -20 -28 -20h-185q-17 0 -20 20l-184 975q0 11 2 15q3 18 20 18h174q25 0 25 -20l123 -740l407 740q11 20 33 20h180q17 0 17 -16q0 -5 -6 -17z" />
    <glyph glyph-name="w" unicode="w" horiz-adv-x="1560" 
d="M1561 997l-476 -977q-9 -20 -30 -20h-185q-22 0 -22 20l-82 685l-324 -685q-11 -20 -30 -20h-181q-22 0 -22 20l-123 984q0 24 20 24h173q11 0 16 -2.5t6 -5t2 -12.5l64 -734l323 684q9 21 29 21h184q18 0 21 -21l82 -684l340 734q5 12 10.5 16t21.5 4h174q15 0 15 -14
q0 -5 -6 -17z" />
    <glyph glyph-name="x" unicode="x" horiz-adv-x="1024" 
d="M358 1014l160 -305l268 305q11 14 31 14h201q12 0 12 -12q0 -9 -6 -15l-414 -469l264 -505q5 -15 5 -17q0 -10 -15 -10h-194q-16 0 -25 20l-182 345l-295 -345q-20 -20 -33 -20h-219q-10 0 -10 10q0 7 8 17l455 518l-240 452q-4 12 -4 17q0 14 16 14h191q18 0 26 -14z
" />
    <glyph glyph-name="y" unicode="y" horiz-adv-x="1075" 
d="M115 1028h186q20 0 23 -20l137 -711l364 711q9 20 31 20h186q15 0 15 -14q0 -3 -4 -15l-582 -1099q-49 -95 -100.5 -160.5t-104 -100.5t-102 -50t-105.5 -15q-101 0 -180 33q-16 7 -16 22q0 9 2 15l29 147q3 21 20 21q7 0 52 -22.5t93 -22.5q73 0 131.5 55t118.5 186
l-213 985q-2 6 -2 19q0 16 21 16z" />
    <glyph glyph-name="z" unicode="z" horiz-adv-x="999" 
d="M147 856l29 152q3 20 25 20h741q16 0 16 -20l-28 -152q-1 -10 -2 -14t-6.5 -12.5t-16.5 -16.5l-651 -620h565q17 0 17 -21l-29 -152q-6 -20 -25 -20h-805q-16 0 -16 20l29 152q2 12 16 31l664 633h-506q-17 0 -17 20z" />
    <glyph glyph-name="braceleft" unicode="{" horiz-adv-x="815" 
d="M426 336l-72 -365q-8 -44 -8 -69q0 -54 26.5 -78.5t86.5 -24.5h67q17 0 17 -20l-33 -164q-3 -21 -25 -21h-84q-135 0 -205.5 69t-70.5 202q0 66 10 121l58 288q6 27 6 50q0 88 -105 88h-57q-17 0 -17 20l31 164q3 20 25 20h57q61 0 98.5 30.5t53.5 107.5l57 288
q46 224 132 308t274 84h96q16 0 16 -21l-33 -164q-3 -20 -24 -20h-68q-72 0 -111.5 -40t-58.5 -132l-71 -365q-17 -83 -51.5 -120t-110.5 -58q96 -30 96 -135q0 -27 -2 -43z" />
    <glyph glyph-name="bar" unicode="|" horiz-adv-x="585" 
d="M25 -184l307 1597q3 21 24 21h176q17 0 17 -21l-309 -1597q-3 -21 -25 -21h-176q-14 0 -14 21z" />
    <glyph glyph-name="braceright" unicode="}" horiz-adv-x="815" 
d="M344 692l72 365q8 44 8 69q0 54 -26.5 78.5t-86.5 24.5h-67q-17 0 -17 20l33 164q3 21 25 21h84q135 0 205.5 -69t70.5 -202q0 -66 -10 -121l-57 -288q-7 -32 -7 -49q0 -89 105 -89h57q17 0 17 -20l-31 -164q-3 -20 -25 -20h-57q-61 0 -98.5 -30.5t-53.5 -107.5l-57 -288
q-46 -224 -131.5 -308t-273.5 -84h-97q-16 0 -16 21l33 164q3 20 24 20h68q72 0 111.5 40t58.5 132l71 365q17 83 51.5 120t110.5 58q-96 30 -96 135q0 27 2 43z" />
    <glyph glyph-name="asciitilde" unicode="~" horiz-adv-x="1056" 
d="M68 766q53 32 132 53t134 21q63 0 118.5 -13t89 -29t79 -29t92.5 -13q80 0 166 51l16 4q10 0 16 -16l60 -131q4 -12 4 -19q0 -13 -23 -29q-53 -32 -132 -52.5t-134 -20.5q-64 0 -119.5 13t-88.5 29t-79 29t-92 13q-78 0 -166 -52l-16 -4q-9 0 -16 17l-60 131q-4 12 -4 18
q0 13 23 29z" />
    <glyph glyph-name="uni00A0" unicode="&#xa0;" horiz-adv-x="475" 
 />
    <glyph glyph-name="exclamdown" unicode="&#xa1;" horiz-adv-x="718" 
d="M240 -406h-172q-17 0 -17 21l195 997q3 21 24 21h172q17 0 17 -21l-195 -997q-3 -21 -24 -21zM487 782h-204q-17 0 -17 21l41 205q3 20 25 20h205q16 0 16 -20l-41 -205q-3 -21 -25 -21z" />
    <glyph glyph-name="cent" unicode="&#xa2;" horiz-adv-x="1169" 
d="M362 20l35 177q-153 36 -236 150t-83 296q0 242 144 407.5t380 194.5l33 168q3 21 24 21h160q17 0 17 -21l-35 -172q145 -29 229 -124.5t84 -219.5q0 -4 -1 -10.5t-1 -9.5q-3 -13 -18 -13h-166q-18 0 -25 19q-20 124 -139 161l-131 -659q131 37 203 166q9 18 32 18h174
q13 0 13 -12q0 -5 -6 -20q-133 -318 -455 -353l-31 -164q-6 -20 -24 -20h-160q-17 0 -17 20zM299 659q0 -205 137 -266l127 651q-118 -36 -191 -140.5t-73 -244.5z" />
    <glyph glyph-name="sterling" unicode="&#xa3;" horiz-adv-x="1214" 
d="M55 227q191 191 201 381h-168q-16 0 -16 21l30 159q3 21 25 21h109q-11 75 -11 143q0 224 147.5 363t372.5 139q186 0 296 -99.5t110 -252.5q0 -35 -6 -66q-3 -20 -25 -20h-170q-16 0 -16 20v21q0 87 -54.5 139.5t-166.5 52.5q-121 0 -194 -85t-73 -210q0 -19 2 -39.5
t4.5 -34.5t6.5 -36.5t6 -34.5h409q17 0 17 -21l-31 -159q-3 -21 -24 -21h-363q-10 -115 -58 -212t-141 -191h727q17 0 17 -21l-33 -164q-3 -20 -24 -20h-947q-14 0 -14 20l31 166q4 18 24 41z" />
    <glyph glyph-name="currency" unicode="&#xa4;" horiz-adv-x="1161" 
d="M31 219l133 109q-31 67 -31 149q0 166 105 293l-76 94q-4 8 -4 13q0 6 10 16l113 96q8 8 16 8q4 0 12 -8l82 -102q100 49 213 49q128 0 217 -57l137 116q9 9 17 9q6 0 12 -9l90 -106q4 -8 4 -12q0 -7 -10 -17l-133 -110q31 -70 31 -150q0 -163 -109 -291l78 -96
q4 -8 4 -12q0 -7 -10 -17l-111 -94q-8 -8 -16 -8q-4 0 -12 8l-84 100q-100 -49 -211 -49q-125 0 -219 58l-136 -115q-8 -8 -16 -8q-4 0 -12 8l-90 106q-5 10 -5 13q0 5 11 16zM584 756q-102 0 -179 -74.5t-77 -181.5q0 -86 47.5 -132t132.5 -46q105 0 184.5 72t79.5 179
q0 88 -48 135.5t-140 47.5z" />
    <glyph glyph-name="yen" unicode="&#xa5;" horiz-adv-x="1140" 
d="M115 412h299l18 96h-340q-16 0 -16 20l30 160q3 21 25 21h246l-209 704q0 21 16 21h201q15 0 18 -17l185 -657l442 657q10 17 27 17h209q12 0 12 -9q0 -4 -4 -12l-486 -704h265q16 0 16 -21l-31 -160q-3 -20 -24 -20h-361l-18 -96h319q17 0 17 -21l-33 -160
q-3 -20 -25 -20h-317l-37 -191q-3 -20 -24 -20h-181q-16 0 -16 20l37 191h-301q-17 0 -17 20l33 160q3 21 25 21z" />
    <glyph glyph-name="brokenbar" unicode="&#xa6;" horiz-adv-x="626" 
d="M217 649l150 764q3 21 24 21h180q17 0 17 -21l-150 -764q-3 -20 -24 -20h-181q-16 0 -16 20zM18 -385l148 764q3 20 24 20h181q16 0 16 -20l-149 -764q-3 -21 -25 -21h-178q-17 0 -17 21z" />
    <glyph glyph-name="section" unicode="&#xa7;" horiz-adv-x="1044" 
d="M905 449q0 -151 -141 -254q34 -47 49.5 -92.5t15.5 -110.5q0 -186 -136.5 -302t-342.5 -116q-94 0 -169.5 30.5t-120 80.5t-68 109t-23.5 120v57q3 21 25 21h176q16 0 16 -21v-28q0 -164 193 -164q104 0 168.5 56t64.5 149q0 68 -49.5 120t-161.5 119
q-168 101 -233.5 176t-65.5 191q0 72 33.5 129t108.5 115q-34 47 -50 91t-16 101q0 192 135 310t338 118q178 0 285.5 -95t107.5 -231q0 -34 -6 -71q-3 -21 -24 -21h-176q-17 0 -17 21q2 16 2 28q0 164 -194 164q-97 0 -165.5 -52.5t-68.5 -147.5q0 -69 49.5 -122
t161.5 -120q168 -101 233.5 -174t65.5 -184zM424 680l-31 20q-74 -44 -74 -110q0 -43 53 -91.5t212 -150.5l39 -24q65 42 65 106q0 50 -53.5 101.5t-210.5 148.5z" />
    <glyph glyph-name="dieresis" unicode="&#xa8;" horiz-adv-x="718" 
d="M156 1221l39 192q3 21 24 21h193q16 0 16 -21l-39 -192q-3 -21 -24 -21h-193q-16 0 -16 21zM508 1221l39 192q3 21 24 21h193q16 0 16 -21l-39 -192q-3 -21 -24 -21h-193q-16 0 -16 21z" />
    <glyph glyph-name="copyright" unicode="&#xa9;" horiz-adv-x="1638" 
d="M819 -20q-105 0 -207.5 30.5t-194 93t-161 149t-110 206.5t-40.5 258t40.5 258t110 206.5t161 149t194 93t207.5 30.5t207.5 -30.5t194 -93t161 -149t110 -206.5t40.5 -258t-40.5 -258t-110 -206.5t-161 -149t-194 -93t-207.5 -30.5zM819 66q92 0 180 25.5t167 79
t138.5 129t94.5 183.5t35 234t-35 234t-94.5 183.5t-138.5 129t-167 79t-180 25.5t-180 -25.5t-167 -79t-138 -129.5t-94 -183.5t-35 -233.5t35 -233.5t94 -183.5t138 -129.5t167 -79t180 -25.5zM1153 565h49q23 0 23 -20q-26 -140 -136.5 -222.5t-269.5 -82.5
q-82 0 -157.5 30.5t-137 87.5t-98.5 150.5t-37 208.5t37 208.5t98.5 150.5t137 87.5t157.5 30.5q159 0 269.5 -82.5t136.5 -222.5q0 -21 -23 -21h-49q-23 0 -29 21q-24 100 -104 159.5t-201 59.5q-137 0 -234.5 -104.5t-97.5 -286.5t97.5 -286.5t234.5 -104.5
q121 0 201 59.5t104 159.5q6 20 29 20z" />
    <glyph glyph-name="ordfeminine" unicode="&#xaa;" horiz-adv-x="954" 
d="M934 1419l-141 -735q-3 -14 -19 -14h-125q-12 0 -12 14l8 43q-93 -72 -225 -72t-216.5 87t-84.5 251q0 129 52.5 232.5t153 164t232.5 60.5q128 0 215 -76l8 45q0 15 17 15h125q12 0 12 -15zM463 797q114 0 189 88.5t75 222.5q0 93 -47.5 146t-134.5 53
q-117 0 -189.5 -90t-72.5 -220q0 -95 48.5 -147.5t131.5 -52.5z" />
    <glyph glyph-name="guillemotleft" unicode="&#xab;" horiz-adv-x="1169" 
d="M662 1067l-46 -227q-3 -22 -20 -33l-350 -256l250 -272q10 -10 10 -21q0 -6 -2 -12l-39 -191q-3 -14 -14 -14q-7 0 -13 6l-375 412q-15 18 -12 37l27 139q3 23 28 37l533 403q9 6 14 6q9 0 9 -14zM1098 1067l-45 -227q-3 -21 -21 -33l-350 -256l250 -272q10 -10 10 -21
q0 -6 -2 -12l-39 -191q-3 -14 -14 -14q-7 0 -13 6l-374 412q-16 19 -13 37l27 139q3 23 29 37l532 403q9 6 15 6q8 0 8 -14z" />
    <glyph glyph-name="logicalnot" unicode="&#xac;" horiz-adv-x="1116" 
d="M748 639h-648q-16 0 -16 20l29 152q3 20 24 20h836q16 0 16 -20l-84 -430q-3 -21 -24 -21h-168q-17 0 -17 21z" />
    <glyph glyph-name="registered" unicode="&#xae;" horiz-adv-x="1638" 
d="M819 -20q-105 0 -207.5 30.5t-194 93t-161 149t-110 206.5t-40.5 258t40.5 258t110 206.5t161 149t194 93t207.5 30.5t207.5 -30.5t194 -93t161 -149t110 -206.5t40.5 -258t-40.5 -258t-110 -206.5t-161 -149t-194 -93t-207.5 -30.5zM819 66q92 0 180 25.5t167 79
t138.5 129t94.5 183.5t35 234t-35 234t-94.5 183.5t-138.5 129t-167 79t-180 25.5t-180 -25.5t-167 -79t-138 -129.5t-94 -183.5t-35 -233.5t35 -233.5t94 -183.5t138 -129.5t167 -79t180 -25.5zM537 272v893q0 23 22 23h279q145 0 221 -70.5t76 -189.5q0 -96 -50.5 -161.5
t-138.5 -90.5l201 -404q4 -12 4 -14q0 -8 -12 -8h-58q-23 0 -32 18l-201 396h-213v-392q0 -22 -23 -22h-53q-22 0 -22 22zM635 1102v-352h217q97 0 140.5 45t43.5 133q0 174 -184 174h-217z" />
    <glyph glyph-name="macron" unicode="&#xaf;" horiz-adv-x="575" 
d="M156 1221l26 143q3 20 25 20h409q17 0 17 -20l-27 -143q-3 -21 -24 -21h-410q-16 0 -16 21z" />
    <glyph glyph-name="degree" unicode="&#xb0;" horiz-adv-x="876" 
d="M131 1047q0 174 120 290.5t304 116.5q144 0 239 -87t95 -226q0 -174 -120.5 -291t-303.5 -117q-146 0 -240 87t-94 227zM539 1286q-97 0 -158.5 -66t-61.5 -159q0 -74 43.5 -117t118.5 -43q97 0 158 65.5t61 159.5q0 74 -43 117t-118 43z" />
    <glyph glyph-name="plusminus" unicode="&#xb1;" horiz-adv-x="1212" 
d="M66 201h888q17 0 17 -21l-31 -160q-3 -20 -25 -20h-888q-17 0 -17 20l31 160q3 21 25 21zM803 1192l-68 -344h340q17 0 17 -21l-31 -159q-3 -21 -25 -21h-340l-67 -344q-3 -20 -25 -20h-168q-16 0 -16 20l67 344h-340q-16 0 -16 21l31 159q3 21 24 21h340l68 344
q3 20 24 20h168q17 0 17 -20z" />
    <glyph glyph-name="twosuperior" unicode="&#xb2;" horiz-adv-x="786" 
d="M109 688l14 78q3 20 18 29l367 266q96 70 96 151q0 44 -27 69.5t-79 25.5q-49 0 -88.5 -32t-57.5 -81q-9 -20 -24 -20h-103q-16 0 -16 20q18 108 99.5 180t199.5 72q113 0 178.5 -59.5t65.5 -149.5q0 -83 -39 -145.5t-121 -122.5l-217 -162h291q16 0 16 -21l-18 -98
q-3 -20 -25 -20h-514q-16 0 -16 20z" />
    <glyph glyph-name="threesuperior" unicode="&#xb3;" horiz-adv-x="770" 
d="M328 1020l18 98q3 21 25 21h45q59 0 98 24.5t39 75.5q0 35 -23.5 55.5t-66.5 20.5q-85 0 -121 -84q-10 -17 -25 -17h-102q-16 0 -16 19q23 99 98.5 156t179.5 57q106 0 163.5 -52t57.5 -139q0 -121 -118 -178q86 -46 86 -159q0 -119 -79.5 -191t-213.5 -72
q-114 0 -183 63t-69 154q0 9 2 23q3 20 24 20h103q16 0 16 -20q0 -49 33 -74.5t86 -25.5q58 0 93.5 30.5t35.5 83.5q0 44 -27 67t-77 23h-66q-16 0 -16 21z" />
    <glyph glyph-name="acute" unicode="&#xb4;" horiz-adv-x="608" 
d="M154 1155l190 258q15 21 35 21h229q10 0 12 -7t-6 -14l-262 -260q-18 -18 -41 -18h-151q-8 0 -10 6.5t4 13.5z" />
    <glyph glyph-name="mu" unicode="&#xb5;" horiz-adv-x="1206" 
d="M1108 1008l-190 -988q-3 -20 -25 -20h-168q-16 0 -16 20l16 93q-77 -65 -161 -99t-191 -34q-83 0 -142 24l-75 -389q-3 -21 -25 -21h-168q-16 0 -16 21l272 1393q3 20 25 20h168q16 0 16 -20l-119 -611q-8 -31 -8 -71q0 -71 43 -112.5t123 -41.5q116 0 211.5 91
t126.5 259l94 486q3 20 25 20h168q16 0 16 -20z" />
    <glyph glyph-name="paragraph" unicode="&#xb6;" horiz-adv-x="1292" 
d="M614 1434h744q16 0 16 -21l-31 -164q-3 -20 -24 -20h-123l-274 -1413q-3 -21 -25 -21h-180q-17 0 -17 21l275 1413h-146l-274 -1413q-3 -21 -25 -21h-180q-16 0 -16 21l162 839h-37q-174 0 -271.5 87t-97.5 251q0 139 71 240.5t188 151t265 49.5z" />
    <glyph glyph-name="periodcentered" unicode="&#xb7;" horiz-adv-x="559" 
d="M207 848h188q17 0 17 -21l-35 -188q-3 -21 -25 -21h-188q-17 0 -17 21l35 188q3 21 25 21z" />
    <glyph glyph-name="cedilla" unicode="&#xb8;" horiz-adv-x="532" 
d="M-4 -227l-33 39q-6 6 -6 12l4 12l109 221q1 1 3 5t3 5t2.5 4t2.5 3.5l3 1.5t4.5 1.5t5.5 0.5h115q24 0 12 -21l-112 -174q58 15 108 15q75 0 116.5 -35t41.5 -101q0 -92 -74 -140t-188 -48q-142 0 -209 20q-19 6 -19 21l17 80q3 20 24 20q2 0 57 -13t123 -13
q101 0 101 55q0 43 -66 43q-35 0 -114 -18q-6 -2 -15 -2q-10 0 -16 6z" />
    <glyph glyph-name="onesuperior" unicode="&#xb9;" horiz-adv-x="563" 
d="M240 688l108 559l-139 -69q-18 -7 -21 -7q-12 0 -12 17l23 117q3 11 18 20l193 100q15 9 32 9h66q16 0 16 -21l-141 -725q-3 -20 -25 -20h-102q-16 0 -16 20z" />
    <glyph glyph-name="ordmasculine" unicode="&#xba;" horiz-adv-x="956" 
d="M117 991q0 197 133 328t334 131q158 0 253 -96t95 -244q0 -198 -131.5 -327.5t-335.5 -129.5q-155 0 -251.5 95t-96.5 243zM569 1307q-120 0 -203 -86t-83 -215q0 -100 52 -154.5t146 -54.5q120 0 203.5 84.5t83.5 214.5q0 102 -52 156.5t-147 54.5z" />
    <glyph glyph-name="guillemotright" unicode="&#xbb;" horiz-adv-x="1169" 
d="M465 55l45 228q3 21 20 32l351 256l-250 273q-10 10 -10 20q0 7 2 13l39 190q3 14 14 14q6 0 12 -6l375 -411q15 -18 12 -37l-26 -140q-3 -22 -29 -36l-533 -404q-9 -6 -14 -6q-8 0 -8 14zM29 55l45 228q3 21 20 32l350 256l-249 273q-11 11 -11 20q0 7 2 13l39 190
q3 14 15 14q6 0 12 -6l375 -411q15 -18 12 -37l-27 -140q-3 -22 -28 -36l-533 -404q-9 -6 -14 -6q-8 0 -8 14z" />
    <glyph glyph-name="onequarter" unicode="&#xbc;" horiz-adv-x="1732" 
d="M1171 20l21 109h-330q-16 0 -16 21l18 86q3 14 13 24l434 492q14 14 26 14h103q16 0 16 -21l-92 -477h96q17 0 17 -20l-21 -98q-3 -21 -24 -21h-97l-20 -109q-3 -20 -25 -20h-102q-17 0 -17 20zM1266 504l-207 -236h162zM238 688l108 559l-139 -69q-18 -7 -21 -7
q-12 0 -12 17l23 117q3 11 18 20l193 100q15 9 32 9h66q16 0 16 -21l-141 -725q-3 -20 -25 -20h-102q-16 0 -16 20zM111 102l1378 1325q7 7 14 7q8 0 15 -7l61 -67q8 -8 8 -14q0 -7 -8 -15l-1378 -1325q-6 -6 -15 -6q-8 0 -14 6l-61 68q-9 9 -9 14t9 14z" />
    <glyph glyph-name="onehalf" unicode="&#xbd;" horiz-adv-x="1822" 
d="M111 102l1378 1325q7 7 14 7q8 0 15 -7l61 -67q8 -8 8 -14q0 -7 -8 -15l-1378 -1325q-6 -6 -15 -6q-8 0 -14 6l-61 68q-9 9 -9 14t9 14zM238 688l108 559l-139 -69q-18 -7 -21 -7q-12 0 -12 17l23 117q3 11 18 20l193 100q15 9 32 9h66q16 0 16 -21l-141 -725
q-3 -20 -25 -20h-102q-16 0 -16 20zM1032 20l15 78q3 20 18 29l367 266q96 70 96 152q0 44 -27 69t-80 25q-49 0 -88 -32t-57 -81q-9 -20 -25 -20h-102q-16 0 -16 20q18 108 99.5 180t199.5 72q113 0 178 -59.5t65 -149.5q0 -83 -39 -146t-120 -122l-218 -162h291
q17 0 17 -20l-19 -99q-3 -20 -24 -20h-514q-17 0 -17 20z" />
    <glyph glyph-name="threequarters" unicode="&#xbe;" horiz-adv-x="1800" 
d="M328 1020l18 98q3 21 25 21h45q59 0 98 24.5t39 75.5q0 35 -23.5 55.5t-66.5 20.5q-85 0 -121 -84q-10 -17 -25 -17h-102q-16 0 -16 19q23 99 98.5 156t179.5 57q106 0 163.5 -52t57.5 -139q0 -121 -118 -178q86 -46 86 -159q0 -119 -79.5 -191t-213.5 -72
q-114 0 -183 63t-69 154q0 9 2 23q3 20 24 20h103q16 0 16 -20q0 -49 33 -74.5t86 -25.5q58 0 93.5 30.5t35.5 83.5q0 44 -27 67t-77 23h-66q-16 0 -16 21zM1239 20l21 109h-330q-17 0 -17 21l19 86q3 15 12 24l434 492q14 14 27 14h102q17 0 17 -21l-92 -477h96
q16 0 16 -20l-20 -98q-3 -21 -25 -21h-96l-21 -109q-3 -20 -24 -20h-103q-16 0 -16 20zM1333 504l-207 -236h162zM178 102l1378 1325q7 7 15 7q7 0 14 -7l62 -67q8 -8 8 -14q0 -7 -8 -15l-1379 -1325q-6 -6 -14 -6t-14 6l-62 68q-8 8 -8 14t8 14z" />
    <glyph glyph-name="questiondown" unicode="&#xbf;" horiz-adv-x="1120" 
d="M899 -8q-29 -186 -170.5 -302t-345.5 -116q-193 0 -298 91t-105 243q0 72 22.5 131.5t60 101.5t83 79.5t93.5 73t89.5 72t74 86.5t43.5 109l11 51q3 21 24 21h172q10 0 12.5 -4.5t2.5 -16.5l-9 -51q-12 -78 -43.5 -142.5t-72.5 -107t-88 -79.5t-92 -68t-81.5 -63
t-58.5 -74t-22 -93q0 -70 53 -112.5t145 -42.5q97 0 177 54t114 159q9 20 25 20h168q16 0 16 -20zM698 782h-204q-17 0 -17 21l41 205q3 20 25 20h205q16 0 16 -20l-41 -205q-3 -21 -25 -21z" />
    <glyph glyph-name="Agrave" unicode="&#xc0;" horiz-adv-x="1255" 
d="M907 20l-61 375h-551l-207 -375q-11 -20 -29 -20h-188q-18 0 -18 16q0 8 6 17l770 1380q7 12 11.5 16.5t14.5 4.5h209q20 0 23 -21l235 -1380q0 -33 -28 -33h-166q-18 0 -21 20zM721 1161l-311 -561h403zM768 1819l90 -258q9 -21 -14 -21h-148q-21 0 -32 19l-160 260
q-5 7 -0.5 13.5t14.5 6.5h223q18 0 27 -20z" />
    <glyph glyph-name="Aacute" unicode="&#xc1;" horiz-adv-x="1255" 
d="M907 20l-61 375h-551l-207 -375q-11 -20 -29 -20h-188q-18 0 -18 16q0 8 6 17l770 1380q7 12 11.5 16.5t14.5 4.5h209q20 0 23 -21l235 -1380q0 -33 -28 -33h-166q-18 0 -21 20zM721 1161l-311 -561h403zM694 1561l191 258q14 20 35 20h229q10 0 12 -6.5t-6 -13.5
l-262 -260q-19 -19 -41 -19h-152q-8 0 -10 7t4 14z" />
    <glyph glyph-name="Acircumflex" unicode="&#xc2;" horiz-adv-x="1255" 
d="M907 20l-61 375h-551l-207 -375q-11 -20 -29 -20h-188q-18 0 -18 16q0 8 6 17l770 1380q7 12 11.5 16.5t14.5 4.5h209q20 0 23 -21l235 -1380q0 -33 -28 -33h-166q-18 0 -21 20zM721 1161l-311 -561h403zM932 1823l164 -275q5 -8 0 -14t-15 -6h-151q-20 0 -35 18l-86 109
l-137 -109q-18 -18 -39 -18h-166q-10 0 -12 6t6 14l270 275q16 16 33 16h139q19 0 29 -16z" />
    <glyph glyph-name="Atilde" unicode="&#xc3;" horiz-adv-x="1255" 
d="M907 20l-61 375h-551l-207 -375q-11 -20 -29 -20h-188q-18 0 -18 16q0 8 6 17l770 1380q7 12 11.5 16.5t14.5 4.5h209q20 0 23 -21l235 -1380q0 -33 -28 -33h-166q-18 0 -21 20zM721 1161l-311 -561h403zM444 1765q133 95 246 95q51 0 88.5 -13t56 -29t47.5 -29t66 -13
q61 0 135 49q8 4 17 4q6 0 16 -17l55 -102q5 -15 5 -16q0 -6 -11 -17q-132 -94 -245 -94q-51 0 -88.5 13t-56 29t-47.5 29t-66 13q-62 0 -136 -49q-8 -4 -16 -4q-6 0 -16 16l-56 103q-4 12 -4 16q0 6 10 16z" />
    <glyph glyph-name="Adieresis" unicode="&#xc4;" horiz-adv-x="1255" 
d="M907 20l-61 375h-551l-207 -375q-11 -20 -29 -20h-188q-18 0 -18 16q0 8 6 17l770 1380q7 12 11.5 16.5t14.5 4.5h209q20 0 23 -21l235 -1380q0 -33 -28 -33h-166q-18 0 -21 20zM721 1161l-311 -561h403zM504 1626l39 193q3 20 24 20h193q16 0 16 -20l-39 -193
q-3 -20 -24 -20h-193q-16 0 -16 20zM856 1626l39 193q3 20 25 20h192q16 0 16 -20l-38 -193q-3 -20 -25 -20h-193q-16 0 -16 20z" />
    <glyph glyph-name="Aring" unicode="&#xc5;" horiz-adv-x="1255" 
d="M907 20l-61 375h-551l-207 -375q-11 -20 -29 -20h-188q-18 0 -18 16q0 8 6 17l770 1380q7 12 11.5 16.5t14.5 4.5h209q20 0 23 -21l235 -1380q0 -33 -28 -33h-166q-18 0 -21 20zM721 1161l-311 -561h403zM633 1663q0 96 65 156.5t160 60.5q75 0 123.5 -43.5t48.5 -116.5
q0 -96 -65 -156.5t-160 -60.5q-75 0 -123.5 43.5t-48.5 116.5zM842 1769q-37 0 -62.5 -24.5t-25.5 -61.5q0 -69 67 -69q37 0 62.5 24.5t25.5 61.5q0 69 -67 69z" />
    <glyph glyph-name="AE" unicode="&#xc6;" horiz-adv-x="1732" 
d="M946 651l-86 -446h680q16 0 16 -21l-32 -164q-3 -20 -25 -20h-881q-16 0 -16 20l74 375h-375l-223 -375q-11 -20 -29 -20h-180q-19 0 -19 14q0 5 7 19l823 1380q12 21 33 21h1036q16 0 16 -21l-32 -164q-3 -20 -25 -20h-649l-72 -373h588q16 0 16 -20l-32 -164
q-3 -21 -25 -21h-588zM795 1229l-373 -629h293l123 629h-43z" />
    <glyph glyph-name="Ccedilla" unicode="&#xc7;" horiz-adv-x="1413" 
d="M483 -227l-32 39q-7 7 -7 12q0 1 1 2.5t2 4.5t2 5l73 152q-206 30 -333.5 185.5t-127.5 406.5q0 135 34.5 263t103.5 238.5t164.5 194t226 131t278.5 47.5q244 0 391.5 -134t147.5 -372q0 -20 -25 -20h-172q-19 0 -22 20q-20 148 -108.5 224.5t-243.5 76.5
q-119 0 -223 -55.5t-173.5 -146t-109 -207t-39.5 -238.5q0 -208 97 -313t265 -105q150 0 258 73.5t181 227.5q9 21 26 21h176q21 0 21 -21q-65 -230 -240.5 -361.5t-417.5 -143.5l-61 -97q58 15 109 15q75 0 116 -34.5t41 -101.5q0 -92 -74 -140t-188 -48q-142 0 -209 20
q-18 6 -18 21l16 80q3 20 25 20q2 0 57 -13t123 -13q100 0 100 55q0 43 -65 43q-36 0 -115 -18q-6 -2 -14 -2q-11 0 -17 6z" />
    <glyph glyph-name="Egrave" unicode="&#xc8;" horiz-adv-x="1165" 
d="M385 651l-86 -446h676q18 0 18 -21l-32 -164q-3 -20 -25 -20h-879q-16 0 -16 20l272 1393q3 21 25 21h846q18 0 18 -21l-33 -164q-3 -20 -24 -20h-647l-72 -373h584q18 0 18 -20l-33 -164q-3 -21 -24 -21h-586zM823 1819l90 -258q9 -21 -14 -21h-147q-22 0 -33 19
l-160 260q-5 7 -0.5 13.5t14.5 6.5h224q17 0 26 -20z" />
    <glyph glyph-name="Eacute" unicode="&#xc9;" horiz-adv-x="1165" 
d="M385 651l-86 -446h676q18 0 18 -21l-32 -164q-3 -20 -25 -20h-879q-16 0 -16 20l272 1393q3 21 25 21h846q18 0 18 -21l-33 -164q-3 -20 -24 -20h-647l-72 -373h584q18 0 18 -20l-33 -164q-3 -21 -24 -21h-586zM596 1561l190 258q14 20 35 20h230q10 0 12 -6.5t-6 -13.5
l-262 -260q-19 -19 -41 -19h-152q-8 0 -10 7t4 14z" />
    <glyph glyph-name="Ecircumflex" unicode="&#xca;" horiz-adv-x="1165" 
d="M385 651l-86 -446h676q18 0 18 -21l-32 -164q-3 -20 -25 -20h-879q-16 0 -16 20l272 1393q3 21 25 21h846q18 0 18 -21l-33 -164q-3 -20 -24 -20h-647l-72 -373h584q18 0 18 -20l-33 -164q-3 -21 -24 -21h-586zM932 1823l164 -275q5 -8 0 -14t-15 -6h-151q-20 0 -35 18
l-86 109l-137 -109q-18 -18 -39 -18h-166q-10 0 -12 6t6 14l270 275q16 16 33 16h139q19 0 29 -16z" />
    <glyph glyph-name="Edieresis" unicode="&#xcb;" horiz-adv-x="1165" 
d="M385 651l-86 -446h676q18 0 18 -21l-32 -164q-3 -20 -25 -20h-879q-16 0 -16 20l272 1393q3 21 25 21h846q18 0 18 -21l-33 -164q-3 -20 -24 -20h-647l-72 -373h584q18 0 18 -20l-33 -164q-3 -21 -24 -21h-586zM485 1626l39 193q3 20 25 20h192q17 0 17 -20l-39 -193
q-3 -20 -25 -20h-192q-17 0 -17 20zM838 1626l39 193q3 20 24 20h193q16 0 16 -20l-39 -193q-3 -20 -24 -20h-193q-16 0 -16 20z" />
    <glyph glyph-name="Igrave" unicode="&#xcc;" horiz-adv-x="567" 
d="M37 20l272 1393q3 21 25 21h180q16 0 16 -21l-272 -1393q-3 -20 -25 -20h-180q-16 0 -16 20zM459 1819l90 -258q9 -21 -14 -21h-148q-22 0 -33 19l-159 260q-5 7 -0.5 13.5t14.5 6.5h223q18 0 27 -20z" />
    <glyph glyph-name="Iacute" unicode="&#xcd;" horiz-adv-x="567" 
d="M37 20l272 1393q3 21 25 21h180q16 0 16 -21l-272 -1393q-3 -20 -25 -20h-180q-16 0 -16 20zM342 1561l190 258q14 20 35 20h230q10 0 12 -6.5t-6 -13.5l-262 -260q-19 -19 -41 -19h-152q-8 0 -10 7t4 14z" />
    <glyph glyph-name="Icircumflex" unicode="&#xce;" horiz-adv-x="567" 
d="M37 20l272 1393q3 21 25 21h180q16 0 16 -21l-272 -1393q-3 -20 -25 -20h-180q-16 0 -16 20zM596 1823l164 -275q5 -8 0 -14t-15 -6h-151q-20 0 -35 18l-86 109l-137 -109q-18 -18 -39 -18h-166q-10 0 -12 6t6 14l270 275q16 16 33 16h139q19 0 29 -16z" />
    <glyph glyph-name="Idieresis" unicode="&#xcf;" horiz-adv-x="567" 
d="M37 20l272 1393q3 21 25 21h180q16 0 16 -21l-272 -1393q-3 -20 -25 -20h-180q-16 0 -16 20zM162 1626l39 193q3 20 24 20h193q16 0 16 -20l-39 -193q-3 -20 -24 -20h-193q-16 0 -16 20zM514 1626l39 193q3 20 25 20h192q16 0 16 -20l-38 -193q-3 -20 -25 -20h-193
q-16 0 -16 20z" />
    <glyph glyph-name="Eth" unicode="&#xd0;" horiz-adv-x="1413" 
d="M82 20l117 596h-154q-16 0 -16 21l30 160q3 20 25 20h154l116 596q3 21 25 21h403q124 0 226.5 -35.5t178 -103.5t117.5 -175t42 -243q0 -147 -35 -279t-105 -241t-169 -189t-233.5 -124t-291.5 -44h-414q-16 0 -16 20zM737 1229h-198l-80 -412h289q16 0 16 -20l-31 -160
q-3 -21 -24 -21h-289l-80 -411h182q142 0 256.5 49.5t187 135t111.5 196.5t39 237q0 406 -379 406z" />
    <glyph glyph-name="Ntilde" unicode="&#xd1;" horiz-adv-x="1468" 
d="M1130 0h-186q-22 0 -29 16l-446 1053l-207 -1049q-3 -20 -24 -20h-181q-16 0 -16 20l272 1393q3 21 25 21h186q22 0 29 -17l446 -1052l207 1048q3 21 25 21h180q16 0 16 -21l-272 -1393q-3 -20 -25 -20zM545 1765q133 95 246 95q51 0 88.5 -13t56 -29t47.5 -29t66 -13
q61 0 135 49q8 4 16 4q7 0 17 -17l55 -102q4 -12 4 -16q0 -7 -10 -17q-132 -94 -246 -94q-51 0 -88.5 13t-56 29t-47.5 29t-66 13q-61 0 -135 -49q-8 -4 -17 -4q-6 0 -16 16l-55 103q-4 12 -4 16q0 6 10 16z" />
    <glyph glyph-name="Ograve" unicode="&#xd2;" horiz-adv-x="1538" 
d="M643 -20q-123 0 -229.5 40.5t-186.5 115.5t-126 191.5t-46 260.5q0 170 59 326.5t164.5 276.5t265.5 191.5t349 71.5q123 0 229.5 -40.5t186.5 -115.5t126 -191.5t46 -260.5q0 -170 -59 -326.5t-164.5 -276.5t-265.5 -191.5t-349 -71.5zM670 184q103 0 195.5 36
t161.5 97.5t120.5 141.5t77.5 171.5t26 184.5q0 214 -105 324t-280 110q-103 0 -195.5 -36t-161.5 -97.5t-120.5 -141.5t-77.5 -171.5t-26 -184.5q0 -214 105 -324t280 -110zM944 1819l90 -258q9 -21 -14 -21h-148q-21 0 -32 19l-160 260q-5 7 -0.5 13.5t14.5 6.5h224
q17 0 26 -20z" />
    <glyph glyph-name="Oacute" unicode="&#xd3;" horiz-adv-x="1538" 
d="M643 -20q-123 0 -229.5 40.5t-186.5 115.5t-126 191.5t-46 260.5q0 170 59 326.5t164.5 276.5t265.5 191.5t349 71.5q123 0 229.5 -40.5t186.5 -115.5t126 -191.5t46 -260.5q0 -170 -59 -326.5t-164.5 -276.5t-265.5 -191.5t-349 -71.5zM670 184q103 0 195.5 36
t161.5 97.5t120.5 141.5t77.5 171.5t26 184.5q0 214 -105 324t-280 110q-103 0 -195.5 -36t-161.5 -97.5t-120.5 -141.5t-77.5 -171.5t-26 -184.5q0 -214 105 -324t280 -110zM758 1561l190 258q14 20 35 20h229q10 0 12.5 -6.5t-5.5 -13.5l-263 -260q-19 -19 -41 -19h-151
q-8 0 -10 7t4 14z" />
    <glyph glyph-name="Ocircumflex" unicode="&#xd4;" horiz-adv-x="1538" 
d="M643 -20q-123 0 -229.5 40.5t-186.5 115.5t-126 191.5t-46 260.5q0 170 59 326.5t164.5 276.5t265.5 191.5t349 71.5q123 0 229.5 -40.5t186.5 -115.5t126 -191.5t46 -260.5q0 -170 -59 -326.5t-164.5 -276.5t-265.5 -191.5t-349 -71.5zM670 184q103 0 195.5 36
t161.5 97.5t120.5 141.5t77.5 171.5t26 184.5q0 214 -105 324t-280 110q-103 0 -195.5 -36t-161.5 -97.5t-120.5 -141.5t-77.5 -171.5t-26 -184.5q0 -214 105 -324t280 -110zM1049 1823l163 -275q5 -8 0.5 -14t-14.5 -6h-151q-20 0 -35 18l-86 109l-138 -109
q-18 -18 -38 -18h-166q-10 0 -12 6t6 14l270 275q16 16 33 16h139q19 0 29 -16z" />
    <glyph glyph-name="Otilde" unicode="&#xd5;" horiz-adv-x="1538" 
d="M643 -20q-123 0 -229.5 40.5t-186.5 115.5t-126 191.5t-46 260.5q0 170 59 326.5t164.5 276.5t265.5 191.5t349 71.5q123 0 229.5 -40.5t186.5 -115.5t126 -191.5t46 -260.5q0 -170 -59 -326.5t-164.5 -276.5t-265.5 -191.5t-349 -71.5zM670 184q103 0 195.5 36
t161.5 97.5t120.5 141.5t77.5 171.5t26 184.5q0 214 -105 324t-280 110q-103 0 -195.5 -36t-161.5 -97.5t-120.5 -141.5t-77.5 -171.5t-26 -184.5q0 -214 105 -324t280 -110zM608 1765q133 95 246 95q51 0 88.5 -13t56 -29t47.5 -29t66 -13q61 0 135 49q8 4 17 4q6 0 16 -17
l55 -102q4 -12 4 -16q0 -7 -10 -17q-132 -94 -246 -94q-51 0 -88.5 13t-56 29t-47.5 29t-66 13q-61 0 -135 -49q-8 -4 -16 -4q-7 0 -17 16l-55 103q-4 12 -4 16q0 6 10 16z" />
    <glyph glyph-name="Odieresis" unicode="&#xd6;" horiz-adv-x="1538" 
d="M643 -20q-123 0 -229.5 40.5t-186.5 115.5t-126 191.5t-46 260.5q0 170 59 326.5t164.5 276.5t265.5 191.5t349 71.5q123 0 229.5 -40.5t186.5 -115.5t126 -191.5t46 -260.5q0 -170 -59 -326.5t-164.5 -276.5t-265.5 -191.5t-349 -71.5zM670 184q103 0 195.5 36
t161.5 97.5t120.5 141.5t77.5 171.5t26 184.5q0 214 -105 324t-280 110q-103 0 -195.5 -36t-161.5 -97.5t-120.5 -141.5t-77.5 -171.5t-26 -184.5q0 -214 105 -324t280 -110zM641 1626l39 193q3 20 25 20h192q16 0 16 -20l-39 -193q-3 -20 -24 -20h-193q-16 0 -16 20z
M993 1626l39 193q3 20 25 20h192q17 0 17 -20l-39 -193q-3 -20 -25 -20h-192q-17 0 -17 20z" />
    <glyph glyph-name="multiply" unicode="&#xd7;" horiz-adv-x="1009" 
d="M950 944l-291 -244l195 -243q4 -8 4 -15q0 -6 -8 -14l-125 -104q-9 -9 -14 -9q-6 0 -15 9l-198 245l-291 -254q-8 -8 -14 -8q-7 0 -15 8l-106 121q-6 6 -6 13q0 6 10 16l303 258l-191 229q-6 9 -6 13q0 5 11 16l126 104q9 9 17 9q6 0 12 -9l189 -235l290 244q8 8 17 8
q4 0 12 -8l98 -121q7 -7 7 -12q0 -6 -11 -17z" />
    <glyph glyph-name="Oslash" unicode="&#xd8;" horiz-adv-x="1538" 
d="M643 -20q-184 0 -313 79l-117 -147q-9 -12 -18 -12q-5 0 -13 4l-65 51q-8 5 -8 14t6 15l116 149q-176 173 -176 455q0 170 59 326.5t164.5 276.5t265.5 191.5t349 71.5q182 0 313 -80l117 148q9 12 18 12q5 0 13 -4l65 -51q8 -5 8 -15q0 -5 -6 -14l-116 -150
q176 -173 176 -454q0 -170 -59 -326.5t-164.5 -276.5t-265.5 -191.5t-349 -71.5zM670 184q103 0 195.5 36t161.5 97.5t120.5 141.5t77.5 171.5t26 184.5q0 191 -90 305l-694 -884q88 -52 203 -52zM285 618q0 -191 90 -305l694 885q-86 51 -203 51q-103 0 -195.5 -36
t-161.5 -97.5t-120.5 -141.5t-77.5 -171.5t-26 -184.5z" />
    <glyph glyph-name="Ugrave" unicode="&#xd9;" horiz-adv-x="1349" 
d="M117 547l168 866q3 21 24 21h180q17 0 17 -21l-172 -876q-10 -49 -10 -105q0 -122 66.5 -185t187.5 -63q146 0 243 92.5t129 260.5l172 876q3 21 25 21h180q16 0 16 -21l-174 -889q-54 -275 -210.5 -409.5t-399.5 -134.5q-211 0 -332 118.5t-121 341.5q0 36 11 107z
M868 1819l90 -258q9 -21 -14 -21h-147q-22 0 -33 19l-160 260q-5 7 -0.5 13.5t14.5 6.5h224q17 0 26 -20z" />
    <glyph glyph-name="Uacute" unicode="&#xda;" horiz-adv-x="1349" 
d="M117 547l168 866q3 21 24 21h180q17 0 17 -21l-172 -876q-10 -49 -10 -105q0 -122 66.5 -185t187.5 -63q146 0 243 92.5t129 260.5l172 876q3 21 25 21h180q16 0 16 -21l-174 -889q-54 -275 -210.5 -409.5t-399.5 -134.5q-211 0 -332 118.5t-121 341.5q0 36 11 107z
M678 1561l190 258q14 20 35 20h230q10 0 12 -6.5t-6 -13.5l-262 -260q-19 -19 -41 -19h-152q-8 0 -10 7t4 14z" />
    <glyph glyph-name="Ucircumflex" unicode="&#xdb;" horiz-adv-x="1349" 
d="M117 547l168 866q3 21 24 21h180q17 0 17 -21l-172 -876q-10 -49 -10 -105q0 -122 66.5 -185t187.5 -63q146 0 243 92.5t129 260.5l172 876q3 21 25 21h180q16 0 16 -21l-174 -889q-54 -275 -210.5 -409.5t-399.5 -134.5q-211 0 -332 118.5t-121 341.5q0 36 11 107z
M989 1823l164 -275q5 -8 0.5 -14t-14.5 -6h-152q-20 0 -35 18l-86 109l-137 -109q-18 -18 -39 -18h-166q-10 0 -12 6t6 14l270 275q16 16 33 16h140q18 0 28 -16z" />
    <glyph glyph-name="Udieresis" unicode="&#xdc;" horiz-adv-x="1349" 
d="M117 547l168 866q3 21 24 21h180q17 0 17 -21l-172 -876q-10 -49 -10 -105q0 -122 66.5 -185t187.5 -63q146 0 243 92.5t129 260.5l172 876q3 21 25 21h180q16 0 16 -21l-174 -889q-54 -275 -210.5 -409.5t-399.5 -134.5q-211 0 -332 118.5t-121 341.5q0 36 11 107z
M553 1626l39 193q3 20 24 20h193q16 0 16 -20l-39 -193q-3 -20 -24 -20h-193q-16 0 -16 20zM905 1626l39 193q3 20 25 20h192q17 0 17 -20l-39 -193q-3 -20 -25 -20h-192q-17 0 -17 20z" />
    <glyph glyph-name="Yacute" unicode="&#xdd;" horiz-adv-x="1081" 
d="M1212 1413l-614 -897l-96 -496q-3 -20 -25 -20h-180q-16 0 -16 20l96 496l-268 897q0 21 18 21h195q19 0 22 -17l182 -655l443 655q10 17 26 17h209q20 0 8 -21zM512 1561l190 258q14 20 35 20h230q10 0 12 -6.5t-6 -13.5l-262 -260q-19 -19 -41 -19h-152q-8 0 -10 7
t4 14z" />
    <glyph glyph-name="Thorn" unicode="&#xde;" horiz-adv-x="1292" 
d="M41 20l272 1393q3 21 25 21h180q17 0 17 -21l-58 -291h316q187 0 298 -93.5t111 -254.5q0 -221 -150.5 -342t-408.5 -121h-324l-57 -291q-3 -20 -24 -20h-181q-19 0 -16 20zM436 918l-78 -402h330q131 0 208 57t77 160q0 185 -207 185h-330z" />
    <glyph glyph-name="germandbls" unicode="&#xdf;" horiz-adv-x="1243" 
d="M690 -20q-150 0 -240 86t-90 215q0 24 2 38q3 21 25 21h150q16 0 16 -21q9 -147 154 -147q88 0 138 49t50 139q0 39 -21 72.5t-52.5 56.5t-68 50.5t-68 53.5t-52.5 67.5t-21 91.5q0 42 19 79t47.5 62t61.5 52.5t61.5 50.5t47.5 56t19 70q0 63 -47 101.5t-121 38.5
q-209 0 -258 -254l-192 -988q-3 -20 -25 -20h-168q-16 0 -16 20l160 816h-146q-16 0 -16 20l29 152q3 20 24 20h146l10 47q41 185 163 282t308 97q161 0 256.5 -80t95.5 -219q0 -73 -25 -131.5t-60.5 -94t-71 -63t-60.5 -53t-25 -49.5q0 -23 21.5 -45.5t53 -41t69 -47.5
t69 -61.5t53 -85t21.5 -116.5q0 -176 -119.5 -281.5t-306.5 -105.5z" />
    <glyph glyph-name="agrave" unicode="&#xe0;" horiz-adv-x="1239" 
d="M1139 1008l-191 -988q-3 -20 -24 -20h-168q-17 0 -17 20l11 56q-64 -50 -135.5 -73t-168.5 -23q-85 0 -157.5 28.5t-128.5 83.5t-87.5 143t-31.5 201q0 129 41.5 241.5t117 195t187 129.5t244.5 47q181 0 289 -101l10 60q3 20 24 20h168q17 0 17 -20zM504 172
q153 0 254.5 119.5t101.5 298.5q0 124 -64.5 195t-181.5 71q-157 0 -254.5 -120.5t-97.5 -295.5q0 -127 65 -197.5t177 -70.5zM723 1413l90 -258q9 -20 -14 -20h-148q-23 0 -33 18l-159 260q-5 7 -0.5 14t14.5 7h223q18 0 27 -21z" />
    <glyph glyph-name="aacute" unicode="&#xe1;" horiz-adv-x="1239" 
d="M1139 1008l-191 -988q-3 -20 -24 -20h-168q-17 0 -17 20l11 56q-64 -50 -135.5 -73t-168.5 -23q-85 0 -157.5 28.5t-128.5 83.5t-87.5 143t-31.5 201q0 129 41.5 241.5t117 195t187 129.5t244.5 47q181 0 289 -101l10 60q3 20 24 20h168q17 0 17 -20zM504 172
q153 0 254.5 119.5t101.5 298.5q0 124 -64.5 195t-181.5 71q-157 0 -254.5 -120.5t-97.5 -295.5q0 -127 65 -197.5t177 -70.5zM473 1155l191 258q15 21 34 21h230q10 0 12 -7t-6 -14l-262 -260q-18 -18 -41 -18h-152q-8 0 -10 6.5t4 13.5z" />
    <glyph glyph-name="acircumflex" unicode="&#xe2;" horiz-adv-x="1239" 
d="M1139 1008l-191 -988q-3 -20 -24 -20h-168q-17 0 -17 20l11 56q-64 -50 -135.5 -73t-168.5 -23q-85 0 -157.5 28.5t-128.5 83.5t-87.5 143t-31.5 201q0 129 41.5 241.5t117 195t187 129.5t244.5 47q181 0 289 -101l10 60q3 20 24 20h168q17 0 17 -20zM504 172
q153 0 254.5 119.5t101.5 298.5q0 124 -64.5 195t-181.5 71q-157 0 -254.5 -120.5t-97.5 -295.5q0 -127 65 -197.5t177 -70.5zM827 1417l164 -274q5 -7 0.5 -14t-14.5 -7h-152q-18 0 -34 19l-86 108l-138 -108q-19 -19 -39 -19h-166q-10 0 -12 7t6 14l271 274q17 17 32 17
h140q18 0 28 -17z" />
    <glyph glyph-name="atilde" unicode="&#xe3;" horiz-adv-x="1239" 
d="M1139 1008l-191 -988q-3 -20 -24 -20h-168q-17 0 -17 20l11 56q-64 -50 -135.5 -73t-168.5 -23q-85 0 -157.5 28.5t-128.5 83.5t-87.5 143t-31.5 201q0 129 41.5 241.5t117 195t187 129.5t244.5 47q181 0 289 -101l10 60q3 20 24 20h168q17 0 17 -20zM504 172
q153 0 254.5 119.5t101.5 298.5q0 124 -64.5 195t-181.5 71q-157 0 -254.5 -120.5t-97.5 -295.5q0 -127 65 -197.5t177 -70.5zM344 1360q132 94 246 94q51 0 88.5 -13t56 -29t47.5 -29t66 -13q61 0 135 49q8 4 16 4q7 0 17 -16l55 -102q4 -12 4 -17q0 -6 -10 -16
q-132 -94 -246 -94q-51 0 -88.5 13t-56 29t-47.5 29t-66 13q-59 0 -135 -50q-8 -4 -16 -4q-7 0 -17 17l-55 102q-4 12 -4 16q0 7 10 17z" />
    <glyph glyph-name="adieresis" unicode="&#xe4;" horiz-adv-x="1239" 
d="M1139 1008l-191 -988q-3 -20 -24 -20h-168q-17 0 -17 20l11 56q-64 -50 -135.5 -73t-168.5 -23q-85 0 -157.5 28.5t-128.5 83.5t-87.5 143t-31.5 201q0 129 41.5 241.5t117 195t187 129.5t244.5 47q181 0 289 -101l10 60q3 20 24 20h168q17 0 17 -20zM504 172
q153 0 254.5 119.5t101.5 298.5q0 124 -64.5 195t-181.5 71q-157 0 -254.5 -120.5t-97.5 -295.5q0 -127 65 -197.5t177 -70.5zM410 1221l39 192q3 21 24 21h193q16 0 16 -21l-39 -192q-3 -21 -25 -21h-192q-16 0 -16 21zM762 1221l39 192q3 21 24 21h193q16 0 16 -21
l-39 -192q-3 -21 -24 -21h-193q-16 0 -16 21z" />
    <glyph glyph-name="aring" unicode="&#xe5;" horiz-adv-x="1239" 
d="M1139 1008l-191 -988q-3 -20 -24 -20h-168q-17 0 -17 20l11 56q-64 -50 -135.5 -73t-168.5 -23q-85 0 -157.5 28.5t-128.5 83.5t-87.5 143t-31.5 201q0 129 41.5 241.5t117 195t187 129.5t244.5 47q181 0 289 -101l10 60q3 20 24 20h168q17 0 17 -20zM504 172
q153 0 254.5 119.5t101.5 298.5q0 124 -64.5 195t-181.5 71q-157 0 -254.5 -120.5t-97.5 -295.5q0 -127 65 -197.5t177 -70.5zM516 1257q0 96 65.5 157t159.5 61q75 0 123.5 -43.5t48.5 -116.5q0 -96 -65 -156.5t-160 -60.5q-75 0 -123.5 43t-48.5 116zM725 1364
q-37 0 -62.5 -24.5t-25.5 -61.5q0 -70 68 -70q37 0 62.5 24.5t25.5 61.5q0 70 -68 70z" />
    <glyph glyph-name="ae" unicode="&#xe6;" horiz-adv-x="1931" 
d="M1247 172q100 0 169 36t124 118q11 18 31 18h178q12 0 12 -14q0 -7 -6 -21q-77 -170 -206 -249.5t-316 -79.5q-128 0 -227.5 51t-159.5 149q-150 -200 -443 -200q-76 0 -139.5 18t-114 54t-78.5 96.5t-28 140.5q0 114 64.5 199.5t168 128t228.5 42.5q164 0 289 -43l8 37
q6 27 6 54q0 71 -48 114t-151 43q-149 0 -225 -131q-9 -18 -31 -18h-162q-13 0 -18 7.5t0 18.5q48 144 167.5 226t295.5 82q242 0 332 -164q179 164 426 164q107 0 191.5 -34.5t136.5 -95t79 -139t27 -170.5q0 -43 -10 -102l-9 -39q-3 -20 -24 -20h-780q-3 -21 -3 -25
q0 -119 64 -185.5t182 -66.5zM758 432q-70 24 -123.5 33.5t-130.5 9.5q-98 0 -171 -43.5t-73 -128.5q0 -131 156 -131q124 0 221 69.5t121 190.5zM1370 856q-102 0 -194.5 -56t-143.5 -167h578q-9 223 -240 223z" />
    <glyph glyph-name="ccedilla" unicode="&#xe7;" horiz-adv-x="1148" 
d="M324 -227l-33 39q-6 6 -6 12q0 1 0.5 2.5l1.5 4.5t2 5l76 158q-150 36 -235 152t-85 294q0 173 76.5 311.5t216 218t317.5 79.5q191 0 308.5 -103.5t117.5 -251.5q0 -4 -1 -10.5t-1 -9.5q-3 -12 -18 -12h-166q-11 0 -16 3t-9 15q-32 176 -241 176q-155 0 -259 -115.5
t-104 -283.5q0 -285 250 -285q186 0 287 176q9 19 33 19h174q12 0 12 -13q0 -5 -6 -20q-144 -351 -518 -354l-62 -97q58 15 109 15q75 0 116 -34.5t41 -101.5q0 -92 -74 -140t-188 -48q-142 0 -209 20q-18 6 -18 21l16 80q3 20 25 20q2 0 57 -13t123 -13q101 0 101 55
q0 43 -66 43q-36 0 -115 -18q-6 -2 -14 -2q-10 0 -16 6z" />
    <glyph glyph-name="egrave" unicode="&#xe8;" horiz-adv-x="1196" 
d="M512 172q100 0 169 36t124 118q11 18 31 18h178q12 0 12 -14q0 -7 -6 -21q-77 -170 -206 -249.5t-316 -79.5q-202 0 -327.5 124t-125.5 345q0 160 77.5 297t219 220t315.5 83q142 0 242.5 -60.5t146.5 -158t46 -220.5q0 -37 -11 -102l-8 -39q-3 -20 -24 -20h-783v-25
q0 -119 64 -185.5t182 -66.5zM635 856q-102 0 -194.5 -56t-143.5 -167h577q-9 223 -239 223zM707 1413l90 -258q9 -20 -15 -20h-147q-23 0 -33 18l-160 260q-5 8 0 14.5t15 6.5h223q18 0 27 -21z" />
    <glyph glyph-name="eacute" unicode="&#xe9;" horiz-adv-x="1196" 
d="M512 172q100 0 169 36t124 118q11 18 31 18h178q12 0 12 -14q0 -7 -6 -21q-77 -170 -206 -249.5t-316 -79.5q-202 0 -327.5 124t-125.5 345q0 160 77.5 297t219 220t315.5 83q142 0 242.5 -60.5t146.5 -158t46 -220.5q0 -37 -11 -102l-8 -39q-3 -20 -24 -20h-783v-25
q0 -119 64 -185.5t182 -66.5zM635 856q-102 0 -194.5 -56t-143.5 -167h577q-9 223 -239 223zM535 1155l190 258q15 21 35 21h229q10 0 12 -7t-6 -14l-262 -260q-18 -18 -41 -18h-151q-8 0 -10 6.5t4 13.5z" />
    <glyph glyph-name="ecircumflex" unicode="&#xea;" horiz-adv-x="1196" 
d="M512 172q100 0 169 36t124 118q11 18 31 18h178q12 0 12 -14q0 -7 -6 -21q-77 -170 -206 -249.5t-316 -79.5q-202 0 -327.5 124t-125.5 345q0 160 77.5 297t219 220t315.5 83q142 0 242.5 -60.5t146.5 -158t46 -220.5q0 -37 -11 -102l-8 -39q-3 -20 -24 -20h-783v-25
q0 -119 64 -185.5t182 -66.5zM635 856q-102 0 -194.5 -56t-143.5 -167h577q-9 223 -239 223zM852 1417l164 -274q5 -8 0 -14.5t-15 -6.5h-151q-19 0 -35 19l-86 108l-137 -108q-19 -19 -39 -19h-166q-10 0 -12 7t6 14l270 274q17 17 33 17h139q19 0 29 -17z" />
    <glyph glyph-name="edieresis" unicode="&#xeb;" horiz-adv-x="1196" 
d="M512 172q100 0 169 36t124 118q11 18 31 18h178q12 0 12 -14q0 -7 -6 -21q-77 -170 -206 -249.5t-316 -79.5q-202 0 -327.5 124t-125.5 345q0 160 77.5 297t219 220t315.5 83q142 0 242.5 -60.5t146.5 -158t46 -220.5q0 -37 -11 -102l-8 -39q-3 -20 -24 -20h-783v-25
q0 -119 64 -185.5t182 -66.5zM635 856q-102 0 -194.5 -56t-143.5 -167h577q-9 223 -239 223zM418 1221l39 192q3 21 24 21h193q16 0 16 -21l-39 -192q-3 -21 -24 -21h-193q-16 0 -16 21zM770 1221l39 192q3 21 25 21h192q16 0 16 -21l-38 -192q-3 -21 -25 -21h-193
q-16 0 -16 21z" />
    <glyph glyph-name="igrave" unicode="&#xec;" horiz-adv-x="548" 
d="M43 20l190 988q3 20 25 20h168q16 0 16 -20l-192 -988q-3 -20 -25 -20h-166q-16 0 -16 20zM356 1413l90 -258q9 -20 -14 -20h-147q-23 0 -33 18l-160 260q-5 7 -0.5 14t14.5 7h224q17 0 26 -21z" />
    <glyph glyph-name="iacute" unicode="&#xed;" horiz-adv-x="548" 
d="M43 20l190 988q3 20 25 20h168q16 0 16 -20l-192 -988q-3 -20 -25 -20h-166q-16 0 -16 20zM264 1155l191 258q15 21 34 21h230q10 0 12 -7t-6 -14l-262 -260q-18 -18 -41 -18h-152q-8 0 -10 6.5t4 13.5z" />
    <glyph glyph-name="icircumflex" unicode="&#xee;" horiz-adv-x="548" 
d="M45 20l191 988q3 20 24 20h168q16 0 16 -20l-192 -988q-3 -20 -25 -20h-166q-16 0 -16 20zM520 1417l164 -274q5 -7 0.5 -14t-14.5 -7h-152q-19 0 -35 19l-86 108l-137 -108q-19 -19 -39 -19h-166q-10 0 -12 7t6 14l270 274q17 17 33 17h140q18 0 28 -17z" />
    <glyph glyph-name="idieresis" unicode="&#xef;" horiz-adv-x="548" 
d="M43 20l190 988q3 20 25 20h168q16 0 16 -20l-192 -988q-3 -20 -25 -20h-166q-16 0 -16 20zM82 1221l39 192q3 21 24 21h193q16 0 16 -21l-39 -192q-3 -21 -24 -21h-193q-16 0 -16 21zM434 1221l39 192q3 21 25 21h192q17 0 17 -21l-39 -192q-3 -21 -25 -21h-192
q-17 0 -17 21z" />
    <glyph glyph-name="eth" unicode="&#xf0;" horiz-adv-x="1222" 
d="M1157 1278l-162 -59q121 -165 121 -457q0 -161 -41.5 -302t-119 -248.5t-196.5 -169.5t-265 -62q-195 0 -320 122t-125 332q0 174 73 315t201 220.5t285 79.5q98 0 168 -24t133 -69q-42 123 -123 191l-223 -78q-12 -4 -15.5 -2.5t-8.5 12.5l-41 113q-6 21 18 27l78 26
q-70 20 -129 27q-16 3 -10 28l30 130q6 14 31 14q208 -22 342 -105l248 91q17 9 24 -11l44 -114q6 -17 -17 -27zM608 856q-97 0 -176.5 -60.5t-120.5 -152t-41 -190.5q0 -139 60.5 -210t177.5 -71q99 0 183.5 57t132.5 149t48 195q0 135 -68.5 209t-195.5 74z" />
    <glyph glyph-name="ntilde" unicode="&#xf1;" horiz-adv-x="1218" 
d="M41 20l190 988q3 20 25 20h168q16 0 16 -20l-16 -93q157 134 352 134q140 0 216.5 -71.5t76.5 -195.5q0 -37 -10 -92l-129 -670q-3 -20 -25 -20h-168q-16 0 -16 20l119 611q8 31 8 71q0 71 -43 112.5t-123 41.5q-116 0 -211.5 -91t-126.5 -259l-94 -486q-3 -20 -25 -20
h-168q-16 0 -16 20zM379 1360q132 94 246 94q51 0 88.5 -13t56 -29t47.5 -29t66 -13q61 0 135 49q8 4 16 4q7 0 17 -16l55 -102q4 -12 4 -17q0 -6 -10 -16q-132 -94 -246 -94q-51 0 -88.5 13t-56 29t-47.5 29t-66 13q-59 0 -135 -50q-8 -4 -17 -4q-6 0 -16 17l-55 102
q-4 12 -4 16q0 7 10 17z" />
    <glyph glyph-name="ograve" unicode="&#xf2;" horiz-adv-x="1245" 
d="M45 434q0 175 80 315.5t223.5 220t323.5 79.5q211 0 339 -128.5t128 -326.5q0 -131 -47 -245t-129.5 -195t-199 -127.5t-251.5 -46.5q-211 0 -339 128t-128 326zM651 856q-163 0 -274 -113.5t-111 -289.5q0 -135 69 -208t197 -73q164 0 275 113.5t111 289.5
q0 135 -69.5 208t-197.5 73zM743 1413l91 -258q9 -20 -15 -20h-147q-23 0 -33 18l-160 260q-5 8 0 14.5t15 6.5h223q17 0 26 -21z" />
    <glyph glyph-name="oacute" unicode="&#xf3;" horiz-adv-x="1245" 
d="M45 434q0 175 80 315.5t223.5 220t323.5 79.5q211 0 339 -128.5t128 -326.5q0 -131 -47 -245t-129.5 -195t-199 -127.5t-251.5 -46.5q-211 0 -339 128t-128 326zM651 856q-163 0 -274 -113.5t-111 -289.5q0 -135 69 -208t197 -73q164 0 275 113.5t111 289.5
q0 135 -69.5 208t-197.5 73zM522 1155l191 258q15 21 35 21h229q10 0 12 -7t-6 -14l-262 -260q-18 -18 -41 -18h-152q-8 0 -10 6.5t4 13.5z" />
    <glyph glyph-name="ocircumflex" unicode="&#xf4;" horiz-adv-x="1245" 
d="M45 434q0 175 80 315.5t223.5 220t323.5 79.5q211 0 339 -128.5t128 -326.5q0 -131 -47 -245t-129.5 -195t-199 -127.5t-251.5 -46.5q-211 0 -339 128t-128 326zM651 856q-163 0 -274 -113.5t-111 -289.5q0 -135 69 -208t197 -73q164 0 275 113.5t111 289.5
q0 135 -69.5 208t-197.5 73zM870 1417l164 -274q5 -7 0.5 -14t-14.5 -7h-152q-18 0 -34 19l-86 108l-138 -108q-19 -19 -39 -19h-165q-10 0 -12.5 7t5.5 14l271 274q17 17 32 17h140q18 0 28 -17z" />
    <glyph glyph-name="otilde" unicode="&#xf5;" horiz-adv-x="1245" 
d="M45 434q0 175 80 315.5t223.5 220t323.5 79.5q211 0 339 -128.5t128 -326.5q0 -131 -47 -245t-129.5 -195t-199 -127.5t-251.5 -46.5q-211 0 -339 128t-128 326zM651 856q-163 0 -274 -113.5t-111 -289.5q0 -135 69 -208t197 -73q164 0 275 113.5t111 289.5
q0 135 -69.5 208t-197.5 73zM403 1360q132 94 246 94q51 0 88.5 -13t56 -29t47.5 -29t66 -13q61 0 135 49q8 4 17 4q6 0 16 -16l55 -102q5 -15 5 -17q0 -5 -11 -16q-132 -94 -245 -94q-51 0 -88.5 13t-56 29t-47.5 29t-66 13q-60 0 -136 -50q-8 -4 -16 -4q-6 0 -16 17
l-56 102q-4 12 -4 16q0 7 10 17z" />
    <glyph glyph-name="odieresis" unicode="&#xf6;" horiz-adv-x="1245" 
d="M45 434q0 175 80 315.5t223.5 220t323.5 79.5q211 0 339 -128.5t128 -326.5q0 -131 -47 -245t-129.5 -195t-199 -127.5t-251.5 -46.5q-211 0 -339 128t-128 326zM651 856q-163 0 -274 -113.5t-111 -289.5q0 -135 69 -208t197 -73q164 0 275 113.5t111 289.5
q0 135 -69.5 208t-197.5 73zM430 1221l39 192q3 21 25 21h192q16 0 16 -21l-38 -192q-3 -21 -25 -21h-193q-16 0 -16 21zM782 1221l39 192q3 21 25 21h192q17 0 17 -21l-39 -192q-3 -21 -25 -21h-192q-17 0 -17 21z" />
    <glyph glyph-name="divide" unicode="&#xf7;" horiz-adv-x="1193" 
d="M166 614h889q16 0 16 -20l-31 -160q-3 -20 -24 -20h-889q-16 0 -16 20l30 160q3 20 25 20zM430 238h197q16 0 16 -21l-37 -197q-3 -20 -24 -20h-197q-16 0 -16 20l37 197q3 21 24 21zM584 1028h196q17 0 17 -20l-37 -197q-3 -20 -25 -20h-196q-17 0 -17 20l37 197
q3 20 25 20z" />
    <glyph glyph-name="oslash" unicode="&#xf8;" horiz-adv-x="1245" 
d="M45 434q0 175 80 315.5t223.5 220t323.5 79.5q121 0 223 -50l92 119q9 12 19 12q1 0 2.5 -0.5l4.5 -1.5t5 -2l65 -43q9 -6 9 -14q0 -3 -7 -14l-92 -119q70 -62 108 -150.5t38 -191.5q0 -131 -47 -245t-129.5 -195t-199 -127.5t-251.5 -46.5q-123 0 -223 49l-92 -119
q-9 -12 -19 -12l-12 4l-66 43q-8 5 -8 14q0 5 6 14l92 119q-70 62 -107.5 150t-37.5 192zM918 575q0 125 -56 193l-446 -575q59 -21 116 -21q164 0 275 113.5t111 289.5zM651 856q-163 0 -274 -113.5t-111 -289.5q0 -125 56 -193l446 576q-56 20 -117 20z" />
    <glyph glyph-name="ugrave" unicode="&#xf9;" horiz-adv-x="1206" 
d="M1108 1008l-190 -988q-3 -20 -25 -20h-168q-16 0 -16 20l16 93q-77 -65 -161 -99t-191 -34q-140 0 -216.5 71.5t-76.5 194.5q0 37 10 92l129 670q3 20 25 20h168q16 0 16 -20l-119 -611q-8 -31 -8 -71q0 -71 43 -112.5t123 -41.5q116 0 211.5 91t126.5 259l94 486
q3 20 25 20h168q16 0 16 -20zM743 1413l91 -258q9 -20 -15 -20h-147q-23 0 -33 18l-160 260q-5 8 0 14.5t15 6.5h223q17 0 26 -21z" />
    <glyph glyph-name="uacute" unicode="&#xfa;" horiz-adv-x="1206" 
d="M1108 1008l-190 -988q-3 -20 -25 -20h-168q-16 0 -16 20l16 93q-77 -65 -161 -99t-191 -34q-140 0 -216.5 71.5t-76.5 194.5q0 37 10 92l129 670q3 20 25 20h168q16 0 16 -20l-119 -611q-8 -31 -8 -71q0 -71 43 -112.5t123 -41.5q116 0 211.5 91t126.5 259l94 486
q3 20 25 20h168q16 0 16 -20zM514 1155l191 258q15 21 34 21h230q10 0 12 -7t-6 -14l-262 -260q-18 -18 -41 -18h-152q-8 0 -10 6.5t4 13.5z" />
    <glyph glyph-name="ucircumflex" unicode="&#xfb;" horiz-adv-x="1206" 
d="M1108 1008l-190 -988q-3 -20 -25 -20h-168q-16 0 -16 20l16 93q-77 -65 -161 -99t-191 -34q-140 0 -216.5 71.5t-76.5 194.5q0 37 10 92l129 670q3 20 25 20h168q16 0 16 -20l-119 -611q-8 -31 -8 -71q0 -71 43 -112.5t123 -41.5q116 0 211.5 91t126.5 259l94 486
q3 20 25 20h168q16 0 16 -20zM836 1417l163 -274q5 -7 0.5 -14t-14.5 -7h-151q-19 0 -35 19l-86 108l-138 -108q-19 -19 -38 -19h-166q-10 0 -12 7t6 14l270 274q17 17 33 17h139q19 0 29 -17z" />
    <glyph glyph-name="udieresis" unicode="&#xfc;" horiz-adv-x="1206" 
d="M1108 1008l-190 -988q-3 -20 -25 -20h-168q-16 0 -16 20l16 93q-77 -65 -161 -99t-191 -34q-140 0 -216.5 71.5t-76.5 194.5q0 37 10 92l129 670q3 20 25 20h168q16 0 16 -20l-119 -611q-8 -31 -8 -71q0 -71 43 -112.5t123 -41.5q116 0 211.5 91t126.5 259l94 486
q3 20 25 20h168q16 0 16 -20zM399 1221l39 192q3 21 25 21h192q17 0 17 -21l-39 -192q-3 -21 -25 -21h-192q-17 0 -17 21zM752 1221l39 192q3 21 24 21h193q16 0 16 -21l-39 -192q-3 -21 -24 -21h-193q-16 0 -16 21z" />
    <glyph glyph-name="yacute" unicode="&#xfd;" horiz-adv-x="1075" 
d="M115 1028h186q20 0 23 -20l137 -711l364 711q9 20 31 20h186q15 0 15 -14q0 -3 -4 -15l-582 -1099q-49 -95 -100.5 -160.5t-104 -100.5t-102 -50t-105.5 -15q-101 0 -180 33q-16 7 -16 22q0 9 2 15l29 147q3 21 20 21q7 0 52 -22.5t93 -22.5q73 0 131.5 55t118.5 186
l-213 985q-2 6 -2 19q0 16 21 16zM465 1155l190 258q15 21 35 21h230q10 0 12 -7t-6 -14l-262 -260q-18 -18 -41 -18h-152q-8 0 -10 6.5t4 13.5z" />
    <glyph glyph-name="thorn" unicode="&#xfe;" horiz-adv-x="1267" 
d="M-29 -385l348 1798q3 21 25 21h168q16 0 16 -21l-90 -467q139 103 334 103q166 0 267.5 -114.5t101.5 -328.5q0 -120 -39.5 -232.5t-110.5 -200t-178 -140.5t-233 -53q-192 0 -308 116l-92 -481q-3 -21 -24 -21h-168q-17 0 -17 21zM686 856q-156 0 -257 -114.5
t-101 -292.5q0 -133 65 -205t174 -72q155 0 254 119t99 287q0 131 -61 204.5t-173 73.5z" />
    <glyph glyph-name="ydieresis" unicode="&#xff;" horiz-adv-x="1075" 
d="M115 1028h186q20 0 23 -20l137 -711l364 711q9 20 31 20h186q15 0 15 -14q0 -3 -4 -15l-582 -1099q-49 -95 -100.5 -160.5t-104 -100.5t-102 -50t-105.5 -15q-101 0 -180 33q-16 7 -16 22q0 9 2 15l29 147q3 21 20 21q7 0 52 -22.5t93 -22.5q73 0 131.5 55t118.5 186
l-213 985q-2 6 -2 19q0 16 21 16zM322 1221l38 192q3 21 25 21h193q16 0 16 -21l-39 -192q-3 -21 -25 -21h-192q-16 0 -16 21zM674 1221l39 192q3 21 24 21h193q16 0 16 -21l-39 -192q-3 -21 -24 -21h-193q-16 0 -16 21z" />
    <glyph glyph-name="Amacron" unicode="&#x100;" horiz-adv-x="1255" 
d="M907 20l-61 375h-551l-207 -375q-11 -20 -29 -20h-188q-18 0 -18 16q0 8 6 17l770 1380q7 12 11.5 16.5t14.5 4.5h209q20 0 23 -21l235 -1380q0 -33 -28 -33h-166q-18 0 -21 20zM721 1161l-311 -561h403zM571 1626l27 143q3 21 25 21h409q17 0 17 -21l-27 -143
q-3 -20 -25 -20h-409q-17 0 -17 20z" />
    <glyph glyph-name="amacron" unicode="&#x101;" horiz-adv-x="1239" 
d="M1139 1008l-191 -988q-3 -20 -24 -20h-168q-17 0 -17 20l11 56q-64 -50 -135.5 -73t-168.5 -23q-85 0 -157.5 28.5t-128.5 83.5t-87.5 143t-31.5 201q0 129 41.5 241.5t117 195t187 129.5t244.5 47q181 0 289 -101l10 60q3 20 24 20h168q17 0 17 -20zM504 172
q153 0 254.5 119.5t101.5 298.5q0 124 -64.5 195t-181.5 71q-157 0 -254.5 -120.5t-97.5 -295.5q0 -127 65 -197.5t177 -70.5zM459 1221l26 143q3 20 25 20h410q16 0 16 -20l-27 -143q-3 -21 -24 -21h-410q-16 0 -16 21z" />
    <glyph glyph-name="Abreve" unicode="&#x102;" horiz-adv-x="1255" 
d="M907 20l-61 375h-551l-207 -375q-11 -20 -29 -20h-188q-18 0 -18 16q0 8 6 17l770 1380q7 12 11.5 16.5t14.5 4.5h209q20 0 23 -21l235 -1380q0 -33 -28 -33h-166q-18 0 -21 20zM721 1161l-311 -561h403zM598 1823h125q10 0 12 -4.5t2 -16.5v-22q0 -86 86 -86
q94 0 115 108q3 21 25 21h127q16 0 16 -21q-23 -133 -100.5 -198.5t-202.5 -65.5q-104 0 -169 60.5t-65 158.5q0 17 4 45q3 21 25 21z" />
    <glyph glyph-name="abreve" unicode="&#x103;" horiz-adv-x="1239" 
d="M1139 1008l-191 -988q-3 -20 -24 -20h-168q-17 0 -17 20l11 56q-64 -50 -135.5 -73t-168.5 -23q-85 0 -157.5 28.5t-128.5 83.5t-87.5 143t-31.5 201q0 129 41.5 241.5t117 195t187 129.5t244.5 47q181 0 289 -101l10 60q3 20 24 20h168q17 0 17 -20zM504 172
q153 0 254.5 119.5t101.5 298.5q0 124 -64.5 195t-181.5 71q-157 0 -254.5 -120.5t-97.5 -295.5q0 -127 65 -197.5t177 -70.5zM481 1417h125q10 0 12.5 -4t2.5 -16v-23q0 -86 86 -86q93 0 114 109q3 20 25 20h127q16 0 16 -20q-23 -133 -100.5 -198.5t-202.5 -65.5
q-104 0 -168.5 60.5t-64.5 158.5q0 17 4 45q3 20 24 20z" />
    <glyph glyph-name="Aogonek" unicode="&#x104;" horiz-adv-x="1255" 
d="M909 6l-63 389h-551l-207 -375q-11 -20 -29 -20h-188q-18 0 -18 16q0 8 6 17l770 1380q7 12 11.5 16.5t14.5 4.5h209q20 0 23 -21l235 -1380q0 -27 -20 -33q-55 -13 -92 -49t-37 -90q0 -76 96 -76h33q18 0 18 -21l-20 -102q-6 -20 -25 -20h-90q-99 0 -157 42t-58 132
q0 58 38 108t101 82zM721 1161l-311 -561h403z" />
    <glyph glyph-name="aogonek" unicode="&#x105;" horiz-adv-x="1239" 
d="M1139 1008l-191 -988q-3 -17 -18 -20q-55 -13 -92 -49t-37 -90q0 -76 96 -76h33q18 0 18 -21l-20 -102q-6 -20 -25 -20h-90q-99 0 -157 42t-58 132q0 58 38 108t101 82l13 70q-64 -50 -135.5 -73t-168.5 -23q-85 0 -157.5 28.5t-128.5 83.5t-87.5 143t-31.5 201
q0 129 41.5 241.5t117 195t187 129.5t244.5 47q181 0 289 -101l10 60q3 20 24 20h168q17 0 17 -20zM504 172q153 0 254.5 119.5t101.5 298.5q0 125 -64 195.5t-182 70.5q-104 0 -185.5 -57.5t-124 -152t-42.5 -206.5q0 -127 65 -197.5t177 -70.5z" />
    <glyph glyph-name="Cacute" unicode="&#x106;" horiz-adv-x="1413" 
d="M1118 506h176q21 0 21 -21q-68 -239 -254 -372t-443 -133q-118 0 -219.5 40.5t-176.5 115.5t-118 189.5t-43 254.5q0 135 34.5 263t103.5 238.5t164.5 194t226 131t278.5 47.5q244 0 391.5 -134t147.5 -372q0 -20 -25 -20h-172q-19 0 -22 20q-20 148 -108.5 224.5
t-243.5 76.5q-119 0 -223 -55.5t-173.5 -146t-109 -207t-39.5 -238.5q0 -208 97 -313t265 -105q150 0 258 73.5t181 227.5q9 21 26 21zM741 1561l191 258q14 20 35 20h229q10 0 12 -6.5t-6 -13.5l-262 -260q-19 -19 -41 -19h-151q-8 0 -10.5 7t3.5 14z" />
    <glyph glyph-name="cacute" unicode="&#x107;" horiz-adv-x="1148" 
d="M629 856q-155 0 -259 -115.5t-104 -283.5q0 -285 250 -285q186 0 287 176q9 19 33 19h174q12 0 12 -13q0 -5 -6 -20q-145 -354 -522 -354q-210 0 -329.5 122t-119.5 338q0 173 76.5 311.5t216 218t317.5 79.5q191 0 308.5 -103.5t117.5 -251.5q0 -4 -1 -10.5t-1 -9.5
q-3 -12 -18 -12h-166q-11 0 -16 3t-9 15q-32 176 -241 176zM535 1155l190 258q15 21 35 21h229q10 0 12 -7t-6 -14l-262 -260q-18 -18 -41 -18h-151q-8 0 -10 6.5t4 13.5z" />
    <glyph glyph-name="Ccircumflex" unicode="&#x108;" horiz-adv-x="1413" 
d="M1118 506h176q21 0 21 -21q-68 -239 -254 -372t-443 -133q-118 0 -219.5 40.5t-176.5 115.5t-118 189.5t-43 254.5q0 135 34.5 263t103.5 238.5t164.5 194t226 131t278.5 47.5q244 0 391.5 -134t147.5 -372q0 -20 -25 -20h-172q-19 0 -22 20q-20 148 -108.5 224.5
t-243.5 76.5q-119 0 -223 -55.5t-173.5 -146t-109 -207t-39.5 -238.5q0 -208 97 -313t265 -105q150 0 258 73.5t181 227.5q9 21 26 21zM1067 1823l164 -275q5 -8 0.5 -14t-14.5 -6h-152q-20 0 -35 18l-86 109l-137 -109q-18 -18 -39 -18h-166q-10 0 -12 6t6 14l270 275
q16 16 33 16h139q19 0 29 -16z" />
    <glyph glyph-name="ccircumflex" unicode="&#x109;" horiz-adv-x="1148" 
d="M629 856q-155 0 -259 -115.5t-104 -283.5q0 -285 250 -285q186 0 287 176q9 19 33 19h174q12 0 12 -13q0 -5 -6 -20q-145 -354 -522 -354q-210 0 -329.5 122t-119.5 338q0 173 76.5 311.5t216 218t317.5 79.5q191 0 308.5 -103.5t117.5 -251.5q0 -4 -1 -10.5t-1 -9.5
q-3 -12 -18 -12h-166q-11 0 -16 3t-9 15q-32 176 -241 176zM852 1417l164 -274q5 -8 0 -14.5t-15 -6.5h-151q-19 0 -35 19l-86 108l-137 -108q-19 -19 -39 -19h-166q-10 0 -12 7t6 14l270 274q17 17 33 17h139q19 0 29 -17z" />
    <glyph glyph-name="Cdotaccent" unicode="&#x10a;" horiz-adv-x="1413" 
d="M1118 506h176q21 0 21 -21q-68 -239 -254 -372t-443 -133q-118 0 -219.5 40.5t-176.5 115.5t-118 189.5t-43 254.5q0 135 34.5 263t103.5 238.5t164.5 194t226 131t278.5 47.5q244 0 391.5 -134t147.5 -372q0 -20 -25 -20h-172q-19 0 -22 20q-20 148 -108.5 224.5
t-243.5 76.5q-119 0 -223 -55.5t-173.5 -146t-109 -207t-39.5 -238.5q0 -208 97 -313t265 -105q150 0 258 73.5t181 227.5q9 21 26 21zM768 1614l41 205q3 20 25 20h213q16 0 16 -20l-41 -205q-3 -21 -25 -21h-213q-16 0 -16 21z" />
    <glyph glyph-name="cdotaccent" unicode="&#x10b;" horiz-adv-x="1148" 
d="M629 856q-155 0 -259 -115.5t-104 -283.5q0 -285 250 -285q186 0 287 176q9 19 33 19h174q12 0 12 -13q0 -5 -6 -20q-145 -354 -522 -354q-210 0 -329.5 122t-119.5 338q0 173 76.5 311.5t216 218t317.5 79.5q191 0 308.5 -103.5t117.5 -251.5q0 -4 -1 -10.5t-1 -9.5
q-3 -12 -18 -12h-166q-11 0 -16 3t-9 15q-32 176 -241 176zM555 1208l41 205q3 21 25 21h213q16 0 16 -21l-41 -205q-3 -20 -25 -20h-213q-16 0 -16 20z" />
    <glyph glyph-name="Ccaron" unicode="&#x10c;" horiz-adv-x="1413" 
d="M1118 506h176q21 0 21 -21q-68 -239 -254 -372t-443 -133q-118 0 -219.5 40.5t-176.5 115.5t-118 189.5t-43 254.5q0 135 34.5 263t103.5 238.5t164.5 194t226 131t278.5 47.5q244 0 391.5 -134t147.5 -372q0 -20 -25 -20h-172q-19 0 -22 20q-20 148 -108.5 224.5
t-243.5 76.5q-119 0 -223 -55.5t-173.5 -146t-109 -207t-39.5 -238.5q0 -208 97 -313t265 -105q150 0 258 73.5t181 227.5q9 21 26 21zM805 1544l-164 275q-5 7 -0.5 13.5t14.5 6.5h152q22 0 35 -18l86 -109l137 109q18 18 39 18h166q10 0 12 -6.5t-6 -13.5l-270 -275
q-16 -16 -33 -16h-139q-19 0 -29 16z" />
    <glyph glyph-name="ccaron" unicode="&#x10d;" horiz-adv-x="1148" 
d="M629 856q-155 0 -259 -115.5t-104 -283.5q0 -285 250 -285q186 0 287 176q9 19 33 19h174q12 0 12 -13q0 -5 -6 -20q-145 -354 -522 -354q-210 0 -329.5 122t-119.5 338q0 173 76.5 311.5t216 218t317.5 79.5q191 0 308.5 -103.5t117.5 -251.5q0 -4 -1 -10.5t-1 -9.5
q-3 -12 -18 -12h-166q-11 0 -16 3t-9 15q-32 176 -241 176zM582 1139l-164 274q-5 7 -0.5 14t14.5 7h152q20 0 34 -19l87 -108l137 108q19 19 39 19h166q10 0 12 -7t-6 -14l-271 -274q-17 -17 -32 -17h-140q-18 0 -28 17z" />
    <glyph glyph-name="Dcaron" unicode="&#x10e;" horiz-adv-x="1376" 
d="M41 20l272 1393q3 21 25 21h403q252 0 408 -151t156 -419q0 -180 -56 -336.5t-159.5 -274t-263 -185.5t-355.5 -68h-414q-16 0 -16 20zM696 1229h-198l-199 -1024h182q142 0 256.5 49.5t187 135t111.5 196.5t39 237q0 406 -379 406zM608 1544l-164 275q-5 8 0 14t15 6
h151q22 0 35 -18l86 -109l137 109q18 18 39 18h166q10 0 12 -6.5t-6 -13.5l-270 -275q-16 -16 -33 -16h-139q-19 0 -29 16z" />
    <glyph glyph-name="dcaron" unicode="&#x10f;" horiz-adv-x="1529" 
d="M1219 1413l-273 -1393q-3 -20 -24 -20h-168q-17 0 -17 20l15 66q-122 -106 -299 -106q-184 0 -296 116t-112 336q0 123 40.5 235t113 196.5t181 135t236.5 50.5q184 0 299 -119l95 483q3 21 24 21h168q17 0 17 -21zM860 586q0 120 -63 195t-181 75q-157 0 -253.5 -125
t-96.5 -299q0 -123 62.5 -191.5t169.5 -68.5q165 0 263.5 121t98.5 293zM1325 1077q64 0 95.5 25t39.5 78l4 24h-96q-18 0 -18 21l36 188q6 21 25 21h201q16 0 16 -21l-47 -248q-19 -98 -71 -144t-148 -46h-55q-17 0 -17 20l13 62q3 20 22 20z" />
    <glyph glyph-name="Dcroat" unicode="&#x110;" horiz-adv-x="1413" 
d="M82 20l117 596h-154q-16 0 -16 21l30 160q3 20 25 20h154l116 596q3 21 25 21h403q124 0 226.5 -35.5t178 -103.5t117.5 -175t42 -243q0 -147 -35 -279t-105 -241t-169 -189t-233.5 -124t-291.5 -44h-414q-16 0 -16 20zM737 1229h-198l-80 -412h289q16 0 16 -20l-31 -160
q-3 -21 -24 -21h-289l-80 -411h182q142 0 256.5 49.5t187 135t111.5 196.5t39 237q0 406 -379 406z" />
    <glyph glyph-name="dcroat" unicode="&#x111;" horiz-adv-x="1247" 
d="M1159 1108l-213 -1088q-3 -20 -24 -20h-168q-17 0 -17 20l15 66q-122 -106 -299 -106q-184 0 -296 116t-112 336q0 123 40.5 235t113 196.5t181 135t236.5 50.5q184 0 299 -119l35 178h-264q-16 0 -16 20l26 144q3 20 25 20h264l25 121q3 21 24 21h168q17 0 17 -21
l-25 -121h111q16 0 16 -20l-27 -144q-3 -20 -24 -20h-111zM860 586q0 120 -63 195t-181 75q-157 0 -253.5 -125t-96.5 -299q0 -123 62.5 -191.5t169.5 -68.5q165 0 263.5 121t98.5 293z" />
    <glyph glyph-name="Emacron" unicode="&#x112;" horiz-adv-x="1165" 
d="M385 651l-86 -446h676q18 0 18 -21l-32 -164q-3 -20 -25 -20h-879q-16 0 -16 20l272 1393q3 21 25 21h846q18 0 18 -21l-33 -164q-3 -20 -24 -20h-647l-72 -373h584q18 0 18 -20l-33 -164q-3 -21 -24 -21h-586zM571 1626l27 143q3 21 25 21h409q17 0 17 -21l-27 -143
q-3 -20 -25 -20h-409q-17 0 -17 20z" />
    <glyph glyph-name="emacron" unicode="&#x113;" horiz-adv-x="1196" 
d="M512 172q100 0 169 36t124 118q11 18 31 18h178q12 0 12 -14q0 -7 -6 -21q-77 -170 -206 -249.5t-316 -79.5q-202 0 -327.5 124t-125.5 345q0 160 77.5 297t219 220t315.5 83q142 0 242.5 -60.5t146.5 -158t46 -220.5q0 -37 -11 -102l-8 -39q-3 -20 -24 -20h-783v-25
q0 -119 64 -185.5t182 -66.5zM635 856q-102 0 -194.5 -56t-143.5 -167h577q-9 223 -239 223zM469 1221l27 143q3 20 24 20h410q16 0 16 -20l-26 -143q-3 -21 -25 -21h-410q-16 0 -16 21z" />
    <glyph glyph-name="Ebreve" unicode="&#x114;" horiz-adv-x="1165" 
d="M385 651l-86 -446h676q18 0 18 -21l-32 -164q-3 -20 -25 -20h-879q-16 0 -16 20l272 1393q3 21 25 21h846q18 0 18 -21l-33 -164q-3 -20 -24 -20h-647l-72 -373h584q18 0 18 -20l-33 -164q-3 -21 -24 -21h-586zM580 1823h125q10 0 12 -4.5t2 -16.5v-22q0 -86 86 -86
q94 0 115 108q3 21 24 21h127q16 0 16 -21q-23 -133 -100.5 -198.5t-202.5 -65.5q-104 0 -168.5 60.5t-64.5 158.5q0 17 4 45q3 21 25 21z" />
    <glyph glyph-name="ebreve" unicode="&#x115;" horiz-adv-x="1196" 
d="M512 172q100 0 169 36t124 118q11 18 31 18h178q12 0 12 -14q0 -7 -6 -21q-77 -170 -206 -249.5t-316 -79.5q-202 0 -327.5 124t-125.5 345q0 160 77.5 297t219 220t315.5 83q142 0 242.5 -60.5t146.5 -158t46 -220.5q0 -37 -11 -102l-8 -39q-3 -20 -24 -20h-783v-25
q0 -119 64 -185.5t182 -66.5zM635 856q-102 0 -194.5 -56t-143.5 -167h577q-9 223 -239 223zM485 1417h125q10 0 12.5 -4t2.5 -16v-23q0 -86 86 -86q93 0 114 109q3 20 25 20h127q16 0 16 -20q-23 -133 -100.5 -198.5t-202.5 -65.5q-104 0 -168.5 60.5t-64.5 158.5
q0 17 4 45q3 20 24 20z" />
    <glyph glyph-name="Edotaccent" unicode="&#x116;" horiz-adv-x="1165" 
d="M385 651l-86 -446h676q18 0 18 -21l-32 -164q-3 -20 -25 -20h-879q-16 0 -16 20l272 1393q3 21 25 21h846q18 0 18 -21l-33 -164q-3 -20 -24 -20h-647l-72 -373h584q18 0 18 -20l-33 -164q-3 -21 -24 -21h-586zM639 1614l41 205q3 20 25 20h213q16 0 16 -20l-41 -205
q-3 -21 -25 -21h-213q-16 0 -16 21z" />
    <glyph glyph-name="edotaccent" unicode="&#x117;" horiz-adv-x="1196" 
d="M512 172q100 0 169 36t124 118q11 18 31 18h178q12 0 12 -14q0 -7 -6 -21q-77 -170 -206 -249.5t-316 -79.5q-202 0 -327.5 124t-125.5 345q0 160 77.5 297t219 220t315.5 83q142 0 242.5 -60.5t146.5 -158t46 -220.5q0 -37 -11 -102l-8 -39q-3 -20 -24 -20h-783v-25
q0 -119 64 -185.5t182 -66.5zM635 856q-102 0 -194.5 -56t-143.5 -167h577q-9 223 -239 223zM561 1208l41 205q3 21 25 21h213q16 0 16 -21l-41 -205q-3 -20 -24 -20h-213q-17 0 -17 20z" />
    <glyph glyph-name="Eogonek" unicode="&#x118;" horiz-adv-x="1165" 
d="M385 651l-86 -446h676q18 0 18 -21l-32 -164q-3 -17 -19 -20q-54 -13 -91.5 -49.5t-37.5 -89.5q0 -76 96 -76h33q19 0 19 -21l-21 -102q-6 -20 -25 -20h-90q-99 0 -157 42t-58 132q0 55 36.5 103.5t94.5 80.5h-684q-16 0 -16 20l272 1393q3 21 25 21h846q18 0 18 -21
l-33 -164q-3 -20 -24 -20h-647l-72 -373h584q18 0 18 -20l-33 -164q-3 -21 -24 -21h-586z" />
    <glyph glyph-name="eogonek" unicode="&#x119;" horiz-adv-x="1196" 
d="M512 172q100 0 169 36t124 118q11 18 31 18h178q12 0 12 -14q0 -7 -6 -21q-109 -247 -346 -309q-56 -15 -93.5 -50.5t-37.5 -88.5q0 -76 96 -76h33q18 0 18 -21l-20 -102q-6 -20 -25 -20h-90q-99 0 -157 42t-58 132q0 93 104 164q-179 18 -289 141t-110 328
q0 160 77.5 297t219 220t315.5 83q142 0 242.5 -60.5t146.5 -158t46 -220.5q0 -37 -11 -102l-8 -39q-3 -20 -24 -20h-781q-2 -14 -2 -25q0 -119 64 -185.5t182 -66.5zM635 856q-102 0 -194.5 -56t-143.5 -167h577q-9 223 -239 223z" />
    <glyph glyph-name="Ecaron" unicode="&#x11a;" horiz-adv-x="1165" 
d="M385 651l-86 -446h676q18 0 18 -21l-32 -164q-3 -20 -25 -20h-879q-16 0 -16 20l272 1393q3 21 25 21h846q18 0 18 -21l-33 -164q-3 -20 -24 -20h-647l-72 -373h584q18 0 18 -20l-33 -164q-3 -21 -24 -21h-586zM684 1544l-164 275q-5 8 0 14t15 6h151q22 0 35 -18
l86 -109l137 109q18 18 39 18h166q10 0 12 -6.5t-6 -13.5l-270 -275q-16 -16 -33 -16h-139q-19 0 -29 16z" />
    <glyph glyph-name="ecaron" unicode="&#x11b;" horiz-adv-x="1196" 
d="M512 172q100 0 169 36t124 118q11 18 31 18h178q12 0 12 -14q0 -7 -6 -21q-77 -170 -206 -249.5t-316 -79.5q-202 0 -327.5 124t-125.5 345q0 160 77.5 297t219 220t315.5 83q142 0 242.5 -60.5t146.5 -158t46 -220.5q0 -37 -11 -102l-8 -39q-3 -20 -24 -20h-783v-25
q0 -119 64 -185.5t182 -66.5zM635 856q-102 0 -194.5 -56t-143.5 -167h577q-9 223 -239 223zM596 1139l-164 274q-5 7 -0.5 14t14.5 7h152q21 0 35 -19l86 -108l137 108q19 19 39 19h166q10 0 12 -7t-6 -14l-270 -274q-17 -17 -33 -17h-139q-19 0 -29 17z" />
    <glyph glyph-name="Gcircumflex" unicode="&#x11c;" horiz-adv-x="1474" 
d="M768 741h588q16 0 16 -20l-72 -375q-8 -46 -36 -78q-133 -152 -278.5 -220t-336.5 -68q-127 0 -232.5 37t-184 109.5t-122.5 189t-44 266.5q0 136 36 264.5t106.5 238.5t167 192.5t226.5 129.5t277 47q150 0 267 -50t186 -151t69 -241q-3 -21 -25 -21h-176q-19 0 -22 21
q-31 237 -326 237q-100 0 -189.5 -39t-155.5 -105t-114.5 -150t-73 -176t-24.5 -181q0 -199 96 -306.5t275 -107.5q134 0 243.5 48t177.5 135l33 170h-393q-16 0 -16 20l32 164q3 20 25 20zM1040 1823l164 -275q5 -8 0.5 -14t-14.5 -6h-152q-19 0 -34 18l-86 109l-138 -109
q-18 -18 -39 -18h-166q-10 0 -12 6t6 14l271 275q16 16 32 16h140q18 0 28 -16z" />
    <glyph glyph-name="gcircumflex" unicode="&#x11d;" horiz-adv-x="1247" 
d="M424 -426q-196 0 -294.5 87.5t-98.5 258.5q3 21 24 21h160q16 0 16 -21q0 -153 215 -153q254 0 308 294l6 35q-89 -53 -149 -72.5t-152 -19.5q-180 0 -281.5 107t-101.5 311q0 122 38 234t107 200t177 140.5t239 52.5q189 0 287 -107l14 66q3 20 25 20h167q17 0 17 -20
l-180 -926q-53 -274 -182.5 -391t-360.5 -117zM537 197q97 0 175 59t118 149.5t40 190.5q0 260 -225 260q-106 0 -187.5 -58t-123 -149t-41.5 -196q0 -125 61 -190.5t183 -65.5zM825 1417l164 -274q5 -7 0.5 -14t-14.5 -7h-152q-19 0 -35 19l-86 108l-137 -108
q-19 -19 -39 -19h-166q-10 0 -12 7t6 14l271 274q17 17 32 17h140q18 0 28 -17z" />
    <glyph glyph-name="Gbreve" unicode="&#x11e;" horiz-adv-x="1474" 
d="M768 741h588q16 0 16 -20l-72 -375q-8 -46 -36 -78q-133 -152 -278.5 -220t-336.5 -68q-127 0 -232.5 37t-184 109.5t-122.5 189t-44 266.5q0 136 36 264.5t106.5 238.5t167 192.5t226.5 129.5t277 47q150 0 267 -50t186 -151t69 -241q-3 -21 -25 -21h-176q-19 0 -22 21
q-31 237 -326 237q-100 0 -189.5 -39t-155.5 -105t-114.5 -150t-73 -176t-24.5 -181q0 -199 96 -306.5t275 -107.5q134 0 243.5 48t177.5 135l33 170h-393q-16 0 -16 20l32 164q3 20 25 20zM727 1823h125q10 0 12 -4.5t2 -16.5v-22q0 -86 86 -86q94 0 115 108q3 21 25 21
h127q16 0 16 -21q-23 -133 -100.5 -198.5t-202.5 -65.5q-104 0 -169 60.5t-65 158.5q0 17 4 45q3 21 25 21z" />
    <glyph glyph-name="gbreve" unicode="&#x11f;" horiz-adv-x="1247" 
d="M424 -426q-196 0 -294.5 87.5t-98.5 258.5q3 21 24 21h160q16 0 16 -21q0 -153 215 -153q254 0 308 294l6 35q-89 -53 -149 -72.5t-152 -19.5q-180 0 -281.5 107t-101.5 311q0 122 38 234t107 200t177 140.5t239 52.5q189 0 287 -107l14 66q3 20 25 20h167q17 0 17 -20
l-180 -926q-53 -274 -182.5 -391t-360.5 -117zM537 197q97 0 175 59t118 149.5t40 190.5q0 260 -225 260q-106 0 -187.5 -58t-123 -149t-41.5 -196q0 -125 61 -190.5t183 -65.5zM506 1417h125q10 0 12 -4t2 -16v-23q0 -86 86 -86q94 0 115 109q3 20 24 20h127q17 0 17 -20
q-23 -133 -100.5 -198.5t-202.5 -65.5q-104 0 -169 60.5t-65 158.5q0 17 4 45q3 20 25 20z" />
    <glyph glyph-name="Gdotaccent" unicode="&#x120;" horiz-adv-x="1474" 
d="M768 741h588q16 0 16 -20l-72 -375q-8 -46 -36 -78q-133 -152 -278.5 -220t-336.5 -68q-127 0 -232.5 37t-184 109.5t-122.5 189t-44 266.5q0 136 36 264.5t106.5 238.5t167 192.5t226.5 129.5t277 47q150 0 267 -50t186 -151t69 -241q-3 -21 -25 -21h-176q-19 0 -22 21
q-31 237 -326 237q-100 0 -189.5 -39t-155.5 -105t-114.5 -150t-73 -176t-24.5 -181q0 -199 96 -306.5t275 -107.5q134 0 243.5 48t177.5 135l33 170h-393q-16 0 -16 20l32 164q3 20 25 20zM811 1614l41 205q3 20 25 20h213q16 0 16 -20l-41 -205q-3 -21 -25 -21h-213
q-16 0 -16 21z" />
    <glyph glyph-name="gdotaccent" unicode="&#x121;" horiz-adv-x="1247" 
d="M424 -426q-196 0 -294.5 87.5t-98.5 258.5q3 21 24 21h160q16 0 16 -21q0 -153 215 -153q254 0 308 294l6 35q-89 -53 -149 -72.5t-152 -19.5q-180 0 -281.5 107t-101.5 311q0 122 38 234t107 200t177 140.5t239 52.5q189 0 287 -107l14 66q3 20 25 20h167q17 0 17 -20
l-180 -926q-53 -274 -182.5 -391t-360.5 -117zM537 197q97 0 175 59t118 149.5t40 190.5q0 260 -225 260q-106 0 -187.5 -58t-123 -149t-41.5 -196q0 -125 61 -190.5t183 -65.5zM584 1208l41 205q3 21 24 21h213q17 0 17 -21l-41 -205q-3 -20 -25 -20h-213q-16 0 -16 20z
" />
    <glyph glyph-name="Gcommaaccent" unicode="&#x122;" horiz-adv-x="1474" 
d="M768 741h588q16 0 16 -20l-72 -375q-8 -46 -36 -78q-133 -152 -278.5 -220t-336.5 -68q-127 0 -232.5 37t-184 109.5t-122.5 189t-44 266.5q0 136 36 264.5t106.5 238.5t167 192.5t226.5 129.5t277 47q150 0 267 -50t186 -151t69 -241q-3 -21 -25 -21h-176q-19 0 -22 21
q-31 237 -326 237q-100 0 -189.5 -39t-155.5 -105t-114.5 -150t-73 -176t-24.5 -181q0 -199 96 -306.5t275 -107.5q134 0 243.5 48t177.5 135l33 170h-393q-16 0 -16 20l32 164q3 20 25 20zM461 -426q54 0 76.5 18t33.5 68l4 25h-96q-16 0 -16 20l37 189q3 20 22 20h189
q18 0 18 -20l-49 -248q-18 -88 -63 -131t-125 -43h-50q-18 0 -18 20l12 62q6 20 25 20z" />
    <glyph glyph-name="gcommaaccent" unicode="&#x123;" horiz-adv-x="1247" 
d="M424 -426q-196 0 -294.5 87.5t-98.5 258.5q3 21 24 21h160q16 0 16 -21q0 -153 215 -153q254 0 308 294l6 35q-89 -53 -149 -72.5t-152 -19.5q-180 0 -281.5 107t-101.5 311q0 122 38 234t107 200t177 140.5t239 52.5q189 0 287 -107l14 66q3 20 25 20h167q17 0 17 -20
l-180 -926q-53 -274 -182.5 -391t-360.5 -117zM537 197q97 0 175 59t118 149.5t40 190.5q0 260 -225 260q-106 0 -187.5 -58t-123 -149t-41.5 -196q0 -125 61 -190.5t183 -65.5zM856 1477q-64 0 -95.5 -25t-39.5 -78l-4 -24h96q18 0 18 -21l-36 -188q-6 -21 -25 -21h-201
q-16 0 -16 21l47 248q19 98 71 144t148 46h55q17 0 17 -20l-12 -62q-3 -20 -23 -20z" />
    <glyph glyph-name="Hcircumflex" unicode="&#x124;" horiz-adv-x="1435" 
d="M391 645l-123 -625q-3 -20 -24 -20h-181q-16 0 -16 20l272 1393q3 21 25 21h180q17 0 17 -21l-111 -563h627l110 563q3 21 25 21h180q17 0 17 -21l-273 -1393q-3 -20 -24 -20h-181q-16 0 -16 20l123 625h-627zM1028 1823l164 -275q5 -8 0.5 -14t-14.5 -6h-152
q-20 0 -35 18l-86 109l-137 -109q-18 -18 -39 -18h-166q-10 0 -12 6t6 14l270 275q16 16 33 16h139q19 0 29 -16z" />
    <glyph glyph-name="hcircumflex" unicode="&#x125;" horiz-adv-x="1243" 
d="M41 20l272 1393q3 21 25 21h168q16 0 16 -21l-94 -485q86 63 169.5 92t180.5 29q150 0 231 -74.5t81 -200.5q0 -32 -11 -96l-129 -658q-3 -20 -24 -20h-168q-17 0 -17 20l119 603q8 33 8 69q0 76 -41 120t-129 44q-123 0 -221 -90t-133 -260l-94 -486q-3 -20 -25 -20
h-168q-16 0 -16 20zM834 1823l163 -275q5 -8 0.5 -14t-14.5 -6h-152q-19 0 -34 18l-86 109l-138 -109q-18 -18 -38 -18h-166q-10 0 -12.5 6t5.5 14l271 275q16 16 33 16h139q19 0 29 -16z" />
    <glyph glyph-name="Hbar" unicode="&#x126;" horiz-adv-x="1435" 
d="M391 645l-123 -625q-3 -20 -24 -20h-181q-16 0 -16 20l195 1002h-144q-16 0 -16 20l33 156q3 21 24 21h142l38 194q3 21 25 21h180q17 0 17 -21l-39 -194h626l39 194q3 21 25 21h180q17 0 17 -21l-39 -194h145q16 0 16 -21l-32 -156q-3 -20 -25 -20h-143l-195 -1002
q-3 -20 -24 -20h-181q-16 0 -16 20l123 625h-627zM430 850h627l33 172h-627z" />
    <glyph glyph-name="hbar" unicode="&#x127;" horiz-adv-x="1243" 
d="M41 20l213 1088h-125q-16 0 -16 20l26 144q3 20 25 20h125l24 121q3 21 25 21h168q16 0 16 -21l-24 -121h241q17 0 17 -20l-27 -144q-3 -20 -24 -20h-242l-35 -180q86 63 169.5 92t180.5 29q150 0 231 -74.5t81 -200.5q0 -32 -11 -96l-129 -658q-3 -20 -24 -20h-168
q-17 0 -17 20l119 603q8 33 8 69q0 76 -41 120t-129 44q-123 0 -221 -90t-133 -260l-94 -486q-3 -20 -25 -20h-168q-16 0 -16 20z" />
    <glyph glyph-name="Itilde" unicode="&#x128;" horiz-adv-x="567" 
d="M37 20l272 1393q3 21 25 21h180q16 0 16 -21l-272 -1393q-3 -20 -25 -20h-180q-16 0 -16 20zM111 1765q133 95 245 95q51 0 88.5 -13t56 -29t47.5 -29t66 -13q62 0 136 49q8 4 16 4q6 0 16 -17l56 -102q4 -12 4 -16q0 -6 -11 -17q-132 -94 -245 -94q-51 0 -88.5 13
t-56 29t-47.5 29t-66 13q-61 0 -135 -49q-8 -4 -17 -4q-6 0 -16 16l-56 103q-4 12 -4 16q0 5 11 16z" />
    <glyph glyph-name="itilde" unicode="&#x129;" horiz-adv-x="548" 
d="M43 20l190 988q3 20 25 20h168q16 0 16 -20l-192 -988q-3 -20 -25 -20h-166q-16 0 -16 20zM41 1360q132 94 246 94q51 0 88.5 -13t56 -29t47.5 -29t66 -13q61 0 135 49q8 4 16 4q7 0 17 -16l55 -102q4 -12 4 -17q0 -6 -10 -16q-132 -94 -246 -94q-51 0 -88.5 13t-56 29
t-47.5 29t-66 13q-59 0 -135 -50q-8 -4 -17 -4q-6 0 -16 17l-55 102q-4 12 -4 16q0 7 10 17z" />
    <glyph glyph-name="uni012A" unicode="&#x12a;" horiz-adv-x="567" 
d="M37 20l272 1393q3 21 25 21h180q16 0 16 -21l-272 -1393q-3 -20 -25 -20h-180q-16 0 -16 20zM221 1626l27 143q3 21 24 21h410q16 0 16 -21l-26 -143q-3 -20 -25 -20h-409q-17 0 -17 20z" />
    <glyph glyph-name="imacron" unicode="&#x12b;" horiz-adv-x="548" 
d="M43 20l190 988q3 20 25 20h168q16 0 16 -20l-192 -988q-3 -20 -25 -20h-166q-16 0 -16 20zM143 1221l27 143q3 20 25 20h409q17 0 17 -20l-27 -143q-3 -21 -25 -21h-409q-17 0 -17 21z" />
    <glyph glyph-name="Ibreve" unicode="&#x12c;" horiz-adv-x="567" 
d="M37 20l272 1393q3 21 25 21h180q16 0 16 -21l-272 -1393q-3 -20 -25 -20h-180q-16 0 -16 20zM246 1823h125q10 0 12 -4.5t2 -16.5v-22q0 -86 86 -86q94 0 115 108q3 21 24 21h127q17 0 17 -21q-23 -133 -100.5 -198.5t-202.5 -65.5q-104 0 -169 60.5t-65 158.5q0 17 4 45
q3 21 25 21z" />
    <glyph glyph-name="uni012D" unicode="&#x12d;" horiz-adv-x="548" 
d="M43 20l190 988q3 20 25 20h168q16 0 16 -20l-192 -988q-3 -20 -25 -20h-166q-16 0 -16 20zM162 1417h125q10 0 12 -4t2 -16v-23q0 -86 86 -86q94 0 115 109q3 20 24 20h127q17 0 17 -20q-23 -133 -100.5 -198.5t-202.5 -65.5q-104 0 -169 60.5t-65 158.5q0 17 4 45
q3 20 25 20z" />
    <glyph glyph-name="Iogonek" unicode="&#x12e;" horiz-adv-x="567" 
d="M33 2l276 1411q3 21 25 21h180q16 0 16 -21l-272 -1393q-3 -17 -18 -20q-55 -15 -92 -50.5t-37 -88.5q0 -76 96 -76h33q18 0 18 -21l-20 -102q-6 -20 -25 -20h-90q-99 0 -157 42t-58 132q0 58 35.5 108t89.5 78z" />
    <glyph glyph-name="iogonek" unicode="&#x12f;" horiz-adv-x="548" 
d="M41 6l192 1002q3 20 25 20h168q16 0 16 -20l-192 -988q-3 -17 -19 -20q-54 -13 -91.5 -49.5t-37.5 -89.5q0 -76 97 -76h32q19 0 19 -21l-21 -102q-6 -20 -24 -20h-90q-99 0 -157 42t-58 132q0 59 38.5 108.5t102.5 81.5zM250 1208l41 205q3 21 24 21h213q17 0 17 -21
l-41 -205q-3 -20 -25 -20h-213q-16 0 -16 20z" />
    <glyph glyph-name="Idotaccent" unicode="&#x130;" horiz-adv-x="567" 
d="M37 20l272 1393q3 21 25 21h180q16 0 16 -21l-272 -1393q-3 -20 -25 -20h-180q-16 0 -16 20zM328 1614l41 205q3 20 24 20h213q17 0 17 -20l-41 -205q-3 -21 -25 -21h-213q-16 0 -16 21z" />
    <glyph glyph-name="dotlessi" unicode="&#x131;" horiz-adv-x="548" 
d="M43 20l190 988q3 20 25 20h168q16 0 16 -20l-192 -988q-3 -20 -25 -20h-166q-16 0 -16 20z" />
    <glyph glyph-name="IJ" unicode="&#x132;" horiz-adv-x="1693" 
d="M37 20l272 1393q3 21 25 21h180q16 0 16 -21l-272 -1393q-3 -20 -25 -20h-180q-16 0 -16 20zM1661 1413l-172 -878q-32 -160 -86 -270t-130 -171.5t-163 -87.5t-199 -26q-188 0 -291.5 102.5t-103.5 271.5q0 60 6 95q3 20 27 20h176q18 0 18 -20q0 -2 -1.5 -14.5t-3 -30
t-1.5 -31.5q0 -91 53 -140t152 -49q129 0 209.5 82t116.5 266l172 881q3 21 24 21h178q19 0 19 -21z" />
    <glyph glyph-name="ij" unicode="&#x133;" horiz-adv-x="1099" 
d="M43 20l190 988q3 20 25 20h168q16 0 16 -20l-192 -988q-3 -20 -25 -20h-166q-16 0 -16 20zM250 1208l41 205q3 21 24 21h213q17 0 17 -21l-41 -205q-3 -20 -25 -20h-213q-16 0 -16 20zM578 -63l206 1071q3 20 25 20h168q16 0 16 -20l-205 -1063q-26 -129 -55.5 -205.5
t-75.5 -149.5q-10 -16 -18 -16q-6 0 -21 6l-143 53q-12 6 -12 15q0 8 2 10q47 82 72 140.5t41 138.5zM801 1208l41 205q3 21 24 21h213q17 0 17 -21l-41 -205q-3 -20 -23 -20h-213q-18 0 -18 20z" />
    <glyph glyph-name="Jcircumflex" unicode="&#x134;" horiz-adv-x="1161" 
d="M1128 1413l-172 -878q-32 -160 -86 -270t-129.5 -171.5t-162.5 -87.5t-199 -26q-188 0 -291.5 102.5t-103.5 271.5q0 60 6 95q3 20 26 20h177q18 0 18 -20q0 -2 -1.5 -14.5t-3 -30t-1.5 -31.5q0 -91 53 -140t152 -49q128 0 208.5 82t116.5 266l172 881q3 21 25 21h178
q18 0 18 -21zM1188 1823l164 -275q5 -8 0 -14t-15 -6h-151q-20 0 -35 18l-86 109l-137 -109q-18 -18 -39 -18h-166q-10 0 -12 6t6 14l270 275q16 16 33 16h139q19 0 29 -16z" />
    <glyph glyph-name="jcircumflex" unicode="&#x135;" horiz-adv-x="548" 
d="M27 -63l206 1071q3 20 25 20h168q16 0 16 -20l-204 -1063q-26 -128 -56 -204.5t-76 -150.5q-10 -16 -18 -16q-5 0 -20 6l-144 53q-12 6 -12 15q0 8 2 10q47 82 72 140.5t41 138.5zM512 1417l164 -274q5 -7 0.5 -14t-14.5 -7h-152q-19 0 -35 19l-86 108l-137 -108
q-19 -19 -39 -19h-166q-10 0 -12 7t6 14l270 274q17 17 33 17h139q19 0 29 -17z" />
    <glyph glyph-name="Kcommaaccent" unicode="&#x136;" horiz-adv-x="1282" 
d="M535 1413l-109 -549l623 549q21 21 36 21h226q14 0 17 -9t-7 -20l-571 -516l387 -860q6 -13 -1 -21t-20 -8h-196q-27 0 -39 31l-314 704l-200 -178l-105 -537q-3 -20 -24 -20h-181q-16 0 -16 20l272 1393q3 21 25 21h180q17 0 17 -21zM383 -426q54 0 77 18t34 68l4 25
h-97q-16 0 -16 20l37 189q3 20 22 20h189q18 0 18 -20l-49 -248q-18 -88 -63 -131t-125 -43h-49q-19 0 -19 20l12 62q6 20 25 20z" />
    <glyph glyph-name="kcommaaccent" unicode="&#x137;" horiz-adv-x="1116" 
d="M1090 997l-424 -350l272 -616q2 -4 2 -15q-3 -16 -22 -16h-177q-19 0 -28 18l-219 500l-162 -131l-72 -367q-3 -20 -24 -20h-168q-17 0 -17 20l273 1393q3 21 24 21h168q16 0 16 -21l-147 -756l444 353q25 18 37 18h221q15 0 15 -12q0 -10 -12 -19zM311 -426q54 0 77 18
t34 68l4 25h-96q-17 0 -17 20l37 189q3 20 23 20h188q19 0 19 -20l-50 -248q-18 -88 -63 -131t-125 -43h-49q-19 0 -19 20l13 62q6 20 24 20z" />
    <glyph glyph-name="kgreenlandic" unicode="&#x138;" horiz-adv-x="1116" 
d="M1090 997l-424 -350l272 -616q2 -4 2 -15q-3 -16 -22 -16h-177q-19 0 -28 18l-219 500l-162 -131l-72 -367q-3 -20 -24 -20h-168q-17 0 -17 20l193 988q3 20 24 20h168q17 0 17 -20l-68 -351l444 353q25 18 37 18h221q15 0 15 -14q-4 -11 -12 -17z" />
    <glyph glyph-name="Lacute" unicode="&#x139;" horiz-adv-x="1122" 
d="M41 20l272 1393q3 21 25 21h180q17 0 17 -21l-236 -1208h713q16 0 16 -21l-33 -164q-3 -20 -24 -20h-914q-16 0 -16 20zM350 1561l191 258q14 20 34 20h230q10 0 12 -6.5t-6 -13.5l-262 -260q-19 -19 -41 -19h-152q-8 0 -10 7t4 14z" />
    <glyph glyph-name="lacute" unicode="&#x13a;" horiz-adv-x="550" 
d="M43 20l272 1393q3 21 25 21h168q16 0 16 -21l-272 -1393q-3 -20 -25 -20h-168q-16 0 -16 20zM352 1561l191 258q14 20 35 20h229q10 0 12 -6.5t-6 -13.5l-262 -260q-19 -19 -41 -19h-152q-8 0 -10 7t4 14z" />
    <glyph glyph-name="Lcommaaccent" unicode="&#x13b;" horiz-adv-x="1122" 
d="M41 20l272 1393q3 21 25 21h180q17 0 17 -21l-236 -1208h713q16 0 16 -21l-33 -164q-3 -20 -24 -20h-914q-16 0 -16 20zM356 -426q54 0 77 18t34 68l4 25h-96q-17 0 -17 20l37 189q3 20 23 20h188q19 0 19 -20l-50 -248q-18 -88 -63 -131t-125 -43h-49q-19 0 -19 20
l13 62q6 20 24 20z" />
    <glyph glyph-name="lcommaaccent" unicode="&#x13c;" horiz-adv-x="550" 
d="M43 20l272 1393q3 21 25 21h168q16 0 16 -21l-272 -1393q-3 -20 -25 -20h-168q-16 0 -16 20zM-29 -426q54 0 77 18t34 68l4 25h-96q-17 0 -17 20l37 189q3 20 23 20h188q19 0 19 -20l-50 -248q-18 -88 -63 -131t-125 -43h-49q-19 0 -19 20l13 62q6 20 24 20z" />
    <glyph glyph-name="Lcaron" unicode="&#x13d;" horiz-adv-x="1122" 
d="M41 20l272 1393q3 21 25 21h180q17 0 17 -21l-236 -1208h713q16 0 16 -21l-33 -164q-3 -20 -24 -20h-914q-16 0 -16 20zM764 1077q64 0 95.5 25t39.5 78l4 24h-96q-19 0 -19 21l37 188q6 21 25 21h201q16 0 16 -21l-47 -248q-19 -98 -71 -144t-148 -46h-56q-16 0 -16 20
l12 62q3 20 23 20z" />
    <glyph glyph-name="lcaron" unicode="&#x13e;" horiz-adv-x="874" 
d="M43 20l272 1393q3 21 25 21h168q16 0 16 -21l-272 -1393q-3 -20 -25 -20h-168q-16 0 -16 20zM643 1077q64 0 95.5 25t39.5 78l4 24h-96q-18 0 -18 21l37 188q6 21 24 21h201q16 0 16 -21l-47 -248q-19 -98 -71 -144t-148 -46h-55q-17 0 -17 20l13 62q3 20 22 20z" />
    <glyph glyph-name="Ldot" unicode="&#x13f;" horiz-adv-x="1122" 
d="M41 20l272 1393q3 21 25 21h180q17 0 17 -21l-236 -1208h713q16 0 16 -21l-33 -164q-3 -20 -24 -20h-914q-16 0 -16 20zM672 844h188q17 0 17 -21l-35 -188q-3 -21 -25 -21h-188q-17 0 -17 21l35 188q3 21 25 21z" />
    <glyph glyph-name="ldot" unicode="&#x140;" horiz-adv-x="831" 
d="M43 20l272 1393q3 21 25 21h168q16 0 16 -21l-272 -1393q-3 -20 -25 -20h-168q-16 0 -16 20zM584 844h188q16 0 16 -21l-34 -188q-3 -21 -25 -21h-188q-17 0 -17 21l35 188q3 21 25 21z" />
    <glyph glyph-name="Lslash" unicode="&#x141;" horiz-adv-x="1161" 
d="M106 20l89 453l-111 -53q-15 -9 -25 10l-59 125q-10 20 12 29l226 108l141 721q3 21 24 21h181q16 0 16 -21l-117 -602l285 139q18 9 27 -10l61 -125q10 -20 -12 -29l-404 -196l-75 -385h692q16 0 16 -21l-33 -164q-3 -20 -24 -20h-893q-17 0 -17 20z" />
    <glyph glyph-name="lslash" unicode="&#x142;" horiz-adv-x="724" 
d="M115 20l98 508l-137 -65q-2 -2 -10 -2q-9 0 -15 12l-63 123q-2 2 -2 10q0 11 14 19l256 123l131 665q3 21 25 21h168q16 0 16 -21l-109 -553l144 70l12 4q8 0 14 -14l62 -125q2 -4 2 -11q0 -12 -14 -18l-263 -127l-120 -619q-3 -20 -25 -20h-168q-16 0 -16 20z" />
    <glyph glyph-name="Nacute" unicode="&#x143;" horiz-adv-x="1468" 
d="M1130 0h-186q-22 0 -29 16l-446 1053l-207 -1049q-3 -20 -24 -20h-181q-16 0 -16 20l272 1393q3 21 25 21h186q22 0 29 -17l446 -1052l207 1048q3 21 25 21h180q16 0 16 -21l-272 -1393q-3 -20 -25 -20zM760 1561l190 258q14 20 35 20h229q10 0 12.5 -6.5t-5.5 -13.5
l-263 -260q-19 -19 -40 -19h-152q-8 0 -10 7t4 14z" />
    <glyph glyph-name="nacute" unicode="&#x144;" horiz-adv-x="1218" 
d="M41 20l190 988q3 20 25 20h168q16 0 16 -20l-16 -93q157 134 352 134q140 0 216.5 -71.5t76.5 -195.5q0 -37 -10 -92l-129 -670q-3 -20 -25 -20h-168q-16 0 -16 20l119 611q8 31 8 71q0 71 -43 112.5t-123 41.5q-116 0 -211.5 -91t-126.5 -259l-94 -486q-3 -20 -25 -20
h-168q-16 0 -16 20zM575 1155l191 258q15 21 35 21h229q10 0 12 -7t-6 -14l-262 -260q-18 -18 -41 -18h-151q-8 0 -10.5 6.5t3.5 13.5z" />
    <glyph glyph-name="Ncommaaccent" unicode="&#x145;" horiz-adv-x="1468" 
d="M1130 0h-186q-22 0 -29 16l-446 1053l-207 -1049q-3 -20 -24 -20h-181q-16 0 -16 20l272 1393q3 21 25 21h186q22 0 29 -17l446 -1052l207 1048q3 21 25 21h180q16 0 16 -21l-272 -1393q-3 -20 -25 -20zM438 -426q54 0 77 18t34 68l4 25h-96q-17 0 -17 20l37 189
q3 20 23 20h188q19 0 19 -20l-50 -248q-18 -88 -63 -131t-125 -43h-49q-19 0 -19 20l13 62q6 20 24 20z" />
    <glyph glyph-name="ncommaaccent" unicode="&#x146;" horiz-adv-x="1218" 
d="M41 20l190 988q3 20 25 20h168q16 0 16 -20l-16 -93q157 134 352 134q140 0 216.5 -71.5t76.5 -195.5q0 -37 -10 -92l-129 -670q-3 -20 -25 -20h-168q-16 0 -16 20l119 611q8 31 8 71q0 71 -43 112.5t-123 41.5q-116 0 -211.5 -91t-126.5 -259l-94 -486q-3 -20 -25 -20
h-168q-16 0 -16 20zM332 -426q54 0 76.5 18t33.5 68l4 25h-96q-16 0 -16 20l37 189q3 20 22 20h189q18 0 18 -20l-49 -248q-18 -88 -63.5 -131t-125.5 -43h-49q-18 0 -18 20l12 62q6 20 25 20z" />
    <glyph glyph-name="Ncaron" unicode="&#x147;" horiz-adv-x="1468" 
d="M1130 0h-186q-22 0 -29 16l-446 1053l-207 -1049q-3 -20 -24 -20h-181q-16 0 -16 20l272 1393q3 21 25 21h186q22 0 29 -17l446 -1052l207 1048q3 21 25 21h180q16 0 16 -21l-272 -1393q-3 -20 -25 -20zM762 1544l-164 275q-5 7 -0.5 13.5t14.5 6.5h152q22 0 35 -18
l86 -109l137 109q18 18 39 18h166q10 0 12 -6.5t-6 -13.5l-270 -275q-16 -16 -33 -16h-139q-19 0 -29 16z" />
    <glyph glyph-name="ncaron" unicode="&#x148;" horiz-adv-x="1218" 
d="M41 20l190 988q3 20 25 20h168q16 0 16 -20l-16 -93q157 134 352 134q140 0 216.5 -71.5t76.5 -195.5q0 -37 -10 -92l-129 -670q-3 -20 -25 -20h-168q-16 0 -16 20l119 611q8 31 8 71q0 71 -43 112.5t-123 41.5q-116 0 -211.5 -91t-126.5 -259l-94 -486q-3 -20 -25 -20
h-168q-16 0 -16 20zM598 1139l-164 274q-5 8 0 14.5t15 6.5h151q21 0 35 -19l86 -108l137 108q19 19 39 19h166q10 0 12 -7t-6 -14l-270 -274q-17 -17 -33 -17h-139q-19 0 -29 17z" />
    <glyph glyph-name="napostrophe" unicode="&#x149;" horiz-adv-x="1390" 
d="M213 20l190 988q3 20 25 20h168q16 0 16 -20l-16 -93q157 134 352 134q140 0 216.5 -71.5t76.5 -195.5q0 -37 -10 -92l-129 -670q-3 -20 -25 -20h-168q-16 0 -16 20l119 611q8 31 8 71q0 71 -43 112.5t-123 41.5q-116 0 -211.5 -91t-126.5 -259l-94 -486q-3 -20 -25 -20
h-168q-16 0 -16 20zM102 1139q65 0 96.5 25t39.5 77l4 25h-97q-18 0 -18 20l37 189q6 20 24 20h201q17 0 17 -20l-48 -248q-19 -98 -71 -144.5t-148 -46.5h-55q-16 0 -16 21l12 61q3 21 22 21z" />
    <glyph glyph-name="Eng" unicode="&#x14a;" horiz-adv-x="1468" 
d="M614 -221q156 0 223 46t91 175l-463 1065l-203 -1045q-3 -20 -24 -20h-181q-16 0 -16 20l270 1393q3 21 25 21h192q19 0 29 -17l449 -1018l196 1014q3 21 25 21h180q16 0 16 -21l-274 -1413q-17 -89 -39 -153t-55.5 -112.5t-75 -78.5t-103 -49t-133 -26t-170.5 -7
q-16 0 -16 20l33 164q3 21 24 21z" />
    <glyph glyph-name="eng" unicode="&#x14b;" horiz-adv-x="1218" 
d="M41 20l190 988q3 20 25 20h168q16 0 16 -20l-16 -93q157 134 352 134q140 0 216.5 -71.5t76.5 -195.5q0 -37 -10 -92l-144 -745q-26 -129 -55.5 -205.5t-75.5 -149.5q-10 -16 -18 -16q-6 0 -21 6l-143 53q-12 6 -12 15q0 8 2 10q47 82 72 140.5t41 138.5l135 694
q8 31 8 71q0 71 -43 112.5t-123 41.5q-116 0 -211.5 -91t-126.5 -259l-94 -486q-3 -20 -25 -20h-168q-16 0 -16 20z" />
    <glyph glyph-name="Omacron" unicode="&#x14c;" horiz-adv-x="1538" 
d="M643 -20q-123 0 -229.5 40.5t-186.5 115.5t-126 191.5t-46 260.5q0 170 59 326.5t164.5 276.5t265.5 191.5t349 71.5q123 0 229.5 -40.5t186.5 -115.5t126 -191.5t46 -260.5q0 -170 -59 -326.5t-164.5 -276.5t-265.5 -191.5t-349 -71.5zM670 184q103 0 195.5 36
t161.5 97.5t120.5 141.5t77.5 171.5t26 184.5q0 214 -105 324t-280 110q-103 0 -195.5 -36t-161.5 -97.5t-120.5 -141.5t-77.5 -171.5t-26 -184.5q0 -214 105 -324t280 -110zM690 1626l27 143q3 21 24 21h410q16 0 16 -21l-26 -143q-3 -20 -25 -20h-409q-17 0 -17 20z" />
    <glyph glyph-name="omacron" unicode="&#x14d;" horiz-adv-x="1245" 
d="M45 434q0 175 80 315.5t223.5 220t323.5 79.5q211 0 339 -128.5t128 -326.5q0 -131 -47 -245t-129.5 -195t-199 -127.5t-251.5 -46.5q-211 0 -339 128t-128 326zM651 856q-163 0 -274 -113.5t-111 -289.5q0 -135 69 -208t197 -73q164 0 275 113.5t111 289.5
q0 135 -69.5 208t-197.5 73zM500 1221l26 143q3 20 25 20h410q16 0 16 -20l-27 -143q-3 -21 -24 -21h-410q-16 0 -16 21z" />
    <glyph glyph-name="Obreve" unicode="&#x14e;" horiz-adv-x="1538" 
d="M643 -20q-123 0 -229.5 40.5t-186.5 115.5t-126 191.5t-46 260.5q0 170 59 326.5t164.5 276.5t265.5 191.5t349 71.5q123 0 229.5 -40.5t186.5 -115.5t126 -191.5t46 -260.5q0 -170 -59 -326.5t-164.5 -276.5t-265.5 -191.5t-349 -71.5zM670 184q103 0 195.5 36
t161.5 97.5t120.5 141.5t77.5 171.5t26 184.5q0 214 -105 324t-280 110q-103 0 -195.5 -36t-161.5 -97.5t-120.5 -141.5t-77.5 -171.5t-26 -184.5q0 -214 105 -324t280 -110zM721 1823h125q10 0 12 -4.5t2 -16.5v-22q0 -86 86 -86q94 0 115 108q3 21 24 21h127q17 0 17 -21
q-23 -133 -100.5 -198.5t-202.5 -65.5q-104 0 -169 60.5t-65 158.5q0 17 4 45q3 21 25 21z" />
    <glyph glyph-name="obreve" unicode="&#x14f;" horiz-adv-x="1245" 
d="M45 434q0 175 80 315.5t223.5 220t323.5 79.5q211 0 339 -128.5t128 -326.5q0 -131 -47 -245t-129.5 -195t-199 -127.5t-251.5 -46.5q-211 0 -339 128t-128 326zM651 856q-163 0 -274 -113.5t-111 -289.5q0 -135 69 -208t197 -73q164 0 275 113.5t111 289.5
q0 135 -69.5 208t-197.5 73zM506 1417h125q10 0 12 -4t2 -16v-23q0 -86 86 -86q94 0 115 109q3 20 24 20h127q17 0 17 -20q-23 -133 -100.5 -198.5t-202.5 -65.5q-104 0 -169 60.5t-65 158.5q0 17 4 45q3 20 25 20z" />
    <glyph glyph-name="Ohungarumlaut" unicode="&#x150;" horiz-adv-x="1538" 
d="M643 -20q-123 0 -229.5 40.5t-186.5 115.5t-126 191.5t-46 260.5q0 170 59 326.5t164.5 276.5t265.5 191.5t349 71.5q123 0 229.5 -40.5t186.5 -115.5t126 -191.5t46 -260.5q0 -170 -59 -326.5t-164.5 -276.5t-265.5 -191.5t-349 -71.5zM670 184q103 0 195.5 36
t161.5 97.5t120.5 141.5t77.5 171.5t26 184.5q0 214 -105 324t-280 110q-103 0 -195.5 -36t-161.5 -97.5t-120.5 -141.5t-77.5 -171.5t-26 -184.5q0 -214 105 -324t280 -110zM575 1561l191 258q14 20 35 20h229q10 0 12 -6.5t-6 -13.5l-262 -260q-19 -19 -41 -19h-151
q-10 0 -11.5 7t4.5 14zM965 1561l190 258q14 20 35 20h229q10 0 12 -6.5t-6 -13.5l-262 -260q-19 -19 -41 -19h-151q-10 0 -11.5 7t5.5 14z" />
    <glyph glyph-name="ohungarumlaut" unicode="&#x151;" horiz-adv-x="1245" 
d="M45 434q0 175 80 315.5t223.5 220t323.5 79.5q211 0 339 -128.5t128 -326.5q0 -131 -47 -245t-129.5 -195t-199 -127.5t-251.5 -46.5q-211 0 -339 128t-128 326zM651 856q-163 0 -274 -113.5t-111 -289.5q0 -135 69 -208t197 -73q164 0 275 113.5t111 289.5
q0 135 -69.5 208t-197.5 73zM340 1155l190 258q15 21 35 21h230q10 0 12 -7t-6 -14l-262 -260q-18 -18 -41 -18h-152q-7 0 -9.5 3t-1.5 7.5t5 9.5zM729 1155l191 258q15 21 34 21h230q10 0 12 -7t-6 -14l-262 -260q-18 -18 -41 -18h-152q-10 0 -11.5 6.5t5.5 13.5z" />
    <glyph glyph-name="OE" unicode="&#x152;" horiz-adv-x="2242" 
d="M1460 651l-86 -446h678q16 0 16 -21l-32 -164q-3 -20 -25 -20h-878q-17 0 -17 20l23 115q-210 -155 -496 -155q-123 0 -229.5 40.5t-186.5 115.5t-126 191.5t-46 260.5q0 170 59 326.5t164.5 276.5t265.5 191.5t349 71.5q143 0 264 -54t199 -157l33 170q3 21 24 21h848
q16 0 16 -21l-32 -164q-3 -20 -25 -20h-647l-72 -373h586q16 0 16 -20l-32 -164q-3 -21 -25 -21h-586zM670 184q103 0 195.5 36t161.5 97.5t120.5 141.5t77.5 171.5t26 184.5q0 214 -105 324t-280 110q-103 0 -195.5 -36t-161.5 -97.5t-120.5 -141.5t-77.5 -171.5
t-26 -184.5q0 -214 105 -324t280 -110z" />
    <glyph glyph-name="oe" unicode="&#x153;" horiz-adv-x="2070" 
d="M1386 172q100 0 169 36t124 118q11 18 31 18h178q13 0 13 -14q0 -5 -7 -21q-77 -170 -206 -249.5t-316 -79.5q-128 0 -226.5 51t-158.5 149q-184 -200 -475 -200q-211 0 -339 128t-128 326q0 175 80 315.5t223.5 220t323.5 79.5q132 0 233.5 -54t163.5 -149
q85 95 203 149t260 54q107 0 191.5 -34.5t136.5 -95t79 -139t27 -170.5q0 -43 -10 -102l-8 -39q-3 -20 -25 -20h-780q-2 -14 -2 -25q0 -119 63.5 -185.5t181.5 -66.5zM651 856q-163 0 -274 -113.5t-111 -289.5q0 -135 69 -208t197 -73q163 0 275.5 113.5t112.5 289.5
q0 135 -70.5 208t-198.5 73zM1509 856q-102 0 -194.5 -56t-143.5 -167h578q-9 223 -240 223z" />
    <glyph glyph-name="Racute" unicode="&#x154;" horiz-adv-x="1300" 
d="M41 20l272 1393q3 21 25 21h528q177 0 280 -87t103 -249q0 -157 -90 -261t-256 -157l180 -660v-4q0 -1 1 -3t1 -3q0 -10 -14 -10h-197q-18 0 -24 20l-174 644h-289l-125 -644q-3 -20 -24 -20h-181q-16 0 -16 20zM498 1229l-70 -361h332q124 0 192 51t68 152
q0 158 -193 158h-329zM606 1561l191 258q14 20 34 20h230q10 0 12 -6.5t-6 -13.5l-262 -260q-19 -19 -41 -19h-152q-8 0 -10 7t4 14z" />
    <glyph glyph-name="racute" unicode="&#x155;" horiz-adv-x="905" 
d="M918 979l-33 -162q-3 -22 -21 -22l-12 4q-64 33 -103 45t-92 12q-108 0 -191 -80.5t-112 -220.5l-102 -535q-3 -20 -25 -20h-168q-16 0 -16 20l190 988q3 20 25 20h168q16 0 16 -20l-12 -74q128 115 291 115q105 0 178 -33q21 -9 21 -23q0 -8 -2 -14zM457 1155l190 258
q15 21 35 21h229q10 0 12.5 -7t-5.5 -14l-263 -260q-18 -18 -41 -18h-151q-8 0 -10 6.5t4 13.5z" />
    <glyph glyph-name="Rcommaaccent" unicode="&#x156;" horiz-adv-x="1300" 
d="M41 20l272 1393q3 21 25 21h528q177 0 280 -87t103 -249q0 -157 -90 -261t-256 -157l180 -660v-4q0 -1 1 -3t1 -3q0 -10 -14 -10h-197q-18 0 -24 20l-174 644h-289l-125 -644q-3 -20 -24 -20h-181q-16 0 -16 20zM498 1229l-70 -361h332q124 0 192 51t68 152
q0 158 -193 158h-329zM387 -426q54 0 77 18t34 68l4 25h-96q-17 0 -17 20l37 189q3 20 23 20h188q18 0 18 -20l-49 -248q-18 -88 -63 -131t-125 -43h-49q-19 0 -19 20l12 62q6 20 25 20z" />
    <glyph glyph-name="rcommaaccent" unicode="&#x157;" horiz-adv-x="905" 
d="M918 979l-33 -162q-3 -22 -21 -22l-12 4q-64 33 -103 45t-92 12q-108 0 -191 -80.5t-112 -220.5l-102 -535q-3 -20 -25 -20h-168q-16 0 -16 20l190 988q3 20 25 20h168q16 0 16 -20l-12 -74q128 115 291 115q105 0 178 -33q21 -9 21 -23q0 -8 -2 -14zM111 -426
q54 0 76.5 18t33.5 68l4 25h-96q-16 0 -16 20l37 189q3 20 22 20h188q19 0 19 -20l-49 -248q-18 -88 -63.5 -131t-125.5 -43h-49q-18 0 -18 20l12 62q6 20 25 20z" />
    <glyph glyph-name="Rcaron" unicode="&#x158;" horiz-adv-x="1300" 
d="M41 20l272 1393q3 21 25 21h528q177 0 280 -87t103 -249q0 -157 -90 -261t-256 -157l180 -660v-4q0 -1 1 -3t1 -3q0 -10 -14 -10h-197q-18 0 -24 20l-174 644h-289l-125 -644q-3 -20 -24 -20h-181q-16 0 -16 20zM498 1229l-70 -361h332q124 0 192 51t68 152
q0 158 -193 158h-329zM637 1544l-164 275q-5 7 -0.5 13.5t14.5 6.5h152q22 0 35 -18l86 -109l137 109q18 18 39 18h166q10 0 12 -6.5t-6 -13.5l-270 -275q-16 -16 -33 -16h-139q-19 0 -29 16z" />
    <glyph glyph-name="rcaron" unicode="&#x159;" horiz-adv-x="905" 
d="M918 979l-33 -162q-3 -22 -21 -22l-12 4q-64 33 -103 45t-92 12q-108 0 -191 -80.5t-112 -220.5l-102 -535q-3 -20 -25 -20h-168q-16 0 -16 20l190 988q3 20 25 20h168q16 0 16 -20l-12 -74q128 115 291 115q105 0 178 -33q21 -9 21 -23q0 -8 -2 -14zM506 1139l-164 274
q-5 7 -0.5 14t14.5 7h152q21 0 35 -19l86 -108l137 108q19 19 39 19h166q10 0 12 -7t-6 -14l-270 -274q-17 -17 -33 -17h-139q-19 0 -29 17z" />
    <glyph glyph-name="Sacute" unicode="&#x15a;" horiz-adv-x="1206" 
d="M156 1028q0 101 44.5 183.5t120 134.5t172.5 80t205 28q214 0 336.5 -109t122.5 -278v-25q-3 -20 -24 -20h-177q-16 0 -16 20q0 96 -74 151.5t-198 55.5q-52 0 -102 -11.5t-94 -34t-71.5 -62.5t-27.5 -90q0 -32 10 -58.5t33.5 -48t47.5 -37.5t66 -32.5t74 -27t86 -26.5
q69 -20 121.5 -40.5t108 -51.5t91 -67t58.5 -87t23 -112q0 -117 -43.5 -209.5t-121 -152t-182.5 -90.5t-231 -31q-226 0 -362 115t-136 296q0 19 4 55q3 21 25 21h176q17 0 17 -21q0 -127 67 -194.5t223 -67.5q66 0 125.5 14t109 42t78.5 75.5t29 108.5q0 75 -75 125
t-232 94q-208 57 -307.5 144.5t-99.5 240.5zM578 1561l190 258q14 20 35 20h229q10 0 12 -6.5t-6 -13.5l-262 -260q-19 -19 -41 -19h-151q-8 0 -10 7t4 14z" />
    <glyph glyph-name="sacute" unicode="&#x15b;" horiz-adv-x="1036" 
d="M889 340q0 -169 -129 -264.5t-336 -95.5q-202 0 -300.5 90.5t-98.5 255.5q0 20 24 20h168q16 0 16 -20q4 -84 53 -119t150 -35q43 0 81.5 7.5t73.5 23t56 45t21 69.5q0 45 -51 69.5t-193 55.5q-157 33 -231 100t-74 183q0 149 127.5 236.5t310.5 87.5q175 0 277 -87
t102 -221q0 -20 -25 -20h-174q-13 0 -16 20q-21 115 -195 115q-46 0 -88.5 -11t-76 -40t-33.5 -72q0 -48 54 -79.5t187 -55.5q320 -59 320 -258zM457 1155l190 258q15 21 35 21h229q10 0 12.5 -7t-5.5 -14l-263 -260q-18 -18 -41 -18h-151q-8 0 -10 6.5t4 13.5z" />
    <glyph glyph-name="Scircumflex" unicode="&#x15c;" horiz-adv-x="1206" 
d="M156 1028q0 101 44.5 183.5t120 134.5t172.5 80t205 28q214 0 336.5 -109t122.5 -278v-25q-3 -20 -24 -20h-177q-16 0 -16 20q0 96 -74 151.5t-198 55.5q-52 0 -102 -11.5t-94 -34t-71.5 -62.5t-27.5 -90q0 -32 10 -58.5t33.5 -48t47.5 -37.5t66 -32.5t74 -27t86 -26.5
q69 -20 121.5 -40.5t108 -51.5t91 -67t58.5 -87t23 -112q0 -117 -43.5 -209.5t-121 -152t-182.5 -90.5t-231 -31q-226 0 -362 115t-136 296q0 19 4 55q3 21 25 21h176q17 0 17 -21q0 -127 67 -194.5t223 -67.5q66 0 125.5 14t109 42t78.5 75.5t29 108.5q0 75 -75 125
t-232 94q-208 57 -307.5 144.5t-99.5 240.5zM909 1823l164 -275q5 -8 0.5 -14t-14.5 -6h-152q-20 0 -35 18l-86 109l-137 -109q-18 -18 -39 -18h-166q-10 0 -12 6t6 14l271 275q16 16 32 16h140q18 0 28 -16z" />
    <glyph glyph-name="scircumflex" unicode="&#x15d;" horiz-adv-x="1036" 
d="M889 340q0 -169 -129 -264.5t-336 -95.5q-202 0 -300.5 90.5t-98.5 255.5q0 20 24 20h168q16 0 16 -20q4 -84 53 -119t150 -35q43 0 81.5 7.5t73.5 23t56 45t21 69.5q0 45 -51 69.5t-193 55.5q-157 33 -231 100t-74 183q0 149 127.5 236.5t310.5 87.5q175 0 277 -87
t102 -221q0 -20 -25 -20h-174q-13 0 -16 20q-21 115 -195 115q-46 0 -88.5 -11t-76 -40t-33.5 -72q0 -48 54 -79.5t187 -55.5q320 -59 320 -258zM758 1417l164 -274q5 -8 0 -14.5t-15 -6.5h-151q-19 0 -35 19l-86 108l-137 -108q-19 -19 -39 -19h-166q-10 0 -12 7t6 14
l270 274q17 17 33 17h139q19 0 29 -17z" />
    <glyph glyph-name="Scedilla" unicode="&#x15e;" horiz-adv-x="1206" 
d="M369 -227l-33 39q-6 6 -6 12q0 1 0.5 2.5l1.5 4.5t2 5l74 152q-180 24 -286 135.5t-106 267.5q0 19 4 55q3 21 25 21h176q17 0 17 -21q0 -127 67 -194.5t223 -67.5q66 0 125.5 14t109 42t78.5 75.5t29 108.5q0 75 -75 125t-232 94q-208 57 -307.5 144.5t-99.5 240.5
q0 101 44.5 183.5t120 134.5t172.5 80t205 28q214 0 336.5 -109t122.5 -278v-25q-3 -20 -24 -20h-177q-16 0 -16 20q0 96 -74 151.5t-198 55.5q-52 0 -102 -11.5t-94 -34t-71.5 -62.5t-27.5 -90q0 -32 10 -58.5t33.5 -48t47.5 -37.5t66 -32.5t74 -27t86 -26.5
q69 -20 121.5 -40.5t108 -51.5t91 -67t58.5 -87t23 -112q0 -152 -72 -261t-193.5 -163t-283.5 -59l-62 -97q58 15 109 15q75 0 116.5 -35t41.5 -101q0 -92 -74.5 -140t-188.5 -48q-142 0 -209 20q-18 6 -18 21l16 80q3 20 25 20q3 0 57 -13t123 -13q101 0 101 55
q0 43 -66 43q-36 0 -115 -18q-6 -2 -14 -2q-10 0 -16 6z" />
    <glyph glyph-name="scedilla" unicode="&#x15f;" horiz-adv-x="1036" 
d="M289 -227l-33 39q-6 6 -6 12q0 1 0.5 2.5l1.5 4.5t2 5l74 150q-303 45 -303 340q0 20 24 20h168q16 0 16 -20q4 -84 53 -119t150 -35q43 0 81.5 7.5t73.5 23t56 45t21 69.5q0 45 -51 69.5t-193 55.5q-157 33 -231 98.5t-74 180.5q0 104 62 179.5t160.5 112t219.5 36.5
q174 0 274.5 -87t100.5 -221q0 -20 -25 -20h-174q-13 0 -16 20q-21 115 -195 115q-46 0 -88.5 -11t-76 -40t-33.5 -72q0 -48 54 -79.5t187 -55.5q320 -59 320 -256q0 -162 -117 -256t-307 -106l-64 -97q58 15 109 15q75 0 116.5 -35t41.5 -101q0 -92 -74 -140t-188 -48
q-142 0 -209 20q-19 6 -19 21l17 80q3 20 24 20q3 0 57 -13t123 -13q101 0 101 55q0 43 -66 43q-36 0 -115 -18q-6 -2 -14 -2q-10 0 -16 6z" />
    <glyph glyph-name="Scaron" unicode="&#x160;" horiz-adv-x="1206" 
d="M156 1028q0 101 44.5 183.5t120 134.5t172.5 80t205 28q214 0 336.5 -109t122.5 -278v-25q-3 -20 -24 -20h-177q-16 0 -16 20q0 96 -74 151.5t-198 55.5q-52 0 -102 -11.5t-94 -34t-71.5 -62.5t-27.5 -90q0 -32 10 -58.5t33.5 -48t47.5 -37.5t66 -32.5t74 -27t86 -26.5
q69 -20 121.5 -40.5t108 -51.5t91 -67t58.5 -87t23 -112q0 -117 -43.5 -209.5t-121 -152t-182.5 -90.5t-231 -31q-226 0 -362 115t-136 296q0 19 4 55q3 21 25 21h176q17 0 17 -21q0 -127 67 -194.5t223 -67.5q66 0 125.5 14t109 42t78.5 75.5t29 108.5q0 75 -75 125
t-232 94q-208 57 -307.5 144.5t-99.5 240.5zM639 1544l-164 275q-5 7 -0.5 13.5t14.5 6.5h152q22 0 35 -18l86 -109l137 109q18 18 39 18h166q10 0 12 -6.5t-6 -13.5l-270 -275q-16 -16 -33 -16h-139q-19 0 -29 16z" />
    <glyph glyph-name="scaron" unicode="&#x161;" horiz-adv-x="1036" 
d="M889 340q0 -169 -129 -264.5t-336 -95.5q-202 0 -300.5 90.5t-98.5 255.5q0 20 24 20h168q16 0 16 -20q4 -84 53 -119t150 -35q43 0 81.5 7.5t73.5 23t56 45t21 69.5q0 45 -51 69.5t-193 55.5q-157 33 -231 100t-74 183q0 149 127.5 236.5t310.5 87.5q175 0 277 -87
t102 -221q0 -20 -25 -20h-174q-13 0 -16 20q-21 115 -195 115q-46 0 -88.5 -11t-76 -40t-33.5 -72q0 -48 54 -79.5t187 -55.5q320 -59 320 -258zM492 1139l-164 274q-5 7 -0.5 14t14.5 7h152q20 0 34 -19l86 -108l138 108q19 19 39 19h165q10 0 12.5 -7t-5.5 -14l-271 -274
q-17 -17 -33 -17h-139q-18 0 -28 17z" />
    <glyph glyph-name="uni0162" unicode="&#x162;" horiz-adv-x="1058" 
d="M256 -227l-33 39q-6 6 -6 12q0 1 0.5 2.5l1.5 4.5t2 5l80 164h-16q-17 0 -17 20l236 1209h-400q-16 0 -16 20l33 164q3 21 24 21h1020q17 0 17 -21l-33 -164q-3 -20 -25 -20h-399l-236 -1209q-3 -20 -24 -20h-21l-75 -117q58 15 108 15q75 0 116.5 -35t41.5 -101
q0 -92 -74 -140t-188 -48q-142 0 -209 20q-19 6 -19 21l17 80q3 20 24 20q2 0 57.5 -13t123.5 -13q100 0 100 55q0 43 -66 43q-35 0 -114 -18q-6 -2 -15 -2q-10 0 -16 6z" />
    <glyph glyph-name="uni0163" unicode="&#x163;" horiz-adv-x="845" 
d="M178 -227l-33 39q-6 6 -6 12l4 12l93 189q-105 63 -105 213q0 42 6 81l99 517h-177q-16 0 -16 20l29 152q3 20 24 20h176l58 295q3 20 24 20h166q19 0 19 -20l-58 -295h322q16 0 16 -20l-28 -152q-3 -20 -25 -20h-322l-92 -471q-4 -15 -4 -62q0 -65 28.5 -98t94.5 -33
q102 0 186 35q2 2 13 2q14 0 14 -19l-29 -145q-1 -3 -3 -9.5t-3 -9t-3 -6.5t-5 -6t-8 -4q-77 -30 -217 -30q-26 0 -62 4l-63 -101q58 15 108 15q75 0 116.5 -35t41.5 -101q0 -92 -74 -140t-188 -48q-142 0 -209 20q-18 6 -18 21l16 80q3 20 25 20q3 0 57 -13t123 -13
q100 0 100 55q0 43 -65 43q-36 0 -115 -18q-6 -2 -14 -2q-11 0 -17 6z" />
    <glyph glyph-name="Tcaron" unicode="&#x164;" horiz-adv-x="1058" 
d="M88 1249l33 164q3 21 24 21h1020q17 0 17 -21l-33 -164q-3 -20 -25 -20h-399l-236 -1209q-3 -20 -24 -20h-180q-17 0 -17 20l236 1209h-400q-16 0 -16 20zM571 1544l-163 275q-5 7 -0.5 13.5t14.5 6.5h151q22 0 35 -18l86 -109l137 109q18 18 39 18h166q10 0 12 -6.5
t-6 -13.5l-270 -275q-16 -16 -33 -16h-139q-19 0 -29 16z" />
    <glyph glyph-name="tcaron" unicode="&#x165;" horiz-adv-x="845" 
d="M692 1204q64 0 95.5 25t39.5 78l4 24h-96q-18 0 -18 21l37 188q6 21 24 21h201q16 0 16 -21l-47 -248q-19 -98 -71 -144t-148 -46h-55q-17 0 -17 20l13 62q3 20 22 20zM481 1028h322q16 0 16 -20l-28 -152q-3 -20 -25 -20h-322l-92 -471q-4 -15 -4 -62q0 -65 28.5 -98
t94.5 -33q102 0 186 35q2 2 13 2q14 0 14 -19l-29 -145q-1 -3 -3 -9.5t-3 -9t-3 -6.5t-5 -6t-8 -4q-77 -30 -217 -30q-139 0 -212 68.5t-73 189.5q0 42 6 81l99 517h-177q-16 0 -16 20l29 152q3 20 24 20h176l58 295q3 20 24 20h166q19 0 19 -20z" />
    <glyph glyph-name="Tbar" unicode="&#x166;" horiz-adv-x="1058" 
d="M88 1249l33 164q3 21 24 21h1020q17 0 17 -21l-33 -164q-3 -20 -25 -20h-399l-39 -195h350q17 0 17 -20l-33 -156q-3 -20 -23 -20h-348l-160 -818q-3 -20 -24 -20h-180q-17 0 -17 20l160 818h-352q-19 0 -19 20l33 156q3 20 25 20h350l39 195h-400q-16 0 -16 20z" />
    <glyph glyph-name="tbar" unicode="&#x167;" horiz-adv-x="845" 
d="M481 1028h322q16 0 16 -20l-28 -152q-3 -20 -25 -20h-322l-30 -158h280q17 0 17 -21l-27 -143q-3 -20 -25 -20h-282l-25 -129q-4 -18 -4 -60q0 -65 28.5 -99t94.5 -34q102 0 186 35q2 2 13 2q14 0 14 -19l-29 -145q-1 -3 -3 -9.5t-3 -9t-3 -6.5t-5 -6t-8 -4
q-77 -30 -217 -30q-139 0 -212 68.5t-73 189.5q0 42 6 81l31 175h-143q-17 0 -17 20l27 143q3 21 24 21h146l31 158h-177q-16 0 -16 20l29 152q3 20 24 20h176l58 295q3 20 24 20h166q19 0 19 -20z" />
    <glyph glyph-name="Utilde" unicode="&#x168;" horiz-adv-x="1349" 
d="M117 547l168 866q3 21 24 21h180q17 0 17 -21l-172 -876q-10 -49 -10 -105q0 -122 66.5 -185t187.5 -63q146 0 243 92.5t129 260.5l172 876q3 21 25 21h180q16 0 16 -21l-174 -889q-54 -275 -210.5 -409.5t-399.5 -134.5q-211 0 -332 118.5t-121 341.5q0 36 11 107z
M487 1765q133 95 246 95q51 0 88.5 -13t56 -29t47.5 -29t66 -13q61 0 135 49q8 4 17 4q6 0 16 -17l55 -102q5 -15 5 -16q0 -6 -11 -17q-132 -94 -245 -94q-51 0 -88.5 13t-56 29t-47.5 29t-66 13q-62 0 -136 -49q-8 -4 -16 -4q-6 0 -16 16l-56 103q-4 12 -4 16q0 6 10 16z
" />
    <glyph glyph-name="utilde" unicode="&#x169;" horiz-adv-x="1206" 
d="M1108 1008l-190 -988q-3 -20 -25 -20h-168q-16 0 -16 20l16 93q-77 -65 -161 -99t-191 -34q-140 0 -216.5 71.5t-76.5 194.5q0 37 10 92l129 670q3 20 25 20h168q16 0 16 -20l-119 -611q-8 -31 -8 -71q0 -71 43 -112.5t123 -41.5q116 0 211.5 91t126.5 259l94 486
q3 20 25 20h168q16 0 16 -20zM336 1360q132 94 246 94q51 0 88.5 -13t56 -29t47.5 -29t66 -13q61 0 135 49q8 4 16 4q7 0 17 -16l55 -102q4 -12 4 -17q0 -6 -10 -16q-132 -94 -246 -94q-51 0 -88.5 13t-56 29t-47.5 29t-66 13q-59 0 -135 -50q-8 -4 -17 -4q-6 0 -16 17
l-55 102q-4 12 -4 16q0 7 10 17z" />
    <glyph glyph-name="Umacron" unicode="&#x16a;" horiz-adv-x="1349" 
d="M117 547l168 866q3 21 24 21h180q17 0 17 -21l-172 -876q-10 -49 -10 -105q0 -122 66.5 -185t187.5 -63q146 0 243 92.5t129 260.5l172 876q3 21 25 21h180q16 0 16 -21l-174 -889q-54 -275 -210.5 -409.5t-399.5 -134.5q-211 0 -332 118.5t-121 341.5q0 36 11 107z
M629 1626l26 143q3 21 25 21h410q16 0 16 -21l-27 -143q-3 -20 -24 -20h-410q-16 0 -16 20z" />
    <glyph glyph-name="umacron" unicode="&#x16b;" horiz-adv-x="1206" 
d="M1108 1008l-190 -988q-3 -20 -25 -20h-168q-16 0 -16 20l16 93q-77 -65 -161 -99t-191 -34q-140 0 -216.5 71.5t-76.5 194.5q0 37 10 92l129 670q3 20 25 20h168q16 0 16 -20l-119 -611q-8 -31 -8 -71q0 -71 43 -112.5t123 -41.5q116 0 211.5 91t126.5 259l94 486
q3 20 25 20h168q16 0 16 -20zM471 1221l27 143q3 20 24 20h410q16 0 16 -20l-26 -143q-3 -21 -25 -21h-410q-16 0 -16 21z" />
    <glyph glyph-name="Ubreve" unicode="&#x16c;" horiz-adv-x="1349" 
d="M117 547l168 866q3 21 24 21h180q17 0 17 -21l-172 -876q-10 -49 -10 -105q0 -122 66.5 -185t187.5 -63q146 0 243 92.5t129 260.5l172 876q3 21 25 21h180q16 0 16 -21l-174 -889q-54 -275 -210.5 -409.5t-399.5 -134.5q-211 0 -332 118.5t-121 341.5q0 36 11 107z
M645 1823h125q10 0 12 -4.5t2 -16.5v-22q0 -86 86 -86q94 0 115 108q3 21 25 21h127q16 0 16 -21q-23 -133 -100.5 -198.5t-202.5 -65.5q-104 0 -169 60.5t-65 158.5q0 10 5 45q3 21 24 21z" />
    <glyph glyph-name="ubreve" unicode="&#x16d;" horiz-adv-x="1206" 
d="M1108 1008l-190 -988q-3 -20 -25 -20h-168q-16 0 -16 20l16 93q-77 -65 -161 -99t-191 -34q-140 0 -216.5 71.5t-76.5 194.5q0 37 10 92l129 670q3 20 25 20h168q16 0 16 -20l-119 -611q-8 -31 -8 -71q0 -71 43 -112.5t123 -41.5q116 0 211.5 91t126.5 259l94 486
q3 20 25 20h168q16 0 16 -20zM481 1417h125q10 0 12.5 -4t2.5 -16v-23q0 -86 86 -86q93 0 114 109q3 20 25 20h127q16 0 16 -20q-23 -133 -100.5 -198.5t-202.5 -65.5q-104 0 -168.5 60.5t-64.5 158.5q0 17 4 45q3 20 24 20z" />
    <glyph glyph-name="Uring" unicode="&#x16e;" horiz-adv-x="1349" 
d="M117 547l168 866q3 21 24 21h180q17 0 17 -21l-172 -876q-10 -49 -10 -105q0 -122 66.5 -185t187.5 -63q146 0 243 92.5t129 260.5l172 876q3 21 25 21h180q16 0 16 -21l-174 -889q-54 -275 -210.5 -409.5t-399.5 -134.5q-211 0 -332 118.5t-121 341.5q0 36 11 107z
M664 1663q0 96 65 156.5t160 60.5q75 0 123.5 -43.5t48.5 -116.5q0 -96 -65 -156.5t-160 -60.5q-75 0 -123.5 43.5t-48.5 116.5zM872 1769q-37 0 -62.5 -24.5t-25.5 -61.5q0 -69 68 -69q37 0 62.5 24.5t25.5 61.5q0 69 -68 69z" />
    <glyph glyph-name="uring" unicode="&#x16f;" horiz-adv-x="1206" 
d="M1108 1008l-190 -988q-3 -20 -25 -20h-168q-16 0 -16 20l16 93q-77 -65 -161 -99t-191 -34q-140 0 -216.5 71.5t-76.5 194.5q0 37 10 92l129 670q3 20 25 20h168q16 0 16 -20l-119 -611q-8 -31 -8 -71q0 -71 43 -112.5t123 -41.5q116 0 211.5 91t126.5 259l94 486
q3 20 25 20h168q16 0 16 -20zM506 1257q0 96 65.5 157t159.5 61q75 0 123.5 -43.5t48.5 -116.5q0 -96 -65 -156.5t-160 -60.5q-75 0 -123.5 43t-48.5 116zM715 1364q-37 0 -62.5 -24.5t-25.5 -61.5q0 -70 67 -70q37 0 62.5 24.5t25.5 61.5q0 70 -67 70z" />
    <glyph glyph-name="Uhungarumlaut" unicode="&#x170;" horiz-adv-x="1349" 
d="M117 547l168 866q3 21 24 21h180q17 0 17 -21l-172 -876q-10 -49 -10 -105q0 -122 66.5 -185t187.5 -63q146 0 243 92.5t129 260.5l172 876q3 21 25 21h180q16 0 16 -21l-174 -889q-54 -275 -210.5 -409.5t-399.5 -134.5q-211 0 -332 118.5t-121 341.5q0 36 11 107z
M483 1561l191 258q14 20 35 20h229q10 0 12 -6.5t-6 -13.5l-262 -260q-19 -19 -41 -19h-152q-10 0 -11.5 7t5.5 14zM872 1561l191 258q14 20 35 20h229q10 0 12 -6.5t-6 -13.5l-262 -260q-19 -19 -41 -19h-151q-10 0 -11.5 7t4.5 14z" />
    <glyph glyph-name="uhungarumlaut" unicode="&#x171;" horiz-adv-x="1206" 
d="M1108 1008l-190 -988q-3 -20 -25 -20h-168q-16 0 -16 20l16 93q-77 -65 -161 -99t-191 -34q-140 0 -216.5 71.5t-76.5 194.5q0 37 10 92l129 670q3 20 25 20h168q16 0 16 -20l-119 -611q-8 -31 -8 -71q0 -71 43 -112.5t123 -41.5q116 0 211.5 91t126.5 259l94 486
q3 20 25 20h168q16 0 16 -20zM307 1155l191 258q15 21 34 21h230q10 0 12 -7t-6 -14l-262 -260q-18 -18 -41 -18h-152q-10 0 -11.5 6.5t5.5 13.5zM696 1155l191 258q15 21 35 21h229q10 0 12 -7t-6 -14l-262 -260q-18 -18 -41 -18h-152q-7 0 -9.5 3t-1.5 7.5t5 9.5z" />
    <glyph glyph-name="Uogonek" unicode="&#x172;" horiz-adv-x="1349" 
d="M117 547l168 866q3 21 24 21h180q17 0 17 -21l-172 -876q-10 -49 -10 -105q0 -122 66.5 -185t187.5 -63q146 0 243 92.5t129 260.5l172 876q3 21 25 21h180q16 0 16 -21l-174 -889q-84 -433 -442 -526q-51 -13 -86 -49t-35 -88q0 -76 96 -76h33q19 0 19 -21l-21 -102
q-6 -20 -24 -20h-91q-99 0 -157 42t-58 132q0 48 28.5 92t74.5 76q-188 14 -294 130t-106 326q0 36 11 107z" />
    <glyph glyph-name="uogonek" unicode="&#x173;" horiz-adv-x="1206" 
d="M1108 1008l-190 -988q-3 -17 -19 -20q-54 -13 -91.5 -49.5t-37.5 -89.5q0 -76 96 -76h33q19 0 19 -21l-21 -102q-6 -20 -25 -20h-90q-99 0 -157 42t-58 132q0 58 38 108t100 80l20 109q-77 -65 -161 -99t-191 -34q-141 0 -217 70.5t-76 193.5q0 36 10 94l129 670
q3 20 25 20h168q16 0 16 -20l-119 -611q-8 -31 -8 -71q0 -71 43 -112.5t123 -41.5q116 0 211.5 91t126.5 259l94 486q3 20 25 20h168q16 0 16 -20z" />
    <glyph glyph-name="Wcircumflex" unicode="&#x174;" horiz-adv-x="1763" 
d="M1843 1413l-586 -1393q-9 -20 -26 -20h-227q-16 0 -19 20l-57 984l-436 -984q-9 -20 -27 -20h-227q-16 0 -19 20l-61 1393q0 21 20 21h176q21 0 21 -21l39 -1106l446 1008q9 20 29 20h188q18 0 21 -20l65 -1008l457 1106q9 21 29 21h182q14 0 14 -11q0 -6 -2 -10z
M1171 1823l164 -275q5 -8 0.5 -14t-14.5 -6h-152q-19 0 -34 18l-86 109l-138 -109q-18 -18 -39 -18h-165q-10 0 -12.5 6t5.5 14l271 275q16 16 33 16h139q18 0 28 -16z" />
    <glyph glyph-name="wcircumflex" unicode="&#x175;" horiz-adv-x="1560" 
d="M1561 997l-476 -977q-9 -20 -30 -20h-185q-22 0 -22 20l-82 685l-324 -685q-11 -20 -30 -20h-181q-22 0 -22 20l-123 984q0 24 20 24h173q11 0 16 -2.5t6 -5t2 -12.5l64 -734l323 684q9 21 29 21h184q18 0 21 -21l82 -684l340 734q5 12 10.5 16t21.5 4h174q15 0 15 -14
q0 -5 -6 -17zM983 1417l164 -274q5 -7 0.5 -14t-14.5 -7h-152q-19 0 -35 19l-86 108l-137 -108q-19 -19 -39 -19h-166q-10 0 -12 7t6 14l270 274q17 17 33 17h139q19 0 29 -17z" />
    <glyph glyph-name="Ycircumflex" unicode="&#x176;" horiz-adv-x="1081" 
d="M1212 1413l-614 -897l-96 -496q-3 -20 -25 -20h-180q-16 0 -16 20l96 496l-268 897q0 21 18 21h195q19 0 22 -17l182 -655l443 655q10 17 26 17h209q20 0 8 -21zM809 1823l164 -275q5 -8 0 -14t-15 -6h-151q-20 0 -35 18l-86 109l-137 -109q-18 -18 -39 -18h-166
q-10 0 -12 6t6 14l270 275q16 16 33 16h139q19 0 29 -16z" />
    <glyph glyph-name="ycircumflex" unicode="&#x177;" horiz-adv-x="1075" 
d="M115 1028h186q20 0 23 -20l137 -711l364 711q9 20 31 20h186q15 0 15 -14q0 -3 -4 -15l-582 -1099q-49 -95 -100.5 -160.5t-104 -100.5t-102 -50t-105.5 -15q-101 0 -180 33q-16 7 -16 22q0 9 2 15l29 147q3 21 20 21q7 0 52 -22.5t93 -22.5q73 0 131.5 55t118.5 186
l-213 985q-2 6 -2 19q0 16 21 16zM731 1417l164 -274q5 -7 0.5 -14t-14.5 -7h-152q-19 0 -35 19l-86 108l-137 -108q-19 -19 -39 -19h-166q-10 0 -12 7t6 14l270 274q17 17 33 17h139q19 0 29 -17z" />
    <glyph glyph-name="Ydieresis" unicode="&#x178;" horiz-adv-x="1081" 
d="M1212 1413l-614 -897l-96 -496q-3 -20 -25 -20h-180q-16 0 -16 20l96 496l-268 897q0 21 18 21h195q19 0 22 -17l182 -655l443 655q10 17 26 17h209q20 0 8 -21zM385 1626l39 193q3 20 25 20h192q16 0 16 -20l-39 -193q-3 -20 -24 -20h-193q-16 0 -16 20zM737 1626
l39 193q3 20 25 20h192q17 0 17 -20l-39 -193q-3 -20 -25 -20h-192q-17 0 -17 20z" />
    <glyph glyph-name="Zacute" unicode="&#x179;" horiz-adv-x="1230" 
d="M219 1249l33 164q3 21 24 21h945q16 0 16 -21l-33 -164q-2 -12 -18 -35l-936 -1009h780q17 0 17 -21l-33 -164q-3 -20 -25 -20h-1026q-16 0 -16 20l33 164q2 12 18 35l942 1010h-704q-17 0 -17 20zM584 1561l190 258q14 20 35 20h229q10 0 12 -6.5t-6 -13.5l-262 -260
q-19 -19 -41 -19h-151q-8 0 -10 7t4 14z" />
    <glyph glyph-name="zacute" unicode="&#x17a;" horiz-adv-x="999" 
d="M147 856l29 152q3 20 25 20h741q16 0 16 -20l-28 -152q-1 -10 -2 -14t-6.5 -12.5t-16.5 -16.5l-651 -620h565q17 0 17 -21l-29 -152q-6 -20 -25 -20h-805q-16 0 -16 20l29 152q2 12 16 31l664 633h-506q-17 0 -17 20zM424 1155l190 258q15 21 35 21h230q10 0 12 -7
t-6 -14l-262 -260q-18 -18 -41 -18h-152q-8 0 -10 6.5t4 13.5z" />
    <glyph glyph-name="Zdotaccent" unicode="&#x17b;" horiz-adv-x="1230" 
d="M219 1249l33 164q3 21 24 21h945q16 0 16 -21l-33 -164q-2 -12 -18 -35l-936 -1009h780q17 0 17 -21l-33 -164q-3 -20 -25 -20h-1026q-16 0 -16 20l33 164q2 12 18 35l942 1010h-704q-17 0 -17 20zM635 1614l41 205q3 20 24 20h213q17 0 17 -20l-41 -205q-3 -21 -25 -21
h-213q-16 0 -16 21z" />
    <glyph glyph-name="zdotaccent" unicode="&#x17c;" horiz-adv-x="999" 
d="M147 856l29 152q3 20 25 20h741q16 0 16 -20l-28 -152q-1 -10 -2 -14t-6.5 -12.5t-16.5 -16.5l-651 -620h565q17 0 17 -21l-29 -152q-6 -20 -25 -20h-805q-16 0 -16 20l29 152q2 12 16 31l664 633h-506q-17 0 -17 20zM467 1208l41 205q3 21 24 21h213q17 0 17 -21
l-41 -205q-3 -20 -25 -20h-213q-16 0 -16 20z" />
    <glyph glyph-name="Zcaron" unicode="&#x17d;" horiz-adv-x="1230" 
d="M219 1249l33 164q3 21 24 21h945q16 0 16 -21l-33 -164q-2 -12 -18 -35l-936 -1009h780q17 0 17 -21l-33 -164q-3 -20 -25 -20h-1026q-16 0 -16 20l33 164q2 12 18 35l942 1010h-704q-17 0 -17 20zM637 1544l-164 275q-5 7 -0.5 13.5t14.5 6.5h152q22 0 35 -18l86 -109
l137 109q18 18 39 18h166q10 0 12 -6.5t-6 -13.5l-270 -275q-16 -16 -33 -16h-139q-19 0 -29 16z" />
    <glyph glyph-name="zcaron" unicode="&#x17e;" horiz-adv-x="999" 
d="M147 856l29 152q3 20 25 20h741q16 0 16 -20l-28 -152q-1 -10 -2 -14t-6.5 -12.5t-16.5 -16.5l-651 -620h565q17 0 17 -21l-29 -152q-6 -20 -25 -20h-805q-16 0 -16 20l29 152q2 12 16 31l664 633h-506q-17 0 -17 20zM473 1139l-164 274q-5 8 0 14.5t15 6.5h151
q21 0 35 -19l86 -108l137 108q19 19 39 19h166q10 0 12 -7t-6 -14l-270 -274q-17 -17 -33 -17h-139q-19 0 -29 17z" />
    <glyph glyph-name="longs" unicode="&#x17f;" horiz-adv-x="759" 
d="M492 1071l-205 -1051q-3 -20 -25 -20h-168q-19 0 -16 20l160 816h-164q-23 0 -17 20l29 152q3 20 25 20h163l15 74q35 172 137 262t262 90q139 0 232 -39q9 -4 11 -13t-1 -22l-29 -147q-8 -25 -33 -16q-58 25 -94.5 35t-81.5 10q-81 0 -130.5 -45t-69.5 -146z" />
    <glyph glyph-name="uni018E" unicode="&#x18e;" horiz-adv-x="1165" 
d="M780 782l86 447h-676q-18 0 -18 20l33 164q3 21 24 21h879q16 0 16 -21l-272 -1393q-3 -20 -25 -20h-845q-19 0 -19 20l33 164q3 21 24 21h648l71 373h-583q-19 0 -19 20l33 164q3 20 25 20h585z" />
    <glyph glyph-name="uni018F" unicode="&#x18f;" horiz-adv-x="1196" 
d="M610 856q-100 0 -169 -36t-124 -118q-11 -18 -30 -18h-178q-13 0 -13 14q0 7 6 21q77 170 207 250t316 80q202 0 327 -124t125 -345q0 -160 -77.5 -297t-219 -220t-315.5 -83q-108 0 -192 34.5t-136 95t-79 138.5t-27 170q0 43 10 102l8 39q3 21 25 21h782v24
q0 119 -64 185.5t-182 66.5zM487 172q102 0 194.5 56t143.5 167h-577q9 -223 239 -223z" />
    <glyph glyph-name="florin" unicode="&#x192;" horiz-adv-x="1034" 
d="M86 -63l297 899h-154q-14 0 -14 20l29 152q3 20 26 20h176l33 96q111 330 408 330q129 0 213 -37q16 -6 16 -22q0 -9 -2 -15l-29 -147q-6 -21 -18 -21q-1 0 -16 5q-78 45 -170 45q-70 0 -118 -35.5t-77 -122.5l-24 -76h294q17 0 17 -20l-29 -152q-3 -20 -24 -20h-320
l-326 -967q-53 -153 -142 -224t-220 -71q-134 0 -207 39q-12 9 -12 18q0 11 2 17l29 147q3 21 20 21q2 0 14 -4q78 -45 154 -45q64 0 103 37t71 133z" />
    <glyph glyph-name="uni01B5" unicode="&#x1b5;" horiz-adv-x="1230" 
d="M219 1249l33 164q3 21 24 21h945q16 0 16 -21l-33 -164q-2 -12 -18 -35l-377 -405h289q16 0 16 -21l-33 -155q-3 -21 -24 -21h-430l-377 -407h780q17 0 17 -21l-33 -164q-3 -20 -25 -20h-1026q-16 0 -16 20l33 164q2 12 18 35l367 393h-234q-16 0 -16 21l32 155
q3 21 25 21h375l393 420h-704q-17 0 -17 20z" />
    <glyph glyph-name="uni01B6" unicode="&#x1b6;" horiz-adv-x="999" 
d="M147 856l29 152q3 20 25 20h741q16 0 16 -20l-28 -152q-1 -10 -2 -14t-6.5 -12.5t-16.5 -16.5l-188 -178h102q17 0 17 -21l-29 -143q-3 -20 -25 -20h-258l-270 -258h565q17 0 17 -21l-29 -152q-6 -20 -25 -20h-805q-16 0 -16 20l29 152q2 12 16 31l260 248h-141
q-16 0 -16 20l28 143q3 21 25 21h297l211 201h-506q-17 0 -17 20z" />
    <glyph glyph-name="Aringacute" unicode="&#x1fa;" horiz-adv-x="1255" 
d="M578 1483q0 96 65 156.5t160 60.5q75 0 123.5 -43.5t48.5 -116.5q0 -105 -82 -170l229 -1337q0 -33 -28 -33h-166q-18 0 -21 20l-61 375h-551l-207 -375q-11 -20 -29 -20h-188q-18 0 -18 16q0 8 6 17l751 1347q-32 40 -32 103zM721 1161l-311 -561h403zM684 1765l190 258
q15 21 35 21h230q10 0 12 -7t-6 -14l-262 -260q-18 -18 -41 -18h-152q-8 0 -10 6.5t4 13.5zM786 1589q-37 0 -62.5 -24.5t-25.5 -61.5q0 -69 68 -69q37 0 62.5 24.5t25.5 61.5q0 69 -68 69z" />
    <glyph glyph-name="aringacute" unicode="&#x1fb;" horiz-adv-x="1239" 
d="M1139 1008l-191 -988q-3 -20 -24 -20h-168q-17 0 -17 20l11 56q-64 -50 -135.5 -73t-168.5 -23q-85 0 -157.5 28.5t-128.5 83.5t-87.5 143t-31.5 201q0 129 41.5 241.5t117 195t187 129.5t244.5 47q181 0 289 -101l10 60q3 20 24 20h168q17 0 17 -20zM504 172
q153 0 254.5 119.5t101.5 298.5q0 124 -64.5 195t-181.5 71q-157 0 -254.5 -120.5t-97.5 -295.5q0 -127 65 -197.5t177 -70.5zM500 1257q0 96 65.5 157t159.5 61q75 0 123.5 -43.5t48.5 -116.5q0 -96 -65 -156.5t-160 -60.5q-75 0 -123.5 43t-48.5 116zM709 1364
q-37 0 -62.5 -24.5t-25.5 -61.5q0 -70 67 -70q37 0 62.5 24.5t25.5 61.5q0 70 -67 70zM608 1561l191 258q14 20 35 20h229q10 0 12 -6.5t-6 -13.5l-262 -260q-19 -19 -41 -19h-152q-8 0 -10 7t4 14z" />
    <glyph glyph-name="AEacute" unicode="&#x1fc;" horiz-adv-x="1732" 
d="M946 651l-86 -446h680q16 0 16 -21l-32 -164q-3 -20 -25 -20h-881q-16 0 -16 20l74 375h-375l-223 -375q-11 -20 -29 -20h-180q-19 0 -19 14q0 5 7 19l823 1380q12 21 33 21h1036q16 0 16 -21l-32 -164q-3 -20 -25 -20h-649l-72 -373h588q16 0 16 -20l-32 -164
q-3 -21 -25 -21h-588zM795 1229l-373 -629h293l123 629h-43zM1034 1561l191 258q14 20 35 20h229q10 0 12 -6.5t-6 -13.5l-262 -260q-19 -19 -41 -19h-152q-8 0 -10 7t4 14z" />
    <glyph glyph-name="aeacute" unicode="&#x1fd;" horiz-adv-x="1931" 
d="M1247 172q100 0 169 36t124 118q11 18 31 18h178q12 0 12 -14q0 -7 -6 -21q-77 -170 -206 -249.5t-316 -79.5q-128 0 -227.5 51t-159.5 149q-150 -200 -443 -200q-76 0 -139.5 18t-114 54t-78.5 96.5t-28 140.5q0 114 64.5 199.5t168 128t228.5 42.5q164 0 289 -43l8 37
q6 27 6 54q0 71 -48 114t-151 43q-149 0 -225 -131q-9 -18 -31 -18h-162q-13 0 -18 7.5t0 18.5q48 144 167.5 226t295.5 82q242 0 332 -164q179 164 426 164q107 0 191.5 -34.5t136.5 -95t79 -139t27 -170.5q0 -43 -10 -102l-9 -39q-3 -20 -24 -20h-780q-3 -21 -3 -25
q0 -119 64 -185.5t182 -66.5zM758 432q-70 24 -123.5 33.5t-130.5 9.5q-98 0 -171 -43.5t-73 -128.5q0 -131 156 -131q124 0 221 69.5t121 190.5zM1370 856q-102 0 -194.5 -56t-143.5 -167h578q-9 223 -240 223zM866 1155l191 258q15 21 35 21h229q10 0 12 -7t-6 -14
l-262 -260q-18 -18 -41 -18h-152q-8 0 -10 6.5t4 13.5z" />
    <glyph glyph-name="Scommaaccent" unicode="&#x218;" horiz-adv-x="1206" 
d="M156 1028q0 101 44.5 183.5t120 134.5t172.5 80t205 28q214 0 336.5 -109t122.5 -278v-25q-3 -20 -24 -20h-177q-16 0 -16 20q0 96 -74 151.5t-198 55.5q-52 0 -102 -11.5t-94 -34t-71.5 -62.5t-27.5 -90q0 -32 10 -58.5t33.5 -48t47.5 -37.5t66 -32.5t74 -27t86 -26.5
q69 -20 121.5 -40.5t108 -51.5t91 -67t58.5 -87t23 -112q0 -117 -43.5 -209.5t-121 -152t-182.5 -90.5t-231 -31q-226 0 -362 115t-136 296q0 19 4 55q3 21 25 21h176q17 0 17 -21q0 -127 67 -194.5t223 -67.5q66 0 125.5 14t109 42t78.5 75.5t29 108.5q0 75 -75 125
t-232 94q-208 57 -307.5 144.5t-99.5 240.5zM328 -426q54 0 76.5 18t33.5 68l4 25h-96q-16 0 -16 20l37 189q3 20 22 20h189q18 0 18 -20l-49 -248q-18 -88 -63.5 -131t-125.5 -43h-49q-18 0 -18 20l12 62q6 20 25 20z" />
    <glyph glyph-name="scommaaccent" unicode="&#x219;" horiz-adv-x="1036" 
d="M889 340q0 -169 -129 -264.5t-336 -95.5q-202 0 -300.5 90.5t-98.5 255.5q0 20 24 20h168q16 0 16 -20q4 -84 53 -119t150 -35q43 0 81.5 7.5t73.5 23t56 45t21 69.5q0 45 -51 69.5t-193 55.5q-157 33 -231 100t-74 183q0 149 127.5 236.5t310.5 87.5q175 0 277 -87
t102 -221q0 -20 -25 -20h-174q-13 0 -16 20q-21 115 -195 115q-46 0 -88.5 -11t-76 -40t-33.5 -72q0 -48 54 -79.5t187 -55.5q320 -59 320 -258zM223 -426q54 0 77 18t34 68l4 25h-96q-17 0 -17 20l37 189q3 20 23 20h188q19 0 19 -20l-50 -248q-18 -88 -63 -131t-125 -43
h-49q-19 0 -19 20l13 62q6 20 24 20z" />
    <glyph glyph-name="uni021A" unicode="&#x21a;" horiz-adv-x="1058" 
d="M88 1249l33 164q3 21 24 21h1020q17 0 17 -21l-33 -164q-3 -20 -25 -20h-399l-236 -1209q-3 -20 -24 -20h-180q-17 0 -17 20l236 1209h-400q-16 0 -16 20zM205 -426q54 0 76.5 18t33.5 68l4 25h-96q-16 0 -16 20l37 189q3 20 22 20h189q18 0 18 -20l-49 -248
q-18 -88 -63 -131t-125 -43h-50q-18 0 -18 20l12 62q6 20 25 20z" />
    <glyph glyph-name="uni021B" unicode="&#x21b;" horiz-adv-x="845" 
d="M221 -426q54 0 77 18t34 68l4 25h-96q-17 0 -17 20l37 189q3 20 23 20h188q18 0 18 -20l-49 -248q-18 -88 -63 -131t-125 -43h-49q-19 0 -19 20l13 62q6 20 24 20zM481 1028h322q16 0 16 -20l-28 -152q-3 -20 -25 -20h-322l-92 -471q-4 -15 -4 -62q0 -65 28.5 -98
t94.5 -33q102 0 186 35q2 2 13 2q14 0 14 -19l-29 -145q-1 -3 -3 -9.5t-3 -9t-3 -6.5t-5 -6t-8 -4q-77 -30 -217 -30q-139 0 -212 68.5t-73 189.5q0 42 6 81l99 517h-177q-16 0 -16 20l29 152q3 20 24 20h176l58 295q3 20 24 20h166q19 0 19 -20z" />
    <glyph glyph-name="circumflex" unicode="&#x2c6;" horiz-adv-x="763" 
d="M592 1417l164 -274q5 -8 0 -14.5t-15 -6.5h-151q-19 0 -35 19l-86 108l-137 -108q-19 -19 -39 -19h-166q-10 0 -12 7t6 14l270 274q17 17 33 17h139q19 0 29 -17z" />
    <glyph glyph-name="caron" unicode="&#x2c7;" horiz-adv-x="763" 
d="M348 1139l-164 274q-5 8 0 14.5t15 6.5h151q21 0 35 -19l86 -108l137 108q19 19 39 19h166q10 0 12 -7t-6 -14l-270 -274q-17 -17 -33 -17h-139q-19 0 -29 17z" />
    <glyph glyph-name="breve" unicode="&#x2d8;" horiz-adv-x="663" 
d="M178 1417h125q10 0 12 -4t2 -16v-23q0 -86 86 -86q94 0 115 109q3 20 25 20h127q16 0 16 -20q-23 -133 -100.5 -198.5t-202.5 -65.5q-104 0 -168.5 60.5t-64.5 158.5q0 17 4 45q3 20 24 20z" />
    <glyph glyph-name="dotaccent" unicode="&#x2d9;" horiz-adv-x="548" 
d="M250 1208l41 205q3 21 24 21h213q17 0 17 -21l-41 -205q-3 -20 -25 -20h-213q-16 0 -16 20z" />
    <glyph glyph-name="ring" unicode="&#x2da;" horiz-adv-x="575" 
d="M154 1257q0 96 65.5 157t159.5 61q75 0 123.5 -43.5t48.5 -116.5q0 -96 -65 -156.5t-160 -60.5q-75 0 -123.5 43t-48.5 116zM362 1364q-37 0 -62.5 -24.5t-25.5 -61.5q0 -70 68 -70q37 0 62.5 24.5t25.5 61.5q0 70 -68 70z" />
    <glyph glyph-name="ogonek" unicode="&#x2db;" horiz-adv-x="421" 
d="M160 33l88 -19q6 -3 6 -8q0 -4 -4 -4l-2 -2q-55 -15 -92 -50.5t-37 -88.5q0 -76 96 -76h33q18 0 18 -21l-20 -102q-6 -20 -25 -20h-90q-99 0 -157 42t-58 132q0 70 58.5 128.5t142.5 86.5q4 1 9 2l7.5 1.5t3.5 0.5q9 0 23 -2z" />
    <glyph glyph-name="tilde" unicode="&#x2dc;" horiz-adv-x="808" 
d="M135 1360q132 94 246 94q51 0 88.5 -13t56 -29t47.5 -29t66 -13q61 0 135 49q8 4 17 4q6 0 16 -16l55 -102q4 -12 4 -17q0 -6 -10 -16q-132 -94 -246 -94q-51 0 -88.5 13t-56 29t-47.5 29t-66 13q-59 0 -135 -50q-8 -4 -16 -4q-7 0 -17 17l-55 102q-4 12 -4 16q0 7 10 17
z" />
    <glyph glyph-name="hungarumlaut" unicode="&#x2dd;" horiz-adv-x="854" 
d="M137 1155l191 258q15 21 34 21h230q10 0 12 -7t-6 -14l-262 -260q-18 -18 -41 -18h-152q-10 0 -11.5 6.5t5.5 13.5zM526 1155l191 258q15 21 35 21h229q10 0 12 -7t-6 -14l-262 -260q-18 -18 -41 -18h-152q-7 0 -9.5 3t-1.5 7.5t5 9.5z" />
    <glyph glyph-name="pi" unicode="&#x3c0;" horiz-adv-x="1312" 
d="M1239 844h-199l-104 -539q-4 -28 -4 -41q0 -71 84 -71h22q17 0 17 -21l-29 -152q-3 -20 -29 -20h-100q-84 0 -135 48t-51 138q0 47 4 64l116 594h-337l-160 -824q-3 -20 -25 -20h-168q-16 0 -16 20l160 824h-195q-16 0 -16 20l26 144q3 20 25 20h1149q16 0 16 -20
l-26 -144q-3 -20 -25 -20z" />
    <glyph glyph-name="endash" unicode="&#x2013;" horiz-adv-x="1193" 
d="M172 801h889q16 0 16 -21l-30 -159q-3 -21 -25 -21h-889q-16 0 -16 21l30 159q3 21 25 21z" />
    <glyph glyph-name="emdash" unicode="&#x2014;" horiz-adv-x="1648" 
d="M172 801h1344q16 0 16 -21l-31 -159q-3 -21 -24 -21h-1344q-16 0 -16 21l30 159q3 21 25 21z" />
    <glyph glyph-name="quoteleft" unicode="&#x2018;" horiz-adv-x="501" 
d="M451 1331q-65 0 -96.5 -25t-39.5 -77l-4 -25h97q18 0 18 -20l-37 -189q-6 -20 -24 -20h-201q-17 0 -17 20l48 248q19 98 71 144.5t148 46.5h55q16 0 16 -21l-12 -61q-3 -21 -22 -21z" />
    <glyph glyph-name="quoteright" unicode="&#x2019;" horiz-adv-x="501" 
d="M205 1077q64 0 95.5 25t39.5 78l4 24h-96q-19 0 -19 21l37 188q6 21 25 21h201q16 0 16 -21l-47 -248q-19 -98 -71 -144t-148 -46h-56q-16 0 -16 20l12 62q3 20 23 20z" />
    <glyph glyph-name="quotesinglbase" unicode="&#x201a;" horiz-adv-x="501" 
d="M0 -127q64 0 95.5 25t39.5 77l4 25h-96q-18 0 -18 20l36 189q6 20 25 20h201q16 0 16 -20l-47 -248q-19 -98 -71 -144t-148 -46h-55q-17 0 -17 20l12 62q3 20 23 20z" />
    <glyph glyph-name="quotedblleft" unicode="&#x201c;" horiz-adv-x="808" 
d="M449 1331q-65 0 -96.5 -25t-39.5 -77l-4 -25h97q18 0 18 -20l-37 -189q-6 -20 -25 -20h-200q-17 0 -17 20l48 248q19 98 71 144.5t148 46.5h55q16 0 16 -21l-12 -61q-3 -21 -22 -21zM756 1331q-64 0 -95.5 -25t-39.5 -77l-5 -25h97q18 0 18 -20l-37 -189q-6 -20 -24 -20
h-201q-16 0 -16 20l47 248q19 98 71 144.5t148 46.5h55q17 0 17 -21l-13 -61q-3 -21 -22 -21z" />
    <glyph glyph-name="quotedblright" unicode="&#x201d;" horiz-adv-x="808" 
d="M512 1077q64 0 95.5 25t39.5 78l4 24h-96q-18 0 -18 21l36 188q6 21 25 21h201q16 0 16 -21l-47 -248q-19 -98 -71 -144t-148 -46h-55q-17 0 -17 20l12 62q3 20 23 20zM205 1077q64 0 95.5 25t39.5 78l4 24h-96q-19 0 -19 21l37 188q6 21 25 21h201q16 0 16 -21l-47 -248
q-19 -98 -71 -144t-148 -46h-56q-16 0 -16 20l12 62q3 20 23 20z" />
    <glyph glyph-name="quotedblbase" unicode="&#x201e;" horiz-adv-x="808" 
d="M307 -127q65 0 96 25t39 77l4 25h-96q-18 0 -18 20l37 189q6 20 24 20h201q16 0 16 -20l-47 -248q-19 -98 -71 -144t-148 -46h-55q-17 0 -17 20l13 62q3 20 22 20zM0 -127q64 0 95.5 25t39.5 77l4 25h-96q-18 0 -18 20l36 189q6 20 25 20h201q16 0 16 -20l-47 -248
q-19 -98 -71 -144t-148 -46h-55q-17 0 -17 20l12 62q3 20 23 20z" />
    <glyph glyph-name="dagger" unicode="&#x2020;" horiz-adv-x="989" 
d="M141 1028h305l76 385q3 21 25 21h180q16 0 16 -21l-75 -385h305q16 0 16 -20l-31 -160q-3 -21 -24 -21h-305l-236 -1212q-3 -21 -24 -21h-181q-16 0 -16 21l236 1212h-306q-16 0 -16 21l31 160q3 20 24 20z" />
    <glyph glyph-name="daggerdbl" unicode="&#x2021;" horiz-adv-x="989" 
d="M774 0h-305l-76 -385q-3 -21 -24 -21h-181q-16 0 -16 21l76 385h-303q-17 0 -17 20l31 160q3 21 23 21h305l121 626h-306q-16 0 -16 21l31 160q3 20 24 20h305l76 385q3 21 25 21h180q16 0 16 -21l-75 -385h305q16 0 16 -20l-31 -160q-3 -21 -24 -21h-305l-121 -626h305
q16 0 16 -21l-30 -160q-3 -20 -25 -20z" />
    <glyph glyph-name="bullet" unicode="&#x2022;" horiz-adv-x="780" 
d="M160 668q0 97 68 165t165 68t165.5 -68t68.5 -165t-68.5 -165.5t-165.5 -68.5t-165 68.5t-68 165.5z" />
    <glyph glyph-name="ellipsis" unicode="&#x2026;" horiz-adv-x="1497" 
d="M96 229h189q16 0 16 -20l-35 -189q-3 -20 -24 -20h-189q-16 0 -16 20l35 189q3 20 24 20zM565 229h189q16 0 16 -20l-35 -189q-3 -20 -24 -20h-189q-16 0 -16 20l35 189q3 20 24 20zM1034 229h189q16 0 16 -20l-35 -189q-3 -20 -24 -20h-189q-16 0 -16 20l35 189
q3 20 24 20z" />
    <glyph glyph-name="perthousand" unicode="&#x2030;" horiz-adv-x="2695" 
d="M868 1130q0 -187 -120 -308.5t-299 -121.5q-140 0 -229 87t-89 217q0 187 120.5 308.5t299.5 121.5q139 0 228 -87t89 -217zM463 858q104 0 170.5 74.5t66.5 181.5q0 71 -47.5 116.5t-115.5 45.5q-104 0 -171 -75t-67 -181q0 -70 48 -116t116 -46zM1606 430
q0 -187 -120.5 -308.5t-299.5 -121.5q-140 0 -229 86.5t-89 216.5q0 187 120.5 308.5t299.5 121.5q140 0 229 -86.5t89 -216.5zM1200 158q104 0 171 75t67 181q0 70 -48 115.5t-116 45.5q-104 0 -171 -75t-67 -181q0 -70 48 -115.5t116 -45.5zM137 102l1379 1325q7 7 14 7
t14 -7l62 -67q8 -8 8 -14q0 -7 -8 -15l-1379 -1325q-6 -6 -14 -6t-14 6l-62 68q-8 8 -8 14t8 14zM2429 430q0 -187 -120.5 -308.5t-299.5 -121.5q-140 0 -228.5 86.5t-88.5 216.5q0 187 120 308.5t299 121.5q140 0 229 -86.5t89 -216.5zM2023 158q104 0 171 75t67 181
q0 70 -48 115.5t-116 45.5q-104 0 -170.5 -74.5t-66.5 -181.5q0 -70 47.5 -115.5t115.5 -45.5z" />
    <glyph glyph-name="guilsinglleft" unicode="&#x2039;" horiz-adv-x="733" 
d="M662 1067l-46 -227q-3 -22 -20 -33l-350 -256l250 -272q10 -10 10 -21q0 -6 -2 -12l-39 -191q-3 -14 -14 -14q-7 0 -13 6l-375 412q-15 18 -12 37l27 139q3 23 28 37l533 403q9 6 14 6q9 0 9 -14z" />
    <glyph glyph-name="guilsinglright" unicode="&#x203a;" horiz-adv-x="733" 
d="M33 55l45 228q3 21 20 32l351 256l-250 273q-11 11 -11 20q0 7 2 13l39 190q3 14 15 14q6 0 12 -6l375 -411q15 -18 12 -37l-27 -140q-3 -22 -28 -36l-533 -404q-9 -6 -14 -6q-8 0 -8 14z" />
    <glyph glyph-name="fraction" unicode="&#x2044;" horiz-adv-x="1372" 
d="M-82 102l1378 1325q7 7 15 7q7 0 14 -7l61 -67q9 -9 9 -14q0 -6 -9 -15l-1378 -1325q-6 -6 -14 -6t-14 6l-62 68q-8 8 -8 14t8 14z" />
    <glyph glyph-name="zerosuperior" unicode="&#x2070;" horiz-adv-x="763" 
d="M104 965q0 130 44 237.5t134.5 175.5t211.5 68t192.5 -79.5t71.5 -229.5q0 -130 -43.5 -237.5t-134 -176t-211.5 -68.5t-193 80t-72 230zM473 1307q-70 0 -120.5 -48t-73.5 -120t-23 -156q0 -98 36.5 -143t96.5 -45q70 0 120.5 48t73.5 119.5t23 155.5q0 98 -36.5 143.5
t-96.5 45.5z" />
    <glyph glyph-name="foursuperior" unicode="&#x2074;" horiz-adv-x="743" 
d="M416 688l20 109h-330q-16 0 -16 20l19 86q3 16 12 25l434 491q15 15 27 15h102q16 0 16 -21l-92 -477h97q16 0 16 -21l-21 -98q-3 -20 -24 -20h-96l-21 -109q-3 -20 -24 -20h-103q-16 0 -16 20zM510 1171l-207 -235h162z" />
    <glyph glyph-name="fivesuperior" unicode="&#x2075;" horiz-adv-x="700" 
d="M135 1030l125 387q7 17 23 17h409q17 0 17 -21l-19 -98q-3 -21 -24 -21h-308l-51 -155q64 37 156 37q89 0 144 -54t55 -149q0 -149 -83 -233.5t-229 -84.5q-103 0 -170 60t-67 153v19q3 20 22 20h101q15 0 18 -20q8 -92 115 -92q66 0 103.5 37.5t37.5 103.5
q0 51 -22.5 78.5t-79.5 27.5q-79 0 -150 -45q-12 -9 -27 -6l-88 23q-8 3 -8 16z" />
    <glyph glyph-name="sixsuperior" unicode="&#x2076;" horiz-adv-x="759" 
d="M123 950q0 84 23.5 169t66.5 159t115.5 121t160.5 47q103 0 164.5 -56.5t61.5 -148.5q-3 -10 -15 -10h-114q-5 0 -8 10q-18 66 -103 66q-54 0 -99 -44.5t-73 -142.5q67 41 160 41q96 0 153.5 -53.5t57.5 -151.5q0 -136 -83.5 -218.5t-211.5 -82.5q-113 0 -184.5 72.5
t-71.5 222.5zM414 1028q-59 0 -102.5 -37t-43.5 -100q0 -47 29.5 -75t77.5 -28q64 0 107.5 36t43.5 100q0 47 -27.5 75.5t-84.5 28.5z" />
    <glyph glyph-name="sevensuperior" unicode="&#x2077;" horiz-adv-x="565" 
d="M123 1315l18 98q3 21 25 21h479q17 0 17 -21l-13 -59q-7 -21 -14 -35l-328 -633q-9 -18 -28 -18h-125q-13 0 -13 10q0 7 6 16l320 600h-328q-16 0 -16 21z" />
    <glyph glyph-name="eightsuperior" unicode="&#x2078;" horiz-adv-x="696" 
d="M193 1212q0 101 79 167.5t193 66.5q104 0 162.5 -49.5t58.5 -136.5q0 -57 -31 -107t-90 -80q80 -58 80 -151q0 -121 -83.5 -194t-213.5 -73q-111 0 -180.5 56t-69.5 153q0 140 152 213q-29 29 -43 59t-14 76zM391 995q-55 0 -90 -32.5t-35 -83.5q0 -41 24 -62.5t66 -21.5
q52 0 89.5 30.5t37.5 79.5q0 39 -25 64.5t-67 25.5zM451 1323q-52 0 -85.5 -30.5t-33.5 -73.5q0 -89 94 -89q46 0 80.5 31.5t34.5 79.5q0 37 -24.5 59.5t-65.5 22.5z" />
    <glyph glyph-name="ninesuperior" unicode="&#x2079;" horiz-adv-x="759" 
d="M729 1151q0 -83 -23.5 -168.5t-67 -159.5t-116 -121t-160.5 -47q-102 0 -163.5 56t-61.5 149q3 10 15 10h114q5 0 8 -10q18 -65 103 -65q54 0 99.5 44t72.5 142q-67 -41 -160 -41q-96 0 -153.5 53.5t-57.5 151.5q0 136 83.5 218.5t211.5 82.5q113 0 184.5 -72.5
t71.5 -222.5zM438 1073q59 0 102.5 37t43.5 100q0 47 -29.5 75t-77.5 28q-65 0 -108 -36t-43 -99q0 -47 27.5 -76t84.5 -29z" />
    <glyph glyph-name="zeroinferior" unicode="&#x2080;" horiz-adv-x="763" 
d="M-59 -109q0 130 43.5 237.5t134 176t211.5 68.5q120 0 192 -80t72 -230q0 -96 -26 -182.5t-73.5 -153t-122.5 -106t-167 -39.5q-121 0 -192.5 79.5t-71.5 229.5zM309 233q-70 0 -120.5 -48t-73.5 -119.5t-23 -155.5q0 -98 36.5 -143.5t96.5 -45.5q70 0 120.5 48t73.5 120
t23 156q0 98 -36.5 143t-96.5 45z" />
    <glyph glyph-name="oneinferior" unicode="&#x2081;" horiz-adv-x="563" 
d="M90 -385l109 559l-140 -70q-15 -6 -20 -6q-12 0 -12 17l22 116q3 11 19 21l192 100q13 8 33 8h65q17 0 17 -20l-142 -725q-3 -21 -24 -21h-103q-16 0 -16 21z" />
    <glyph glyph-name="twoinferior" unicode="&#x2082;" horiz-adv-x="786" 
d="M-43 -385l14 78q3 18 19 28l366 267q97 71 97 151q0 44 -27 69t-80 25q-49 0 -88 -31.5t-57 -80.5q-9 -21 -25 -21h-102q-17 0 -17 21q18 108 99.5 180t199.5 72q113 0 178.5 -59.5t65.5 -149.5q0 -83 -39 -145.5t-121 -122.5l-217 -162h291q16 0 16 -21l-18 -98
q-3 -21 -25 -21h-514q-16 0 -16 21z" />
    <glyph glyph-name="threeinferior" unicode="&#x2083;" horiz-adv-x="770" 
d="M182 -55l19 98q3 20 24 20h45q59 0 98.5 25t39.5 76q0 35 -24 55.5t-67 20.5q-84 0 -120 -84q-10 -17 -25 -17h-102q-17 0 -17 19q23 99 99 156t180 57q106 0 163.5 -52t57.5 -139q0 -120 -119 -178q86 -46 86 -160q0 -119 -79.5 -190.5t-213.5 -71.5q-114 0 -183 63
t-69 154q0 9 2 23q3 20 25 20h102q17 0 17 -20q0 -49 33 -75t86 -26q58 0 93.5 31t35.5 84q0 44 -27.5 67t-77.5 23h-65q-17 0 -17 21z" />
    <glyph glyph-name="fourinferior" unicode="&#x2084;" horiz-adv-x="743" 
d="M246 -385l20 109h-329q-17 0 -17 20l19 86q3 16 12 25l434 491q14 14 27 14h102q16 0 16 -20l-92 -477h97q16 0 16 -21l-21 -98q-3 -20 -24 -20h-96l-21 -109q-3 -21 -24 -21h-103q-16 0 -16 21zM340 98l-207 -235h162z" />
    <glyph glyph-name="fiveinferior" unicode="&#x2085;" horiz-adv-x="700" 
d="M-8 -43l125 387q6 16 22 16h410q16 0 16 -20l-18 -98q-3 -21 -25 -21h-307l-51 -155q62 36 155 36q90 0 144.5 -53.5t54.5 -148.5q0 -149 -82.5 -233.5t-228.5 -84.5q-103 0 -170.5 60t-67.5 153v19q3 20 23 20h100q16 0 19 -20q8 -93 114 -93q66 0 104 38t38 104
q0 51 -23 78.5t-80 27.5q-78 0 -149 -45q-12 -9 -27 -6l-88 23q-8 3 -8 16z" />
    <glyph glyph-name="sixinferior" unicode="&#x2086;" horiz-adv-x="759" 
d="M20 -123q0 83 23.5 168.5t67 159.5t116 121t160.5 47q102 0 163.5 -56t61.5 -149q-3 -10 -14 -10h-115q-5 0 -8 10q-18 65 -102 65q-54 0 -99.5 -44t-72.5 -142q67 41 159 41q96 0 153.5 -53.5t57.5 -151.5q0 -136 -83.5 -218.5t-211.5 -82.5q-113 0 -184.5 72.5
t-71.5 222.5zM311 -45q-59 0 -102 -37t-43 -100q0 -47 29 -75t77 -28q65 0 108.5 36t43.5 99q0 47 -28 76t-85 29z" />
    <glyph glyph-name="seveninferior" unicode="&#x2087;" horiz-adv-x="565" 
d="M-66 242l19 98q3 20 24 20h480q16 0 16 -20l-12 -59q-5 -15 -15 -35l-327 -633q-9 -19 -29 -19h-125q-12 0 -12 11q0 7 6 16l320 600h-328q-17 0 -17 21z" />
    <glyph glyph-name="eightinferior" unicode="&#x2088;" horiz-adv-x="696" 
d="M27 139q0 101 79 167.5t193 66.5q104 0 162.5 -50t58.5 -137q0 -57 -31 -106.5t-90 -79.5q80 -58 80 -152q0 -121 -83.5 -193.5t-213.5 -72.5q-111 0 -180.5 56t-69.5 153q0 140 152 213q-29 29 -43 59t-14 76zM225 -78q-55 0 -90 -33t-35 -84q0 -41 24 -62.5t66 -21.5
q52 0 89.5 31t37.5 80q0 39 -25 64.5t-67 25.5zM285 250q-52 0 -85.5 -31t-33.5 -74q0 -88 94 -88q46 0 80.5 31.5t34.5 79.5q0 37 -24.5 59.5t-65.5 22.5z" />
    <glyph glyph-name="nineinferior" unicode="&#x2089;" horiz-adv-x="759" 
d="M571 78q0 -84 -23.5 -169t-66.5 -159t-115.5 -121t-160.5 -47q-102 0 -163.5 56t-61.5 149q3 10 14 10h115q5 0 8 -10q18 -66 102 -66q54 0 99 44.5t73 142.5q-67 -41 -160 -41q-96 0 -153.5 53.5t-57.5 151.5q0 136 83.5 218.5t211.5 82.5q113 0 184.5 -72.5
t71.5 -222.5zM281 0q59 0 102 37t43 100q0 47 -29.5 75t-77.5 28q-64 0 -107.5 -36t-43.5 -100q0 -47 28 -75.5t85 -28.5z" />
    <glyph glyph-name="Euro" unicode="&#x20ac;" horiz-adv-x="1384" 
d="M102 1006h174q97 216 256 332t357 116q230 0 353.5 -129t123.5 -344q-6 -20 -25 -20h-165q-14 0 -17 20q-10 144 -82 208t-205 64q-245 0 -378 -247h409q17 0 17 -21l-31 -160q-3 -20 -25 -20h-444q-21 -81 -35 -176h444q17 0 17 -21l-31 -159q-3 -21 -24 -21h-408
q36 -248 283 -248q273 0 389 273q9 20 24 20h166q17 0 17 -20q-66 -219 -230.5 -346t-384.5 -127q-206 0 -330 119t-151 329h-174q-17 0 -17 21l29 159q3 21 25 21h139q15 95 35 176h-140q-16 0 -16 20l31 160q3 21 24 21z" />
    <glyph glyph-name="uni2117" unicode="&#x2117;" horiz-adv-x="1638" 
d="M819 -20q-105 0 -207.5 30.5t-194 93t-161 149t-110 206.5t-40.5 258t40.5 258t110 206.5t161 149t194 93t207.5 30.5t207.5 -30.5t194 -93t161 -149t110 -206.5t40.5 -258t-40.5 -258t-110 -206.5t-161 -149t-194 -93t-207.5 -30.5zM819 66q92 0 180 25.5t167 79
t138.5 129t94.5 183.5t35 234t-35 234t-94.5 183.5t-138.5 129t-167 79t-180 25.5t-180 -25.5t-167 -79t-138 -129.5t-94 -183.5t-35 -233.5t35 -233.5t94 -183.5t138 -129.5t167 -79t180 -25.5zM537 272v893q0 23 22 23h309q144 0 227 -76.5t83 -200.5t-83 -200t-227 -76
h-233v-363q0 -22 -23 -22h-53q-22 0 -22 22zM635 1102v-381h248q97 0 146.5 50.5t49.5 139.5t-49.5 140t-146.5 51h-248z" />
    <glyph glyph-name="trademark" unicode="&#x2122;" horiz-adv-x="1439" 
d="M111 1315l18 98q3 21 25 21h528q16 0 16 -21l-18 -98q-3 -21 -25 -21h-192l-119 -606q-3 -20 -25 -20h-102q-16 0 -16 20l118 606h-192q-16 0 -16 21zM1475 1413l-142 -725q-3 -20 -24 -20h-103q-16 0 -16 20l102 522l-229 -405q-9 -12 -25 -12h-80q-11 0 -14 12l-86 405
l-102 -522q-3 -20 -25 -20h-102q-17 0 -17 20l142 725q3 21 24 21h144q17 0 20 -17l84 -432l246 432q10 17 28 17h158q17 0 17 -21z" />
    <glyph glyph-name="Omega" unicode="&#x2126;" horiz-adv-x="1505" 
d="M831 1249q-235 0 -372 -146.5t-137 -383.5q0 -147 49.5 -256t152.5 -225q11 -11 11 -25q0 -7 -3 -16l-34 -177q-3 -20 -25 -20h-455q-16 0 -16 20l33 164q3 21 24 21h258q-101 111 -157 234.5t-56 297.5q0 206 97 370t269.5 255.5t387.5 91.5q272 0 427 -149t155 -392
q0 -398 -447 -708h250q17 0 17 -21l-33 -164q-3 -20 -25 -20h-454q-17 0 -17 20l35 177q1 3 3.5 10t4.5 11t6.5 9.5t10.5 10.5q87 62 159.5 130t135 150.5t98 178.5t35.5 194q0 175 -103 266.5t-285 91.5z" />
    <glyph glyph-name="onethird" unicode="&#x2153;" horiz-adv-x="1822" 
d="M1280 352l18 99q3 20 25 20h45q59 0 98 24.5t39 75.5q0 35 -23.5 55.5t-66.5 20.5q-85 0 -121 -84q-10 -16 -24 -16h-103q-16 0 -16 18q23 99 99 156t180 57q106 0 163.5 -51.5t57.5 -138.5q0 -120 -119 -178q86 -46 86 -160q0 -119 -79.5 -190.5t-213.5 -71.5
q-114 0 -183 63t-69 154q0 8 2 22q3 21 25 21h102q17 0 17 -21q0 -49 32.5 -74.5t85.5 -25.5q58 0 93.5 31t35.5 84q0 44 -27 67t-77 23h-66q-16 0 -16 20zM121 102l1378 1325q7 7 14 7q8 0 15 -7l61 -67q8 -8 8 -14q0 -7 -8 -15l-1378 -1325q-6 -6 -14 -6q-9 0 -15 6
l-61 68q-8 8 -8 14t8 14zM248 688l108 559l-139 -69q-18 -7 -20 -7q-13 0 -13 17l23 117q3 11 18 20l193 100q15 9 33 9h65q16 0 16 -21l-141 -725q-3 -20 -24 -20h-103q-16 0 -16 20z" />
    <glyph glyph-name="twothirds" unicode="&#x2154;" horiz-adv-x="1986" 
d="M1444 352l18 99q3 20 25 20h45q59 0 98 24.5t39 75.5q0 35 -23.5 55.5t-66.5 20.5q-85 0 -121 -84q-10 -16 -24 -16h-103q-16 0 -16 18q23 99 98.5 156t179.5 57q106 0 164 -51.5t58 -138.5q0 -120 -119 -178q86 -46 86 -160q0 -119 -79.5 -190.5t-213.5 -71.5
q-114 0 -183 63t-69 154q0 8 2 22q3 21 25 21h102q16 0 16 -21q0 -49 33 -74.5t86 -25.5q58 0 93.5 31t35.5 84q0 44 -27 67t-77 23h-66q-16 0 -16 20zM305 102l1378 1325q7 7 15 7q7 0 14 -7l62 -67q8 -8 8 -14q0 -7 -8 -15l-1379 -1325q-6 -6 -14 -6t-14 6l-62 68
q-8 8 -8 14t8 14zM115 688l14 78q3 20 18 29l367 266q96 70 96 151q0 44 -27 69.5t-79 25.5q-49 0 -88.5 -32t-57.5 -81q-9 -20 -24 -20h-103q-16 0 -16 20q18 108 99.5 180t199.5 72q113 0 178.5 -59.5t65.5 -149.5q0 -83 -39 -145.5t-121 -122.5l-217 -162h291
q16 0 16 -21l-18 -98q-3 -20 -25 -20h-514q-16 0 -16 20z" />
    <glyph glyph-name="oneeighth" unicode="&#x215b;" horiz-adv-x="1820" 
d="M1139 545q0 101 79 167t193 66q104 0 162.5 -49.5t58.5 -136.5q0 -57 -31 -106.5t-90 -79.5q80 -58 80 -152q0 -121 -83.5 -193.5t-213.5 -72.5q-111 0 -180.5 56t-69.5 153q0 140 152 213q-29 29 -43 59t-14 76zM1337 328q-55 0 -90 -33t-35 -84q0 -40 24.5 -62
t66.5 -22q52 0 89.5 31t37.5 80q0 39 -25.5 64.5t-67.5 25.5zM1397 655q-52 0 -85.5 -30.5t-33.5 -73.5q0 -88 94 -88q46 0 80.5 31t34.5 79q0 37 -24.5 59.5t-65.5 22.5zM111 102l1378 1325q7 7 14 7q8 0 15 -7l61 -67q8 -8 8 -14q0 -7 -8 -15l-1378 -1325q-6 -6 -15 -6
q-8 0 -14 6l-61 68q-9 9 -9 14t9 14zM238 688l108 559l-139 -69q-18 -7 -21 -7q-12 0 -12 17l23 117q3 11 18 20l193 100q15 9 32 9h66q16 0 16 -21l-141 -725q-3 -20 -25 -20h-102q-16 0 -16 20z" />
    <glyph glyph-name="threeeighths" unicode="&#x215c;" horiz-adv-x="1865" 
d="M328 1020l18 98q3 21 25 21h45q59 0 98 24.5t39 75.5q0 35 -23.5 55.5t-66.5 20.5q-85 0 -121 -84q-10 -17 -25 -17h-102q-16 0 -16 19q23 99 98.5 156t179.5 57q106 0 163.5 -52t57.5 -139q0 -121 -118 -178q86 -46 86 -159q0 -119 -79.5 -191t-213.5 -72
q-114 0 -183 63t-69 154q0 9 2 23q3 20 24 20h103q16 0 16 -20q0 -49 33 -74.5t86 -25.5q58 0 93.5 30.5t35.5 83.5q0 44 -27 67t-77 23h-66q-16 0 -16 21zM156 102l1378 1325q7 7 14 7q8 0 15 -7l61 -67q8 -8 8 -14q0 -7 -8 -15l-1378 -1325q-6 -6 -15 -6q-8 0 -14 6
l-61 68q-9 9 -9 14t9 14zM1184 545q0 101 79 167t193 66q104 0 162.5 -49.5t58.5 -136.5q0 -57 -31 -106.5t-90 -79.5q80 -58 80 -152q0 -121 -83.5 -193.5t-213.5 -72.5q-111 0 -180 56t-69 153q0 141 151 213q-29 29 -43 59t-14 76zM1382 328q-55 0 -90 -33t-35 -84
q0 -40 24.5 -62t66.5 -22q52 0 89.5 31t37.5 80q0 39 -25.5 64.5t-67.5 25.5zM1442 655q-52 0 -85.5 -30.5t-33.5 -73.5q0 -88 94 -88q46 0 80.5 31t34.5 79q0 37 -24.5 59.5t-65.5 22.5z" />
    <glyph glyph-name="fiveeighths" unicode="&#x215d;" horiz-adv-x="1882" 
d="M141 1030l125 387q7 17 23 17h409q17 0 17 -21l-19 -98q-3 -21 -24 -21h-307l-52 -155q64 37 156 37q89 0 144 -54t55 -149q0 -149 -83 -233.5t-229 -84.5q-103 0 -170 60t-67 153v19q3 20 22 20h101q15 0 18 -20q8 -92 115 -92q66 0 103.5 37.5t37.5 103.5
q0 51 -22.5 78.5t-79.5 27.5q-79 0 -150 -45q-12 -9 -26 -6l-88 23q-9 3 -9 16zM172 102l1378 1325q7 7 15 7q7 0 14 -7l61 -67q9 -9 9 -14q0 -6 -9 -15l-1378 -1325q-6 -6 -14 -6q-9 0 -15 6l-61 68q-8 8 -8 14t8 14zM1200 545q0 101 79.5 167t193.5 66q104 0 162.5 -49.5
t58.5 -136.5q0 -57 -31 -106.5t-90 -79.5q80 -58 80 -152q0 -121 -83.5 -193.5t-213.5 -72.5q-111 0 -180.5 56t-69.5 153q0 141 151 213q-29 29 -43 59t-14 76zM1399 328q-55 0 -90 -33t-35 -84q0 -41 24 -62.5t66 -21.5q52 0 89.5 31t37.5 80q0 39 -25 64.5t-67 25.5z
M1458 655q-52 0 -85.5 -30.5t-33.5 -73.5q0 -88 95 -88q46 0 80 31t34 79q0 37 -24.5 59.5t-65.5 22.5z" />
    <glyph glyph-name="seveneighths" unicode="&#x215e;" horiz-adv-x="1837" 
d="M248 1315l18 98q3 21 25 21h479q16 0 16 -21l-12 -59q-7 -21 -14 -35l-328 -633q-9 -18 -29 -18h-124q-13 0 -13 10q0 7 6 16l320 600h-328q-16 0 -16 21zM127 102l1378 1325q7 7 15 7q7 0 14 -7l61 -67q9 -9 9 -14q0 -6 -9 -15l-1378 -1325q-6 -6 -14 -6q-9 0 -15 6
l-61 68q-8 8 -8 14t8 14zM1155 545q0 101 79 167t193 66q104 0 163 -49.5t59 -136.5q0 -57 -31 -106.5t-90 -79.5q80 -58 80 -152q0 -121 -83.5 -193.5t-213.5 -72.5q-111 0 -180.5 56t-69.5 153q0 141 151 213q-29 29 -43 59t-14 76zM1354 328q-55 0 -90 -33t-35 -84
q0 -41 24 -62.5t66 -21.5q52 0 89.5 31t37.5 80q0 39 -25 64.5t-67 25.5zM1413 655q-52 0 -85.5 -30.5t-33.5 -73.5q0 -88 95 -88q46 0 80 31t34 79q0 37 -24.5 59.5t-65.5 22.5z" />
    <glyph glyph-name="partialdiff" unicode="&#x2202;" horiz-adv-x="1220" 
d="M891 958q-26 81 -71 138t-107 89.5t-134 47t-163 14.5q-15 0 -15 23l27 143q3 21 29 21q318 0 484.5 -159.5t166.5 -479.5q0 -121 -20 -234t-68 -220t-118.5 -186t-179 -127t-243.5 -48q-205 0 -322.5 115.5t-117.5 324.5q0 125 41 239t114 200.5t182.5 138t237.5 51.5
q102 0 160.5 -21t116.5 -70zM604 856q-151 0 -249.5 -124.5t-98.5 -299.5q0 -118 61.5 -189t174.5 -71q105 0 190.5 59.5t132.5 157.5t47 211t-69 184.5t-189 71.5z" />
    <glyph glyph-name="Delta" unicode="&#x2206;" horiz-adv-x="1337" 
d="M920 1413l254 -1196q2 -6 2 -20q0 -4 -1 -9t-2 -12t-2 -12l-28 -144q-3 -20 -25 -20h-1190q-16 0 -16 20l29 144q17 52 18 53l698 1196q12 21 31 21h209q17 0 23 -21zM958 205l-194 1024l-584 -1024h778z" />
    <glyph glyph-name="product" unicode="&#x220f;" horiz-adv-x="1386" 
d="M557 1229l-313 -1614q-3 -21 -25 -21h-180q-14 0 -14 21l348 1798q3 21 24 21h926q16 0 16 -21l-350 -1798q-3 -21 -24 -21h-181q-16 0 -16 21l313 1614h-524z" />
    <glyph glyph-name="summation" unicode="&#x2211;" horiz-adv-x="1191" 
d="M-170 -385l33 172q7 24 24 41l609 657q30 30 30 47q0 19 -12 43l-360 625q-11 18 -11 27q0 10 2 16l33 170q3 21 25 21h1036q16 0 16 -21l-32 -164q-3 -20 -25 -20h-788l352 -654q10 -23 10 -45q0 -49 -37 -86l-602 -645h821q17 0 17 -20l-33 -164q-3 -21 -25 -21h-1067
q-16 0 -16 21z" />
    <glyph glyph-name="minus" unicode="&#x2212;" horiz-adv-x="1193" 
d="M172 801h889q16 0 16 -21l-30 -159q-3 -21 -25 -21h-889q-16 0 -16 21l30 159q3 21 25 21z" />
    <glyph glyph-name="radical" unicode="&#x221a;" horiz-adv-x="1255" 
d="M225 618h-155q-17 0 -17 21l29 152q3 20 24 20h287q22 0 25 -20l80 -523l598 1145q12 21 32 21h175q21 0 12 -21l-727 -1393q-11 -20 -31 -20h-195q-19 0 -22 20z" />
    <glyph glyph-name="infinity" unicode="&#x221e;" horiz-adv-x="1800" 
d="M92 614q0 180 119.5 292t294.5 112q150 0 247.5 -72t139.5 -178q79 110 197.5 180t250.5 70q151 0 233.5 -85t82.5 -233q0 -180 -121 -295.5t-313 -115.5q-135 0 -230 71t-141 183q-175 -254 -449 -254q-144 0 -227.5 86t-83.5 239zM950 653q76 -239 291 -239
q117 0 194.5 81t77.5 205q0 93 -49.5 143t-146.5 50q-96 0 -185 -59.5t-182 -180.5zM506 893q-112 0 -191 -84.5t-79 -183.5q0 -97 49.5 -154t144.5 -57q192 0 369 239q-79 240 -293 240z" />
    <glyph glyph-name="integral" unicode="&#x222b;" horiz-adv-x="1034" 
d="M86 -63l393 1187q55 167 161 248.5t247 81.5q119 0 217 -39q12 -6 12 -18q0 -11 -2 -17l-29 -147q-3 -23 -18 -23q-5 0 -16 7q-78 45 -164 45q-71 0 -121.5 -36t-79.5 -122l-412 -1235q-53 -158 -139.5 -226.5t-218.5 -68.5q-137 0 -211 39q-12 9 -12 20t2 17l29 145
q3 21 20 21q6 0 18 -6q82 -43 148 -43q64 0 102.5 34.5t73.5 135.5z" />
    <glyph glyph-name="approxequal" unicode="&#x2248;" horiz-adv-x="1146" 
d="M133 889q53 32 132 53t134 21q63 0 118.5 -13t89 -29t79 -29t92.5 -13q80 0 166 51q16 4 17 4q10 0 16 -16l59 -132q4 -12 4 -18q0 -13 -22 -29q-53 -32 -132 -52.5t-134 -20.5q-64 0 -119.5 13t-88.5 29t-79 29t-92 13q-78 0 -166 -52q-16 -4 -17 -4q-9 0 -16 17
l-59 131q-4 12 -4 18q0 13 22 29zM57 483q53 32 132.5 53t134.5 21q80 0 144.5 -21t120.5 -42t113 -21q80 0 166 51q16 4 17 4q10 0 16 -16l60 -131q4 -12 4 -19q0 -12 -23 -28q-53 -32 -132 -53t-134 -21q-64 0 -119.5 13t-88.5 29t-79 29t-92 13q-80 0 -166 -51l-16 -4
q-11 0 -17 16l-59 131q-4 12 -4 19q0 12 22 28z" />
    <glyph glyph-name="notequal" unicode="&#x2260;" horiz-adv-x="1267" 
d="M158 508h266l168 215h-391q-17 0 -17 20l31 160q3 21 25 21h505l242 309q9 12 17 12q4 0 12 -4l117 -88q8 -5 8 -14q0 -6 -6 -15l-160 -200h153q17 0 17 -21l-31 -160q-3 -20 -24 -20h-271l-166 -215h394q16 0 16 -21l-31 -159q-3 -21 -24 -21h-510l-238 -307
q-9 -12 -18 -12q-3 0 -11 4l-116 88q-9 6 -9 14q0 4 7 15l155 198h-149q-17 0 -17 21l31 159q3 21 25 21z" />
    <glyph glyph-name="lessequal" unicode="&#x2264;" horiz-adv-x="1052" 
d="M-49 180h889q16 0 16 -20l-31 -160q-3 -20 -24 -20h-889q-16 0 -16 20l30 160q3 20 25 20zM858 449l-33 -168q-3 -15 -12 -15q-8 0 -10 2l-684 412q-17 10 -17 27l35 167q4 18 25 27l844 404q2 2 8 2q10 0 10 -15l-39 -194q-3 -20 -27 -29l-628 -291l514 -301
q14 -8 14 -28z" />
    <glyph glyph-name="greaterequal" unicode="&#x2265;" horiz-adv-x="1052" 
d="M-25 180h889q17 0 17 -20l-31 -160q-3 -20 -25 -20h-888q-17 0 -17 20l31 160q3 20 24 20zM201 1102l32 168q3 14 13 14q8 0 10 -2l684 -412q16 -10 16 -26l-34 -168q-4 -18 -25 -27l-844 -403q-2 -2 -8 -2q-10 0 -10 14l39 195q3 19 26 28l629 291l-514 301
q-14 6 -14 29z" />
    <glyph glyph-name="lozenge" unicode="&#x25ca;" horiz-adv-x="1101" 
d="M811 1413l268 -676q4 -12 4 -16q0 -8 -10 -25l-530 -676q-14 -20 -33 -20h-193q-15 0 -24 20l-268 676q-5 15 -5 21q0 2 11 20l530 676q15 21 33 21h192q16 0 25 -21zM664 1241l-431 -541l203 -507l434 544z" />
    <glyph glyph-name="apple" unicode="&#xf8ff;" horiz-adv-x="1556" 
d="M1384 1264v-1219q0 -18 -12.5 -31.5t-32.5 -13.5q-8 0 -14 2l-547 158l-547 -158q-6 -2 -14 -2q-20 0 -32.5 13.5t-12.5 31.5v1219q0 36 33 45l553 159l20 5q1 0 21 -5l553 -159q32 -8 32 -45zM733 750v620l-471 -137q12 -190 146 -328t325 -155zM823 1370v-620
q191 17 325 155t146 328zM260 948v-844l473 138v417q-151 12 -275 88.5t-198 200.5zM1296 104v844q-76 -125 -199 -201t-274 -88v-417z" />
    <glyph glyph-name="fi" unicode="&#xfb01;" horiz-adv-x="1323" 
d="M737 836h-295l-159 -816q-3 -20 -25 -20h-168q-19 0 -16 20l159 816h-163q-17 0 -17 20l29 152q3 20 24 20h164l21 109q29 152 125 234.5t235 82.5q114 0 213 -45q13 -10 13 -18t-3 -17l-28 -141q-3 -21 -19 -21q-2 0 -4 1t-5 2t-5 2q-86 45 -156 45q-73 0 -111 -39
t-52 -119l-15 -76h295q17 0 17 -20l-29 -152q-6 -20 -25 -20zM793 20l190 988q3 20 25 20h168q16 0 16 -20l-193 -988q-3 -20 -24 -20h-166q-16 0 -16 20zM999 1208l41 205q3 21 25 21h213q16 0 16 -21l-41 -205q-3 -20 -24 -20h-213q-17 0 -17 20z" />
    <glyph glyph-name="fl" unicode="&#xfb02;" horiz-adv-x="1300" 
d="M737 836h-295l-159 -816q-3 -20 -25 -20h-168q-19 0 -16 20l159 816h-163q-17 0 -17 20l29 152q3 20 24 20h164l21 109q29 152 125 234.5t235 82.5q114 0 213 -45q13 -10 13 -18t-3 -17l-28 -141q-3 -21 -19 -21q-2 0 -4 1t-5 2t-5 2q-86 45 -156 45q-73 0 -111 -39
t-52 -119l-15 -76h295q17 0 17 -20l-29 -152q-6 -20 -25 -20zM793 20l272 1393q3 21 25 21h167q17 0 17 -21l-273 -1393q-3 -20 -24 -20h-168q-16 0 -16 20z" />
    <glyph glyph-name="sterling.tosn" 
d="M180 199q72 56 114.5 106t49.5 109h-149q-17 0 -17 20l25 127q3 21 24 21h92q-14 32 -14 82q0 168 124 276.5t304 108.5q183 0 272 -90.5t89 -241.5q0 -21 -25 -21h-168q-16 0 -16 21q0 139 -170 139q-87 0 -144 -57t-57 -148q0 -39 6 -69h354q17 0 17 -21l-25 -127
q-3 -20 -24 -20h-295q-6 -58 -43 -116.5t-101 -104.5h578q16 0 16 -21l-28 -152q-3 -20 -25 -20h-799q-16 0 -16 20l27 138q4 25 24 41z" />
    <glyph glyph-name="dollar.tosn" 
d="M1028 342q0 -158 -114 -253t-298 -107l-32 -166q-3 -21 -25 -21h-139q-17 0 -17 21l33 176q-272 51 -272 334q0 20 24 20h168q17 0 17 -20q5 -62 29 -96.5t73 -47.5l51 269q-138 36 -203 99.5t-65 170.5q0 143 109.5 228t275.5 98l33 161q3 21 24 21h140q16 0 16 -21
l-35 -172q123 -29 188.5 -107t65.5 -188q0 -20 -24 -20h-174q-14 0 -17 20q-13 68 -78 95l-47 -244q135 -26 214 -88.5t79 -161.5zM807 317q0 57 -107 91l-45 -230q67 12 109.5 46t42.5 93zM467 733q0 -33 21.5 -56.5t74.5 -43.5l43 217q-60 -8 -99.5 -37.5t-39.5 -79.5z
" />
    <glyph glyph-name="yen.tosn" 
d="M276 627h164l-153 381q0 20 16 20h189q18 0 24 -16l129 -332l252 332q13 16 29 16h196q13 0 13 -8q0 -2 -5 -12l-301 -381h164q17 0 17 -21l-25 -131q-3 -20 -24 -20h-254l-23 -117h213q16 0 16 -21l-26 -131q-3 -20 -25 -20h-211l-28 -146q-3 -20 -25 -20h-168
q-16 0 -16 20l28 146h-215q-16 0 -16 20l27 131q3 21 24 21h213l23 117h-254q-17 0 -17 20l25 131q3 21 24 21z" />
    <glyph glyph-name="cent.tosn" 
d="M399 -182l35 176q-153 36 -236 150t-83 296q0 242 144 407.5t380 194.5l33 168q3 21 24 21h160q16 0 16 -21l-34 -172q145 -29 229 -124.5t84 -219.5q0 -4 -1 -10.5t-1 -9.5q-3 -12 -19 -12h-165q-11 0 -16 3t-9 15q-20 125 -139 162l-131 -660q130 36 202 166
q10 19 33 19h174q13 0 13 -13q0 -3 -7 -20q-133 -317 -454 -352l-31 -164q-6 -21 -25 -21h-159q-17 0 -17 21zM336 457q0 -206 137 -267l127 652q-118 -36 -191 -140.5t-73 -244.5z" />
    <glyph glyph-name="multiply.tosn" 
d="M1055 760l-291 -244l194 -244q5 -10 5 -14q0 -5 -9 -14l-125 -105q-8 -8 -14 -8t-14 8l-199 246l-291 -254q-8 -8 -14 -8t-14 8l-107 121q-6 6 -6 12q0 7 10 17l303 258l-190 229q-6 9 -6 12q0 7 10 17l127 104q8 8 16 8t13 -8l188 -235l291 243q9 9 16 9q4 0 13 -9
l98 -121q6 -6 6 -12t-10 -16z" />
    <glyph glyph-name="plus.tosn" 
d="M791 961l-68 -345h340q16 0 16 -20l-30 -160q-3 -20 -25 -20h-340l-68 -344q-3 -21 -24 -21h-168q-16 0 -16 21l67 344h-340q-16 0 -16 20l31 160q3 20 24 20h340l68 345q3 20 24 20h168q17 0 17 -20z" />
    <glyph glyph-name="minus.tosn" 
d="M170 616h889q16 0 16 -20l-31 -160q-3 -20 -24 -20h-889q-16 0 -16 20l30 160q3 20 25 20z" />
    <glyph glyph-name="divide.tosn" 
d="M174 557h889q16 0 16 -20l-30 -160q-3 -21 -25 -21h-889q-16 0 -16 21l31 160q3 20 24 20zM459 238h196q17 0 17 -21l-39 -197q-3 -20 -25 -20h-196q-17 0 -17 20l39 197q3 21 25 21zM590 913h196q17 0 17 -20l-39 -197q-3 -20 -25 -20h-196q-17 0 -17 20l39 197
q3 20 25 20z" />
    <glyph glyph-name="Euro.tosn" 
d="M90 459h109q2 43 16 110h-102q-17 0 -17 21l25 131q3 20 24 20h138q73 137 203.5 222.5t295.5 85.5q188 0 295 -99.5t107 -261.5q0 -20 -25 -20h-162q-13 0 -16 20q-8 77 -63.5 122.5t-157.5 45.5q-140 0 -240 -115h217q17 0 17 -20l-25 -131q-3 -21 -27 -21h-270
q-13 -50 -16 -110h266q16 0 16 -21l-24 -131q-3 -20 -25 -20h-211q46 -115 197 -115q97 0 169 46t109 122q9 20 25 20h160q18 0 18 -20q-66 -179 -191.5 -269.5t-303.5 -90.5q-156 0 -267 79t-145 228h-152q-16 0 -16 20l25 131q3 21 24 21z" />
    <glyph glyph-name="equal.tosn" 
d="M229 805h889q17 0 17 -21l-31 -159q-3 -21 -25 -21h-889q-16 0 -16 21l31 159q3 21 24 21zM147 389h889q17 0 17 -20l-31 -160q-3 -21 -25 -21h-888q-17 0 -17 21l31 160q3 20 24 20z" />
    <glyph glyph-name="zero.tosn" 
d="M66 440q0 178 82.5 317.5t226 215.5t323.5 76q222 0 354 -127.5t132 -333.5q0 -178 -82.5 -317t-226.5 -215t-324 -76q-223 0 -354 127t-131 333zM674 856q-162 0 -276.5 -117t-114.5 -280q0 -138 72 -212.5t220 -74.5q162 0 277 117t115 280q0 137 -72.5 212t-220.5 75z
" />
    <glyph glyph-name="one.tosn" 
d="M162 184h313l113 582l-281 -139q-12 -6 -24 -6q-11 0 -11 18l35 174q3 22 29 31l340 174q23 10 33 10h118q17 0 17 -20l-160 -824h330q16 0 16 -20l-26 -144q-3 -20 -25 -20h-852q-16 0 -16 20l26 144q3 20 25 20z" />
    <glyph glyph-name="two.tosn" 
d="M121 20l22 119q6 29 31 47l479 328q73 49 114.5 102t41.5 119q0 59 -38 90t-107 31q-71 0 -124.5 -43t-76.5 -117q-6 -18 -12.5 -24t-20.5 -6h-149q-19 0 -19 30q35 172 151.5 262.5t270.5 90.5q159 0 243.5 -79t84.5 -194q0 -119 -51 -206.5t-158 -161.5l-307 -215h424
q16 0 16 -21l-29 -152q-3 -20 -24 -20h-746q-16 0 -16 20z" />
    <glyph glyph-name="three.tosn" 
d="M485 350l31 152q3 20 25 20h112q87 0 157.5 51t70.5 136q0 72 -45.5 109.5t-128.5 37.5q-78 0 -142.5 -43.5t-93.5 -130.5q-4 -16 -10 -19.5t-19 -3.5h-141q-25 0 -25 31q41 168 161 263.5t290 95.5q173 0 263.5 -80t90.5 -217q0 -211 -207 -314q61 -35 102.5 -102
t41.5 -162q0 -217 -137 -337t-365 -120q-166 0 -280.5 98.5t-114.5 260.5q0 25 2 39q6 30 31 30h153q12 0 17.5 -4t5.5 -20v-19q0 -192 209 -192q112 0 191 66t79 178q0 176 -193 176h-114q-17 0 -17 20z" />
    <glyph glyph-name="four.tosn" 
d="M557 -262l51 262h-530q-17 0 -17 20l21 101q8 31 24 47l723 844q13 16 31 16h137q17 0 17 -20l-160 -815h170q16 0 16 -21l-28 -152q-3 -20 -25 -20h-170l-51 -262q-3 -21 -27 -21h-166q-16 0 -16 21zM725 600l-348 -407h268z" />
    <glyph glyph-name="five.tosn" 
d="M156 311l211 697q6 20 24 20h699q16 0 16 -20l-31 -152q-3 -20 -24 -20h-535l-104 -312q116 72 272 72q159 0 249.5 -100.5t90.5 -255.5q0 -245 -141 -384t-379 -139q-167 0 -282.5 105.5t-115.5 263.5v20q3 31 31 31h142q13 0 19 -6.5t7 -24.5q4 -101 61.5 -148.5
t168.5 -47.5q122 0 201 79t79 212q0 98 -54 150t-153 52q-68 0 -125.5 -21.5t-130.5 -72.5q-22 -18 -41 -18h-139q-16 0 -16 20z" />
    <glyph glyph-name="six.tosn" 
d="M139 434q0 122 23.5 244.5t74 236.5t121.5 202t173.5 141t222.5 53q154 0 253 -88.5t99 -229.5q0 -27 -2 -41q-4 -13 -10 -16.5t-17 -3.5h-145q-18 0 -21 20q-11 88 -51 127t-129 39q-217 0 -311 -340q125 82 280 82q159 0 255 -94.5t96 -267.5q0 -234 -141.5 -376
t-372.5 -142q-181 0 -289.5 113t-108.5 341zM625 668q-112 0 -190.5 -83.5t-78.5 -211.5q0 -201 199 -201q113 0 193.5 88t80.5 201q0 95 -52 151t-152 56z" />
    <glyph glyph-name="seven.tosn" 
d="M240 856l30 152q3 20 25 20h758q16 0 16 -20l-20 -101q-14 -41 -21 -53l-625 -1122q-9 -15 -26 -15h-176q-17 0 -17 15l4 12l611 1092h-543q-16 0 -16 20z" />
    <glyph glyph-name="eight.tosn" 
d="M297 918q0 172 126.5 282.5t317.5 110.5q158 0 251 -82t93 -238q0 -97 -52.5 -178t-141.5 -129q119 -81 119 -258q0 -142 -63.5 -244t-172.5 -152t-252 -50q-164 0 -269.5 88.5t-105.5 240.5q0 131 67.5 231t182.5 148q-100 100 -100 230zM606 578q-98 0 -169.5 -69
t-71.5 -163q0 -86 48.5 -130t139.5 -44q101 0 170.5 65.5t69.5 168.5q0 76 -49.5 124t-137.5 48zM715 1118q-90 0 -149.5 -53.5t-59.5 -146.5q0 -68 43.5 -108t116.5 -40q90 0 150.5 54t60.5 143q0 71 -46 111t-116 40z" />
    <glyph glyph-name="nine.tosn" 
d="M1085 594q0 -122 -23.5 -244.5t-74 -236.5t-121 -202t-173 -141t-222.5 -53q-154 0 -253 88.5t-99 229.5q0 27 2 41q4 13 9.5 16.5t16.5 3.5h146q17 0 20 -20q11 -88 51.5 -127t129.5 -39q217 0 311 340q-125 -82 -281 -82q-159 0 -254.5 94.5t-95.5 267.5
q0 234 141.5 376.5t372.5 142.5q181 0 289 -113.5t108 -341.5zM600 360q112 0 190 83.5t78 211.5q0 201 -198 201q-113 0 -194 -88t-81 -201q0 -95 52.5 -151t152.5 -56z" />
    <glyph glyph-name="sterling.posn" horiz-adv-x="1042" 
d="M20 199q72 56 114.5 106t49.5 109h-149q-17 0 -17 20l25 127q3 21 25 21h92q-15 34 -15 82q0 168 124 276.5t304 108.5q183 0 272 -90.5t89 -241.5q0 -21 -25 -21h-168q-16 0 -16 21q0 139 -170 139q-87 0 -144 -57t-57 -148q0 -39 6 -69h355q16 0 16 -21l-24 -127
q-3 -20 -25 -20h-295q-6 -58 -42.5 -116.5t-100.5 -104.5h577q17 0 17 -21l-29 -152q-3 -20 -25 -20h-798q-17 0 -17 20l27 138q4 25 24 41z" />
    <glyph glyph-name="dollar.posn" horiz-adv-x="1036" 
d="M889 342q0 -158 -114 -253t-298 -107l-33 -166q-3 -21 -24 -21h-139q-17 0 -17 21l33 176q-272 51 -272 334q0 20 24 20h168q16 0 16 -20q5 -62 29.5 -96.5t73.5 -47.5l51 269q-138 36 -203 99.5t-65 170.5q0 143 109.5 228t275.5 98l33 161q3 21 24 21h139q17 0 17 -21
l-35 -172q123 -29 188.5 -107t65.5 -188q0 -20 -25 -20h-174q-13 0 -16 20q-13 68 -78 95l-47 -244q135 -26 214 -88.5t79 -161.5zM668 317q0 57 -107 91l-45 -230q67 12 109.5 46t42.5 93zM328 733q0 -33 21.5 -56.5t74.5 -43.5l43 217q-60 -8 -99.5 -37.5t-39.5 -79.5z
" />
    <glyph glyph-name="yen.posn" horiz-adv-x="983" 
d="M117 627h164l-154 381q0 20 16 20h189q18 0 24 -16l129 -332l252 332q13 16 29 16h197q12 0 12 -8q0 -4 -4 -12l-301 -381h164q16 0 16 -21l-25 -131q-3 -20 -24 -20h-254l-23 -117h213q17 0 17 -21l-27 -131q-3 -20 -25 -20h-210l-29 -146q-3 -20 -25 -20h-168
q-16 0 -16 20l29 146h-215q-17 0 -17 20l27 131q3 21 24 21h213l23 117h-254q-16 0 -16 20l24 131q3 21 25 21z" />
    <glyph glyph-name="cent.posn" horiz-adv-x="1148" 
d="M315 -180l35 176q-153 36 -236 150t-83 296q0 242 144 407.5t380 194.5l33 168q3 21 24 21h160q16 0 16 -21l-34 -172q145 -29 229 -124.5t84 -219.5q0 -4 -1 -10.5t-1 -9.5q-3 -12 -18 -12h-166q-11 0 -16 3t-9 15q-20 125 -139 162l-131 -660q130 36 202 166
q10 19 33 19h174q13 0 13 -13q0 -2 -7 -20q-133 -317 -454 -352l-31 -164q-6 -21 -24 -21h-160q-17 0 -17 21zM252 459q0 -205 137 -266l127 651q-118 -36 -191 -140.5t-73 -244.5z" />
    <glyph glyph-name="multiply.posn" horiz-adv-x="999" 
d="M891 760l-291 -244l195 -244q4 -8 4 -14t-8 -14l-125 -105q-8 -8 -15 -8q-6 0 -14 8l-199 246l-291 -254q-8 -8 -14 -8t-14 8l-107 121q-6 6 -6 12q0 7 10 17l303 258l-190 229q-6 9 -6 12q0 7 10 17l127 104q8 8 16 8t13 -8l188 -235l291 243q9 9 16 9q4 0 13 -9
l98 -121q6 -6 6 -12t-10 -16z" />
    <glyph glyph-name="plus.posn" horiz-adv-x="1138" 
d="M745 961l-67 -345h340q16 0 16 -20l-30 -160q-3 -20 -25 -20h-340l-68 -344q-3 -21 -24 -21h-168q-17 0 -17 21l68 344h-340q-16 0 -16 20l30 160q3 20 25 20h340l68 345q3 20 24 20h168q16 0 16 -20z" />
    <glyph glyph-name="minus.posn" horiz-adv-x="1130" 
d="M125 616h889q16 0 16 -20l-31 -160q-3 -20 -24 -20h-889q-16 0 -16 20l30 160q3 20 25 20z" />
    <glyph glyph-name="divide.posn" horiz-adv-x="1130" 
d="M104 557h889q17 0 17 -20l-31 -160q-3 -21 -25 -21h-888q-17 0 -17 21l31 160q3 20 24 20zM389 238h197q16 0 16 -21l-39 -197q-3 -20 -24 -20h-197q-16 0 -16 20l39 197q3 21 24 21zM520 913h197q16 0 16 -20l-39 -197q-3 -20 -24 -20h-197q-16 0 -16 20l39 197
q3 20 24 20z" />
    <glyph glyph-name="Euro.posn" horiz-adv-x="1236" 
d="M57 459h109q2 43 16 110h-102q-17 0 -17 21l25 131q3 20 25 20h137q73 137 204 222.5t296 85.5q188 0 294.5 -99.5t106.5 -261.5q0 -20 -25 -20h-161q-14 0 -17 20q-8 77 -63.5 122.5t-157.5 45.5q-140 0 -240 -115h218q16 0 16 -20l-25 -131q-3 -21 -26 -21h-271
q-13 -51 -16 -110h266q17 0 17 -21l-25 -131q-3 -20 -25 -20h-210q46 -115 196 -115q97 0 169.5 46t109.5 122q9 20 24 20h160q18 0 18 -20q-66 -179 -191.5 -269.5t-303.5 -90.5q-156 0 -267 79t-145 228h-151q-17 0 -17 20l25 131q3 21 24 21z" />
    <glyph glyph-name="equal.posn" horiz-adv-x="1267" 
d="M223 805h889q16 0 16 -21l-30 -159q-3 -21 -25 -21h-889q-16 0 -16 21l31 159q3 21 24 21zM141 389h889q17 0 17 -20l-31 -160q-3 -21 -25 -21h-889q-16 0 -16 21l31 160q3 20 24 20z" />
    <glyph glyph-name="zero.posn" horiz-adv-x="1271" 
d="M43 440q0 178 82.5 317.5t226.5 215.5t324 76q222 0 353.5 -127.5t131.5 -333.5q0 -178 -82.5 -317t-226.5 -215t-324 -76q-223 0 -354 127t-131 333zM651 856q-162 0 -276.5 -117t-114.5 -280q0 -137 72.5 -212t220.5 -75q162 0 276.5 117t114.5 280q0 137 -72.5 212
t-220.5 75z" />
    <glyph glyph-name="one.posn" horiz-adv-x="675" 
d="M178 20l144 746l-230 -113q-12 -6 -22 -6q-11 0 -11 19l33 174q3 19 29 30l289 148q23 10 32 10h119q17 0 17 -20l-191 -988q-3 -20 -25 -20h-167q-17 0 -17 20z" />
    <glyph glyph-name="two.posn" horiz-adv-x="1011" 
d="M-4 20l22 119q6 29 31 47l479 328q73 49 114.5 102t41.5 119q0 59 -38 90t-107 31q-71 0 -124.5 -43t-76.5 -117q-6 -18 -12.5 -24t-20.5 -6h-149q-19 0 -19 30q35 172 151.5 262.5t270.5 90.5q159 0 243.5 -79t84.5 -194q0 -119 -51 -206.5t-158 -161.5l-307 -215h424
q16 0 16 -21l-29 -152q-3 -20 -24 -20h-746q-16 0 -16 20z" />
    <glyph glyph-name="three.posn" horiz-adv-x="1101" 
d="M375 350l31 152q3 20 24 20h113q87 0 157 51t70 136q0 72 -45.5 109.5t-128.5 37.5q-78 0 -142.5 -43.5t-93.5 -130.5q-4 -16 -10 -19.5t-18 -3.5h-142q-24 0 -24 31q41 168 160.5 263.5t289.5 95.5q173 0 264 -80t91 -217q0 -211 -207 -314q61 -35 102 -102t41 -162
q0 -217 -136.5 -337t-364.5 -120q-166 0 -281 98.5t-115 260.5q0 25 2 39q6 30 31 30h154q12 0 17 -4t5 -20v-19q0 -192 209 -192q112 0 191 66t79 178q0 176 -192 176h-115q-16 0 -16 20z" />
    <glyph glyph-name="four.posn" horiz-adv-x="1089" 
d="M442 -262l52 262h-531q-16 0 -16 20l20 101q8 30 25 47l723 844q13 16 30 16h138q16 0 16 -20l-160 -815h170q17 0 17 -21l-29 -152q-3 -20 -25 -20h-170l-51 -262q-3 -21 -26 -21h-166q-17 0 -17 21zM610 600l-348 -407h268z" />
    <glyph glyph-name="five.posn" horiz-adv-x="1095" 
d="M53 311l211 697q6 20 25 20h698q17 0 17 -20l-31 -152q-3 -20 -25 -20h-534l-105 -312q116 72 273 72q159 0 249.5 -100.5t90.5 -255.5q0 -245 -141.5 -384t-379.5 -139q-167 0 -282 105.5t-115 263.5v20q3 31 31 31h141q25 0 27 -31q4 -101 61.5 -148.5t167.5 -47.5
q122 0 201.5 79t79.5 212q0 98 -54 150t-153 52q-68 0 -125.5 -21.5t-130.5 -72.5q-22 -18 -41 -18h-139q-17 0 -17 20z" />
    <glyph glyph-name="six.posn" horiz-adv-x="1138" 
d="M61 434q0 122 23.5 244.5t74 236.5t121.5 202t173.5 141t222.5 53q154 0 253 -88.5t99 -229.5q0 -27 -2 -41q-4 -13 -10 -16.5t-17 -3.5h-145q-17 0 -20 20q-11 88 -51.5 127t-129.5 39q-217 0 -311 -340q125 82 281 82q159 0 254.5 -94.5t95.5 -267.5
q0 -234 -141.5 -376t-372.5 -142q-181 0 -289.5 113t-108.5 341zM547 668q-112 0 -190 -83.5t-78 -211.5q0 -201 198 -201q113 0 194 88t81 201q0 95 -52.5 151t-152.5 56z" />
    <glyph glyph-name="seven.posn" horiz-adv-x="921" 
d="M90 856l31 152q3 20 24 20h758q17 0 17 -20l-21 -101q-2 -5 -4.5 -15.5t-6 -19t-9.5 -18.5l-625 -1122q-9 -15 -27 -15h-176q-16 0 -16 15l4 12l610 1092h-543q-16 0 -16 20z" />
    <glyph glyph-name="eight.posn" horiz-adv-x="1071" 
d="M197 918q0 172 126.5 282.5t317.5 110.5q158 0 251 -82t93 -238q0 -97 -52.5 -178t-141.5 -129q118 -81 118 -258q0 -213 -134 -329.5t-353 -116.5q-164 0 -269.5 88.5t-105.5 240.5q0 131 67.5 231t182.5 148q-100 100 -100 230zM506 578q-98 0 -170 -69t-72 -163
q0 -86 49 -130t140 -44q101 0 170 65t69 169q0 76 -49 124t-137 48zM614 1118q-90 0 -149 -53t-59 -147q0 -69 43 -108.5t116 -39.5q90 0 150.5 54t60.5 143q0 71 -46 111t-116 40z" />
    <glyph glyph-name="nine.posn" horiz-adv-x="1144" 
d="M993 594q0 -122 -23.5 -244.5t-74 -236.5t-121 -202t-173 -141t-222.5 -53q-154 0 -253 88.5t-99 229.5q0 27 2 41q4 13 9.5 16.5t16.5 3.5h146q17 0 20 -20q11 -88 51 -127t129 -39q218 0 312 340q-125 -82 -281 -82q-159 0 -254.5 94.5t-95.5 267.5q0 234 141.5 376.5
t372.5 142.5q181 0 289 -113.5t108 -341.5zM508 360q112 0 190 83.5t78 211.5q0 201 -198 201q-113 0 -194 -88t-81 -201q0 -95 52.5 -151t152.5 -56z" />
    <glyph glyph-name="ampersand.alt" horiz-adv-x="1318" 
d="M1255 676h-180l-35 -164q-108 -532 -575 -532q-197 0 -311.5 102t-114.5 293q0 145 81.5 254t229.5 170q-56 52 -86.5 109t-30.5 151q0 184 131 289.5t338 105.5h209q19 0 19 -20l-33 -160q-3 -21 -25 -21h-192q-100 0 -174 -52.5t-74 -151.5q0 -172 215 -172h250l37 194
q3 21 24 21h179q16 0 16 -21l-39 -194h180q19 0 19 -23l-31 -156q-3 -22 -27 -22zM827 518l31 158h-262q-136 0 -236 -81t-100 -216q0 -96 62 -147.5t167 -51.5q56 0 108.5 20t98.5 60t80.5 106t50.5 152z" />
    <glyph glyph-name="braceleft.ss03" horiz-adv-x="808" 
d="M438 539l-32 -162q-11 -57 -11 -76q0 -96 111 -96h76q16 0 16 -21l-33 -164q-3 -20 -24 -20h-113q-121 0 -187.5 62t-66.5 192q0 61 10 115l21 108q4 12 4 55q0 82 -98 82h-58q-16 0 -16 21l31 164q3 20 24 20h58q67 0 100 32t47 105l25 123q20 105 54 175.5t84.5 109.5
t111 54.5t143.5 15.5h106q17 0 17 -21l-33 -164q-3 -20 -25 -20h-75q-74 0 -110.5 -38.5t-55.5 -133.5l-33 -162q-14 -73 -53 -115.5t-113 -62.5q104 -30 104 -121q0 -27 -6 -57z" />
    <glyph glyph-name="braceright.ss03" horiz-adv-x="808" 
d="M373 895l33 162q10 52 10 76q0 96 -111 96h-76q-16 0 -16 20l33 164q3 21 24 21h113q121 0 187.5 -62t66.5 -192q0 -61 -10 -115l-21 -109q-4 -12 -4 -55q0 -82 98 -82h58q16 0 16 -20l-31 -164q-3 -21 -24 -21h-57q-67 0 -100.5 -32t-47.5 -105l-25 -123
q-22 -106 -55.5 -175.5t-83.5 -108.5t-109.5 -54.5t-144.5 -15.5h-106q-17 0 -17 20l33 164q3 21 25 21h75q74 0 110.5 38.5t55.5 133.5l33 162q14 73 53 115.5t113 62.5q-104 30 -104 121q0 27 6 57z" />
    <glyph glyph-name="bracketleft.ss03" horiz-adv-x="856" 
d="M47 20l272 1393q3 21 25 21h547q16 0 16 -21l-33 -164q-3 -20 -24 -20h-346l-199 -1024h346q17 0 17 -21l-33 -164q-3 -20 -25 -20h-547q-16 0 -16 20z" />
    <glyph glyph-name="bracketright.ss03" horiz-adv-x="856" 
d="M809 1413l-272 -1393q-3 -20 -25 -20h-547q-16 0 -16 20l33 164q3 21 24 21h346l199 1024h-346q-17 0 -17 20l33 164q3 21 25 21h547q16 0 16 -21z" />
    <glyph glyph-name="parenleft.ss03" horiz-adv-x="698" 
d="M354 745l-6 -34q-18 -111 -18 -189q0 -61 10.5 -108.5t37.5 -94.5t54 -81.5t80 -94.5q6 -6 6 -12q0 -8 -8 -16l-119 -123q-8 -8 -14 -8q-9 0 -15 6q-127 112 -194.5 231.5t-67.5 270.5q0 54 15 149l37 203q35 203 153 347t330 273q9 6 14 6q10 0 15 -8l98 -139l4 -12
q0 -7 -10 -17q-81 -57 -125 -90t-96 -83.5t-81 -99t-56 -118t-44 -158.5z" />
    <glyph glyph-name="parenright.ss03" horiz-adv-x="698" 
d="M360 709l7 34q18 111 18 189q0 61 -10.5 108.5t-37.5 94.5t-54 81.5t-80 94.5q-6 6 -6 12q0 8 8 16l119 123q8 8 14 8q8 0 14 -6q127 -112 194.5 -231t67.5 -270q0 -62 -14 -150l-37 -203q-35 -203 -153 -347t-330 -273q-9 -6 -14 -6q-10 0 -15 8l-98 139l-4 12
q0 7 10 17q96 65 152 110t109.5 108.5t85.5 142t54 188.5z" />
    <glyph glyph-name="braceleft.case" horiz-adv-x="815" 
d="M469 541l-72 -365q-8 -44 -8 -70q0 -54 26.5 -78t86.5 -24h67q17 0 17 -20l-33 -164q-3 -21 -25 -21h-84q-135 0 -205.5 69t-70.5 202q0 65 10 120l58 289q6 27 6 49q0 88 -105 88h-57q-17 0 -17 21l31 164q3 20 25 20h57q62 0 99 30t53 107l57 289q46 224 132 307.5
t274 83.5h96q16 0 16 -20l-33 -164q-3 -20 -24 -20h-68q-72 0 -111.5 -40t-58.5 -132l-71 -365q-17 -83 -51.5 -120t-110.5 -58q96 -30 96 -135q0 -27 -2 -43z" />
    <glyph glyph-name="braceright.case" horiz-adv-x="815" 
d="M340 897l72 365q8 44 8 69q0 54 -26.5 78.5t-86.5 24.5h-67q-17 0 -17 20l33 164q3 20 25 20h84q135 0 205.5 -68.5t70.5 -201.5q0 -66 -10 -121l-58 -289q-6 -27 -6 -49q0 -88 105 -88h57q16 0 16 -20l-30 -164q-3 -21 -25 -21h-57q-62 0 -99 -30t-53 -107l-57 -289
q-46 -224 -132 -307.5t-274 -83.5h-96q-16 0 -16 21l33 164q3 20 24 20h68q72 0 111.5 40t58.5 132l71 365q17 83 51.5 120t110.5 58q-96 30 -96 135q0 27 2 43z" />
    <glyph glyph-name="bracketleft.case" horiz-adv-x="915" 
d="M-27 -180l349 1798q3 20 24 20h547q16 0 16 -20l-32 -164q-3 -20 -25 -20h-346l-277 -1430h346q17 0 17 -20l-33 -164q-3 -21 -24 -21h-547q-15 0 -15 21z" />
    <glyph glyph-name="bracketright.case" horiz-adv-x="915" 
d="M891 1618l-350 -1798q-3 -21 -25 -21h-545q-16 0 -16 21l33 164q3 20 24 20h344l277 1430h-346q-17 0 -17 20l33 164q3 20 25 20h546q17 0 17 -20z" />
    <glyph glyph-name="parenleft.case" horiz-adv-x="792" 
d="M438 834l-43 -228q-37 -182 -37 -287q0 -109 43 -192t144 -184q6 -6 6 -13q0 -6 -10 -16l-119 -121q-8 -8 -16 -8q-9 0 -15 6q-131 121 -190.5 251.5t-59.5 287.5q0 84 23 215l67 350q25 127 55.5 218.5t67.5 161.5t98 133.5t126.5 115t173.5 125.5q9 6 14 6q7 0 12 -8
l96 -136q5 -10 5 -12q0 -6 -13 -16q-82 -58 -127.5 -93.5t-94 -82t-74 -85t-52.5 -98t-44 -126.5t-36 -164z" />
    <glyph glyph-name="parenright.case" horiz-adv-x="792" 
d="M365 606l43 228q36 177 36 286t-43 193t-143 184q-6 6 -6 12q0 7 10 17l119 121q8 8 16 8q9 0 15 -6q131 -121 190.5 -251.5t59.5 -287.5q0 -84 -23 -215l-68 -350q-25 -126 -55 -217.5t-67.5 -162.5t-97.5 -134t-126.5 -116t-173.5 -124q-9 -6 -14 -6q-7 0 -12 8
l-97 135q-4 8 -4 13q0 6 13 16q81 58 127 93.5t94 82t73.5 85.5t52.5 98.5t44.5 126t36.5 163.5z" />
    <glyph glyph-name="bullet.case" horiz-adv-x="780" 
d="M209 717q0 79 56.5 135.5t135.5 56.5q80 0 136.5 -56.5t56.5 -135.5t-57 -136t-136 -57t-135.5 56.5t-56.5 136.5z" />
    <glyph glyph-name="exclamdown.case" horiz-adv-x="718" 
d="M317 0h-172q-16 0 -16 20l195 998q3 20 24 20h172q17 0 17 -20l-195 -998q-3 -20 -25 -20zM565 1188h-205q-16 0 -16 20l41 205q3 21 25 21h204q17 0 17 -21l-41 -205q-3 -20 -25 -20z" />
    <glyph glyph-name="questiondown.case" horiz-adv-x="1120" 
d="M985 397q-29 -186 -170.5 -301.5t-345.5 -115.5q-193 0 -298 90.5t-105 242.5q0 72 22.5 131.5t60 102t83 79.5t93.5 72.5t89.5 72.5t74 87t43.5 109l11 51q3 20 24 20h172q10 0 12.5 -4t2.5 -16l-9 -51q-12 -78 -43.5 -142.5t-72.5 -107t-88 -79.5t-92 -68t-81.5 -63
t-58.5 -74t-22 -93q0 -70 53 -113t145 -43q97 0 177 54t114 159q9 21 25 21h168q16 0 16 -21zM784 1188h-204q-17 0 -17 20l41 205q3 21 25 21h205q16 0 16 -21l-41 -205q-3 -20 -25 -20z" />
    <glyph glyph-name="at.case" horiz-adv-x="1654" 
d="M1415 831q0 219 -122.5 340t-379.5 121q-193 0 -346 -89t-237 -245t-84 -352q0 -236 140 -375t370 -139q124 0 206.5 23.5t182.5 74.5q3 3 10 3t14 -11l52 -114q2 -2 2 -9q0 -10 -15 -16q-233 -115 -475 -115q-136 0 -257 47t-213 132.5t-146 216t-54 288.5q0 183 63 340
t174.5 267.5t271.5 173.5t348 63q306 0 488.5 -165t182.5 -427q0 -158 -45.5 -285t-137.5 -204.5t-216 -77.5q-74 0 -120.5 28.5t-78.5 80.5q-120 -109 -286 -109q-127 0 -216.5 86.5t-89.5 243.5q0 103 39 194t102 153t144 98t164 36q95 0 150.5 -22t97.5 -64l16 55
q7 17 21 17h116q17 0 17 -17l-127 -418l-19 -71q-4 -28 -4 -37q0 -53 27 -77.5t69 -24.5q87 0 144 115.5t57 266.5zM1020 778q0 92 -38.5 135t-123.5 43q-116 0 -202.5 -98.5t-86.5 -218.5q0 -190 162 -190q67 0 124 31.5t91.5 81t54 106t19.5 110.5z" />
    <glyph glyph-name="guilsinglleft.case" horiz-adv-x="733" 
d="M694 1233l-45 -227q-3 -22 -20 -33l-350 -256l249 -273q11 -11 11 -20q0 -6 -2 -12l-39 -191q-3 -14 -15 -14q-6 0 -12 6l-375 412q-15 18 -12 37l27 139q3 23 28 37l533 403q9 6 14 6q8 0 8 -14z" />
    <glyph glyph-name="guilsinglright.case" horiz-adv-x="733" 
d="M74 201l45 227q3 22 20 33l350 256l-249 272q-11 11 -11 21q0 6 2 12l39 190q3 15 15 15q6 0 12 -6l375 -412q15 -18 12 -37l-27 -139q-3 -23 -28 -37l-533 -403q-10 -7 -14 -7q-8 0 -8 15z" />
    <glyph glyph-name="guillemotleft.case" horiz-adv-x="1169" 
d="M694 1233l-45 -227q-3 -22 -20 -33l-350 -256l249 -273q11 -11 11 -20q0 -6 -2 -12l-39 -191q-3 -14 -15 -14q-6 0 -12 6l-375 412q-15 18 -12 37l27 139q3 23 28 37l533 403q9 6 14 6q8 0 8 -14zM1130 1233l-45 -227q-3 -22 -20 -33l-350 -256l250 -273q10 -10 10 -20
q0 -6 -2 -12l-39 -191q-3 -14 -14 -14q-7 0 -13 6l-375 412q-15 18 -12 37l27 139q3 23 28 37l533 403q9 6 14 6q8 0 8 -14z" />
    <glyph glyph-name="guillemotright.case" horiz-adv-x="1169" 
d="M510 201l45 227q3 22 20 33l351 256l-250 272q-10 10 -10 21q0 6 2 12l39 190q3 15 14 15q6 0 12 -6l375 -412q15 -18 12 -37l-26 -139q-3 -23 -29 -37l-533 -403q-10 -7 -14 -7q-8 0 -8 15zM74 201l45 227q3 22 20 33l350 256l-249 272q-11 11 -11 21q0 6 2 12l39 190
q3 15 15 15q6 0 12 -6l375 -412q15 -18 12 -37l-27 -139q-3 -23 -28 -37l-533 -403q-10 -7 -14 -7q-8 0 -8 15z" />
    <glyph glyph-name="zero.tn" 
d="M61 551q0 119 26.5 242t83.5 242t137.5 212t198 150t255.5 57q208 0 330 -143t122 -428q0 -119 -26.5 -242t-83.5 -242t-137 -212t-197.5 -150t-255.5 -57q-209 0 -331 143t-122 428zM735 1253q-112 0 -201 -63t-142.5 -166t-81 -224.5t-27.5 -248.5q0 -201 66.5 -286
t191.5 -85q75 0 141 29t114.5 80.5t87 119t62 146.5t35.5 162t12 166q0 200 -66.5 285t-191.5 85z" />
    <glyph glyph-name="one.tn" 
d="M958 0h-872q-16 0 -16 20l32 160q3 21 25 21h328l186 960l-324 -162q-12 -6 -22 -6q-12 0 -12 19l34 178q6 18 29 31l408 202q18 11 32 11h105q16 0 16 -21l-235 -1212h327q17 0 17 -21l-33 -160q-3 -20 -25 -20z" />
    <glyph glyph-name="two.tn" 
d="M35 20l22 127q6 27 33 48l655 530q100 79 149.5 158t49.5 182q0 85 -54.5 136.5t-160.5 51.5q-112 0 -191.5 -70t-105.5 -177q-7 -31 -33 -31h-145q-27 0 -27 31q38 204 176 326t349 122q196 0 304.5 -102.5t108.5 -261.5q0 -151 -73 -269.5t-222 -238.5l-471 -381h617
q18 0 18 -21l-33 -160q-3 -20 -24 -20h-928q-14 0 -14 20z" />
    <glyph glyph-name="three.tn" 
d="M492 686l28 156q3 22 27 22h117q127 0 202.5 57.5t75.5 165.5q0 76 -54 121t-147 45q-98 0 -177 -52.5t-109 -147.5q-4 -16 -10.5 -20.5t-20.5 -4.5h-148q-26 0 -26 35q32 173 174.5 282t339.5 109q174 0 280.5 -90.5t106.5 -226.5q0 -125 -47.5 -210.5t-161.5 -156.5
q63 -39 107.5 -113.5t44.5 -187.5q0 -227 -147.5 -358t-401.5 -131q-208 0 -328.5 112t-120.5 299q0 29 2 43q1 17 11 26t22 9h154q13 0 17.5 -5t4.5 -22q0 -5 -1 -19.5t-1 -19.5q0 -108 67.5 -165.5t180.5 -57.5q150 0 237 77t87 212q0 94 -61.5 144.5t-184.5 50.5h-121
q-18 0 -18 22z" />
    <glyph glyph-name="four.tn" 
d="M621 20l49 246h-609q-14 0 -14 21l21 116q8 32 24 48l832 966q14 17 30 17h140q16 0 16 -21l-184 -946h192q19 0 19 -21l-31 -159q-3 -21 -25 -21h-194l-49 -246q-3 -20 -27 -20h-174q-16 0 -16 20zM811 997l-453 -530h351z" />
    <glyph glyph-name="five.tn" 
d="M154 643l239 770q6 21 25 21h782q17 0 17 -21l-33 -160q-3 -20 -25 -20h-608l-123 -369q148 86 301 86q183 0 287 -107.5t104 -293.5q0 -260 -159.5 -414.5t-419.5 -154.5q-202 0 -319.5 114t-117.5 299v19q0 30 29 30h158q13 0 17.5 -6t4.5 -24q0 -110 68.5 -171
t191.5 -61q149 0 237.5 95t88.5 241q0 109 -65 171.5t-183 62.5q-156 0 -289 -109q-21 -18 -45 -18h-145q-18 0 -18 20z" />
    <glyph glyph-name="six.tn" 
d="M115 496q0 132 26 265t82 258t135 221.5t194 155t249 58.5q188 0 295.5 -104t107.5 -265q0 -20 -24 -20h-164q-18 0 -21 20q-30 177 -225 177q-55 0 -110 -25.5t-107.5 -77t-96.5 -141.5t-69 -207q149 115 348 115q176 0 282.5 -109.5t106.5 -288.5q0 -164 -72.5 -289.5
t-200.5 -192t-290 -66.5q-94 0 -173 30.5t-141 91t-97 161.5t-35 233zM657 725q-139 0 -230 -87t-91 -214q0 -115 67 -179.5t183 -64.5q134 0 227.5 92.5t93.5 223.5q0 106 -64.5 167.5t-185.5 61.5z" />
    <glyph glyph-name="seven.tn" 
d="M262 1253l33 160q3 21 24 21h895q17 0 17 -21l-25 -119q-7 -27 -20 -51l-709 -1229q-8 -14 -26 -14h-181q-16 0 -16 12q0 1 6 19l690 1202h-671q-17 0 -17 20z" />
    <glyph glyph-name="eight.tn" 
d="M276 1028q0 181 141 303.5t363 122.5q176 0 285 -95t109 -255q0 -107 -58.5 -197t-173.5 -145q60 -39 105 -116t45 -183q0 -145 -73 -256t-197.5 -169t-280.5 -58q-195 0 -316 101t-121 275q0 143 77.5 247t213.5 163q-119 103 -119 262zM625 655q-122 0 -212.5 -73.5
t-90.5 -194.5q0 -102 62 -154.5t169 -52.5q127 0 224 74t97 201q0 91 -62.5 145.5t-186.5 54.5zM750 1257q-108 0 -189.5 -62t-81.5 -163q0 -86 54.5 -133t154.5 -47q111 0 194 62.5t83 166.5q0 77 -58.5 126.5t-156.5 49.5z" />
    <glyph glyph-name="nine.tn" 
d="M1186 938q0 -132 -26.5 -265t-82.5 -258t-135 -221.5t-193.5 -155t-248.5 -58.5q-188 0 -296 104t-108 264q0 21 25 21h164q17 0 20 -21q30 -176 225 -176q55 0 110 25.5t107.5 77t96.5 141.5t69 207q-149 -115 -348 -115q-177 0 -283 109t-106 288q0 248 158 398.5
t405 150.5q94 0 173 -30.5t141.5 -91t97.5 -161.5t35 -233zM643 709q140 0 231 87t91 214q0 115 -67 179t-183 64q-135 0 -228.5 -92t-93.5 -223q0 -106 64.5 -167.5t185.5 -61.5z" />
    <glyph glyph-name="zero.slashtn" 
d="M61 551q0 119 26.5 242t83.5 242t137.5 212t198 150t255.5 57q208 0 330 -143t122 -428q0 -119 -26.5 -242t-83.5 -242t-137 -212t-197.5 -150t-255.5 -57q-209 0 -331 143t-122 428zM993 883q0 189 -55 272l-444 -973q14 -2 47 -2q75 0 141 29t114.5 80.5t87 119
t62 146.5t35.5 162t12 166zM735 1253q-112 0 -201 -63t-142.5 -166t-81 -224.5t-27.5 -248.5q0 -189 55 -272l444 972q-14 2 -47 2z" />
    <glyph glyph-name="zero.slash" horiz-adv-x="1288" 
d="M68 551q0 119 26.5 242t83.5 242t137 212t197.5 150t255.5 57q208 0 330.5 -143t122.5 -428q0 -119 -26.5 -242t-83.5 -242t-137.5 -212t-198 -150t-255.5 -57q-209 0 -330.5 143t-121.5 428zM999 883q0 189 -55 272l-444 -973q14 -2 47 -2q75 0 141 29t114.5 80.5
t87 119t62 146.5t35.5 162t12 166zM741 1253q-112 0 -201 -63t-142.5 -166t-81 -224.5t-27.5 -248.5q0 -189 55 -272l444 972q-14 2 -47 2z" />
    <glyph glyph-name="zero.slashposn" horiz-adv-x="1271" 
d="M43 440q0 178 82.5 317.5t226.5 215.5t324 76q222 0 353.5 -127.5t131.5 -333.5q0 -178 -82.5 -317t-226.5 -215t-324 -76q-223 0 -354 127t-131 333zM655 856q-164 0 -279.5 -117t-115.5 -280q0 -118 53 -189l432 576q-52 10 -90 10zM944 569q0 118 -53 189l-432 -576
q52 -10 90 -10q163 0 279 117t116 280z" />
    <glyph glyph-name="zero.slashtosn" 
d="M66 440q0 178 82.5 317.5t226 215.5t323.5 76q222 0 354 -127.5t132 -333.5q0 -178 -82.5 -317t-226.5 -215t-324 -76q-223 0 -354 127t-131 333zM678 856q-164 0 -279.5 -117t-115.5 -280q0 -118 53 -189l432 576q-52 10 -90 10zM967 569q0 116 -54 189l-432 -576
q52 -10 90 -10q163 0 279.5 117t116.5 280z" />
    <glyph glyph-name="zero.slashsuperior" horiz-adv-x="763" 
d="M104 965q0 130 44 237.5t134.5 175.5t211.5 68t192.5 -79.5t71.5 -229.5q0 -130 -43.5 -237.5t-134 -176t-211.5 -68.5t-193 80t-72 230zM481 1307h-8q-70 0 -120.5 -48t-73.5 -120t-23 -156q0 -70 23 -121zM606 1118q0 72 -22 121l-203 -444h8q70 0 120.5 48t73.5 119.5
t23 155.5z" />
    <glyph glyph-name="zero.slashinferior" horiz-adv-x="763" 
d="M-59 -109q0 130 43.5 237.5t134 176t211.5 68.5q120 0 192 -80t72 -230q0 -96 -26 -182.5t-73.5 -153t-122.5 -106t-167 -39.5q-121 0 -192.5 79.5t-71.5 229.5zM317 233h-8q-70 0 -120.5 -48t-73.5 -119.5t-23 -155.5q0 -70 23 -121zM442 45q0 72 -22 121l-203 -445h8
q70 0 120.5 48t73.5 120t23 156z" />
    </font>
</defs>
</svg>
