<?xml version="1.0" standalone="no"?>
<!DOCTYPE svg PUBLIC "-//W3C//DTD SVG 1.1//EN" "http://www.w3.org/Graphics/SVG/1.1/DTD/svg11.dtd" >
<svg xmlns="http://www.w3.org/2000/svg" xmlns:xlink="http://www.w3.org/1999/xlink" version="1.1">
<metadata>
Created by FontForge 20201107 at Wed Sep 11 12:56:54 2024
 By 
Copyright (c) 2011 by Colophon Foundry. All rights reserved. |DCNT
</metadata>
<defs>
<font id="Relative-Mono11Pitch" horiz-adv-x="1126" >
  <font-face 
    font-family="Relative Mono 11 Pitch"
    font-weight="760"
    font-stretch="normal"
    units-per-em="2048"
    panose-1="2 0 5 9 4 0 0 2 0 4"
    ascent="1638"
    descent="-410"
    x-height="1028"
    cap-height="1434"
    bbox="-43 -561 1194 2044"
    underline-thickness="102"
    underline-position="-204"
    unicode-range="U+000D-FB02"
  />
<missing-glyph 
d="M993 1413v-1393q0 -20 -20 -20h-819q-21 0 -21 20v1393q0 21 21 21h819q20 0 20 -21zM821 1270h-516v-1106h516v1106z" />
    <glyph glyph-name=".notdef" 
d="M993 1413v-1393q0 -20 -20 -20h-819q-21 0 -21 20v1393q0 21 21 21h819q20 0 20 -21zM821 1270h-516v-1106h516v1106z" />
    <glyph glyph-name=".null" 
 />
    <glyph glyph-name=".null" 
 />
    <glyph glyph-name="nonmarkingreturn" 
 />
    <glyph glyph-name="CR" unicode="&#xd;" 
 />
    <glyph glyph-name="space" unicode=" " 
 />
    <glyph glyph-name="exclam" unicode="!" 
d="M498 1434h131q20 0 20 -21v-1014q0 -20 -20 -20h-131q-21 0 -21 20v1014q0 21 21 21zM463 242h201q20 0 20 -21v-201q0 -20 -20 -20h-201q-21 0 -21 20v201q0 21 21 21z" />
    <glyph glyph-name="quotedbl" unicode="&#x22;" 
d="M301 983v430q0 21 21 21h118q21 0 21 -21v-430q0 -20 -21 -20h-118q-21 0 -21 20zM664 983v430q0 21 20 21h119q20 0 20 -21v-430q0 -20 -20 -20h-119q-20 0 -20 20z" />
    <glyph glyph-name="numbersign" unicode="#" 
d="M573 20l60 386h-219l-62 -386q-3 -20 -22 -20h-131q-19 0 -19 20l62 386h-146q-20 0 -20 20v123q0 20 20 20h172l45 295h-135q-20 0 -20 21v123q0 20 20 20h162l59 385q3 21 23 21h131q18 0 18 -21l-59 -385h219l62 385q3 21 22 21h131q19 0 19 -21l-62 -385h146
q20 0 20 -20v-123q0 -21 -20 -21h-172l-46 -295h136q20 0 20 -20v-123q0 -20 -20 -20h-162l-60 -386q-3 -20 -22 -20h-131q-19 0 -19 20zM485 864l-45 -295h219l46 295h-220z" />
    <glyph glyph-name="dollar" unicode="$" 
d="M106 1063q0 160 100.5 262t254.5 123v170q0 20 20 20h131q21 0 21 -20v-170q165 -24 262.5 -135.5t97.5 -257.5q0 -21 -20 -21h-131q-21 0 -21 21q0 78 -51 139t-137 84v-473q79 -26 133.5 -48.5t108 -55t85 -69.5t51 -90t19.5 -118q0 -188 -111.5 -303t-285.5 -133v-172
q0 -21 -21 -21h-131q-20 0 -20 21v172q-173 25 -278 142.5t-105 293.5q0 20 20 20h131q21 0 21 -20q0 -101 55 -174.5t156 -97.5v534q-174 59 -264.5 146t-90.5 231zM858 416q0 79 -57 128.5t-168 88.5v-486q107 18 166 86t59 183zM279 1075q0 -79 45.5 -126.5t136.5 -86.5
v422q-87 -19 -134.5 -72t-47.5 -137z" />
    <glyph glyph-name="percent" unicode="%" 
d="M627 1141q0 -145 -88.5 -229.5t-210.5 -84.5t-210.5 84.5t-88.5 229.5t88.5 229t210.5 84t210.5 -84t88.5 -229zM508 1141q0 99 -51.5 150.5t-128.5 51.5t-129 -51.5t-52 -150.5t52 -151t129 -52t128.5 52t51.5 151zM1071 293q0 -145 -88.5 -229t-210.5 -84t-210.5 84
t-88.5 229t88.5 229t210.5 84t210.5 -84t88.5 -229zM952 293q0 99 -51.5 151t-128.5 52t-128.5 -52t-51.5 -151t51.5 -151t128.5 -52t128.5 52t51.5 151zM127 418l770 684q9 6 14 6q9 0 17 -8l47 -56q6 -9 6 -14q0 -6 -8 -14l-770 -684q-9 -6 -15 -6q-8 0 -16 8l-47 55
q-6 9 -6 14q0 7 8 15z" />
    <glyph glyph-name="ampersand" unicode="&#x26;" 
d="M1063 571h-86q0 -174 -55 -307l137 -231q6 -18 6 -19q0 -14 -16 -14h-142q-14 0 -26 18l-60 95q-121 -133 -329 -133q-177 0 -295.5 117t-118.5 319q0 264 266 428l-6 10q-51 84 -73.5 148.5t-22.5 144.5q0 131 88.5 219t234.5 88q147 0 234.5 -84t87.5 -199
q0 -122 -53 -197t-162 -132l-99 -51l234 -355q18 72 18 178v103q0 18 21 18h217q20 0 20 -20v-123q0 -21 -20 -21zM492 139q82 0 139 29t100 88l-297 455q-184 -126 -184 -308q0 -124 71.5 -194t170.5 -70zM406 1139q0 -50 19 -97t67 -122l73 36q86 41 122 86t36 111
q0 65 -42.5 107.5t-115.5 42.5t-116 -43.5t-43 -120.5z" />
    <glyph glyph-name="quotesingle" unicode="'" 
d="M483 983v430q0 21 21 21h119q20 0 20 -21v-430q0 -20 -20 -20h-119q-21 0 -21 20z" />
    <glyph glyph-name="parenleft" unicode="(" 
d="M551 655v-280q0 -93 5 -158.5t20 -124.5t35 -101t58.5 -90t81.5 -88.5t113 -99.5q8 -8 8 -14q0 -5 -6 -14l-80 -97q-8 -8 -14 -8q-5 0 -14 6q-151 126 -230 227.5t-114 217t-35 280.5v408q0 165 35 280.5t114 217t230 227.5q9 6 14 6q6 0 14 -8l80 -96q6 -9 6 -15t-8 -14
q-70 -59 -113 -99.5t-81.5 -88.5t-58.5 -90t-35 -101t-20 -124.5t-5 -158.5z" />
    <glyph glyph-name="parenright" unicode=")" 
d="M575 375v280q0 93 -5 158.5t-20 124.5t-35 101t-58.5 90t-81.5 88.5t-113 99.5q-8 8 -8 14t6 15l80 96q8 8 14 8t15 -6q151 -126 230 -227.5t114 -217t35 -280.5v-408q0 -165 -35 -280.5t-114 -217t-230 -227.5q-9 -6 -15 -6t-14 8l-80 97q-6 9 -6 14q0 6 8 14
q70 59 113 99.5t81.5 88.5t58.5 90t35 101t20 124.5t5 158.5z" />
    <glyph glyph-name="asterisk" unicode="*" 
d="M199 1130l32 99q3 14 15 14q6 0 10 -2l236 -76v248q0 21 20 21h102q21 0 21 -21v-248l235 76q4 2 11 2q11 0 14 -14l33 -99q2 -4 2 -10q0 -7 -17 -14l-235 -78l145 -199q6 -9 6 -14q0 -2 -10 -12l-82 -62q-8 -4 -12 -4q-5 0 -16 11l-146 198l-145 -198q-11 -11 -17 -11
q-4 0 -12 4l-82 62q-10 10 -10 12q0 5 6 14l146 199l-236 78q-16 6 -16 14q0 6 2 10z" />
    <glyph glyph-name="plus" unicode="+" 
d="M641 1090v-310h311q21 0 21 -20v-119q0 -20 -21 -20h-311v-312q0 -20 -20 -20h-119q-21 0 -21 20v312h-309q-20 0 -20 20v119q0 20 20 20h309v310q0 20 21 20h119q20 0 20 -20z" />
    <glyph glyph-name="comma" unicode="," 
d="M459 -111q58 0 76 20t18 77v14h-94q-21 0 -21 20v209q0 21 21 21h209q20 0 20 -21v-288q0 -83 -41.5 -124.5t-116.5 -41.5h-71q-21 0 -21 20v74q0 20 21 20z" />
    <glyph glyph-name="hyphen" unicode="-" 
d="M209 780h709q20 0 20 -20v-119q0 -20 -20 -20h-709q-21 0 -21 20v119q0 20 21 20z" />
    <glyph glyph-name="period" unicode="." 
d="M459 250h209q20 0 20 -21v-209q0 -20 -20 -20h-209q-21 0 -21 20v209q0 21 21 21z" />
    <glyph glyph-name="slash" unicode="/" 
d="M109 20l702 1393q12 21 29 21h139q16 0 16 -11q0 -1 -0.5 -2t-1.5 -3.5t-2 -4.5l-702 -1393q-11 -20 -29 -20h-139q-17 0 -17 10q0 1 2 4t3 6z" />
    <glyph glyph-name="zero" unicode="0" 
d="M88 717q0 358 125.5 547.5t349.5 189.5t349.5 -189.5t125.5 -547.5t-125.5 -547.5t-349.5 -189.5t-349.5 189.5t-125.5 547.5zM260 717q0 -338 96 -475l287 1042q-31 10 -80 10q-151 0 -227 -136t-76 -441zM866 717q0 338 -96 475l-287 -1042q34 -11 80 -11
q151 0 227 136.5t76 441.5z" />
    <glyph glyph-name="one" unicode="1" 
d="M215 20v119q0 21 21 21h292v1046l-262 -143q-12 -6 -22 -6q-15 0 -15 18v142q0 17 23 30l319 176q18 11 31 11h74q20 0 20 -21v-1253h293q21 0 21 -21v-119q0 -20 -21 -20h-753q-21 0 -21 20z" />
    <glyph glyph-name="two" unicode="2" 
d="M137 20v86q0 28 23 48l510 544q85 92 115 164.5t30 171.5q0 124 -66 192t-188 68q-119 0 -188 -71.5t-74 -184.5q-1 -18 -7 -24t-20 -6h-112q-25 0 -25 30q5 184 121 300t305 116q102 0 183.5 -33t133 -90.5t78.5 -132.5t27 -162q0 -133 -46 -233t-142 -203l-414 -440
h612q21 0 21 -21v-119q0 -20 -21 -20h-835q-21 0 -21 20z" />
    <glyph glyph-name="three" unicode="3" 
d="M426 707v114q0 23 23 23h79q250 0 250 235q0 102 -61.5 158.5t-167.5 56.5q-105 0 -171 -61.5t-77 -165.5q-1 -16 -7 -20.5t-20 -4.5h-110q-27 0 -27 35q12 166 128 271.5t284 105.5q177 0 283 -100t106 -254q0 -122 -39.5 -197t-130.5 -129q229 -91 229 -358
q0 -194 -121 -315t-323 -121q-188 0 -312.5 120.5t-136.5 311.5q0 34 27 34h107q14 0 20.5 -5t7.5 -21q18 -131 92 -206t195 -75q136 0 206 71.5t70 211.5q0 126 -73.5 194t-214.5 68h-92q-23 0 -23 23z" />
    <glyph glyph-name="four" unicode="4" 
d="M678 20v275h-574q-20 0 -20 20v76q0 25 16 47l594 979q10 17 27 17h104q21 0 21 -21v-958h168q20 0 20 -21v-119q0 -20 -20 -20h-168v-275q0 -20 -23 -20h-125q-20 0 -20 20zM678 1083l-383 -628h383v628z" />
    <glyph glyph-name="five" unicode="5" 
d="M131 672l88 741q3 21 21 21h682q20 0 20 -21v-119q0 -20 -20 -20h-555l-60 -432q139 108 301 108q198 0 307 -126.5t109 -354.5q0 -222 -123.5 -355.5t-325.5 -133.5q-187 0 -315.5 119.5t-136.5 289.5q0 31 24 31h117q12 0 17 -6t10 -25q20 -120 96 -185t188 -65
q142 0 211.5 86.5t69.5 239.5q0 149 -69.5 237.5t-206.5 88.5q-148 0 -275 -121q-19 -19 -35 -19h-118q-21 0 -21 21z" />
    <glyph glyph-name="six" unicode="6" 
d="M129 649q0 395 128.5 600t346.5 205q166 0 271.5 -94.5t125.5 -257.5q0 -21 -22 -21h-119q-19 0 -22 21q-23 98 -84.5 149.5t-149.5 51.5q-131 0 -207 -129t-80 -386q58 67 137.5 102.5t161.5 35.5q195 0 308.5 -123.5t113.5 -349.5q0 -212 -124 -342.5t-314 -130.5
q-81 0 -150 22.5t-129 73t-102 126.5t-66 190t-24 257zM328 453q0 -140 73 -227t199 -87t198 87t72 227t-72 226.5t-198 86.5q-127 0 -199.5 -87t-72.5 -226z" />
    <glyph glyph-name="seven" unicode="7" 
d="M145 1294v119q0 21 21 21h823q21 0 21 -21v-78q0 -18 -11 -51l-456 -1270q-6 -14 -23 -14h-125q-20 0 -20 16q0 3 4 15l444 1243h-657q-21 0 -21 20z" />
    <glyph glyph-name="eight" unicode="8" 
d="M168 1075q0 171 113 275t282 104q167 0 281 -104.5t114 -274.5q0 -112 -42.5 -186.5t-124.5 -126.5q208 -100 208 -356q0 -186 -121 -306t-315 -120t-315 120t-121 306q0 256 209 356q-83 52 -125.5 126.5t-42.5 186.5zM295 406q0 -123 72.5 -195t195.5 -72t195.5 72
t72.5 195t-72.5 196.5t-195.5 73.5t-195.5 -73.5t-72.5 -196.5zM328 1067q0 -102 61.5 -169t173.5 -67t174 67t62 169q0 105 -63.5 168t-172.5 63t-172 -63t-63 -168z" />
    <glyph glyph-name="nine" unicode="9" 
d="M1010 784q0 -395 -128.5 -599.5t-346.5 -204.5q-166 0 -272 94.5t-126 257.5q0 12 5.5 16t17.5 4h119q19 0 22 -20q23 -98 84.5 -149.5t149.5 -51.5q129 0 205.5 129t80.5 385q-58 -67 -137.5 -102t-161.5 -35q-195 0 -308.5 123.5t-113.5 349.5q0 212 124.5 342.5
t314.5 130.5q102 0 185 -37t148.5 -114t101.5 -209t36 -310zM811 981q0 139 -72.5 226t-199.5 87q-126 0 -198.5 -86.5t-72.5 -226.5t72.5 -226.5t198.5 -86.5q127 0 199.5 87t72.5 226z" />
    <glyph glyph-name="colon" unicode=":" 
d="M459 250h209q20 0 20 -21v-209q0 -20 -20 -20h-209q-21 0 -21 20v209q0 21 21 21zM459 967h209q20 0 20 -21v-209q0 -20 -20 -20h-209q-21 0 -21 20v209q0 21 21 21z" />
    <glyph glyph-name="semicolon" unicode=";" 
d="M459 -111q58 0 76 20t18 77v14h-94q-21 0 -21 20v209q0 21 21 21h209q20 0 20 -21v-288q0 -83 -41.5 -124.5t-116.5 -41.5h-71q-21 0 -21 20v74q0 20 21 20zM459 967h209q20 0 20 -21v-209q0 -20 -20 -20h-209q-21 0 -21 20v209q0 21 21 21z" />
    <glyph glyph-name="less" unicode="&#x3c;" 
d="M950 285v-148q0 -14 -10 -14q-6 0 -10 2l-752 375q-20 9 -20 26v144q0 17 20 26l752 375q4 2 10 2q10 0 10 -14v-148q0 -19 -20 -28l-586 -285l586 -285q20 -9 20 -28z" />
    <glyph glyph-name="equal" unicode="=" 
d="M172 903h780q21 0 21 -20v-119q0 -21 -21 -21h-780q-20 0 -20 21v119q0 20 20 20zM172 487h780q21 0 21 -20v-119q0 -20 -21 -20h-780q-20 0 -20 20v119q0 20 20 20z" />
    <glyph glyph-name="greater" unicode="&#x3e;" 
d="M176 137v148q0 19 21 28l585 285l-585 285q-21 9 -21 28v148q0 14 10 14q7 0 11 -2l751 -375q21 -9 21 -26v-144q0 -17 -21 -26l-751 -375q-4 -2 -11 -2q-10 0 -10 14z" />
    <glyph glyph-name="question" unicode="?" 
d="M147 1059q5 165 121 280t301 115q188 0 295 -101.5t107 -271.5q0 -59 -17.5 -110.5t-46 -89t-62.5 -72t-68 -67t-62.5 -66t-46 -76.5t-17.5 -92v-109q0 -20 -20 -20h-131q-21 0 -21 20v95q0 65 17.5 121.5t46 96.5t62.5 76t68 68.5t62.5 65t46 73t17.5 86.5
q0 98 -60.5 153.5t-169.5 55.5q-101 0 -171 -61.5t-83 -169.5q-3 -21 -20 -21h-127q-21 0 -21 21zM465 242h201q20 0 20 -21v-201q0 -20 -20 -20h-201q-21 0 -21 20v201q0 21 21 21z" />
    <glyph glyph-name="at" unicode="@" 
d="M1071 995v-817q0 -18 -18 -18h-107q-18 0 -18 18v62q-86 -97 -223 -97q-159 0 -261 121.5t-102 327.5t100 327t256 121q150 0 230 -100v66q0 133 -77 210.5t-233 77.5q-134 0 -228.5 -92.5t-139.5 -248.5t-45 -361q0 -345 117 -519.5t331 -174.5q98 0 172 23t156 75l12 4
q7 0 13 -10l59 -90q2 -2 2 -9q0 -9 -10 -16q-98 -65 -191 -91t-213 -26q-138 0 -246 48t-188.5 147t-123 260.5t-42.5 378.5q0 247 65.5 436t194.5 297.5t305 108.5q214 0 333.5 -120t119.5 -319zM940 592q0 152 -57 230.5t-162 78.5q-106 0 -166.5 -79t-60.5 -230
q0 -150 61 -229.5t164 -79.5q105 0 163 81t58 228z" />
    <glyph glyph-name="A" unicode="A" 
d="M911 20l-112 386h-471l-113 -386q-5 -12 -9.5 -16t-15.5 -4h-139q-22 0 -22 20q0 9 2 13l428 1380q1 2 2.5 6t2 5.5t2 4t3.5 3.5t4.5 1.5t5.5 0.5h168q6 0 9.5 -2t5.5 -5t4 -9q1 -3 2 -5l428 -1380q2 -4 2 -13q0 -20 -23 -20h-139q-11 0 -15.5 4t-9.5 16zM563 1217
l-188 -648h377z" />
    <glyph glyph-name="B" unicode="B" 
d="M641 0h-451q-20 0 -20 20v1393q0 21 20 21h410q173 0 284 -95t111 -260q0 -104 -45.5 -187.5t-124.5 -131.5q114 -45 171 -128t57 -224q0 -180 -108.5 -294t-303.5 -114zM342 672v-502h281q124 0 191 62t67 188q0 123 -67.5 187.5t-190.5 64.5h-281zM342 1264v-428h266
q99 0 157 52.5t58 162.5q0 100 -59.5 156.5t-155.5 56.5h-266z" />
    <glyph glyph-name="C" unicode="C" 
d="M928 473h125q22 0 22 -20q-17 -215 -146 -344t-329 -129q-109 0 -202 46t-163.5 135t-110.5 231.5t-40 324.5t40 324.5t110.5 231.5t163.5 135t202 46q200 0 329 -129t146 -344q0 -20 -22 -20h-125q-22 0 -25 20q-37 309 -303 309q-161 0 -248.5 -145t-87.5 -428
t87.5 -428.5t248.5 -145.5q265 0 303 310q3 20 25 20z" />
    <glyph glyph-name="D" unicode="D" 
d="M135 20v1393q0 21 21 21h284q272 0 435 -183t163 -534t-163 -534t-435 -183h-284q-21 0 -21 20zM307 164h133q202 0 310 137t108 416t-108 416t-310 137h-133v-1106z" />
    <glyph glyph-name="E" unicode="E" 
d="M334 672v-508h647q20 0 20 -21v-123q0 -20 -20 -20h-799q-20 0 -20 20v1393q0 21 20 21h785q20 0 20 -21v-123q0 -20 -20 -20h-633v-434h569q21 0 21 -21v-123q0 -20 -21 -20h-569z" />
    <glyph glyph-name="F" unicode="F" 
d="M334 641v-621q0 -20 -21 -20h-131q-20 0 -20 20v1393q0 21 20 21h811q21 0 21 -21v-123q0 -20 -21 -20h-659v-465h596q20 0 20 -21v-122q0 -21 -20 -21h-596z" />
    <glyph glyph-name="G" unicode="G" 
d="M618 713h429q20 0 20 -21v-354q0 -33 -20 -78q-59 -131 -166 -205.5t-265 -74.5q-115 0 -212.5 47.5t-171 138t-115 232.5t-41.5 319q0 180 41 322t113 231.5t166 136.5t204 47q191 0 312 -118t139 -310q0 -20 -23 -20h-131q-22 0 -25 20q-20 129 -84.5 196.5
t-187.5 67.5q-162 0 -253 -144.5t-91 -428.5q0 -287 92.5 -430.5t267.5 -143.5q204 0 279 193v213h-277q-20 0 -20 20v123q0 21 20 21z" />
    <glyph glyph-name="H" unicode="H" 
d="M285 666v-646q0 -20 -21 -20h-131q-20 0 -20 20v1393q0 21 20 21h131q21 0 21 -21v-584h557v584q0 21 20 21h131q21 0 21 -21v-1393q0 -20 -21 -20h-131q-20 0 -20 20v646h-557z" />
    <glyph glyph-name="I" unicode="I" 
d="M180 1290v123q0 21 21 21h725q20 0 20 -21v-123q0 -20 -20 -20h-277v-1106h297q21 0 21 -21v-123q0 -20 -21 -20h-766q-20 0 -20 20v123q0 21 20 21h297v1106h-276q-21 0 -21 20z" />
    <glyph glyph-name="J" unicode="J" 
d="M942 1413v-913q0 -262 -111 -391t-309 -129q-139 0 -237.5 62t-144.5 163t-46 231q0 21 21 21h131q20 0 20 -21q0 -133 67.5 -213t188.5 -80q132 0 190 88.5t58 272.5v909q0 21 21 21h131q20 0 20 -21z" />
    <glyph glyph-name="K" unicode="K" 
d="M1038 1405l-403 -473l452 -903q1 -2 2 -5t2 -5t1 -3q0 -16 -19 -16h-151q-11 0 -18.5 6.5t-18.5 24.5l-373 755l-174 -204v-562q0 -20 -21 -20h-131q-20 0 -20 20v1393q0 21 20 21h131q21 0 21 -21v-579l491 579l5 5l5 5l4 4t4.5 3.5t4 1.5t5 1.5t5.5 0.5h164
q18 0 18 -13q0 -7 -6 -16z" />
    <glyph glyph-name="L" unicode="L" 
d="M225 20v1393q0 21 21 21h131q20 0 20 -21v-1249h650q20 0 20 -21v-123q0 -20 -20 -20h-801q-21 0 -21 20z" />
    <glyph glyph-name="M" unicode="M" 
d="M1020 1413v-1393q0 -20 -21 -20h-131q-20 0 -20 20v1151l-205 -542q-4 -11 -27 -11h-106q-23 0 -27 11l-204 542v-1151q0 -20 -21 -20h-131q-21 0 -21 20v1393q0 21 21 21h188q26 0 33 -17l215 -583l215 583q7 17 33 17h188q21 0 21 -21z" />
    <glyph glyph-name="N" unicode="N" 
d="M989 0h-166q-25 0 -32 16l-502 1102v-1098q0 -20 -21 -20h-131q-20 0 -20 20v1393q0 21 20 21h166q26 0 33 -17l502 -1102v1098q0 21 20 21h131q21 0 21 -21v-1393q0 -20 -21 -20z" />
    <glyph glyph-name="O" unicode="O" 
d="M563 -20q-229 0 -365.5 191.5t-136.5 545.5t136.5 545.5t365.5 191.5t365.5 -191.5t136.5 -545.5t-136.5 -545.5t-365.5 -191.5zM563 143q322 0 322 574q0 573 -322 573q-321 0 -321 -573q0 -574 321 -574z" />
    <glyph glyph-name="P" unicode="P" 
d="M174 20v1393q0 21 21 21h399q215 0 335 -107.5t120 -292.5t-120 -292t-335 -107h-248v-615q0 -20 -20 -20h-131q-21 0 -21 20zM346 1270v-471h279q243 0 243 235q0 236 -243 236h-279z" />
    <glyph glyph-name="Q" unicode="Q" 
d="M563 -20q-229 0 -365.5 191.5t-136.5 545.5t136.5 545.5t365.5 191.5t365.5 -191.5t136.5 -545.5q0 -322 -117 -516l99 -95q8 -8 8 -14t-8 -14l-86 -90q-8 -8 -15 -8q-6 0 -14 8l-92 88q-122 -96 -277 -96zM692 449l129 -125q64 143 64 393q0 573 -322 573
q-321 0 -321 -573q0 -574 321 -574q93 0 158 47l-143 140q-9 9 -9 14t9 14l86 91q8 8 14 8t14 -8z" />
    <glyph glyph-name="R" unicode="R" 
d="M143 20v1393q0 21 21 21h434q205 0 314.5 -97t109.5 -282q0 -138 -69 -229.5t-189 -131.5l301 -674v-2q0 -1 1 -3t1 -3q0 -12 -16 -12h-150q-20 0 -29 20l-288 656h-269v-656q0 -20 -20 -20h-131q-21 0 -21 20zM315 1270v-430h301q125 0 179.5 53.5t54.5 161.5
t-54.5 161.5t-179.5 53.5h-301z" />
    <glyph glyph-name="S" unicode="S" 
d="M106 1063q0 123 60.5 213t158.5 134t218 44q207 0 328.5 -114.5t121.5 -284.5q0 -21 -20 -21h-131q-21 0 -21 21q0 96 -79 165.5t-199 69.5q-123 0 -193.5 -56.5t-70.5 -158.5q0 -46 18.5 -83t45 -62t76 -48.5t89.5 -37t108 -33.5q82 -25 138.5 -47.5t112.5 -55.5t89 -71
t53.5 -92t20.5 -121q0 -208 -133.5 -326t-337.5 -118q-214 0 -347.5 121.5t-133.5 322.5q0 20 20 20h131q21 0 21 -20q0 -122 82.5 -201.5t226.5 -79.5q139 0 219 70t80 203q0 41 -16.5 74.5t-42 57t-69.5 45.5t-86 37t-105 34q-102 28 -176 61t-134.5 80t-91.5 111.5
t-31 146.5z" />
    <glyph glyph-name="T" unicode="T" 
d="M76 1290v123q0 21 20 21h934q21 0 21 -21v-123q0 -20 -21 -20h-381v-1250q0 -20 -20 -20h-131q-21 0 -21 20v1250h-381q-20 0 -20 20z" />
    <glyph glyph-name="U" unicode="U" 
d="M109 473v940q0 21 20 21h131q21 0 21 -21v-917q0 -176 68.5 -264.5t213.5 -88.5q146 0 214.5 88.5t68.5 264.5v917q0 21 20 21h131q21 0 21 -21v-940q0 -230 -129.5 -361.5t-325.5 -131.5q-199 0 -326.5 131t-127.5 362z" />
    <glyph glyph-name="V" unicode="V" 
d="M440 20l-401 1393q-2 2 -2 4v4q0 13 16 13h154q18 0 24 -21l332 -1206l332 1206q6 21 25 21h153q17 0 17 -13q0 -1 -1.5 -2t-1.5 -2v-4l-401 -1393q-6 -20 -22 -20h-201q-17 0 -23 20z" />
    <glyph glyph-name="W" unicode="W" 
d="M170 20l-137 1393q0 21 16 21h139q22 0 25 -21l90 -1175l168 829q3 20 25 20h135q18 0 24 -20l168 -829l90 1175q3 21 25 21h139q17 0 17 -21l-138 -1393q-3 -20 -22 -20h-191q-16 0 -22 20l-158 773l-157 -773q-6 -20 -23 -20h-190q-20 0 -23 20z" />
    <glyph glyph-name="X" unicode="X" 
d="M301 1413l262 -469l262 469q7 13 12.5 17t16.5 4h145q17 0 17 -13q0 -6 -2 -8l-357 -639l422 -754q2 -2 2 -8q0 -12 -16 -12h-145q-11 0 -16.5 3.5t-12.5 16.5l-328 586l-327 -586q-7 -13 -12.5 -16.5t-16.5 -3.5h-146q-16 0 -16 12q0 6 2 8l422 754l-356 639q-2 2 -2 8
q0 13 16 13h145q11 0 16.5 -4t12.5 -17z" />
    <glyph glyph-name="Y" unicode="Y" 
d="M1055 1413l-406 -780v-613q0 -20 -20 -20h-131q-21 0 -21 20v613l-405 780q-2 2 -2 8q0 13 12 13h158q3 0 6 -0.5t4.5 -1.5t3.5 -3t2.5 -3t3 -4.5t2.5 -4.5l301 -594l301 594q10 17 23 17h157q13 0 13 -13q0 -6 -2 -8z" />
    <glyph glyph-name="Z" unicode="Z" 
d="M125 1290v123q0 21 20 21h840q21 0 21 -21v-123q0 -16 -13 -35l-696 -1091h719q20 0 20 -21v-123q0 -20 -20 -20h-893q-21 0 -21 20v123q0 15 13 35l698 1092h-668q-20 0 -20 20z" />
    <glyph glyph-name="bracketleft" unicode="[" 
d="M319 -385v1798q0 21 21 21h528q21 0 21 -21v-123q0 -20 -21 -20h-376v-1512h376q21 0 21 -20v-123q0 -21 -21 -21h-528q-21 0 -21 21z" />
    <glyph glyph-name="backslash" unicode="\" 
d="M315 1413l703 -1393q1 -2 2 -4.5t1.5 -3.5t0.5 -2q0 -10 -16 -10h-140q-17 0 -28 20l-703 1393q-1 2 -2 4.5t-1.5 3.5t-0.5 2q0 11 16 11h140q16 0 28 -21z" />
    <glyph glyph-name="bracketright" unicode="]" 
d="M807 1413v-1798q0 -21 -21 -21h-528q-20 0 -20 21v123q0 20 20 20h377v1512h-377q-20 0 -20 20v123q0 21 20 21h528q21 0 21 -21z" />
    <glyph glyph-name="asciicircum" unicode="^" 
d="M293 827h-148q-14 0 -14 13q0 6 2 8l328 565q9 21 26 21h152q18 0 27 -21l327 -565q2 -2 2 -8q0 -13 -14 -13h-147q-17 0 -29 21l-242 430l-241 -430q-12 -21 -29 -21z" />
    <glyph glyph-name="underscore" unicode="_" 
d="M172 0h780q21 0 21 -20v-119q0 -21 -21 -21h-780q-20 0 -20 21v119q0 20 20 20z" />
    <glyph glyph-name="grave" unicode="`" 
d="M625 1413l125 -258q2 -4 2 -10q0 -10 -13 -10h-131q-22 0 -37 18l-192 260q-4 8 -4 10q0 11 14 11h205q19 0 31 -21z" />
    <glyph glyph-name="a" unicode="a" 
d="M326 729h-131q-15 0 -15 12q0 13 2 21q30 121 137.5 204t266.5 83q191 0 291 -99.5t100 -269.5v-483q0 -70 7 -105.5t28 -71.5q2 -2 2 -10q0 -10 -17 -10h-159q-21 0 -21 20v101q-117 -141 -328 -141q-142 0 -244 90t-102 239q0 83 31.5 149t84.5 106.5t120.5 61.5
t142.5 21q57 0 108 -6t84 -13t103 -24v64q0 229 -231 229q-174 0 -232 -149q-7 -19 -28 -19zM817 453q-157 43 -270 43q-109 0 -172.5 -46t-63.5 -141q0 -79 59 -128.5t148 -49.5q134 0 216.5 90t82.5 232z" />
    <glyph glyph-name="b" unicode="b" 
d="M168 20v1393q0 21 20 21h119q21 0 21 -21v-491q56 59 132 93t161 34q192 0 307.5 -144.5t115.5 -390.5t-115.5 -390t-307.5 -144q-90 0 -167 34.5t-126 91.5v-86q0 -20 -21 -20h-119q-20 0 -20 20zM311 514q0 -172 75.5 -277.5t203.5 -105.5q138 0 212.5 104t74.5 279
t-74.5 279t-212.5 104q-128 0 -203.5 -105.5t-75.5 -277.5z" />
    <glyph glyph-name="c" unicode="c" 
d="M590 897q-139 0 -219 -104.5t-80 -278.5t80 -278.5t219 -104.5q200 0 258 205q7 18 29 18h124q15 0 15 -12t-2 -20q-37 -157 -144 -249.5t-280 -92.5q-215 0 -341 149.5t-126 384.5t126 385t341 150q173 0 280 -92.5t144 -249.5q2 -8 2 -21q0 -12 -15 -12h-124
q-22 0 -29 18q-58 205 -258 205z" />
    <glyph glyph-name="d" unicode="d" 
d="M989 1413v-1393q0 -20 -20 -20h-119q-21 0 -21 20v86q-49 -57 -125.5 -91.5t-166.5 -34.5q-192 0 -308 144t-116 390t116 390.5t308 144.5q85 0 160.5 -34t131.5 -93v491q0 21 21 21h119q20 0 20 -21zM846 514q0 172 -75.5 277.5t-203.5 105.5q-138 0 -212 -104t-74 -279
t74 -279t212 -104q128 0 203.5 105.5t75.5 277.5z" />
    <glyph glyph-name="e" unicode="e" 
d="M1008 465h-715q8 -151 83 -242.5t208 -91.5q101 0 158.5 46t91.5 142q7 19 28 19h133q15 0 15 -14q0 -12 -4 -21q-53 -159 -154.5 -241t-267.5 -82q-145 0 -251.5 71.5t-159 191t-52.5 271.5q0 229 129.5 382t333.5 153q110 0 196.5 -43t139.5 -117.5t80.5 -169.5
t27.5 -205v-29q0 -20 -20 -20zM584 897q-110 0 -185 -73.5t-98 -207.5h555q-23 131 -95 206t-177 75z" />
    <glyph glyph-name="f" unicode="f" 
d="M981 877h-395v-857q0 -20 -21 -20h-119q-20 0 -20 20v857h-266q-21 0 -21 20v111q0 20 21 20h266v96q0 137 78.5 233.5t222.5 96.5q125 0 211 -53q16 -11 16 -35v-109q0 -20 -14 -20q-6 0 -14 4q-53 35 -95 48.5t-92 13.5q-73 0 -113 -47t-40 -134v-94h395q20 0 20 -20
v-111q0 -20 -20 -20z" />
    <glyph glyph-name="g" unicode="g" 
d="M104 305q0 163 168 252q-24 61 -24 141q0 162 98 256.5t250 94.5q116 0 199 -56l129 115q8 8 16 8q6 0 16 -10l76 -82q8 -8 8 -16q0 -9 -10 -19l-123 -117q39 -68 39 -174q0 -158 -97.5 -253t-252.5 -95q-149 0 -244 86q-88 -46 -88 -133q0 -51 31.5 -82t85.5 -31
q36 0 120 19.5t148 19.5q191 0 298.5 -86.5t107.5 -244.5q0 -148 -118 -236t-321 -88q-204 0 -326 88t-122 240q0 111 55 178q-119 91 -119 225zM328 -90q0 -85 77 -134.5t211 -49.5q129 0 204 46t75 124q0 182 -279 182q-58 0 -133 -15.5t-102 -17.5q-53 -53 -53 -135z
M408 698q0 -94 53 -145t135 -51t136 51t54 145q0 96 -54 147.5t-136 51.5t-135 -51.5t-53 -147.5z" />
    <glyph glyph-name="h" unicode="h" 
d="M184 20v1393q0 21 21 21h119q20 0 20 -21v-516q52 67 140.5 109.5t181.5 42.5q329 0 329 -340v-689q0 -20 -20 -20h-119q-20 0 -20 20v662q0 215 -207 215q-117 0 -201 -99t-84 -266v-512q0 -20 -20 -20h-119q-21 0 -21 20z" />
    <glyph glyph-name="i" unicode="i" 
d="M477 1237v176q0 21 21 21h176q20 0 20 -21v-176q0 -20 -20 -20h-176q-21 0 -21 20zM229 901v107q0 20 21 20h409q21 0 21 -20v-856h321q21 0 21 -21v-111q0 -20 -21 -20h-802q-21 0 -21 20v111q0 21 21 21h321v729h-270q-21 0 -21 20z" />
    <glyph glyph-name="j" unicode="j" 
d="M213 901v107q0 20 20 20h570q20 0 20 -20v-1114q0 -147 -14.5 -232t-46.5 -156q-6 -16 -14 -16h-7q-2 0 -4 2l-116 33q-17 7 -17 14q0 8 2 10q58 159 58 320v1012h-431q-20 0 -20 20zM614 1237v176q0 21 21 21h176q20 0 20 -21v-176q0 -20 -20 -20h-176q-21 0 -21 20z
" />
    <glyph glyph-name="k" unicode="k" 
d="M350 1413v-823l400 420q18 18 32 18h164q17 0 17 -14q0 -8 -9 -17l-327 -340l379 -626q4 -8 4 -15q0 -16 -19 -16h-137q-24 0 -33 18l-313 517l-158 -162v-353q0 -20 -20 -20h-119q-21 0 -21 20v1393q0 21 21 21h119q20 0 20 -21z" />
    <glyph glyph-name="l" unicode="l" 
d="M180 1303v110q0 21 21 21h438q20 0 20 -21v-1261h345q20 0 20 -21v-111q0 -20 -20 -20h-848q-21 0 -21 20v111q0 21 21 21h344v1130h-299q-21 0 -21 21z" />
    <glyph glyph-name="m" unicode="m" 
d="M82 20v988q0 20 20 20h119q21 0 21 -20v-70q35 49 95 80t120 31q72 0 113.5 -25.5t72.5 -79.5q43 55 94.5 80t122.5 25q95 0 153 -54.5t58 -160.5v-814q0 -20 -20 -20h-119q-21 0 -21 20v742q0 69 -22 102t-74 33q-75 0 -115.5 -64.5t-40.5 -183.5v-629q0 -20 -20 -20
h-119q-20 0 -20 20v742q0 135 -101 135q-157 0 -157 -248v-629q0 -20 -21 -20h-119q-20 0 -20 20z" />
    <glyph glyph-name="n" unicode="n" 
d="M184 20v988q0 20 21 20h119q20 0 20 -20v-107q127 148 305 148q160 0 242 -83t82 -237v-709q0 -20 -21 -20h-118q-21 0 -21 20v682q0 195 -197 195q-118 0 -195 -96t-77 -260v-521q0 -20 -20 -20h-119q-21 0 -21 20z" />
    <glyph glyph-name="o" unicode="o" 
d="M86 514q0 245 131 390t346 145q214 0 345.5 -145.5t131.5 -389.5t-131.5 -389t-345.5 -145q-215 0 -346 145t-131 389zM254 514q0 -173 83.5 -278t225.5 -105t225.5 105t83.5 278t-83.5 278t-225.5 105t-225.5 -105t-83.5 -278z" />
    <glyph glyph-name="p" unicode="p" 
d="M164 -385v1393q0 20 20 20h119q21 0 21 -20v-86q49 58 126 92.5t166 34.5q192 0 308 -144.5t116 -390.5t-116 -390t-308 -144q-85 0 -160.5 33.5t-131.5 92.5v-491q0 -21 -21 -21h-119q-20 0 -20 21zM307 514q0 -172 75.5 -277.5t203.5 -105.5q138 0 212 104t74 279
t-74 279t-212 104q-128 0 -203.5 -105.5t-75.5 -277.5z" />
    <glyph glyph-name="q" unicode="q" 
d="M969 1008v-1393q0 -21 -21 -21h-119q-20 0 -20 21v491q-56 -59 -131.5 -92.5t-161.5 -33.5q-192 0 -308 144t-116 390t116 390.5t308 144.5q90 0 167 -35t126 -92v86q0 20 20 20h119q21 0 21 -20zM825 514q0 172 -75 277.5t-203 105.5q-138 0 -212.5 -104t-74.5 -279
t74.5 -279t212.5 -104q128 0 203 105.5t75 277.5z" />
    <glyph glyph-name="r" unicode="r" 
d="M1006 807l-115 -72q-8 -4 -14 -4q-14 0 -17 10q-48 84 -94.5 120t-126.5 36q-116 0 -191 -110.5t-75 -276.5v-490q0 -20 -21 -20h-119q-20 0 -20 20v988q0 20 20 20h119q21 0 21 -20v-115q53 70 137.5 113t189.5 43q114 0 195 -56t119 -151q4 -12 4 -15q0 -11 -12 -20z
" />
    <glyph glyph-name="s" unicode="s" 
d="M981 301q0 -149 -110 -235t-283 -86q-178 0 -297 96t-119 237q0 21 21 21h131q17 0 20 -21q12 -89 78.5 -135.5t171.5 -46.5q100 0 159.5 39.5t59.5 110.5q0 76 -61.5 113.5t-219.5 62.5q-172 30 -254.5 99t-82.5 200q0 136 105 214.5t267 78.5q169 0 268 -79t113 -216
q0 -21 -20 -21h-115q-3 0 -5.5 0.5t-4.5 1.5t-3.5 3.5t-2 4t-2 5.5t-2.5 6q-20 70 -80 106.5t-148 36.5q-96 0 -153.5 -35t-57.5 -102q0 -72 61.5 -108.5t215.5 -63.5q81 -14 139 -32.5t108.5 -50.5t76.5 -83t26 -121z" />
    <glyph glyph-name="t" unicode="t" 
d="M94 1028h230v332q0 20 20 20h119q20 0 20 -20v-332h379q21 0 21 -20v-111q0 -20 -21 -20h-379v-500q0 -246 181 -246q94 0 136 49t56 158q2 18 23 18h118q12 0 15.5 -2.5t3.5 -15.5q0 -95 -39 -175t-121 -131.5t-192 -51.5q-164 0 -252 100t-88 295v502h-230
q-20 0 -20 20v111q0 20 20 20z" />
    <glyph glyph-name="u" unicode="u" 
d="M948 1008v-988q0 -20 -20 -20h-119q-21 0 -21 20v107q-126 -147 -305 -147q-160 0 -241.5 82.5t-81.5 236.5v709q0 20 20 20h119q20 0 20 -20v-682q0 -195 197 -195q118 0 195 96t77 260v521q0 20 21 20h119q20 0 20 -20z" />
    <glyph glyph-name="v" unicode="v" 
d="M1036 995l-377 -975q-9 -20 -20 -20h-152q-11 0 -20 20l-377 975q-2 4 -2 15q0 18 18 18h138q22 0 28 -20l291 -791l291 791q6 20 29 20h137q18 0 18 -18q0 -11 -2 -15z" />
    <glyph glyph-name="w" unicode="w" 
d="M1094 997l-189 -977q-6 -20 -26 -20h-144q-20 0 -26 20l-146 639l-145 -639q-6 -20 -27 -20h-143q-24 0 -27 20l-188 977q-2 6 -2 17q0 14 16 14h135q26 0 29 -20l117 -750l135 616q1 2 2.5 5.5t2 5t1.5 3.5t2.5 3t3.5 2t4.5 1.5t5.5 0.5h156q10 0 13.5 -3t7.5 -14
q1 -3 2 -4l135 -616l116 750q3 20 29 20h135q17 0 17 -14q0 -11 -2 -17z" />
    <glyph glyph-name="x" unicode="x" 
d="M135 27l336 510l-303 464q-4 12 -4 13q0 14 14 14h137q21 0 29 -14l219 -338l219 338q8 14 29 14h137q15 0 15 -14q0 -1 -1 -3t-2 -5t-2 -5l-303 -464l336 -510q6 -9 6 -17q0 -10 -12 -10h-145q-15 0 -29 20l-248 375l-248 -375q-14 -20 -28 -20h-146q-12 0 -12 10
q0 8 6 17z" />
    <glyph glyph-name="y" unicode="y" 
d="M143 -360v110q0 21 17 21q8 0 54.5 -22.5t94.5 -22.5q38 0 64.5 13.5t50 49t42.5 81t46 126.5l4 12l-389 987q-4 16 -4 17q0 16 16 16h148q20 0 26 -20l287 -768l260 768q5 11 10.5 15.5t18.5 4.5h141q17 0 17 -14q0 -1 -1 -3t-2 -5.5t-2 -6.5l-401 -1124
q-57 -161 -131.5 -231t-190.5 -70q-88 0 -155 33q-21 12 -21 33z" />
    <glyph glyph-name="z" unicode="z" 
d="M215 897v111q0 20 21 20h663q21 0 21 -20v-111q0 -15 -17 -43l-528 -702h565q21 0 21 -21v-111q0 -20 -21 -20h-737q-21 0 -21 20v111q0 14 13 31l538 715h-497q-21 0 -21 20z" />
    <glyph glyph-name="braceleft" unicode="{" 
d="M616 346v-352q0 -139 25 -187.5t113 -48.5h118q21 0 21 -20v-123q0 -21 -21 -21h-118q-160 0 -235 94.5t-75 305.5v319q0 119 -108 119h-82q-21 0 -21 21v122q0 21 21 21h82q108 0 108 119v319q0 211 75 305.5t235 94.5h118q21 0 21 -21v-123q0 -20 -21 -20h-118
q-88 0 -113 -48.5t-25 -187.5v-352q0 -65 -24 -107t-92 -61q68 -19 92 -61t24 -107z" />
    <glyph glyph-name="bar" unicode="|" 
d="M477 -184v1802q0 20 21 20h131q20 0 20 -20v-1802q0 -21 -20 -21h-131q-21 0 -21 21z" />
    <glyph glyph-name="braceright" unicode="}" 
d="M510 -6v352q0 65 24.5 107t92.5 61q-68 19 -92.5 61t-24.5 107v352q0 139 -24.5 187.5t-112.5 48.5h-119q-21 0 -21 20v123q0 21 21 21h119q160 0 234.5 -94.5t74.5 -305.5v-319q0 -119 109 -119h81q21 0 21 -21v-122q0 -21 -21 -21h-81q-109 0 -109 -119v-319
q0 -211 -74.5 -305.5t-234.5 -94.5h-119q-21 0 -21 21v123q0 20 21 20h119q88 0 112.5 48.5t24.5 187.5z" />
    <glyph glyph-name="asciitilde" unicode="~" 
d="M168 745q99 74 227 74q66 0 125 -21t110.5 -42t100.5 -21q42 0 73 11.5t75 39.5q2 1 5 2t5 2t4 1q10 0 20 -17l62 -102q2 -2 2 -8q0 -14 -19 -27q-99 -74 -227 -74q-67 0 -125.5 21t-110 42t-100.5 21q-42 0 -72 -11.5t-75 -39.5q-12 -4 -15 -4q-10 0 -20 16l-61 103
q-2 2 -2 8q0 14 18 26z" />
    <glyph glyph-name="uni00A0" unicode="&#xa0;" 
 />
    <glyph glyph-name="exclamdown" unicode="&#xa1;" 
d="M629 -406h-131q-21 0 -21 21v1014q0 20 21 20h131q20 0 20 -20v-1014q0 -21 -20 -21zM664 786h-201q-21 0 -21 21v201q0 20 21 20h201q20 0 20 -20v-201q0 -21 -20 -21z" />
    <glyph glyph-name="cent" unicode="&#xa2;" 
d="M494 20v168q-182 29 -283.5 172.5t-101.5 356.5q0 211 102 354t283 172v170q0 21 20 21h131q21 0 21 -21v-170q134 -22 217.5 -110.5t115.5 -223.5q2 -8 2 -20t-14 -12h-125q-21 0 -28 18q-41 147 -168 192v-743q124 38 168 195q7 18 28 18h125q14 0 14 -12q0 -13 -2 -21
q-32 -135 -115.5 -223.5t-217.5 -112.5v-168q0 -20 -21 -20h-131q-20 0 -20 20zM276 717q0 -148 57 -246t161 -127v743q-104 -29 -161 -126t-57 -244z" />
    <glyph glyph-name="sterling" unicode="&#xa3;" 
d="M309 575q0 32 -6 62h-149q-21 0 -21 20v119q0 21 21 21h104q-17 45 -26 73t-17 73t-8 91q0 189 117.5 304.5t298.5 115.5q101 0 181.5 -31.5t132 -85.5t78.5 -125t27 -153q0 -21 -20 -21h-131q-21 0 -21 21q-6 105 -72 168t-175 63q-112 0 -178 -65.5t-66 -186.5
q0 -23 1.5 -43.5t5.5 -40.5t7 -34t10 -34t10.5 -28.5t12.5 -31t12 -29.5h430q21 0 21 -21v-119q0 -20 -21 -20h-393q6 -27 6 -78q0 -200 -141 -395h696q21 0 21 -21v-123q0 -20 -21 -20h-856q-20 0 -20 20v144q0 19 16 41q73 95 103 171.5t30 198.5z" />
    <glyph glyph-name="currency" unicode="&#xa4;" 
d="M150 289l100 96q-64 103 -64 229q0 127 64 230l-100 96q-9 9 -9 14q0 6 9 15l77 78q8 8 15 8q6 0 14 -8l102 -97q86 62 205 62t205 -62l102 97q8 8 15 8q6 0 14 -8l78 -78q8 -8 8 -15q0 -6 -8 -14l-100 -96q63 -102 63 -230q0 -127 -63 -229l100 -96q8 -8 8 -15
q0 -6 -8 -14l-78 -78q-8 -8 -14 -8q-7 0 -15 8l-102 97q-86 -62 -205 -62t-205 62l-102 -97q-8 -8 -14 -8q-7 0 -15 8l-77 78q-9 9 -9 14q0 6 9 15zM338 614q0 -121 60.5 -189.5t164.5 -68.5t164.5 68.5t60.5 189.5t-60.5 189.5t-164.5 68.5t-164.5 -68.5t-60.5 -189.5z" />
    <glyph glyph-name="yen" unicode="&#xa5;" 
d="M168 793h223l-336 620q-2 2 -2 8q0 13 13 13h163q13 0 23 -17l311 -602l311 602q10 17 23 17h164q12 0 12 -13q0 -6 -2 -8l-336 -620h223q21 0 21 -21v-119q0 -20 -21 -20h-309v-160h252q21 0 21 -20v-119q0 -21 -21 -21h-252v-293q0 -20 -20 -20h-131q-21 0 -21 20v293
h-252q-20 0 -20 21v119q0 20 20 20h252v160h-309q-21 0 -21 20v119q0 21 21 21z" />
    <glyph glyph-name="brokenbar" unicode="&#xa6;" 
d="M477 860v758q0 20 21 20h131q20 0 20 -20v-758q0 -20 -20 -20h-131q-21 0 -21 20zM477 -184v757q0 21 21 21h131q20 0 20 -21v-757q0 -21 -20 -21h-131q-21 0 -21 21z" />
    <glyph glyph-name="section" unicode="&#xa7;" 
d="M166 586q0 71 33 126t104 111q-70 62 -100.5 130.5t-30.5 156.5q0 106 55.5 186t141.5 119t186 39q96 0 173.5 -30.5t126.5 -81.5t75 -115.5t26 -136.5q0 -21 -20 -21h-131q-21 0 -21 21q-5 92 -65.5 146t-163.5 54q-90 0 -150.5 -48.5t-60.5 -131.5q0 -84 53.5 -142
t198.5 -143q72 -42 116.5 -69.5t90 -60t70 -58t45 -57t28.5 -64.5t8 -74q0 -71 -33 -126t-104 -111q70 -62 100.5 -130.5t30.5 -156.5q0 -106 -55.5 -186t-141.5 -119t-186 -39q-96 0 -173.5 30.5t-126.5 82t-75 116t-26 136.5q0 20 20 20h131q21 0 21 -20
q5 -92 65.5 -146.5t163.5 -54.5q90 0 150.5 48.5t60.5 131.5q0 84 -53.5 142t-198.5 143q-72 42 -116.5 69.5t-90 60t-70 58t-45 57t-28.5 64.5t-8 74zM434 729q-96 -54 -96 -131q0 -62 66.5 -119.5t281.5 -179.5q96 54 96 131q0 62 -66.5 119.5t-281.5 179.5z" />
    <glyph glyph-name="dieresis" unicode="&#xa8;" 
d="M289 1241v172q0 21 20 21h172q21 0 21 -21v-172q0 -20 -21 -20h-172q-20 0 -20 20zM625 1241v172q0 21 20 21h172q21 0 21 -21v-172q0 -20 -21 -20h-172q-20 0 -20 20z" />
    <glyph glyph-name="copyright" unicode="&#xa9;" 
d="M733 604h49q15 0 15 -14q-12 -95 -75.5 -147t-158.5 -52q-48 0 -93 19.5t-82.5 56.5t-60 97.5t-22.5 135.5q0 146 78 229t180 83q95 0 158.5 -52t75.5 -147q0 -14 -15 -14h-49q-15 0 -18 14q-27 121 -152 121q-76 0 -124 -60t-48 -174q0 -112 48 -171.5t124 -59.5
q125 0 152 121q3 14 18 14zM563 172q-95 0 -185 35.5t-162 101t-115.5 167.5t-43.5 224q0 98 28.5 184t77.5 148.5t113.5 107.5t138 67t148.5 22t148.5 -22t138 -67t113.5 -107.5t77.5 -148.5t28.5 -184q0 -122 -43.5 -224t-115.5 -167.5t-162 -101t-185 -35.5zM563 262
q78 0 150 28t131 80.5t94 138t35 191.5t-35 191.5t-94 138.5t-131 81t-150 28t-150 -28t-130.5 -81t-93.5 -138.5t-35 -191.5t35 -191.5t93.5 -138t130.5 -80.5t150 -28z" />
    <glyph glyph-name="ordfeminine" unicode="&#xaa;" 
d="M897 1419v-737q0 -14 -14 -14h-88q-17 0 -17 14v72q-80 -103 -229 -103q-135 0 -227.5 110t-92.5 290t92.5 289.5t227.5 109.5q150 0 229 -102v71q0 15 17 15h88q14 0 14 -15zM791 1051q0 130 -58.5 207t-161.5 77q-101 0 -159 -80.5t-58 -203.5t58 -204t159 -81
q103 0 161.5 77.5t58.5 207.5z" />
    <glyph glyph-name="guillemotleft" unicode="&#xab;" 
d="M586 260v-172q0 -14 -13 -14q-6 0 -12 6l-422 387q-20 17 -20 37v114q0 20 20 37l422 387q7 7 12 7q13 0 13 -15v-172q0 -21 -15 -33l-288 -268l288 -268q15 -12 15 -33zM979 260v-172q0 -14 -12 -14q-7 0 -13 6l-422 387q-20 17 -20 37v114q0 20 20 37l422 387q7 7 13 7
q12 0 12 -15v-172q0 -22 -14 -33l-289 -268l289 -268q14 -11 14 -33z" />
    <glyph glyph-name="logicalnot" unicode="&#xac;" 
d="M147 598v102q0 21 21 21h766q20 0 20 -21v-378q0 -21 -20 -21h-119q-20 0 -20 21v256h-627q-21 0 -21 20z" />
    <glyph glyph-name="registered" unicode="&#xae;" 
d="M563 172q-95 0 -185 35.5t-162 101t-115.5 167.5t-43.5 224q0 98 28.5 184t77.5 148.5t113.5 107.5t138 67t148.5 22t148.5 -22t138 -67t113.5 -107.5t77.5 -148.5t28.5 -184q0 -122 -43.5 -224t-115.5 -167.5t-162 -101t-185 -35.5zM563 262q78 0 150 28t131 80.5
t94 138t35 191.5t-35 191.5t-94 138.5t-131 81t-150 28t-150 -28t-130.5 -81t-93.5 -138.5t-35 -191.5t35 -191.5t93.5 -138t130.5 -80.5t150 -28zM389 412v579q0 15 14 15h181q93 0 142.5 -43.5t49.5 -124.5q0 -119 -123 -162l131 -264q2 -2 2 -9q0 -6 -8 -6h-63
q-15 0 -21 13l-129 258h-94v-256q0 -15 -14 -15h-54q-14 0 -14 15zM471 928v-183h121q102 0 102 93q0 90 -102 90h-121z" />
    <glyph glyph-name="macron" unicode="&#xaf;" 
d="M348 1241v102q0 21 21 21h389q20 0 20 -21v-102q0 -20 -20 -20h-389q-21 0 -21 20z" />
    <glyph glyph-name="degree" unicode="&#xb0;" 
d="M215 1106q0 154 97 251t251 97t251 -97t97 -251t-97 -251t-251 -97t-251 97t-97 251zM358 1106q0 -102 56 -161.5t149 -59.5t148 59.5t55 161.5t-55 161.5t-148 59.5t-149 -59.5t-56 -161.5z" />
    <glyph glyph-name="plusminus" unicode="&#xb1;" 
d="M641 1122v-309h311q21 0 21 -20v-119q0 -21 -21 -21h-311v-311q0 -20 -20 -20h-119q-21 0 -21 20v311h-309q-20 0 -20 21v119q0 20 20 20h309v309q0 21 21 21h119q20 0 20 -21zM172 160h780q21 0 21 -21v-119q0 -20 -21 -20h-780q-20 0 -20 20v119q0 21 20 21z" />
    <glyph glyph-name="twosuperior" unicode="&#xb2;" 
d="M305 688v62q0 19 12 28l287 277q42 39 61 75t19 82q0 56 -29.5 89.5t-87.5 33.5t-92.5 -33.5t-42.5 -89.5q-3 -20 -20 -20h-80q-21 0 -21 20q6 102 75 168t181 66q111 0 173.5 -66.5t62.5 -167.5q0 -69 -28 -123t-85 -108l-211 -203h332q20 0 20 -20v-70q0 -20 -20 -20
h-485q-21 0 -21 20z" />
    <glyph glyph-name="threesuperior" unicode="&#xb3;" 
d="M471 1034v70q0 20 21 20h30q131 0 131 121q0 45 -28.5 71.5t-81.5 26.5q-45 0 -75.5 -26.5t-37.5 -75.5q-3 -16 -20 -16h-72q-21 0 -21 18q6 89 67.5 146t158.5 57q105 0 165 -57t60 -134q0 -117 -88 -172q119 -51 119 -192q0 -105 -70 -170.5t-180 -65.5
q-105 0 -182.5 67t-77.5 167q0 20 20 20h76q18 0 21 -20q20 -123 141 -123q61 0 97 32.5t36 92.5q0 58 -36 90.5t-101 32.5h-51q-21 0 -21 20z" />
    <glyph glyph-name="acute" unicode="&#xb4;" 
d="M377 1155l125 258q12 21 30 21h205q15 0 15 -11q0 -2 -4 -10l-193 -260q-13 -18 -37 -18h-131q-12 0 -12 10q0 6 2 10z" />
    <glyph glyph-name="mu" unicode="&#xb5;" 
d="M948 1008v-988q0 -20 -20 -20h-119q-21 0 -21 20v107q-126 -147 -305 -147q-97 0 -164 30v-395q0 -21 -20 -21h-119q-20 0 -20 21v1393q0 20 20 20h119q20 0 20 -20v-682q0 -195 197 -195q118 0 195 96t77 260v521q0 20 21 20h119q20 0 20 -20z" />
    <glyph glyph-name="paragraph" unicode="&#xb6;" 
d="M408 1434h626q21 0 21 -21v-123q0 -20 -21 -20h-104v-1454q0 -21 -21 -21h-131q-20 0 -20 21v1454h-135v-1454q0 -21 -21 -21h-131q-20 0 -20 21v958h-43q-172 0 -268.5 88t-96.5 242t96.5 242t268.5 88z" />
    <glyph glyph-name="periodcentered" unicode="&#xb7;" 
d="M459 864h209q20 0 20 -20v-209q0 -21 -20 -21h-209q-21 0 -21 21v209q0 20 21 20z" />
    <glyph glyph-name="cedilla" unicode="&#xb8;" 
d="M397 -211l-26 27q-4 4 -4 8q0 1 0.5 2.5t1.5 5t2 6.5l90 219q9 21 20 21h90q19 0 19 -12q0 -7 -2 -9l-99 -182q54 14 119 14q81 0 128.5 -39.5t47.5 -105.5q0 -170 -219 -170q-130 0 -203 20q-17 7 -19 13q-1 3 -1 8v59q0 21 20 21q4 0 69.5 -11.5t127.5 -11.5
q42 0 66 17t24 47q0 29 -24.5 46t-65.5 17q-65 0 -133 -14q-2 -2 -4 -2h-8q-11 0 -17 6z" />
    <glyph glyph-name="onesuperior" unicode="&#xb9;" 
d="M336 688v70q0 20 20 20h168v500l-141 -76q-12 -6 -21 -6q-16 0 -16 16v97q0 12 14 20l181 96q15 9 30 9h47q21 0 21 -21v-635h168q20 0 20 -20v-70q0 -20 -20 -20h-451q-20 0 -20 20z" />
    <glyph glyph-name="ordmasculine" unicode="&#xba;" 
d="M203 1051q0 176 100 287.5t260 111.5q161 0 261 -111.5t100 -287.5t-100.5 -288t-260.5 -112t-260 112t-100 288zM328 1051q0 -128 65 -206.5t170 -78.5t170.5 78.5t65.5 206.5t-65.5 206t-170.5 78t-170 -78t-65 -206z" />
    <glyph glyph-name="guillemotright" unicode="&#xbb;" 
d="M541 88v172q0 22 14 33l289 268l-289 268q-14 11 -14 33v172q0 15 12 15q5 0 12 -7l422 -387q21 -18 21 -37v-114q0 -19 -21 -37l-422 -387q-6 -6 -12 -6q-12 0 -12 14zM147 88v172q0 21 15 33l289 268l-289 268q-15 12 -15 33v172q0 15 13 15q5 0 12 -7l422 -387
q20 -17 20 -37v-114q0 -20 -20 -37l-422 -387q-6 -6 -12 -6q-13 0 -13 14z" />
    <glyph glyph-name="onequarter" unicode="&#xbc;" 
d="M104 688v70q0 20 21 20h168v500l-141 -76q-12 -6 -21 -6q-16 0 -16 16v97q0 12 14 20l180 96q15 9 31 9h47q21 0 21 -21v-635h167q21 0 21 -20v-70q0 -20 -21 -20h-450q-21 0 -21 20zM233 215l771 684q9 6 14 6q8 0 16 -8l47 -55q6 -9 6 -15t-8 -14l-770 -684
q-9 -6 -14 -6q-8 0 -16 8l-48 55q-6 9 -6 15t8 14zM784 -385v125h-292q-21 0 -21 20v58q0 13 8 24l309 504q8 14 23 14h68q20 0 20 -20v-490h70q20 0 20 -20v-70q0 -20 -20 -20h-70v-125q0 -21 -20 -21h-74q-21 0 -21 21zM784 137l-172 -287h172v287z" />
    <glyph glyph-name="onehalf" unicode="&#xbd;" 
d="M193 215l770 684q9 6 14 6q8 0 16 -8l47 -55q7 -11 7 -15q0 -5 -9 -14l-770 -684q-9 -6 -14 -6q-8 0 -16 8l-48 55q-6 9 -6 15q0 5 9 14zM104 688v70q0 20 21 20h168v500l-141 -76q-12 -6 -21 -6q-16 0 -16 16v97q0 12 14 20l180 96q15 9 31 9h47q21 0 21 -21v-635h167
q21 0 21 -20v-70q0 -20 -21 -20h-450q-21 0 -21 20zM535 -385v61q0 20 12 29l287 277q42 39 60.5 75t18.5 82q0 56 -29 89.5t-87 33.5t-92.5 -33.5t-42.5 -89.5q-3 -20 -21 -20h-80q-20 0 -20 20q6 102 75 168t181 66q111 0 173 -66.5t62 -167.5q0 -69 -27.5 -123
t-84.5 -108l-211 -203h331q21 0 21 -20v-70q0 -21 -21 -21h-485q-20 0 -20 21z" />
    <glyph glyph-name="threequarters" unicode="&#xbe;" 
d="M193 215l770 684q9 6 14 6q8 0 16 -8l47 -55q7 -11 7 -15q0 -5 -9 -14l-770 -684q-9 -6 -14 -6q-8 0 -16 8l-48 55q-6 9 -6 15q0 5 9 14zM805 -385v125h-293q-20 0 -20 20v58q0 13 8 24l309 504q8 14 22 14h68q21 0 21 -20v-490h69q21 0 21 -20v-70q0 -20 -21 -20h-69
v-125q0 -21 -21 -21h-74q-20 0 -20 21zM805 137l-172 -287h172v287zM281 1034v70q0 20 20 20h31q131 0 131 121q0 45 -29 71.5t-82 26.5q-45 0 -75 -26.5t-37 -75.5q-3 -16 -21 -16h-72q-20 0 -20 18q6 89 67 146t158 57q105 0 165.5 -57t60.5 -134q0 -116 -89 -172
q119 -51 119 -192q0 -105 -70 -170.5t-180 -65.5q-105 0 -182.5 67t-77.5 167q0 20 21 20h76q17 0 20 -20q20 -123 141 -123q61 0 97 32.5t36 92.5q0 58 -36 90.5t-101 32.5h-51q-20 0 -20 20z" />
    <glyph glyph-name="questiondown" unicode="&#xbf;" 
d="M971 -31q-5 -165 -121 -280t-301 -115q-188 0 -295 101.5t-107 271.5q0 59 17.5 110.5t46 89t62.5 72t68 67t62.5 66t46 76.5t17.5 92v109q0 20 20 20h131q21 0 21 -20v-94q0 -65 -17.5 -121.5t-46 -97t-62.5 -76.5t-68 -68.5t-62.5 -64.5t-46 -73t-17.5 -87
q0 -98 60.5 -153.5t169.5 -55.5q101 0 171 61.5t83 169.5q3 21 20 21h127q21 0 21 -21zM653 786h-200q-21 0 -21 21v201q0 20 21 20h200q21 0 21 -20v-201q0 -21 -21 -21z" />
    <glyph glyph-name="Agrave" unicode="&#xc0;" 
d="M911 20l-112 386h-471l-113 -386q-5 -12 -9.5 -16t-15.5 -4h-139q-22 0 -22 20q0 9 2 13l428 1380q1 2 2.5 6t2 5.5t2 4t3.5 3.5t4.5 1.5t5.5 0.5h168q6 0 9.5 -2t5.5 -5t4 -9q1 -3 2 -5l428 -1380q2 -4 2 -13q0 -20 -23 -20h-139q-11 0 -15.5 4t-9.5 16zM563 1217
l-188 -648h377zM518 1819l125 -258q2 -4 2 -11q0 -10 -12 -10h-131q-21 0 -37 19l-193 260q-4 8 -4 10q0 10 15 10h204q20 0 31 -20z" />
    <glyph glyph-name="Aacute" unicode="&#xc1;" 
d="M911 20l-112 386h-471l-113 -386q-5 -12 -9.5 -16t-15.5 -4h-139q-22 0 -22 20q0 9 2 13l428 1380q1 2 2.5 6t2 5.5t2 4t3.5 3.5t4.5 1.5t5.5 0.5h168q6 0 9.5 -2t5.5 -5t4 -9q1 -3 2 -5l428 -1380q2 -4 2 -13q0 -20 -23 -20h-139q-11 0 -15.5 4t-9.5 16zM563 1217
l-188 -648h377zM485 1561l125 258q11 20 31 20h205q14 0 14 -10q0 -2 -4 -10l-192 -260q-14 -19 -37 -19h-131q-13 0 -13 10q0 7 2 11z" />
    <glyph glyph-name="Acircumflex" unicode="&#xc2;" 
d="M911 20l-112 386h-471l-113 -386q-5 -12 -9.5 -16t-15.5 -4h-139q-22 0 -22 20q0 9 2 13l428 1380q1 2 2.5 6t2 5.5t2 4t3.5 3.5t4.5 1.5t5.5 0.5h168q6 0 9.5 -2t5.5 -5t4 -9q1 -3 2 -5l428 -1380q2 -4 2 -13q0 -20 -23 -20h-139q-11 0 -15.5 4t-9.5 16zM563 1217
l-188 -648h377zM651 1823l199 -262q4 -8 4 -11q0 -10 -14 -10h-127q-18 0 -37 19l-113 122l-112 -122q-19 -19 -37 -19h-127q-15 0 -15 10q0 3 4 11l199 262q16 16 31 16h115q14 0 30 -16z" />
    <glyph glyph-name="Atilde" unicode="&#xc3;" 
d="M911 20l-112 386h-471l-113 -386q-5 -12 -9.5 -16t-15.5 -4h-139q-22 0 -22 20q0 9 2 13l428 1380q1 2 2.5 6t2 5.5t2 4t3.5 3.5t4.5 1.5t5.5 0.5h168q6 0 9.5 -2t5.5 -5t4 -9q1 -3 2 -5l428 -1380q2 -4 2 -13q0 -20 -23 -20h-139q-11 0 -15.5 4t-9.5 16zM563 1217
l-188 -648h377zM240 1761q105 78 196 78q48 0 84 -13t53.5 -29t45 -29t61.5 -13q28 0 54.5 11.5t70.5 39.5q12 4 14 4q11 0 21 -16l57 -86q4 -8 4 -10q0 -10 -14 -21q-105 -78 -197 -78q-48 0 -84 13t-53.5 29t-45 29t-61.5 13q-28 0 -53.5 -11t-70.5 -40q-12 -4 -15 -4
q-10 0 -20 17l-58 86q-4 8 -4 10q0 8 15 20z" />
    <glyph glyph-name="Adieresis" unicode="&#xc4;" 
d="M911 20l-112 386h-471l-113 -386q-5 -12 -9.5 -16t-15.5 -4h-139q-22 0 -22 20q0 9 2 13l428 1380q1 2 2.5 6t2 5.5t2 4t3.5 3.5t4.5 1.5t5.5 0.5h168q6 0 9.5 -2t5.5 -5t4 -9q1 -3 2 -5l428 -1380q2 -4 2 -13q0 -20 -23 -20h-139q-11 0 -15.5 4t-9.5 16zM563 1217
l-188 -648h377zM289 1647v172q0 20 20 20h172q21 0 21 -20v-172q0 -21 -21 -21h-172q-20 0 -20 21zM625 1647v172q0 20 20 20h172q21 0 21 -20v-172q0 -21 -21 -21h-172q-20 0 -20 21z" />
    <glyph glyph-name="Aring" unicode="&#xc5;" 
d="M911 20l-112 386h-471l-113 -386q-5 -12 -9.5 -16t-15.5 -4h-139q-22 0 -22 20q0 9 2 13l428 1380q1 2 2.5 6t2 5.5t2 4t3.5 3.5t4.5 1.5t5.5 0.5h168q6 0 9.5 -2t5.5 -5t4 -9q1 -3 2 -5l428 -1380q2 -4 2 -13q0 -20 -23 -20h-139q-11 0 -15.5 4t-9.5 16zM563 1217
l-188 -648h377zM385 1708q0 75 50 123.5t128 48.5t128 -48.5t50 -123.5t-50 -123.5t-128 -48.5t-128 48.5t-50 123.5zM483 1708q0 -38 22 -60t58 -22t58 22t22 60t-22 60t-58 22t-58 -22t-22 -60z" />
    <glyph glyph-name="AE" unicode="&#xc6;" 
d="M653 672v-508h420q21 0 21 -21v-123q0 -20 -21 -20h-571q-21 0 -21 20v386h-233l-86 -386q-5 -12 -9.5 -16t-15.5 -4h-133q-22 0 -22 20q0 9 2 13l335 1380q8 18 13 20q3 1 8 1h713q20 0 20 -21v-123q0 -20 -20 -20h-400v-434h351q20 0 20 -21v-123q0 -20 -20 -20h-351z
M440 1270l-155 -701h196v701h-41z" />
    <glyph glyph-name="Ccedilla" unicode="&#xc7;" 
d="M461 -211l-27 27q-4 4 -4 8q0 1 0.5 2.5t1.5 5t2 6.5l62 154q-186 38 -299 224.5t-113 500.5q0 182 40 324.5t110.5 231.5t163.5 135t202 46q200 0 329 -129t146 -344q0 -20 -22 -20h-125q-22 0 -25 20q-37 309 -303 309q-161 0 -248.5 -145t-87.5 -428t87.5 -428.5
t248.5 -145.5q265 0 303 310q3 20 25 20h125q22 0 22 -20q-17 -213 -142.5 -341t-324.5 -132l-55 -105q54 14 119 14q81 0 128.5 -39.5t47.5 -105.5q0 -170 -219 -170q-130 0 -203 20q-17 7 -19 13q-1 3 -1 8v59q0 21 20 21q4 0 69.5 -11.5t127.5 -11.5q42 0 66 17t24 47
q0 29 -24.5 46t-65.5 17q-66 0 -134 -14q-2 -2 -4 -2h-8q-10 0 -16 6z" />
    <glyph glyph-name="Egrave" unicode="&#xc8;" 
d="M334 672v-508h647q20 0 20 -21v-123q0 -20 -20 -20h-799q-20 0 -20 20v1393q0 21 20 21h785q20 0 20 -21v-123q0 -20 -20 -20h-633v-434h569q21 0 21 -21v-123q0 -20 -21 -20h-569zM569 1819l125 -258q2 -4 2 -11q0 -10 -12 -10h-131q-21 0 -37 19l-192 260l-5 10
q0 10 15 10h205q19 0 30 -20z" />
    <glyph glyph-name="Eacute" unicode="&#xc9;" 
d="M334 672v-508h647q20 0 20 -21v-123q0 -20 -20 -20h-799q-20 0 -20 20v1393q0 21 20 21h785q20 0 20 -21v-123q0 -20 -20 -20h-633v-434h569q21 0 21 -21v-123q0 -20 -21 -20h-569zM422 1561l125 258q11 20 31 20h204q15 0 15 -10q0 -2 -4 -10l-193 -260q-14 -19 -37 -19
h-131q-12 0 -12 10q0 7 2 11z" />
    <glyph glyph-name="Ecircumflex" unicode="&#xca;" 
d="M334 672v-508h647q20 0 20 -21v-123q0 -20 -20 -20h-799q-20 0 -20 20v1393q0 21 20 21h785q20 0 20 -21v-123q0 -20 -20 -20h-633v-434h569q21 0 21 -21v-123q0 -20 -21 -20h-569zM659 1823l199 -262q4 -8 4 -11q0 -10 -14 -10h-127q-18 0 -37 19l-113 122l-112 -122
q-19 -19 -37 -19h-127q-14 0 -14 10q0 3 4 11l198 262q16 16 31 16h115q14 0 30 -16z" />
    <glyph glyph-name="Edieresis" unicode="&#xcb;" 
d="M334 672v-508h647q20 0 20 -21v-123q0 -20 -20 -20h-799q-20 0 -20 20v1393q0 21 20 21h785q20 0 20 -21v-123q0 -20 -20 -20h-633v-434h569q21 0 21 -21v-123q0 -20 -21 -20h-569zM313 1647v172q0 20 21 20h172q20 0 20 -20v-172q0 -21 -20 -21h-172q-21 0 -21 21z
M649 1647v172q0 20 21 20h172q20 0 20 -20v-172q0 -21 -20 -21h-172q-21 0 -21 21z" />
    <glyph glyph-name="Igrave" unicode="&#xcc;" 
d="M180 1290v123q0 21 21 21h725q20 0 20 -21v-123q0 -20 -20 -20h-277v-1106h297q21 0 21 -21v-123q0 -20 -21 -20h-766q-20 0 -20 20v123q0 21 20 21h297v1106h-276q-21 0 -21 20zM559 1819l125 -258q2 -4 2 -11q0 -10 -12 -10h-131q-21 0 -37 19l-193 260q-4 8 -4 10
q0 10 15 10h204q20 0 31 -20z" />
    <glyph glyph-name="Iacute" unicode="&#xcd;" 
d="M180 1290v123q0 21 21 21h725q20 0 20 -21v-123q0 -20 -20 -20h-277v-1106h297q21 0 21 -21v-123q0 -20 -21 -20h-766q-20 0 -20 20v123q0 21 20 21h297v1106h-276q-21 0 -21 20zM442 1561l125 258q11 20 31 20h205q14 0 14 -10q0 -2 -4 -10l-192 -260q-14 -19 -37 -19
h-131q-13 0 -13 10q0 7 2 11z" />
    <glyph glyph-name="Icircumflex" unicode="&#xce;" 
d="M180 1290v123q0 21 21 21h725q20 0 20 -21v-123q0 -20 -20 -20h-277v-1106h297q21 0 21 -21v-123q0 -20 -21 -20h-766q-20 0 -20 20v123q0 21 20 21h297v1106h-276q-21 0 -21 20zM651 1823l199 -262q4 -8 4 -11q0 -10 -14 -10h-127q-18 0 -37 19l-113 122l-112 -122
q-19 -19 -37 -19h-127q-15 0 -15 10q0 3 4 11l199 262q16 16 31 16h115q14 0 30 -16z" />
    <glyph glyph-name="Idieresis" unicode="&#xcf;" 
d="M180 1290v123q0 21 21 21h725q20 0 20 -21v-123q0 -20 -20 -20h-277v-1106h297q21 0 21 -21v-123q0 -20 -21 -20h-766q-20 0 -20 20v123q0 21 20 21h297v1106h-276q-21 0 -21 20zM289 1647v172q0 20 20 20h172q21 0 21 -20v-172q0 -21 -21 -21h-172q-20 0 -20 21z
M625 1647v172q0 20 20 20h172q21 0 21 -20v-172q0 -21 -21 -21h-172q-20 0 -20 21z" />
    <glyph glyph-name="Eth" unicode="&#xd0;" 
d="M158 20v617h-109q-20 0 -20 20v119q0 21 20 21h109v616q0 21 20 21h285q272 0 435 -183t163 -534t-163 -534t-435 -183h-285q-20 0 -20 20zM330 164h133q202 0 310 137t108 416t-108 416t-310 137h-133v-473h211q20 0 20 -21v-119q0 -20 -20 -20h-211v-473z" />
    <glyph glyph-name="Ntilde" unicode="&#xd1;" 
d="M989 0h-166q-25 0 -32 16l-502 1102v-1098q0 -20 -21 -20h-131q-20 0 -20 20v1393q0 21 20 21h166q26 0 33 -17l502 -1102v1098q0 21 20 21h131q21 0 21 -21v-1393q0 -20 -21 -20zM240 1761q105 78 196 78q48 0 84 -13t53.5 -29t45 -29t61.5 -13q28 0 54.5 11.5
t70.5 39.5q12 4 14 4q11 0 21 -16l57 -86q4 -8 4 -10q0 -10 -14 -21q-105 -78 -197 -78q-48 0 -84 13t-53.5 29t-45 29t-61.5 13q-28 0 -53.5 -11t-70.5 -40q-12 -4 -15 -4q-10 0 -20 17l-58 86q-4 8 -4 10q0 8 15 20z" />
    <glyph glyph-name="Ograve" unicode="&#xd2;" 
d="M563 -20q-229 0 -365.5 191.5t-136.5 545.5t136.5 545.5t365.5 191.5t365.5 -191.5t136.5 -545.5t-136.5 -545.5t-365.5 -191.5zM563 143q322 0 322 574q0 573 -322 573q-321 0 -321 -573q0 -574 321 -574zM547 1819l125 -258q2 -4 2 -11q0 -10 -12 -10h-132
q-20 0 -36 19l-193 260q-4 8 -4 10q0 10 14 10h205q20 0 31 -20z" />
    <glyph glyph-name="Oacute" unicode="&#xd3;" 
d="M563 -20q-229 0 -365.5 191.5t-136.5 545.5t136.5 545.5t365.5 191.5t365.5 -191.5t136.5 -545.5t-136.5 -545.5t-365.5 -191.5zM563 143q322 0 322 574q0 573 -322 573q-321 0 -321 -573q0 -574 321 -574zM440 1561l125 258q11 20 31 20h205q14 0 14 -10q0 -2 -4 -10
l-193 -260q-14 -19 -36 -19h-131q-13 0 -13 10q0 7 2 11z" />
    <glyph glyph-name="Ocircumflex" unicode="&#xd4;" 
d="M563 -20q-229 0 -365.5 191.5t-136.5 545.5t136.5 545.5t365.5 191.5t365.5 -191.5t136.5 -545.5t-136.5 -545.5t-365.5 -191.5zM563 143q322 0 322 574q0 573 -322 573q-321 0 -321 -573q0 -574 321 -574zM651 1823l199 -262q4 -8 4 -11q0 -10 -14 -10h-127
q-18 0 -37 19l-113 122l-112 -122q-19 -19 -37 -19h-127q-15 0 -15 10q0 3 4 11l199 262q16 16 31 16h115q14 0 30 -16z" />
    <glyph glyph-name="Otilde" unicode="&#xd5;" 
d="M563 -20q-229 0 -365.5 191.5t-136.5 545.5t136.5 545.5t365.5 191.5t365.5 -191.5t136.5 -545.5t-136.5 -545.5t-365.5 -191.5zM563 143q322 0 322 574q0 573 -322 573q-321 0 -321 -573q0 -574 321 -574zM240 1761q105 78 196 78q48 0 84 -13t53.5 -29t45 -29t61.5 -13
q28 0 54.5 11.5t70.5 39.5q12 4 14 4q11 0 21 -16l57 -86q4 -8 4 -10q0 -10 -14 -21q-105 -78 -197 -78q-48 0 -84 13t-53.5 29t-45 29t-61.5 13q-28 0 -53.5 -11t-70.5 -40q-12 -4 -15 -4q-10 0 -20 17l-58 86q-4 8 -4 10q0 8 15 20z" />
    <glyph glyph-name="Odieresis" unicode="&#xd6;" 
d="M563 -20q-229 0 -365.5 191.5t-136.5 545.5t136.5 545.5t365.5 191.5t365.5 -191.5t136.5 -545.5t-136.5 -545.5t-365.5 -191.5zM563 143q322 0 322 574q0 573 -322 573q-321 0 -321 -573q0 -574 321 -574zM289 1647v172q0 20 20 20h172q21 0 21 -20v-172q0 -21 -21 -21
h-172q-20 0 -20 21zM625 1647v172q0 20 20 20h172q21 0 21 -20v-172q0 -21 -21 -21h-172q-20 0 -20 21z" />
    <glyph glyph-name="multiply" unicode="&#xd7;" 
d="M895 918l-219 -218l219 -217q8 -8 8 -14q0 -8 -8 -16l-84 -84q-9 -9 -14 -9q-6 0 -15 9l-219 219l-221 -221q-7 -7 -12 -7q-6 0 -15 9l-84 84q-8 8 -8 16q0 6 6 12l222 219l-220 218q-8 8 -8 14q0 8 8 16l84 84q8 8 15 8q6 0 14 -8l219 -219l219 219q8 8 15 8q6 0 14 -8
l84 -84q8 -8 8 -16q0 -6 -8 -14z" />
    <glyph glyph-name="Oslash" unicode="&#xd8;" 
d="M563 -20q-179 0 -301 116l-84 -145q-9 -12 -16 -12l-12 4l-56 32q-12 9 -12 17q0 1 0.5 2.5l1.5 4.5t2 5l104 178q-129 197 -129 535q0 354 136.5 545.5t365.5 191.5q178 0 301 -117l84 146q9 12 17 12q1 0 2.5 -0.5l4.5 -1.5t5 -2l55 -33q12 -9 12 -16l-4 -12l-104 -179
q129 -197 129 -534q0 -354 -136.5 -545.5t-365.5 -191.5zM242 717q0 -227 49 -361l485 832q-77 102 -213 102q-321 0 -321 -573zM563 143q322 0 322 574q0 226 -49 360l-486 -831q77 -103 213 -103z" />
    <glyph glyph-name="Ugrave" unicode="&#xd9;" 
d="M109 473v940q0 21 20 21h131q21 0 21 -21v-917q0 -176 68.5 -264.5t213.5 -88.5q146 0 214.5 88.5t68.5 264.5v917q0 21 20 21h131q21 0 21 -21v-940q0 -230 -129.5 -361.5t-325.5 -131.5q-199 0 -326.5 131t-127.5 362zM567 1819l125 -258q2 -4 2 -11q0 -10 -12 -10
h-131q-21 0 -37 19l-192 260l-5 10q0 10 15 10h205q19 0 30 -20z" />
    <glyph glyph-name="Uacute" unicode="&#xda;" 
d="M109 473v940q0 21 20 21h131q21 0 21 -21v-917q0 -176 68.5 -264.5t213.5 -88.5q146 0 214.5 88.5t68.5 264.5v917q0 21 20 21h131q21 0 21 -21v-940q0 -230 -129.5 -361.5t-325.5 -131.5q-199 0 -326.5 131t-127.5 362zM428 1561l125 258q11 20 31 20h204q15 0 15 -10
q0 -2 -4 -10l-193 -260q-14 -19 -37 -19h-131q-12 0 -12 10q0 7 2 11z" />
    <glyph glyph-name="Ucircumflex" unicode="&#xdb;" 
d="M109 473v940q0 21 20 21h131q21 0 21 -21v-917q0 -176 68.5 -264.5t213.5 -88.5q146 0 214.5 88.5t68.5 264.5v917q0 21 20 21h131q21 0 21 -21v-940q0 -230 -129.5 -361.5t-325.5 -131.5q-199 0 -326.5 131t-127.5 362zM651 1823l199 -262q4 -8 4 -11q0 -10 -14 -10
h-127q-18 0 -37 19l-113 122l-112 -122q-19 -19 -37 -19h-127q-15 0 -15 10q0 3 4 11l199 262q16 16 31 16h115q14 0 30 -16z" />
    <glyph glyph-name="Udieresis" unicode="&#xdc;" 
d="M109 473v940q0 21 20 21h131q21 0 21 -21v-917q0 -176 68.5 -264.5t213.5 -88.5q146 0 214.5 88.5t68.5 264.5v917q0 21 20 21h131q21 0 21 -21v-940q0 -230 -129.5 -361.5t-325.5 -131.5q-199 0 -326.5 131t-127.5 362zM289 1647v172q0 20 20 20h172q21 0 21 -20v-172
q0 -21 -21 -21h-172q-20 0 -20 21zM625 1647v172q0 20 20 20h172q21 0 21 -20v-172q0 -21 -21 -21h-172q-20 0 -20 21z" />
    <glyph glyph-name="Yacute" unicode="&#xdd;" 
d="M1055 1413l-406 -780v-613q0 -20 -20 -20h-131q-21 0 -21 20v613l-405 780q-2 2 -2 8q0 13 12 13h158q3 0 6 -0.5t4.5 -1.5t3.5 -3t2.5 -3t3 -4.5t2.5 -4.5l301 -594l301 594q10 17 23 17h157q13 0 13 -13q0 -6 -2 -8zM436 1561l125 258q11 20 31 20h205q14 0 14 -10
q0 -2 -4 -10l-193 -260q-14 -19 -36 -19h-132q-12 0 -12 10q0 7 2 11z" />
    <glyph glyph-name="Thorn" unicode="&#xde;" 
d="M174 20v1393q0 21 21 21h131q20 0 20 -21v-297h248q215 0 335 -107t120 -292t-120 -292.5t-335 -107.5h-248v-297q0 -20 -20 -20h-131q-21 0 -21 20zM346 952v-471h279q243 0 243 236q0 235 -243 235h-279z" />
    <glyph glyph-name="germandbls" unicode="&#xdf;" 
d="M752 -20q-127 0 -217.5 78.5t-94.5 197.5q0 20 21 20h119q17 0 20 -20q12 -60 52 -92.5t100 -32.5q75 0 116 46.5t41 137.5q0 53 -17.5 93.5t-46 67t-63 49t-68.5 45t-62.5 49t-46 67.5t-17.5 94q0 49 18 90.5t44 71t52 57.5t44 63t18 75q0 73 -53 119.5t-138 46.5
q-93 0 -145.5 -59.5t-52.5 -172.5v-1051q0 -20 -21 -20h-118q-21 0 -21 20v857h-127q-20 0 -20 20v111q0 20 20 20h127v66q0 96 40.5 176.5t124 132t193.5 51.5q162 0 256.5 -87.5t94.5 -221.5q0 -60 -18 -109t-44 -80t-52 -57.5t-44 -54.5t-18 -58q0 -33 24.5 -63t61 -53
t79 -55.5t79 -68.5t61 -95t24.5 -132q0 -150 -87.5 -244.5t-237.5 -94.5z" />
    <glyph glyph-name="agrave" unicode="&#xe0;" 
d="M326 729h-131q-15 0 -15 12q0 13 2 21q30 121 137.5 204t266.5 83q191 0 291 -99.5t100 -269.5v-483q0 -70 7 -105.5t28 -71.5q2 -2 2 -10q0 -10 -17 -10h-159q-21 0 -21 20v101q-117 -141 -328 -141q-142 0 -244 90t-102 239q0 83 31.5 149t84.5 106.5t120.5 61.5
t142.5 21q57 0 108 -6t84 -13t103 -24v64q0 229 -231 229q-174 0 -232 -149q-7 -19 -28 -19zM817 453q-157 43 -270 43q-109 0 -172.5 -46t-63.5 -141q0 -79 59 -128.5t148 -49.5q134 0 216.5 90t82.5 232zM565 1413l125 -258q2 -4 2 -10q0 -10 -12 -10h-131q-22 0 -37 18
l-193 260q-4 8 -4 10q0 11 15 11h205q18 0 30 -21z" />
    <glyph glyph-name="aacute" unicode="&#xe1;" 
d="M326 729h-131q-15 0 -15 12q0 13 2 21q30 121 137.5 204t266.5 83q191 0 291 -99.5t100 -269.5v-483q0 -70 7 -105.5t28 -71.5q2 -2 2 -10q0 -10 -17 -10h-159q-21 0 -21 20v101q-117 -141 -328 -141q-142 0 -244 90t-102 239q0 83 31.5 149t84.5 106.5t120.5 61.5
t142.5 21q57 0 108 -6t84 -13t103 -24v64q0 229 -231 229q-174 0 -232 -149q-7 -19 -28 -19zM817 453q-157 43 -270 43q-109 0 -172.5 -46t-63.5 -141q0 -79 59 -128.5t148 -49.5q134 0 216.5 90t82.5 232zM446 1155l125 258q12 21 31 21h205q14 0 14 -11q0 -2 -4 -10
l-192 -260q-13 -18 -37 -18h-131q-13 0 -13 10q0 6 2 10z" />
    <glyph glyph-name="acircumflex" unicode="&#xe2;" 
d="M326 729h-131q-15 0 -15 12q0 13 2 21q30 121 137.5 204t266.5 83q191 0 291 -99.5t100 -269.5v-483q0 -70 7 -105.5t28 -71.5q2 -2 2 -10q0 -10 -17 -10h-159q-21 0 -21 20v101q-117 -141 -328 -141q-142 0 -244 90t-102 239q0 83 31.5 149t84.5 106.5t120.5 61.5
t142.5 21q57 0 108 -6t84 -13t103 -24v64q0 229 -231 229q-174 0 -232 -149q-7 -19 -28 -19zM817 453q-157 43 -270 43q-109 0 -172.5 -46t-63.5 -141q0 -79 59 -128.5t148 -49.5q134 0 216.5 90t82.5 232zM676 1417l198 -262l5 -10q0 -10 -15 -10h-127q-19 0 -37 18
l-112 123l-113 -123q-18 -18 -37 -18h-127q-14 0 -14 10q0 2 4 10l199 262q17 17 30 17h115q14 0 31 -17z" />
    <glyph glyph-name="atilde" unicode="&#xe3;" 
d="M326 729h-131q-15 0 -15 12q0 13 2 21q30 121 137.5 204t266.5 83q191 0 291 -99.5t100 -269.5v-483q0 -70 7 -105.5t28 -71.5q2 -2 2 -10q0 -10 -17 -10h-159q-21 0 -21 20v101q-117 -141 -328 -141q-142 0 -244 90t-102 239q0 83 31.5 149t84.5 106.5t120.5 61.5
t142.5 21q57 0 108 -6t84 -13t103 -24v64q0 229 -231 229q-174 0 -232 -149q-7 -19 -28 -19zM817 453q-157 43 -270 43q-109 0 -172.5 -46t-63.5 -141q0 -79 59 -128.5t148 -49.5q134 0 216.5 90t82.5 232zM279 1356q105 78 196 78q48 0 84 -13t53.5 -29t45 -29t61.5 -13
q28 0 54.5 11.5t70.5 39.5q12 4 14 4q11 0 21 -16l57 -86q4 -8 4 -11q0 -9 -14 -20q-105 -78 -197 -78q-48 0 -84 13t-53.5 29t-45 29t-61.5 13q-28 0 -54.5 -11.5t-70.5 -39.5q-12 -4 -14 -4q-10 0 -20 16l-58 86q-4 8 -4 10q0 9 15 21z" />
    <glyph glyph-name="adieresis" unicode="&#xe4;" 
d="M326 729h-131q-15 0 -15 12q0 13 2 21q30 121 137.5 204t266.5 83q191 0 291 -99.5t100 -269.5v-483q0 -70 7 -105.5t28 -71.5q2 -2 2 -10q0 -10 -17 -10h-159q-21 0 -21 20v101q-117 -141 -328 -141q-142 0 -244 90t-102 239q0 83 31.5 149t84.5 106.5t120.5 61.5
t142.5 21q57 0 108 -6t84 -13t103 -24v64q0 229 -231 229q-174 0 -232 -149q-7 -19 -28 -19zM817 453q-157 43 -270 43q-109 0 -172.5 -46t-63.5 -141q0 -79 59 -128.5t148 -49.5q134 0 216.5 90t82.5 232zM330 1241v172q0 21 20 21h172q21 0 21 -21v-172q0 -20 -21 -20
h-172q-20 0 -20 20zM666 1241v172q0 21 20 21h172q21 0 21 -21v-172q0 -20 -21 -20h-172q-20 0 -20 20z" />
    <glyph glyph-name="aring" unicode="&#xe5;" 
d="M326 729h-131q-15 0 -15 12q0 13 2 21q30 121 137.5 204t266.5 83q191 0 291 -99.5t100 -269.5v-483q0 -70 7 -105.5t28 -71.5q2 -2 2 -10q0 -10 -17 -10h-159q-21 0 -21 20v101q-117 -141 -328 -141q-142 0 -244 90t-102 239q0 83 31.5 149t84.5 106.5t120.5 61.5
t142.5 21q57 0 108 -6t84 -13t103 -24v64q0 229 -231 229q-174 0 -232 -149q-7 -19 -28 -19zM817 453q-157 43 -270 43q-109 0 -172.5 -46t-63.5 -141q0 -79 59 -128.5t148 -49.5q134 0 216.5 90t82.5 232zM408 1303q0 75 50 123.5t128 48.5t128 -48.5t50 -123.5t-50 -124
t-128 -49t-128 49t-50 124zM506 1303q0 -38 22 -60t58 -22t58 22t22 60t-22 59.5t-58 21.5t-58 -21.5t-22 -59.5z" />
    <glyph glyph-name="ae" unicode="&#xe6;" 
d="M541 1049h41q118 0 212.5 -43t154 -117t91 -170t31.5 -205v-29q0 -20 -20 -20h-412v-334q91 0 145.5 45.5t87.5 142.5q7 19 29 19h133q15 0 15 -14q0 -9 -5 -21q-105 -323 -456 -323h-78q-207 0 -321.5 81t-114.5 234q0 105 58 179.5t145.5 108t193.5 33.5h8v277
q-147 -14 -198 -152q-7 -18 -29 -18h-131q-15 0 -15 12q0 9 3 21q13 53 48.5 104.5t89.5 94t131 68.5t163 26zM242 295q0 -79 55 -121.5t162 -42.5h20v334q-237 0 -237 -170zM639 616h252q-18 124 -82.5 202.5t-169.5 78.5v-281z" />
    <glyph glyph-name="ccedilla" unicode="&#xe7;" 
d="M432 -211l-26 27q-5 5 -5 8q0 1 1 2.5t2 5t2 6.5l63 156q-164 41 -255 180.5t-91 339.5q0 235 126 385t341 150q173 0 280 -92.5t144 -249.5q2 -8 2 -21q0 -12 -15 -12h-124q-22 0 -29 18q-58 205 -258 205q-139 0 -219 -104.5t-80 -278.5t80 -278.5t219 -104.5
q200 0 258 205q7 18 29 18h124q15 0 15 -12t-2 -20q-37 -157 -144 -249.5t-280 -92.5h-10l-56 -105q54 14 119 14q81 0 128.5 -39.5t47.5 -105.5q0 -170 -219 -170q-130 0 -203 20q-17 7 -19 13q-1 3 -1 8v59q0 21 20 21q4 0 69.5 -11.5t127.5 -11.5q42 0 66 17t24 47
q0 29 -24.5 46t-65.5 17q-65 0 -133 -14q-2 -2 -4 -2h-8q-11 0 -17 6z" />
    <glyph glyph-name="egrave" unicode="&#xe8;" 
d="M1008 465h-715q8 -151 83 -242.5t208 -91.5q101 0 158.5 46t91.5 142q7 19 28 19h133q15 0 15 -14q0 -12 -4 -21q-53 -159 -154.5 -241t-267.5 -82q-145 0 -251.5 71.5t-159 191t-52.5 271.5q0 229 129.5 382t333.5 153q110 0 196.5 -43t139.5 -117.5t80.5 -169.5
t27.5 -205v-29q0 -20 -20 -20zM584 897q-110 0 -185 -73.5t-98 -207.5h555q-23 131 -95 206t-177 75zM545 1413l125 -258q2 -4 2 -10q0 -10 -13 -10h-131q-21 0 -36 18l-193 260q-4 8 -4 10q0 11 14 11h205q19 0 31 -21z" />
    <glyph glyph-name="eacute" unicode="&#xe9;" 
d="M1008 465h-715q8 -151 83 -242.5t208 -91.5q101 0 158.5 46t91.5 142q7 19 28 19h133q15 0 15 -14q0 -12 -4 -21q-53 -159 -154.5 -241t-267.5 -82q-145 0 -251.5 71.5t-159 191t-52.5 271.5q0 229 129.5 382t333.5 153q110 0 196.5 -43t139.5 -117.5t80.5 -169.5
t27.5 -205v-29q0 -20 -20 -20zM584 897q-110 0 -185 -73.5t-98 -207.5h555q-23 131 -95 206t-177 75zM434 1155l125 258q12 21 31 21h205q14 0 14 -11q0 -2 -4 -10l-193 -260q-13 -18 -37 -18h-131q-12 0 -12 10q0 6 2 10z" />
    <glyph glyph-name="ecircumflex" unicode="&#xea;" 
d="M1008 465h-715q8 -151 83 -242.5t208 -91.5q101 0 158.5 46t91.5 142q7 19 28 19h133q15 0 15 -14q0 -12 -4 -21q-53 -159 -154.5 -241t-267.5 -82q-145 0 -251.5 71.5t-159 191t-52.5 271.5q0 229 129.5 382t333.5 153q110 0 196.5 -43t139.5 -117.5t80.5 -169.5
t27.5 -205v-29q0 -20 -20 -20zM584 897q-110 0 -185 -73.5t-98 -207.5h555q-23 131 -95 206t-177 75zM672 1417l198 -262q4 -8 4 -10q0 -10 -14 -10h-127q-19 0 -37 18l-112 123l-113 -123q-18 -18 -37 -18h-127q-14 0 -14 10q0 2 4 10l199 262q17 17 30 17h115q14 0 31 -17
z" />
    <glyph glyph-name="edieresis" unicode="&#xeb;" 
d="M1008 465h-715q8 -151 83 -242.5t208 -91.5q101 0 158.5 46t91.5 142q7 19 28 19h133q15 0 15 -14q0 -12 -4 -21q-53 -159 -154.5 -241t-267.5 -82q-145 0 -251.5 71.5t-159 191t-52.5 271.5q0 229 129.5 382t333.5 153q110 0 196.5 -43t139.5 -117.5t80.5 -169.5
t27.5 -205v-29q0 -20 -20 -20zM584 897q-110 0 -185 -73.5t-98 -207.5h555q-23 131 -95 206t-177 75zM289 1241v172q0 21 20 21h172q21 0 21 -21v-172q0 -20 -21 -20h-172q-20 0 -20 20zM625 1241v172q0 21 20 21h172q21 0 21 -21v-172q0 -20 -21 -20h-172q-20 0 -20 20z
" />
    <glyph glyph-name="igrave" unicode="&#xec;" 
d="M229 901v107q0 20 21 20h409q21 0 21 -20v-856h321q21 0 21 -21v-111q0 -20 -21 -20h-802q-21 0 -21 20v111q0 21 21 21h321v729h-270q-21 0 -21 20zM561 1413l125 -258q2 -4 2 -10q0 -10 -12 -10h-131q-22 0 -37 18l-193 260q-4 8 -4 10q0 11 15 11h204q19 0 31 -21z
" />
    <glyph glyph-name="iacute" unicode="&#xed;" 
d="M229 901v107q0 20 21 20h409q21 0 21 -20v-856h321q21 0 21 -21v-111q0 -20 -21 -20h-802q-21 0 -21 20v111q0 21 21 21h321v729h-270q-21 0 -21 20zM473 1155l125 258q12 21 31 21h205q14 0 14 -11q0 -2 -4 -10l-193 -260q-13 -18 -37 -18h-131q-12 0 -12 10q0 6 2 10z
" />
    <glyph glyph-name="icircumflex" unicode="&#xee;" 
d="M229 901v107q0 20 21 20h409q21 0 21 -20v-856h321q21 0 21 -21v-111q0 -20 -21 -20h-802q-21 0 -21 20v111q0 21 21 21h321v729h-270q-21 0 -21 20zM672 1417l198 -262q4 -8 4 -10q0 -10 -14 -10h-127q-19 0 -37 18l-112 123l-113 -123q-18 -18 -37 -18h-127
q-14 0 -14 10q0 2 4 10l199 262q17 17 30 17h115q14 0 31 -17z" />
    <glyph glyph-name="idieresis" unicode="&#xef;" 
d="M229 901v107q0 20 21 20h409q21 0 21 -20v-856h321q21 0 21 -21v-111q0 -20 -21 -20h-802q-21 0 -21 20v111q0 21 21 21h321v729h-270q-21 0 -21 20zM295 1241v172q0 21 20 21h172q21 0 21 -21v-172q0 -20 -21 -20h-172q-20 0 -20 20zM631 1241v172q0 21 20 21h172
q21 0 21 -21v-172q0 -20 -21 -20h-172q-20 0 -20 20z" />
    <glyph glyph-name="eth" unicode="&#xf0;" 
d="M410 1096l-37 96q-2 4 -2 10q0 11 14 17l107 41q-61 21 -201 36q-17 3 -17 25l19 109q2 14 29 14q217 -23 374 -109l176 76q4 2 11 2q13 0 16 -12l37 -96v-5q0 -1 1 -3t1 -3q0 -10 -14 -16l-103 -43q90 -90 137.5 -255.5t47.5 -358.5q0 -166 -35.5 -291.5t-99 -200.5
t-146 -112t-182.5 -37q-197 0 -329 147.5t-132 386.5q0 243 125 389t330 146q170 0 260 -103q-17 83 -51.5 134.5t-92.5 88.5l-217 -84q-2 -2 -4 -2h-8q-11 0 -14 13zM250 514q0 -383 293 -383q144 0 219.5 100.5t75.5 282.5q0 178 -78 280.5t-217 102.5q-147 0 -220 -102
t-73 -281z" />
    <glyph glyph-name="ntilde" unicode="&#xf1;" 
d="M184 20v988q0 20 21 20h119q20 0 20 -20v-107q127 148 305 148q160 0 242 -83t82 -237v-709q0 -20 -21 -20h-118q-21 0 -21 20v682q0 195 -197 195q-118 0 -195 -96t-77 -260v-521q0 -20 -20 -20h-119q-21 0 -21 20zM262 1356q105 78 197 78q40 0 70 -8.5t48.5 -21
t35.5 -25t39 -21t50 -8.5t54.5 11.5t70.5 39.5q12 4 15 4q10 0 20 -16l58 -86q4 -8 4 -11q0 -8 -15 -20q-105 -78 -196 -78q-48 0 -84 13t-53.5 29t-45 29t-61.5 13q-28 0 -54.5 -11.5t-70.5 -39.5q-12 -4 -14 -4q-11 0 -21 16l-57 86q-4 8 -4 10q0 10 14 21z" />
    <glyph glyph-name="ograve" unicode="&#xf2;" 
d="M86 514q0 245 131 390t346 145q214 0 345.5 -145.5t131.5 -389.5t-131.5 -389t-345.5 -145q-215 0 -346 145t-131 389zM254 514q0 -173 83.5 -278t225.5 -105t225.5 105t83.5 278t-83.5 278t-225.5 105t-225.5 -105t-83.5 -278zM541 1413l125 -258q2 -4 2 -10
q0 -10 -13 -10h-131q-22 0 -37 18l-192 260q-4 8 -4 10q0 11 14 11h205q19 0 31 -21z" />
    <glyph glyph-name="oacute" unicode="&#xf3;" 
d="M86 514q0 245 131 390t346 145q214 0 345.5 -145.5t131.5 -389.5t-131.5 -389t-345.5 -145q-215 0 -346 145t-131 389zM254 514q0 -173 83.5 -278t225.5 -105t225.5 105t83.5 278t-83.5 278t-225.5 105t-225.5 -105t-83.5 -278zM446 1155l125 258q12 21 31 21h205
q14 0 14 -11q0 -2 -4 -10l-192 -260q-13 -18 -37 -18h-131q-13 0 -13 10q0 6 2 10z" />
    <glyph glyph-name="ocircumflex" unicode="&#xf4;" 
d="M86 514q0 245 131 390t346 145q214 0 345.5 -145.5t131.5 -389.5t-131.5 -389t-345.5 -145q-215 0 -346 145t-131 389zM254 514q0 -173 83.5 -278t225.5 -105t225.5 105t83.5 278t-83.5 278t-225.5 105t-225.5 -105t-83.5 -278zM651 1417l199 -262q4 -8 4 -10
q0 -10 -14 -10h-127q-19 0 -37 18l-113 123l-112 -123q-18 -18 -37 -18h-127q-15 0 -15 10q0 2 4 10l199 262q17 17 31 17h115q13 0 30 -17z" />
    <glyph glyph-name="otilde" unicode="&#xf5;" 
d="M86 514q0 245 131 390t346 145q214 0 345.5 -145.5t131.5 -389.5t-131.5 -389t-345.5 -145q-215 0 -346 145t-131 389zM254 514q0 -173 83.5 -278t225.5 -105t225.5 105t83.5 278t-83.5 278t-225.5 105t-225.5 -105t-83.5 -278zM240 1356q105 78 196 78q48 0 84 -13
t53.5 -29t45 -29t61.5 -13q28 0 54.5 11.5t70.5 39.5q12 4 14 4q11 0 21 -16l57 -86q4 -8 4 -11q0 -9 -14 -20q-105 -78 -197 -78q-48 0 -84 13t-53.5 29t-45 29t-61.5 13q-28 0 -53.5 -11t-70.5 -40q-12 -4 -15 -4q-10 0 -20 16l-58 86q-4 8 -4 10q0 9 15 21z" />
    <glyph glyph-name="odieresis" unicode="&#xf6;" 
d="M86 514q0 245 131 390t346 145q214 0 345.5 -145.5t131.5 -389.5t-131.5 -389t-345.5 -145q-215 0 -346 145t-131 389zM254 514q0 -173 83.5 -278t225.5 -105t225.5 105t83.5 278t-83.5 278t-225.5 105t-225.5 -105t-83.5 -278zM289 1241v172q0 21 20 21h172q21 0 21 -21
v-172q0 -20 -21 -20h-172q-20 0 -20 20zM625 1241v172q0 21 20 21h172q21 0 21 -21v-172q0 -20 -21 -20h-172q-20 0 -20 20z" />
    <glyph glyph-name="divide" unicode="&#xf7;" 
d="M459 332h209q20 0 20 -21v-209q0 -20 -20 -20h-209q-21 0 -21 20v209q0 21 21 21zM459 1049h209q20 0 20 -21v-209q0 -20 -20 -20h-209q-21 0 -21 20v209q0 21 21 21zM172 645h780q21 0 21 -20v-119q0 -21 -21 -21h-780q-20 0 -20 21v119q0 20 20 20z" />
    <glyph glyph-name="oslash" unicode="&#xf8;" 
d="M86 514q0 245 131 390t346 145q115 0 221 -50l52 88q10 13 16 13l12 -4l56 -33q12 -9 12 -16q0 -1 -4 -13l-56 -94q168 -146 168 -426q0 -244 -131.5 -389t-345.5 -145q-117 0 -221 49l-51 -88q-10 -13 -17 -13l-12 4l-55 33q-12 9 -12 17l4 12l55 94q-168 146 -168 426z
M254 514q0 -177 84 -281l367 631q-56 33 -142 33q-142 0 -225.5 -105t-83.5 -278zM872 514q0 177 -84 281l-366 -631q56 -33 141 -33q142 0 225.5 105t83.5 278z" />
    <glyph glyph-name="ugrave" unicode="&#xf9;" 
d="M948 1008v-988q0 -20 -20 -20h-119q-21 0 -21 20v107q-126 -147 -305 -147q-160 0 -241.5 82.5t-81.5 236.5v709q0 20 20 20h119q20 0 20 -20v-682q0 -195 197 -195q118 0 195 96t77 260v521q0 20 21 20h119q20 0 20 -20zM580 1413l125 -258q2 -4 2 -10q0 -10 -13 -10
h-131q-22 0 -37 18l-192 260q-4 8 -4 10q0 11 14 11h205q19 0 31 -21z" />
    <glyph glyph-name="uacute" unicode="&#xfa;" 
d="M948 1008v-988q0 -20 -20 -20h-119q-21 0 -21 20v107q-126 -147 -305 -147q-160 0 -241.5 82.5t-81.5 236.5v709q0 20 20 20h119q20 0 20 -20v-682q0 -195 197 -195q118 0 195 96t77 260v521q0 20 21 20h119q20 0 20 -20zM393 1155l125 258q12 21 31 21h205q14 0 14 -11
q0 -2 -4 -10l-193 -260q-13 -18 -36 -18h-132q-12 0 -12 10q0 6 2 10z" />
    <glyph glyph-name="ucircumflex" unicode="&#xfb;" 
d="M948 1008v-988q0 -20 -20 -20h-119q-21 0 -21 20v107q-126 -147 -305 -147q-160 0 -241.5 82.5t-81.5 236.5v709q0 20 20 20h119q20 0 20 -20v-682q0 -195 197 -195q118 0 195 96t77 260v521q0 20 21 20h119q20 0 20 -20zM639 1417l199 -262q4 -8 4 -10q0 -10 -15 -10
h-127q-13 0 -18.5 3.5t-17.5 14.5l-113 123l-113 -123q-18 -18 -37 -18h-127q-14 0 -14 10q0 2 4 10l199 262q17 17 31 17h114q14 0 31 -17z" />
    <glyph glyph-name="udieresis" unicode="&#xfc;" 
d="M948 1008v-988q0 -20 -20 -20h-119q-21 0 -21 20v107q-126 -147 -305 -147q-160 0 -241.5 82.5t-81.5 236.5v709q0 20 20 20h119q20 0 20 -20v-682q0 -195 197 -195q118 0 195 96t77 260v521q0 20 21 20h119q20 0 20 -20zM293 1241v172q0 21 20 21h172q21 0 21 -21v-172
q0 -20 -21 -20h-172q-20 0 -20 20zM629 1241v172q0 21 20 21h172q21 0 21 -21v-172q0 -20 -21 -20h-172q-20 0 -20 20z" />
    <glyph glyph-name="yacute" unicode="&#xfd;" 
d="M143 -360v110q0 21 17 21q8 0 54.5 -22.5t94.5 -22.5q38 0 64.5 13.5t50 49t42.5 81t46 126.5l4 12l-389 987q-4 16 -4 17q0 16 16 16h148q20 0 26 -20l287 -768l260 768q5 11 10.5 15.5t18.5 4.5h141q17 0 17 -14q0 -1 -1 -3t-2 -5.5t-2 -6.5l-401 -1124
q-57 -161 -131.5 -231t-190.5 -70q-88 0 -155 33q-21 12 -21 33zM440 1155l125 258q12 21 31 21h205q14 0 14 -11q0 -2 -4 -10l-193 -260q-13 -18 -36 -18h-131q-13 0 -13 10q0 6 2 10z" />
    <glyph glyph-name="thorn" unicode="&#xfe;" 
d="M168 -385v1798q0 21 20 21h119q21 0 21 -21v-491q56 59 132 93t161 34q192 0 307.5 -144.5t115.5 -390.5t-115.5 -390t-307.5 -144q-90 0 -167 34.5t-126 91.5v-491q0 -21 -21 -21h-119q-20 0 -20 21zM311 514q0 -172 75.5 -277.5t203.5 -105.5q138 0 212.5 104t74.5 279
t-74.5 279t-212.5 104q-128 0 -203.5 -105.5t-75.5 -277.5z" />
    <glyph glyph-name="ydieresis" unicode="&#xff;" 
d="M143 -360v110q0 21 17 21q8 0 54.5 -22.5t94.5 -22.5q38 0 64.5 13.5t50 49t42.5 81t46 126.5l4 12l-389 987q-4 16 -4 17q0 16 16 16h148q20 0 26 -20l287 -768l260 768q5 11 10.5 15.5t18.5 4.5h141q17 0 17 -14q0 -1 -1 -3t-2 -5.5t-2 -6.5l-401 -1124
q-57 -161 -131.5 -231t-190.5 -70q-88 0 -155 33q-21 12 -21 33zM309 1241v172q0 21 21 21h172q20 0 20 -21v-172q0 -20 -20 -20h-172q-21 0 -21 20zM645 1241v172q0 21 21 21h172q20 0 20 -21v-172q0 -20 -20 -20h-172q-21 0 -21 20z" />
    <glyph glyph-name="Amacron" unicode="&#x100;" 
d="M911 20l-112 386h-471l-113 -386q-5 -12 -9.5 -16t-15.5 -4h-139q-22 0 -22 20q0 9 2 13l428 1380q1 2 2.5 6t2 5.5t2 4t3.5 3.5t4.5 1.5t5.5 0.5h168q6 0 9.5 -2t5.5 -5t4 -9q1 -3 2 -5l428 -1380q2 -4 2 -13q0 -20 -23 -20h-139q-11 0 -15.5 4t-9.5 16zM563 1217
l-188 -648h377zM348 1647v102q0 20 21 20h389q20 0 20 -20v-102q0 -21 -20 -21h-389q-21 0 -21 21z" />
    <glyph glyph-name="amacron" unicode="&#x101;" 
d="M326 729h-131q-15 0 -15 12q0 13 2 21q30 121 137.5 204t266.5 83q191 0 291 -99.5t100 -269.5v-483q0 -70 7 -105.5t28 -71.5q2 -2 2 -10q0 -10 -17 -10h-159q-21 0 -21 20v101q-117 -141 -328 -141q-142 0 -244 90t-102 239q0 83 31.5 149t84.5 106.5t120.5 61.5
t142.5 21q57 0 108 -6t84 -13t103 -24v64q0 229 -231 229q-174 0 -232 -149q-7 -19 -28 -19zM817 453q-157 43 -270 43q-109 0 -172.5 -46t-63.5 -141q0 -79 59 -128.5t148 -49.5q134 0 216.5 90t82.5 232zM373 1241v102q0 21 20 21h389q21 0 21 -21v-102q0 -20 -21 -20
h-389q-20 0 -20 20z" />
    <glyph glyph-name="Abreve" unicode="&#x102;" 
d="M911 20l-112 386h-471l-113 -386q-5 -12 -9.5 -16t-15.5 -4h-139q-22 0 -22 20q0 9 2 13l428 1380q1 2 2.5 6t2 5.5t2 4t3.5 3.5t4.5 1.5t5.5 0.5h168q6 0 9.5 -2t5.5 -5t4 -9q1 -3 2 -5l428 -1380q2 -4 2 -13q0 -20 -23 -20h-139q-11 0 -15.5 4t-9.5 16zM563 1217
l-188 -648h377zM322 1808h98q20 0 20 -20q0 -50 32 -78.5t91 -28.5t91 28.5t32 78.5q0 20 21 20h98q20 0 20 -20q0 -110 -72 -176t-190 -66t-190 66t-72 176q0 20 21 20z" />
    <glyph glyph-name="abreve" unicode="&#x103;" 
d="M326 729h-131q-15 0 -15 12q0 13 2 21q30 121 137.5 204t266.5 83q191 0 291 -99.5t100 -269.5v-483q0 -70 7 -105.5t28 -71.5q2 -2 2 -10q0 -10 -17 -10h-159q-21 0 -21 20v101q-117 -141 -328 -141q-142 0 -244 90t-102 239q0 83 31.5 149t84.5 106.5t120.5 61.5
t142.5 21q57 0 108 -6t84 -13t103 -24v64q0 229 -231 229q-174 0 -232 -149q-7 -19 -28 -19zM817 453q-157 43 -270 43q-109 0 -172.5 -46t-63.5 -141q0 -79 59 -128.5t148 -49.5q134 0 216.5 90t82.5 232zM346 1403h98q21 0 21 -21q0 -50 32 -78t91 -28t91 28t32 78
q0 21 20 21h98q21 0 21 -21q0 -110 -72 -175.5t-190 -65.5t-190 65.5t-72 175.5q0 21 20 21z" />
    <glyph glyph-name="Aogonek" unicode="&#x104;" 
d="M913 12l-114 394h-471l-113 -386q-5 -12 -9.5 -16t-15.5 -4h-139q-22 0 -22 20q0 9 2 13l428 1380q1 2 2.5 6t2 5.5t2 4t3.5 3.5t4.5 1.5t5.5 0.5h168q6 0 9.5 -2t5.5 -5t4 -9q1 -3 2 -5l428 -1380q2 -4 2 -13q0 -17 -17 -20q-62 -17 -97.5 -55t-35.5 -88q0 -47 36 -76
t93 -29h29q20 0 20 -20v-70q0 -20 -20 -20h-66q-105 0 -173 47t-68 139q0 124 114 184zM563 1217l-188 -648h377z" />
    <glyph glyph-name="aogonek" unicode="&#x105;" 
d="M326 729h-131q-15 0 -15 12q0 13 2 21q30 121 137.5 204t266.5 83q191 0 291 -99.5t100 -269.5v-483q0 -70 7 -105.5t28 -71.5q2 -2 2 -10q0 -7 -10 -10q-62 -19 -98 -56t-36 -87q0 -47 36 -76t93 -29h29q21 0 21 -20v-70q0 -20 -21 -20h-65q-105 0 -173.5 47t-68.5 139
q0 59 26 103t70 69v121q-117 -141 -328 -141q-142 0 -244 90t-102 239q0 83 31.5 149t84.5 106.5t120.5 61.5t142.5 21q57 0 108 -6t84 -13t103 -24v64q0 229 -231 229q-174 0 -232 -149q-7 -19 -28 -19zM817 453q-157 43 -270 43q-109 0 -172.5 -46t-63.5 -141
q0 -79 59 -128.5t148 -49.5q134 0 216.5 90t82.5 232z" />
    <glyph glyph-name="Cacute" unicode="&#x106;" 
d="M928 473h125q22 0 22 -20q-17 -215 -146 -344t-329 -129q-109 0 -202 46t-163.5 135t-110.5 231.5t-40 324.5t40 324.5t110.5 231.5t163.5 135t202 46q200 0 329 -129t146 -344q0 -20 -22 -20h-125q-22 0 -25 20q-37 309 -303 309q-161 0 -248.5 -145t-87.5 -428
t87.5 -428.5t248.5 -145.5q265 0 303 310q3 20 25 20zM483 1561l125 258q11 20 31 20h205q14 0 14 -10q0 -2 -4 -10l-192 -260q-14 -19 -37 -19h-131q-13 0 -13 10q0 7 2 11z" />
    <glyph glyph-name="cacute" unicode="&#x107;" 
d="M590 897q-139 0 -219 -104.5t-80 -278.5t80 -278.5t219 -104.5q200 0 258 205q7 18 29 18h124q15 0 15 -12t-2 -20q-37 -157 -144 -249.5t-280 -92.5q-215 0 -341 149.5t-126 384.5t126 385t341 150q173 0 280 -92.5t144 -249.5q2 -8 2 -21q0 -12 -15 -12h-124
q-22 0 -29 18q-58 205 -258 205zM471 1155l125 258q12 21 31 21h204q15 0 15 -11q0 -2 -4 -10l-193 -260q-13 -18 -37 -18h-131q-12 0 -12 10q0 6 2 10z" />
    <glyph glyph-name="Ccircumflex" unicode="&#x108;" 
d="M928 473h125q22 0 22 -20q-17 -215 -146 -344t-329 -129q-109 0 -202 46t-163.5 135t-110.5 231.5t-40 324.5t40 324.5t110.5 231.5t163.5 135t202 46q200 0 329 -129t146 -344q0 -20 -22 -20h-125q-22 0 -25 20q-37 309 -303 309q-161 0 -248.5 -145t-87.5 -428
t87.5 -428.5t248.5 -145.5q265 0 303 310q3 20 25 20zM688 1823l199 -262q4 -8 4 -11q0 -10 -14 -10h-127q-18 0 -37 19l-113 122l-113 -122q-9 -9 -12 -11.5t-9 -5t-15 -2.5h-127q-15 0 -15 10q0 3 4 11l199 262q16 16 31 16h114q15 0 31 -16z" />
    <glyph glyph-name="ccircumflex" unicode="&#x109;" 
d="M590 897q-139 0 -219 -104.5t-80 -278.5t80 -278.5t219 -104.5q200 0 258 205q7 18 29 18h124q15 0 15 -12t-2 -20q-37 -157 -144 -249.5t-280 -92.5q-215 0 -341 149.5t-126 384.5t126 385t341 150q173 0 280 -92.5t144 -249.5q2 -8 2 -21q0 -12 -15 -12h-124
q-22 0 -29 18q-58 205 -258 205zM678 1417l199 -262q4 -8 4 -10q0 -10 -15 -10h-127q-19 0 -37 18l-112 123l-113 -123q-18 -18 -37 -18h-127q-14 0 -14 10q0 2 4 10l199 262q17 17 30 17h115q14 0 31 -17z" />
    <glyph glyph-name="Cdotaccent" unicode="&#x10a;" 
d="M928 473h125q22 0 22 -20q-17 -215 -146 -344t-329 -129q-109 0 -202 46t-163.5 135t-110.5 231.5t-40 324.5t40 324.5t110.5 231.5t163.5 135t202 46q200 0 329 -129t146 -344q0 -20 -22 -20h-125q-22 0 -25 20q-37 309 -303 309q-161 0 -248.5 -145t-87.5 -428
t87.5 -428.5t248.5 -145.5q265 0 303 310q3 20 25 20zM492 1642v177q0 20 20 20h176q21 0 21 -20v-177q0 -20 -21 -20h-176q-20 0 -20 20z" />
    <glyph glyph-name="cdotaccent" unicode="&#x10b;" 
d="M590 897q-139 0 -219 -104.5t-80 -278.5t80 -278.5t219 -104.5q200 0 258 205q7 18 29 18h124q15 0 15 -12t-2 -20q-37 -157 -144 -249.5t-280 -92.5q-215 0 -341 149.5t-126 384.5t126 385t341 150q173 0 280 -92.5t144 -249.5q2 -8 2 -21q0 -12 -15 -12h-124
q-22 0 -29 18q-58 205 -258 205zM481 1237v176q0 21 21 21h176q20 0 20 -21v-176q0 -20 -20 -20h-176q-21 0 -21 20z" />
    <glyph glyph-name="Ccaron" unicode="&#x10c;" 
d="M928 473h125q22 0 22 -20q-17 -215 -146 -344t-329 -129q-109 0 -202 46t-163.5 135t-110.5 231.5t-40 324.5t40 324.5t110.5 231.5t163.5 135t202 46q200 0 329 -129t146 -344q0 -20 -22 -20h-125q-22 0 -25 20q-37 309 -303 309q-161 0 -248.5 -145t-87.5 -428
t87.5 -428.5t248.5 -145.5q265 0 303 310q3 20 25 20zM887 1819l-199 -263q-16 -16 -31 -16h-114q-15 0 -31 16l-199 263q-4 8 -4 10q0 10 15 10h127q13 0 18.5 -3.5t17.5 -14.5l113 -123l113 123q18 18 37 18h127q14 0 14 -10q0 -2 -4 -10z" />
    <glyph glyph-name="ccaron" unicode="&#x10d;" 
d="M590 897q-139 0 -219 -104.5t-80 -278.5t80 -278.5t219 -104.5q200 0 258 205q7 18 29 18h124q15 0 15 -12t-2 -20q-37 -157 -144 -249.5t-280 -92.5q-215 0 -341 149.5t-126 384.5t126 385t341 150q173 0 280 -92.5t144 -249.5q2 -8 2 -21q0 -12 -15 -12h-124
q-22 0 -29 18q-58 205 -258 205zM877 1413l-199 -262q-16 -16 -31 -16h-115q-14 0 -30 16l-199 262q-4 8 -4 10q0 11 14 11h127q18 0 37 -19l113 -123l112 123q19 19 37 19h127q15 0 15 -11q0 -2 -4 -10z" />
    <glyph glyph-name="Dcaron" unicode="&#x10e;" 
d="M135 20v1393q0 21 21 21h284q272 0 435 -183t163 -534t-163 -534t-435 -183h-284q-21 0 -21 20zM307 164h133q202 0 310 137t108 416t-108 416t-310 137h-133v-1106zM719 1819l-199 -263q-16 -16 -31 -16h-114q-15 0 -31 16l-199 263q-4 8 -4 10q0 10 15 10h127
q13 0 19 -3.5t17 -14.5l113 -123l113 123q18 18 37 18h127q14 0 14 -10q0 -2 -4 -10z" />
    <glyph glyph-name="dcaron" unicode="&#x10f;" 
d="M877 1413v-1393q0 -20 -21 -20h-119q-20 0 -20 20v86q-49 -57 -126 -91.5t-167 -34.5q-192 0 -308 144t-116 390t116 390.5t308 144.5q85 0 161 -34t132 -93v491q0 21 20 21h119q21 0 21 -21zM733 514q0 172 -75 277.5t-203 105.5q-138 0 -212.5 -104t-74.5 -279
t74.5 -279t212.5 -104q128 0 203 105.5t75 277.5zM965 1036q58 0 76 22.5t18 86.5v39h-94q-21 0 -21 20v209q0 21 21 21h209q20 0 20 -21v-301q0 -90 -42 -140t-116 -50h-71q-21 0 -21 20v74q0 20 21 20z" />
    <glyph glyph-name="Dcroat" unicode="&#x110;" 
d="M158 20v617h-109q-20 0 -20 20v119q0 21 20 21h109v616q0 21 20 21h285q272 0 435 -183t163 -534t-163 -534t-435 -183h-285q-20 0 -20 20zM330 164h133q202 0 310 137t108 416t-108 416t-310 137h-133v-473h211q20 0 20 -21v-119q0 -20 -20 -20h-211v-473z" />
    <glyph glyph-name="dcroat" unicode="&#x111;" 
d="M989 1126v-1106q0 -20 -20 -20h-119q-21 0 -21 20v86q-49 -57 -125.5 -91.5t-166.5 -34.5q-192 0 -308 144t-116 390t116 390.5t308 144.5q85 0 160.5 -34t131.5 -93v204h-188q-20 0 -20 21v106q0 21 20 21h188v139q0 21 21 21h119q20 0 20 -21v-139h92q21 0 21 -21v-106
q0 -21 -21 -21h-92zM846 514q0 172 -75.5 277.5t-203.5 105.5q-138 0 -212 -104t-74 -279t74 -279t212 -104q128 0 203.5 105.5t75.5 277.5z" />
    <glyph glyph-name="Emacron" unicode="&#x112;" 
d="M334 672v-508h647q20 0 20 -21v-123q0 -20 -20 -20h-799q-20 0 -20 20v1393q0 21 20 21h785q20 0 20 -21v-123q0 -20 -20 -20h-633v-434h569q21 0 21 -21v-123q0 -20 -21 -20h-569zM369 1647v102q0 20 20 20h389q21 0 21 -20v-102q0 -21 -21 -21h-389q-20 0 -20 21z" />
    <glyph glyph-name="emacron" unicode="&#x113;" 
d="M1008 465h-715q8 -151 83 -242.5t208 -91.5q101 0 158.5 46t91.5 142q7 19 28 19h133q15 0 15 -14q0 -12 -4 -21q-53 -159 -154.5 -241t-267.5 -82q-145 0 -251.5 71.5t-159 191t-52.5 271.5q0 229 129.5 382t333.5 153q110 0 196.5 -43t139.5 -117.5t80.5 -169.5
t27.5 -205v-29q0 -20 -20 -20zM584 897q-110 0 -185 -73.5t-98 -207.5h555q-23 131 -95 206t-177 75zM369 1241v102q0 21 20 21h389q21 0 21 -21v-102q0 -20 -21 -20h-389q-20 0 -20 20z" />
    <glyph glyph-name="Ebreve" unicode="&#x114;" 
d="M334 672v-508h647q20 0 20 -21v-123q0 -20 -20 -20h-799q-20 0 -20 20v1393q0 21 20 21h785q20 0 20 -21v-123q0 -20 -20 -20h-633v-434h569q21 0 21 -21v-123q0 -20 -21 -20h-569zM334 1808h98q21 0 21 -20q0 -50 31.5 -78.5t90.5 -28.5t91 28.5t32 78.5q0 20 21 20h98
q21 0 21 -20q0 -110 -72.5 -176t-190.5 -66t-190 66t-72 176q0 20 21 20z" />
    <glyph glyph-name="ebreve" unicode="&#x115;" 
d="M1008 465h-715q8 -151 83 -242.5t208 -91.5q101 0 158.5 46t91.5 142q7 19 28 19h133q15 0 15 -14q0 -12 -4 -21q-53 -159 -154.5 -241t-267.5 -82q-145 0 -251.5 71.5t-159 191t-52.5 271.5q0 229 129.5 382t333.5 153q110 0 196.5 -43t139.5 -117.5t80.5 -169.5
t27.5 -205v-29q0 -20 -20 -20zM584 897q-110 0 -185 -73.5t-98 -207.5h555q-23 131 -95 206t-177 75zM342 1403h98q21 0 21 -21q0 -50 32 -78t91 -28t91 28t32 78q0 21 20 21h98q21 0 21 -21q0 -110 -72 -175.5t-190 -65.5t-190 65.5t-72 175.5q0 21 20 21z" />
    <glyph glyph-name="Edotaccent" unicode="&#x116;" 
d="M334 672v-508h647q20 0 20 -21v-123q0 -20 -20 -20h-799q-20 0 -20 20v1393q0 21 20 21h785q20 0 20 -21v-123q0 -20 -20 -20h-633v-434h569q21 0 21 -21v-123q0 -20 -21 -20h-569zM473 1642v177q0 20 21 20h176q20 0 20 -20v-177q0 -20 -20 -20h-176q-21 0 -21 20z" />
    <glyph glyph-name="edotaccent" unicode="&#x117;" 
d="M1008 465h-715q8 -151 83 -242.5t208 -91.5q101 0 158.5 46t91.5 142q7 19 28 19h133q15 0 15 -14q0 -12 -4 -21q-53 -159 -154.5 -241t-267.5 -82q-145 0 -251.5 71.5t-159 191t-52.5 271.5q0 229 129.5 382t333.5 153q110 0 196.5 -43t139.5 -117.5t80.5 -169.5
t27.5 -205v-29q0 -20 -20 -20zM584 897q-110 0 -185 -73.5t-98 -207.5h555q-23 131 -95 206t-177 75zM475 1237v176q0 21 21 21h176q20 0 20 -21v-176q0 -20 -20 -20h-176q-21 0 -21 20z" />
    <glyph glyph-name="Eogonek" unicode="&#x118;" 
d="M334 672v-508h647q20 0 20 -21v-123q0 -17 -14 -20q-62 -17 -97.5 -55t-35.5 -88q0 -47 36 -76t93 -29h29q20 0 20 -20v-70q0 -20 -20 -20h-66q-105 0 -173 47t-68 139q0 112 94 172h-617q-20 0 -20 20v1393q0 21 20 21h785q20 0 20 -21v-123q0 -20 -20 -20h-633v-434
h569q21 0 21 -21v-123q0 -20 -21 -20h-569z" />
    <glyph glyph-name="eogonek" unicode="&#x119;" 
d="M1008 465h-715q8 -151 83 -242.5t208 -91.5q101 0 158.5 46t91.5 142q7 19 28 19h133q15 0 15 -14q0 -12 -4 -21q-43 -122 -109.5 -197.5t-167.5 -105.5q-62 -19 -97.5 -56t-35.5 -87q0 -47 36 -76t93 -29h29q20 0 20 -20v-70q0 -20 -20 -20h-66q-105 0 -173.5 47
t-68.5 139q0 96 74 156q-189 24 -294 169.5t-105 360.5q0 229 129.5 382t333.5 153q110 0 196.5 -43t139.5 -117.5t80.5 -169.5t27.5 -205v-29q0 -20 -20 -20zM584 897q-110 0 -185 -73.5t-98 -207.5h555q-23 131 -95 206t-177 75z" />
    <glyph glyph-name="Ecaron" unicode="&#x11a;" 
d="M334 672v-508h647q20 0 20 -21v-123q0 -20 -20 -20h-799q-20 0 -20 20v1393q0 21 20 21h785q20 0 20 -21v-123q0 -20 -20 -20h-633v-434h569q21 0 21 -21v-123q0 -20 -21 -20h-569zM870 1819l-198 -263q-16 -16 -31 -16h-115q-14 0 -30 16l-199 263q-4 8 -4 10
q0 10 14 10h127q19 0 37 -18l113 -123l112 123q18 18 37 18h127q14 0 14 -10q0 -2 -4 -10z" />
    <glyph glyph-name="ecaron" unicode="&#x11b;" 
d="M1008 465h-715q8 -151 83 -242.5t208 -91.5q101 0 158.5 46t91.5 142q7 19 28 19h133q15 0 15 -14q0 -12 -4 -21q-53 -159 -154.5 -241t-267.5 -82q-145 0 -251.5 71.5t-159 191t-52.5 271.5q0 229 129.5 382t333.5 153q110 0 196.5 -43t139.5 -117.5t80.5 -169.5
t27.5 -205v-29q0 -20 -20 -20zM584 897q-110 0 -185 -73.5t-98 -207.5h555q-23 131 -95 206t-177 75zM870 1413l-198 -262q-16 -16 -31 -16h-115q-14 0 -30 16l-199 262q-4 8 -4 10q0 11 14 11h127q18 0 37 -19l113 -123l112 123q19 19 37 19h127q14 0 14 -11q0 -2 -4 -10z
" />
    <glyph glyph-name="Gcircumflex" unicode="&#x11c;" 
d="M618 713h429q20 0 20 -21v-354q0 -33 -20 -78q-59 -131 -166 -205.5t-265 -74.5q-115 0 -212.5 47.5t-171 138t-115 232.5t-41.5 319q0 180 41 322t113 231.5t166 136.5t204 47q191 0 312 -118t139 -310q0 -20 -23 -20h-131q-22 0 -25 20q-20 129 -84.5 196.5
t-187.5 67.5q-162 0 -253 -144.5t-91 -428.5q0 -287 92.5 -430.5t267.5 -143.5q204 0 279 193v213h-277q-20 0 -20 20v123q0 21 20 21zM688 1823l199 -262q4 -8 4 -11q0 -10 -14 -10h-127q-18 0 -37 19l-113 122l-113 -122q-9 -9 -12 -11.5t-9 -5t-15 -2.5h-127
q-15 0 -15 10q0 3 4 11l199 262q16 16 31 16h114q15 0 31 -16z" />
    <glyph glyph-name="gcircumflex" unicode="&#x11d;" 
d="M104 305q0 163 168 252q-24 61 -24 141q0 162 98 256.5t250 94.5q116 0 199 -56l129 115q8 8 16 8q6 0 16 -10l76 -82q8 -8 8 -16q0 -9 -10 -19l-123 -117q39 -68 39 -174q0 -158 -97.5 -253t-252.5 -95q-149 0 -244 86q-88 -46 -88 -133q0 -51 31.5 -82t85.5 -31
q36 0 120 19.5t148 19.5q191 0 298.5 -86.5t107.5 -244.5q0 -148 -118 -236t-321 -88q-204 0 -326 88t-122 240q0 111 55 178q-119 91 -119 225zM328 -90q0 -85 77 -134.5t211 -49.5q129 0 204 46t75 124q0 182 -279 182q-58 0 -133 -15.5t-102 -17.5q-53 -53 -53 -135z
M408 698q0 -94 53 -145t135 -51t136 51t54 145q0 96 -54 147.5t-136 51.5t-135 -51.5t-53 -147.5zM684 1417l199 -262q4 -8 4 -10q0 -10 -15 -10h-127q-13 0 -19 3.5t-17 14.5l-113 123l-113 -123q-18 -18 -37 -18h-127q-14 0 -14 10q0 2 4 10l199 262q17 17 31 17h114
q14 0 31 -17z" />
    <glyph glyph-name="Gbreve" unicode="&#x11e;" 
d="M618 713h429q20 0 20 -21v-354q0 -33 -20 -78q-59 -131 -166 -205.5t-265 -74.5q-115 0 -212.5 47.5t-171 138t-115 232.5t-41.5 319q0 180 41 322t113 231.5t166 136.5t204 47q191 0 312 -118t139 -310q0 -20 -23 -20h-131q-22 0 -25 20q-20 129 -84.5 196.5
t-187.5 67.5q-162 0 -253 -144.5t-91 -428.5q0 -287 92.5 -430.5t267.5 -143.5q204 0 279 193v213h-277q-20 0 -20 20v123q0 21 20 21zM358 1808h99q20 0 20 -20q0 -50 32 -78.5t91 -28.5t91 28.5t32 78.5q0 20 20 20h99q20 0 20 -20q0 -110 -72 -176t-190 -66t-190 66
t-72 176q0 20 20 20z" />
    <glyph glyph-name="gbreve" unicode="&#x11f;" 
d="M104 305q0 163 168 252q-24 61 -24 141q0 162 98 256.5t250 94.5q116 0 199 -56l129 115q8 8 16 8q6 0 16 -10l76 -82q8 -8 8 -16q0 -9 -10 -19l-123 -117q39 -68 39 -174q0 -158 -97.5 -253t-252.5 -95q-149 0 -244 86q-88 -46 -88 -133q0 -51 31.5 -82t85.5 -31
q36 0 120 19.5t148 19.5q191 0 298.5 -86.5t107.5 -244.5q0 -148 -118 -236t-321 -88q-204 0 -326 88t-122 240q0 111 55 178q-119 91 -119 225zM328 -90q0 -85 77 -134.5t211 -49.5q129 0 204 46t75 124q0 182 -279 182q-58 0 -133 -15.5t-102 -17.5q-53 -53 -53 -135z
M408 698q0 -94 53 -145t135 -51t136 51t54 145q0 96 -54 147.5t-136 51.5t-135 -51.5t-53 -147.5zM354 1403h99q20 0 20 -21q0 -50 32 -78t91 -28t91 28t32 78q0 21 20 21h99q20 0 20 -21q0 -110 -72 -175.5t-190 -65.5t-190 65.5t-72 175.5q0 21 20 21z" />
    <glyph glyph-name="Gdotaccent" unicode="&#x120;" 
d="M618 713h429q20 0 20 -21v-354q0 -33 -20 -78q-59 -131 -166 -205.5t-265 -74.5q-115 0 -212.5 47.5t-171 138t-115 232.5t-41.5 319q0 180 41 322t113 231.5t166 136.5t204 47q191 0 312 -118t139 -310q0 -20 -23 -20h-131q-22 0 -25 20q-20 129 -84.5 196.5
t-187.5 67.5q-162 0 -253 -144.5t-91 -428.5q0 -287 92.5 -430.5t267.5 -143.5q204 0 279 193v213h-277q-20 0 -20 20v123q0 21 20 21zM492 1642v177q0 20 20 20h176q21 0 21 -20v-177q0 -20 -21 -20h-176q-20 0 -20 20z" />
    <glyph glyph-name="gdotaccent" unicode="&#x121;" 
d="M104 305q0 163 168 252q-24 61 -24 141q0 162 98 256.5t250 94.5q116 0 199 -56l129 115q8 8 16 8q6 0 16 -10l76 -82q8 -8 8 -16q0 -9 -10 -19l-123 -117q39 -68 39 -174q0 -158 -97.5 -253t-252.5 -95q-149 0 -244 86q-88 -46 -88 -133q0 -51 31.5 -82t85.5 -31
q36 0 120 19.5t148 19.5q191 0 298.5 -86.5t107.5 -244.5q0 -148 -118 -236t-321 -88q-204 0 -326 88t-122 240q0 111 55 178q-119 91 -119 225zM328 -90q0 -85 77 -134.5t211 -49.5q129 0 204 46t75 124q0 182 -279 182q-58 0 -133 -15.5t-102 -17.5q-53 -53 -53 -135z
M408 698q0 -94 53 -145t135 -51t136 51t54 145q0 96 -54 147.5t-136 51.5t-135 -51.5t-53 -147.5zM489 1237v176q0 21 21 21h176q21 0 21 -21v-176q0 -20 -21 -20h-176q-21 0 -21 20z" />
    <glyph glyph-name="Gcommaaccent" unicode="&#x122;" 
d="M618 713h429q20 0 20 -21v-354q0 -33 -20 -78q-59 -131 -166 -205.5t-265 -74.5q-115 0 -212.5 47.5t-171 138t-115 232.5t-41.5 319q0 180 41 322t113 231.5t166 136.5t204 47q191 0 312 -118t139 -310q0 -20 -23 -20h-131q-22 0 -25 20q-20 129 -84.5 196.5
t-187.5 67.5q-162 0 -253 -144.5t-91 -428.5q0 -287 92.5 -430.5t267.5 -143.5q204 0 279 193v213h-277q-20 0 -20 20v123q0 21 20 21zM512 -446q58 0 76 19.5t18 76.5v14h-94q-20 0 -20 21v209q0 20 20 20h209q20 0 20 -20v-289q0 -83 -41 -124.5t-116 -41.5h-72
q-20 0 -20 20v74q0 21 20 21z" />
    <glyph glyph-name="gcommaaccent" unicode="&#x123;" 
d="M104 305q0 163 168 252q-24 61 -24 141q0 162 98 256.5t250 94.5q116 0 199 -56l129 115q8 8 16 8q6 0 16 -10l76 -82q8 -8 8 -16q0 -9 -10 -19l-123 -117q39 -68 39 -174q0 -158 -97.5 -253t-252.5 -95q-149 0 -244 86q-88 -46 -88 -133q0 -51 31.5 -82t85.5 -31
q36 0 120 19.5t148 19.5q191 0 298.5 -86.5t107.5 -244.5q0 -148 -118 -236t-321 -88q-204 0 -326 88t-122 240q0 111 55 178q-119 91 -119 225zM328 -90q0 -85 77 -134.5t211 -49.5q129 0 204 46t75 124q0 182 -279 182q-58 0 -133 -15.5t-102 -17.5q-53 -53 -53 -135z
M408 698q0 -94 53 -145t135 -51t136 51t54 145q0 96 -54 147.5t-136 51.5t-135 -51.5t-53 -147.5zM700 1552q-58 0 -76 -22t-18 -86v-39h94q21 0 21 -21v-208q0 -21 -21 -21h-208q-21 0 -21 21v301q0 90 42 140t116 50h71q21 0 21 -20v-74q0 -21 -21 -21z" />
    <glyph glyph-name="Hcircumflex" unicode="&#x124;" 
d="M285 666v-646q0 -20 -21 -20h-131q-20 0 -20 20v1393q0 21 20 21h131q21 0 21 -21v-584h557v584q0 21 20 21h131q21 0 21 -21v-1393q0 -20 -21 -20h-131q-20 0 -20 20v646h-557zM651 1823l199 -262q4 -8 4 -11q0 -10 -14 -10h-127q-18 0 -37 19l-113 122l-112 -122
q-19 -19 -37 -19h-127q-15 0 -15 10q0 3 4 11l199 262q16 16 31 16h115q14 0 30 -16z" />
    <glyph glyph-name="hcircumflex" unicode="&#x125;" 
d="M184 20v1393q0 21 21 21h119q20 0 20 -21v-516q52 67 140.5 109.5t181.5 42.5q329 0 329 -340v-689q0 -20 -20 -20h-119q-20 0 -20 20v662q0 215 -207 215q-117 0 -201 -99t-84 -266v-512q0 -20 -20 -20h-119q-21 0 -21 20zM567 1823l199 -262q4 -8 4 -11q0 -10 -14 -10
h-127q-18 0 -37 19l-113 122l-112 -122q-19 -19 -37 -19h-127q-15 0 -15 10q0 1 5 11l198 262q16 16 31 16h115q14 0 30 -16z" />
    <glyph glyph-name="Hbar" unicode="&#x126;" 
d="M285 666v-646q0 -20 -21 -20h-131q-20 0 -20 20v1024h-68q-20 0 -20 21v111q0 20 20 20h68v217q0 21 20 21h131q21 0 21 -21v-217h557v217q0 21 20 21h131q21 0 21 -21v-217h67q21 0 21 -20v-111q0 -21 -21 -21h-67v-1024q0 -20 -21 -20h-131q-20 0 -20 20v646h-557z
M285 829h557v215h-557v-215z" />
    <glyph glyph-name="hbar" unicode="&#x127;" 
d="M184 20v1106h-100q-21 0 -21 21v106q0 21 21 21h100v139q0 21 21 21h119q20 0 20 -21v-139h215q21 0 21 -21v-106q0 -21 -21 -21h-215v-229q52 67 140.5 109.5t181.5 42.5q329 0 329 -340v-689q0 -20 -20 -20h-119q-20 0 -20 20v662q0 215 -207 215q-117 0 -201 -99
t-84 -266v-512q0 -20 -20 -20h-119q-21 0 -21 20z" />
    <glyph glyph-name="Itilde" unicode="&#x128;" 
d="M180 1290v123q0 21 21 21h725q20 0 20 -21v-123q0 -20 -20 -20h-277v-1106h297q21 0 21 -21v-123q0 -20 -21 -20h-766q-20 0 -20 20v123q0 21 20 21h297v1106h-276q-21 0 -21 20zM240 1761q105 78 196 78q48 0 84 -13t53.5 -29t45 -29t61.5 -13q28 0 54.5 11.5t70.5 39.5
q12 4 14 4q11 0 21 -16l57 -86q4 -8 4 -10q0 -10 -14 -21q-105 -78 -197 -78q-48 0 -84 13t-53.5 29t-45 29t-61.5 13q-28 0 -53.5 -11t-70.5 -40q-12 -4 -15 -4q-10 0 -20 17l-58 86q-4 8 -4 10q0 8 15 20z" />
    <glyph glyph-name="itilde" unicode="&#x129;" 
d="M229 901v107q0 20 21 20h409q21 0 21 -20v-856h321q21 0 21 -21v-111q0 -20 -21 -20h-802q-21 0 -21 20v111q0 21 21 21h321v729h-270q-21 0 -21 20zM178 1356q105 78 197 78q40 0 70 -8.5t48.5 -21t35.5 -25t39 -21t50 -8.5t54.5 11.5t70.5 39.5q12 4 15 4q10 0 20 -16
l58 -86q4 -8 4 -11q0 -8 -15 -20q-105 -78 -196 -78q-48 0 -84 13t-53.5 29t-45 29t-61.5 13q-28 0 -54.5 -11.5t-70.5 -39.5q-12 -4 -14 -4q-11 0 -21 16l-57 86q-4 8 -4 10q0 10 14 21z" />
    <glyph glyph-name="uni012A" unicode="&#x12a;" 
d="M180 1290v123q0 21 21 21h725q20 0 20 -21v-123q0 -20 -20 -20h-277v-1106h297q21 0 21 -21v-123q0 -20 -21 -20h-766q-20 0 -20 20v123q0 21 20 21h297v1106h-276q-21 0 -21 20zM348 1647v102q0 20 21 20h389q20 0 20 -20v-102q0 -21 -20 -21h-389q-21 0 -21 21z" />
    <glyph glyph-name="imacron" unicode="&#x12b;" 
d="M229 901v107q0 20 21 20h409q21 0 21 -20v-856h321q21 0 21 -21v-111q0 -20 -21 -20h-802q-21 0 -21 20v111q0 21 21 21h321v729h-270q-21 0 -21 20zM340 1241v102q0 21 20 21h390q20 0 20 -21v-102q0 -20 -20 -20h-390q-20 0 -20 20z" />
    <glyph glyph-name="Ibreve" unicode="&#x12c;" 
d="M180 1290v123q0 21 21 21h725q20 0 20 -21v-123q0 -20 -20 -20h-277v-1106h297q21 0 21 -21v-123q0 -20 -21 -20h-766q-20 0 -20 20v123q0 21 20 21h297v1106h-276q-21 0 -21 20zM322 1808h98q20 0 20 -20q0 -50 32 -78.5t91 -28.5t91 28.5t32 78.5q0 20 21 20h98
q20 0 20 -20q0 -110 -72 -176t-190 -66t-190 66t-72 176q0 20 21 20z" />
    <glyph glyph-name="uni012D" unicode="&#x12d;" 
d="M229 901v107q0 20 21 20h409q21 0 21 -20v-856h321q21 0 21 -21v-111q0 -20 -21 -20h-802q-21 0 -21 20v111q0 21 21 21h321v729h-270q-21 0 -21 20zM342 1403h98q21 0 21 -21q0 -50 32 -78t91 -28t91 28t32 78q0 21 20 21h98q21 0 21 -21q0 -110 -72 -175.5t-190 -65.5
t-190 65.5t-72 175.5q0 21 20 21z" />
    <glyph glyph-name="Iogonek" unicode="&#x12e;" 
d="M180 1290v123q0 21 21 21h725q20 0 20 -21v-123q0 -20 -20 -20h-277v-1106h297q21 0 21 -21v-123q0 -17 -15 -20q-62 -17 -97.5 -55t-35.5 -88q0 -47 36 -76t93 -29h29q20 0 20 -20v-70q0 -20 -20 -20h-66q-105 0 -173 47t-68 139q0 112 94 172h-584q-20 0 -20 20v123
q0 21 20 21h297v1106h-276q-21 0 -21 20z" />
    <glyph glyph-name="iogonek" unicode="&#x12f;" 
d="M229 901v107q0 20 21 20h409q21 0 21 -20v-856h321q21 0 21 -21v-111q0 -17 -14 -20q-62 -17 -98 -55t-36 -88q0 -47 36.5 -76t93.5 -29h28q21 0 21 -20v-70q0 -20 -21 -20h-65q-105 0 -173.5 47t-68.5 139q0 112 94 172h-620q-21 0 -21 20v111q0 21 21 21h321v729h-270
q-21 0 -21 20zM477 1217v176q0 20 21 20h176q20 0 20 -20v-176q0 -21 -20 -21h-176q-21 0 -21 21z" />
    <glyph glyph-name="Idotaccent" unicode="&#x130;" 
d="M180 1290v123q0 21 21 21h725q20 0 20 -21v-123q0 -20 -20 -20h-277v-1106h297q21 0 21 -21v-123q0 -20 -21 -20h-766q-20 0 -20 20v123q0 21 20 21h297v1106h-276q-21 0 -21 20zM455 1642v177q0 20 20 20h176q21 0 21 -20v-177q0 -20 -21 -20h-176q-20 0 -20 20z" />
    <glyph glyph-name="dotlessi" unicode="&#x131;" 
d="M229 901v107q0 20 21 20h409q21 0 21 -20v-856h321q21 0 21 -21v-111q0 -20 -21 -20h-802q-21 0 -21 20v111q0 21 21 21h321v729h-270q-21 0 -21 20z" />
    <glyph glyph-name="IJ" unicode="&#x132;" 
d="M72 1290v123q0 21 20 21h533q20 0 20 -21v-123q0 -20 -20 -20h-181v-1106h201q21 0 21 -21v-123q0 -20 -21 -20h-573q-21 0 -21 20v123q0 21 21 21h200v1106h-180q-20 0 -20 20zM1092 1413v-1059q0 -141 -32 -216.5t-103.5 -106.5t-204.5 -31q-21 0 -21 20v123
q0 21 21 21q105 0 136.5 37t31.5 159v1053q0 21 20 21h131q21 0 21 -21z" />
    <glyph glyph-name="ij" unicode="&#x133;" 
d="M254 1237v176q0 21 20 21h177q20 0 20 -21v-176q0 -20 -20 -20h-177q-20 0 -20 20zM109 901v107q0 20 20 20h307q21 0 21 -20v-856h209q20 0 20 -21v-111q0 -20 -20 -20h-578q-20 0 -20 20v111q0 21 20 21h209v729h-168q-20 0 -20 20zM604 901v107q0 20 21 20h383
q20 0 20 -20v-1114q0 -147 -14.5 -232t-46.5 -156q-6 -16 -17 -16h-4q-2 0 -4 2l-117 33q-16 6 -16 16v4q0 2 2 4q57 156 57 320v1012h-243q-21 0 -21 20zM819 1237v176q0 21 21 21h176q20 0 20 -21v-176q0 -20 -20 -20h-176q-21 0 -21 20z" />
    <glyph glyph-name="Jcircumflex" unicode="&#x134;" 
d="M942 1413v-913q0 -262 -111 -391t-309 -129q-139 0 -237.5 62t-144.5 163t-46 231q0 21 21 21h131q20 0 20 -21q0 -133 67.5 -213t188.5 -80q132 0 190 88.5t58 272.5v909q0 21 21 21h131q20 0 20 -21zM944 1823l199 -262q4 -8 4 -11q0 -10 -14 -10h-127q-18 0 -37 19
l-113 122l-113 -122q-9 -9 -12 -11.5t-9 -5t-15 -2.5h-127q-15 0 -15 10q0 3 4 11l199 262q16 16 31 16h114q15 0 31 -16z" />
    <glyph glyph-name="jcircumflex" unicode="&#x135;" 
d="M700 1417l199 -262q4 -8 4 -10q0 -10 -14 -10h-127q-19 0 -37 18l-113 125l-112 -125q-18 -18 -37 -18h-127q-14 0 -14 10q0 2 4 10l198 262q17 17 31 17h115q13 0 30 -17zM213 901v107q0 20 20 20h570q20 0 20 -20v-1114q0 -147 -14.5 -232t-46.5 -156q-6 -16 -14 -16
h-7q-2 0 -4 2l-116 33q-17 7 -17 14q0 8 2 10q58 159 58 320v1012h-431q-20 0 -20 20z" />
    <glyph glyph-name="Kcommaaccent" unicode="&#x136;" 
d="M1038 1405l-403 -473l452 -903q1 -2 2 -5t2 -5t1 -3q0 -16 -19 -16h-151q-11 0 -18.5 6.5t-18.5 24.5l-373 755l-174 -204v-562q0 -20 -21 -20h-131q-20 0 -20 20v1393q0 21 20 21h131q21 0 21 -21v-579l491 579l5 5l5 5l4 4t4.5 3.5t4 1.5t5 1.5t5.5 0.5h164
q18 0 18 -13q0 -7 -6 -16zM502 -446q58 0 76 19.5t18 76.5v14h-94q-21 0 -21 21v209q0 20 21 20h209q20 0 20 -20v-289q0 -83 -41.5 -124.5t-116.5 -41.5h-71q-21 0 -21 20v74q0 21 21 21z" />
    <glyph glyph-name="kcommaaccent" unicode="&#x137;" 
d="M350 1413v-823l400 420q18 18 32 18h164q17 0 17 -14q0 -8 -9 -17l-327 -340l379 -626q4 -8 4 -15q0 -16 -19 -16h-137q-24 0 -33 18l-313 517l-158 -162v-353q0 -20 -20 -20h-119q-21 0 -21 20v1393q0 21 21 21h119q20 0 20 -21zM477 -446q58 0 76 19.5t18 76.5v14h-94
q-20 0 -20 21v209q0 20 20 20h209q21 0 21 -20v-289q0 -83 -41.5 -124.5t-116.5 -41.5h-72q-20 0 -20 20v74q0 21 20 21z" />
    <glyph glyph-name="kgreenlandic" unicode="&#x138;" 
d="M350 1008v-418l400 420q18 18 32 18h164q17 0 17 -14q0 -8 -9 -17l-327 -340l379 -626q4 -8 4 -15q0 -16 -19 -16h-137q-24 0 -33 18l-313 517l-158 -162v-353q0 -20 -20 -20h-119q-21 0 -21 20v988q0 20 21 20h119q20 0 20 -20z" />
    <glyph glyph-name="Lacute" unicode="&#x139;" 
d="M225 20v1393q0 21 21 21h131q20 0 20 -21v-1249h650q20 0 20 -21v-123q0 -20 -20 -20h-801q-21 0 -21 20zM229 1561l125 258q11 20 31 20h205q14 0 14 -10q0 -2 -4 -10l-192 -260q-14 -19 -37 -19h-131q-13 0 -13 10q0 7 2 11z" />
    <glyph glyph-name="lacute" unicode="&#x13a;" 
d="M180 1303v110q0 21 21 21h438q20 0 20 -21v-1261h345q20 0 20 -21v-111q0 -20 -20 -20h-848q-21 0 -21 20v111q0 21 21 21h344v1130h-299q-21 0 -21 21zM453 1561l125 258q11 20 30 20h205q14 0 14 -10q0 -2 -4 -10l-192 -260q-14 -19 -37 -19h-131q-12 0 -12 10
q0 7 2 11z" />
    <glyph glyph-name="Lcommaaccent" unicode="&#x13b;" 
d="M225 20v1393q0 21 21 21h131q20 0 20 -21v-1249h650q20 0 20 -21v-123q0 -20 -20 -20h-801q-21 0 -21 20zM561 -446q58 0 76 19.5t18 76.5v14h-94q-20 0 -20 21v209q0 20 20 20h209q21 0 21 -20v-289q0 -83 -41.5 -124.5t-116.5 -41.5h-72q-20 0 -20 20v74q0 21 20 21z
" />
    <glyph glyph-name="lcommaaccent" unicode="&#x13c;" 
d="M180 1303v110q0 21 21 21h438q20 0 20 -21v-1261h345q20 0 20 -21v-111q0 -20 -20 -20h-848q-21 0 -21 20v111q0 21 21 21h344v1130h-299q-21 0 -21 21zM475 -446q58 0 76 19.5t18 76.5v14h-94q-20 0 -20 21v209q0 20 20 20h209q21 0 21 -20v-289q0 -83 -41.5 -124.5
t-116.5 -41.5h-72q-20 0 -20 20v74q0 21 20 21z" />
    <glyph glyph-name="Lcaron" unicode="&#x13d;" 
d="M225 20v1393q0 21 21 21h131q20 0 20 -21v-1249h650q20 0 20 -21v-123q0 -20 -20 -20h-801q-21 0 -21 20zM680 1036q58 0 76 22.5t18 86.5v39h-94q-21 0 -21 20v209q0 21 21 21h209q20 0 20 -21v-301q0 -90 -41.5 -140t-115.5 -50h-72q-21 0 -21 20v74q0 20 21 20z" />
    <glyph glyph-name="lcaron" unicode="&#x13e;" 
d="M180 1303v110q0 21 21 21h438q20 0 20 -21v-1261h345q20 0 20 -21v-111q0 -20 -20 -20h-848q-21 0 -21 20v111q0 21 21 21h344v1130h-299q-21 0 -21 21zM836 1036q58 0 76 22.5t18 86.5v39h-94q-21 0 -21 20v209q0 21 21 21h208q21 0 21 -21v-301q0 -90 -42 -140
t-116 -50h-71q-21 0 -21 20v74q0 20 21 20z" />
    <glyph glyph-name="Ldot" unicode="&#x13f;" 
d="M225 20v1393q0 21 21 21h131q20 0 20 -21v-1249h650q20 0 20 -21v-123q0 -20 -20 -20h-801q-21 0 -21 20zM664 864h208q21 0 21 -20v-209q0 -21 -21 -21h-208q-21 0 -21 21v209q0 20 21 20z" />
    <glyph glyph-name="ldot" unicode="&#x140;" 
d="M180 1303v110q0 21 21 21h438q20 0 20 -21v-1261h345q20 0 20 -21v-111q0 -20 -20 -20h-848q-21 0 -21 20v111q0 21 21 21h344v1130h-299q-21 0 -21 21zM811 864h209q20 0 20 -20v-209q0 -21 -20 -21h-209q-20 0 -20 21v209q0 20 20 20z" />
    <glyph glyph-name="Lslash" unicode="&#x141;" 
d="M250 20v474l-103 -54l-12 -4q-7 0 -14 13l-53 98q-1 3 -3 6t-2 4q0 7 15 16l172 91v749q0 21 20 21h131q21 0 21 -21v-657l258 137l12 4q9 0 15 -12l53 -99l4 -12q0 -8 -14 -14l-328 -174v-422h625q20 0 20 -21v-123q0 -20 -20 -20h-777q-20 0 -20 20z" />
    <glyph glyph-name="lslash" unicode="&#x142;" 
d="M180 1303v110q0 21 21 21h438q20 0 20 -21v-620l172 92q12 4 15 4q8 0 14 -12l53 -99q1 -2 2 -5t2 -4.5t1 -2.5q0 -8 -15 -14l-244 -129v-471h345q20 0 20 -21v-111q0 -20 -20 -20h-848q-21 0 -21 20v111q0 21 21 21h344v387l-172 -90q-2 -1 -5.5 -2t-5.5 -2t-4 -1
q-7 0 -14 13l-53 98l-4 12q0 7 14 15l244 127v573h-299q-21 0 -21 21z" />
    <glyph glyph-name="Nacute" unicode="&#x143;" 
d="M989 0h-166q-25 0 -32 16l-502 1102v-1098q0 -20 -21 -20h-131q-20 0 -20 20v1393q0 21 20 21h166q26 0 33 -17l502 -1102v1098q0 21 20 21h131q21 0 21 -21v-1393q0 -20 -21 -20zM459 1561l125 258q11 20 30 20h205q15 0 15 -10l-5 -10l-192 -260q-14 -19 -37 -19h-131
q-12 0 -12 10q0 7 2 11z" />
    <glyph glyph-name="nacute" unicode="&#x144;" 
d="M184 20v988q0 20 21 20h119q20 0 20 -20v-107q127 148 305 148q160 0 242 -83t82 -237v-709q0 -20 -21 -20h-118q-21 0 -21 20v682q0 195 -197 195q-118 0 -195 -96t-77 -260v-521q0 -20 -20 -20h-119q-21 0 -21 20zM500 1155l125 258q12 21 30 21h205q14 0 14 -11
q0 -2 -4 -10l-192 -260q-13 -18 -37 -18h-131q-12 0 -12 10q0 6 2 10z" />
    <glyph glyph-name="Ncommaaccent" unicode="&#x145;" 
d="M989 0h-166q-25 0 -32 16l-502 1102v-1098q0 -20 -21 -20h-131q-20 0 -20 20v1393q0 21 20 21h166q26 0 33 -17l502 -1102v1098q0 21 20 21h131q21 0 21 -21v-1393q0 -20 -21 -20zM459 -446q58 0 76 19.5t18 76.5v14h-94q-21 0 -21 21v209q0 20 21 20h209q20 0 20 -20
v-289q0 -83 -41.5 -124.5t-116.5 -41.5h-71q-21 0 -21 20v74q0 21 21 21z" />
    <glyph glyph-name="ncommaaccent" unicode="&#x146;" 
d="M184 20v988q0 20 21 20h119q20 0 20 -20v-107q127 148 305 148q160 0 242 -83t82 -237v-709q0 -20 -21 -20h-118q-21 0 -21 20v682q0 195 -197 195q-118 0 -195 -96t-77 -260v-521q0 -20 -20 -20h-119q-21 0 -21 20zM469 -446q58 0 76 19.5t18 76.5v14h-94q-20 0 -20 21
v209q0 20 20 20h209q20 0 20 -20v-289q0 -83 -41 -124.5t-116 -41.5h-72q-20 0 -20 20v74q0 21 20 21z" />
    <glyph glyph-name="Ncaron" unicode="&#x147;" 
d="M989 0h-166q-25 0 -32 16l-502 1102v-1098q0 -20 -21 -20h-131q-20 0 -20 20v1393q0 21 20 21h166q26 0 33 -17l502 -1102v1098q0 21 20 21h131q21 0 21 -21v-1393q0 -20 -21 -20zM850 1819l-199 -263q-16 -16 -30 -16h-115q-15 0 -31 16l-199 263q-4 8 -4 10q0 10 15 10
h127q19 0 37 -18l112 -123l113 123q18 18 37 18h127q14 0 14 -10q0 -2 -4 -10z" />
    <glyph glyph-name="ncaron" unicode="&#x148;" 
d="M184 20v988q0 20 21 20h119q20 0 20 -20v-107q127 148 305 148q160 0 242 -83t82 -237v-709q0 -20 -21 -20h-118q-21 0 -21 20v682q0 195 -197 195q-118 0 -195 -96t-77 -260v-521q0 -20 -20 -20h-119q-21 0 -21 20zM893 1413l-199 -262q-16 -16 -30 -16h-115
q-15 0 -31 16l-199 262q-4 8 -4 10q0 11 15 11h127q18 0 37 -19l112 -123l113 123q19 19 37 19h127q14 0 14 -11q0 -2 -4 -10z" />
    <glyph glyph-name="napostrophe" unicode="&#x149;" 
d="M330 20v988q0 20 20 20h119q20 0 20 -20v-107q127 148 306 148q159 0 241 -83t82 -237v-709q0 -20 -20 -20h-119q-21 0 -21 20v682q0 195 -196 195q-118 0 -195.5 -96t-77.5 -260v-521q0 -20 -20 -20h-119q-20 0 -20 20zM51 1098q58 0 76 22t18 86v39h-94q-20 0 -20 21
v209q0 20 20 20h209q21 0 21 -20v-301q0 -90 -42 -140.5t-116 -50.5h-72q-20 0 -20 21v73q0 21 20 21z" />
    <glyph glyph-name="Eng" unicode="&#x14a;" 
d="M838 385v1028q0 21 20 21h131q21 0 21 -21v-1409q0 -105 -18 -180.5t-50.5 -124t-87.5 -76.5t-119.5 -38.5t-156.5 -10.5q-21 0 -21 20v119q0 25 21 25q154 0 207 55t53 215l-549 1110v-1098q0 -20 -21 -20h-131q-20 0 -20 20v1393q0 21 20 21h166q26 0 33 -17z" />
    <glyph glyph-name="eng" unicode="&#x14b;" 
d="M184 20v988q0 20 21 20h119q20 0 20 -20v-107q127 148 305 148q160 0 242 -83t82 -237v-835q0 -146 -15 -231t-47 -157q-6 -16 -14 -16h-6q-2 0 -4 2l-117 33q-16 6 -16 14t2 10q57 156 57 320v833q0 195 -197 195q-118 0 -195 -96t-77 -260v-521q0 -20 -20 -20h-119
q-21 0 -21 20z" />
    <glyph glyph-name="Omacron" unicode="&#x14c;" 
d="M563 -20q-229 0 -365.5 191.5t-136.5 545.5t136.5 545.5t365.5 191.5t365.5 -191.5t136.5 -545.5t-136.5 -545.5t-365.5 -191.5zM563 143q322 0 322 574q0 573 -322 573q-321 0 -321 -573q0 -574 321 -574zM348 1647v102q0 20 21 20h389q20 0 20 -20v-102q0 -21 -20 -21
h-389q-21 0 -21 21z" />
    <glyph glyph-name="omacron" unicode="&#x14d;" 
d="M86 514q0 245 131 390t346 145q214 0 345.5 -145.5t131.5 -389.5t-131.5 -389t-345.5 -145q-215 0 -346 145t-131 389zM254 514q0 -173 83.5 -278t225.5 -105t225.5 105t83.5 278t-83.5 278t-225.5 105t-225.5 -105t-83.5 -278zM348 1241v102q0 21 21 21h389q20 0 20 -21
v-102q0 -20 -20 -20h-389q-21 0 -21 20z" />
    <glyph glyph-name="Obreve" unicode="&#x14e;" 
d="M563 -20q-229 0 -365.5 191.5t-136.5 545.5t136.5 545.5t365.5 191.5t365.5 -191.5t136.5 -545.5t-136.5 -545.5t-365.5 -191.5zM563 143q322 0 322 574q0 573 -322 573q-321 0 -321 -573q0 -574 321 -574zM322 1808h98q20 0 20 -20q0 -50 32 -78.5t91 -28.5t91 28.5
t32 78.5q0 20 21 20h98q20 0 20 -20q0 -110 -72 -176t-190 -66t-190 66t-72 176q0 20 21 20z" />
    <glyph glyph-name="obreve" unicode="&#x14f;" 
d="M86 514q0 245 131 390t346 145q214 0 345.5 -145.5t131.5 -389.5t-131.5 -389t-345.5 -145q-215 0 -346 145t-131 389zM254 514q0 -173 83.5 -278t225.5 -105t225.5 105t83.5 278t-83.5 278t-225.5 105t-225.5 -105t-83.5 -278zM322 1403h98q20 0 20 -21q0 -50 32 -78
t91 -28t91 28t32 78q0 21 21 21h98q20 0 20 -21q0 -110 -72 -175.5t-190 -65.5t-190 65.5t-72 175.5q0 21 21 21z" />
    <glyph glyph-name="Ohungarumlaut" unicode="&#x150;" 
d="M563 -20q-229 0 -365.5 191.5t-136.5 545.5t136.5 545.5t365.5 191.5t365.5 -191.5t136.5 -545.5t-136.5 -545.5t-365.5 -191.5zM563 143q322 0 322 574q0 573 -322 573q-321 0 -321 -573q0 -574 321 -574zM244 1561l125 258q11 20 30 20h205q14 0 14 -10q0 -2 -4 -10
l-192 -260q-14 -19 -37 -19h-131q-12 0 -12 10q0 7 2 11zM621 1561l124 258q11 20 31 20h205q14 0 14 -10q0 -2 -4 -10l-192 -260q-14 -19 -37 -19h-131q-13 0 -13 10q0 5 3 11z" />
    <glyph glyph-name="ohungarumlaut" unicode="&#x151;" 
d="M86 514q0 245 131 390t346 145q214 0 345.5 -145.5t131.5 -389.5t-131.5 -389t-345.5 -145q-215 0 -346 145t-131 389zM254 514q0 -173 83.5 -278t225.5 -105t225.5 105t83.5 278t-83.5 278t-225.5 105t-225.5 -105t-83.5 -278zM246 1155l125 258q12 21 30 21h205
q15 0 15 -11l-5 -10l-192 -260q-13 -18 -37 -18h-131q-12 0 -12 10q0 6 2 10zM623 1155l125 258q12 21 30 21h205q14 0 14 -11q0 -2 -4 -10l-192 -260q-13 -18 -37 -18h-131q-12 0 -12 10q0 6 2 10z" />
    <glyph glyph-name="OE" unicode="&#x152;" 
d="M735 672v-508h361q20 0 20 -21v-123q0 -20 -20 -20h-516q-59 -20 -140 -20q-195 0 -304 185t-109 552t109 552t304 185q81 0 140 -20h501q21 0 21 -21v-123q0 -20 -21 -20h-346v-434h266q21 0 21 -21v-123q0 -20 -21 -20h-266zM440 143q76 0 123 31v1086q-46 30 -123 30
q-233 0 -233 -573q0 -574 233 -574z" />
    <glyph glyph-name="oe" unicode="&#x153;" 
d="M569 -20q-215 0 -347 145t-132 389t132 389.5t349 145.5q150 0 262 -74.5t167 -194.5t55 -266v-29q0 -20 -21 -20h-383v-330q82 12 126.5 54t78.5 130q7 19 29 19h133q14 0 14 -14q0 -12 -4 -21q-115 -323 -459 -323zM258 514q0 -148 62 -247t172 -128v750
q-110 -26 -172 -126.5t-62 -248.5zM651 616h232q-17 112 -77.5 180.5t-154.5 92.5v-273z" />
    <glyph glyph-name="Racute" unicode="&#x154;" 
d="M143 20v1393q0 21 21 21h434q205 0 314.5 -97t109.5 -282q0 -138 -69 -229.5t-189 -131.5l301 -674v-2q0 -1 1 -3t1 -3q0 -12 -16 -12h-150q-20 0 -29 20l-288 656h-269v-656q0 -20 -20 -20h-131q-21 0 -21 20zM315 1270v-430h301q125 0 179.5 53.5t54.5 161.5
t-54.5 161.5t-179.5 53.5h-301zM379 1561l125 258q11 20 31 20h204q15 0 15 -10q0 -2 -4 -10l-193 -260q-14 -19 -37 -19h-131q-12 0 -12 10q0 7 2 11z" />
    <glyph glyph-name="racute" unicode="&#x155;" 
d="M1006 807l-115 -72q-8 -4 -14 -4q-14 0 -17 10q-48 84 -94.5 120t-126.5 36q-116 0 -191 -110.5t-75 -276.5v-490q0 -20 -21 -20h-119q-20 0 -20 20v988q0 20 20 20h119q21 0 21 -20v-115q53 70 137.5 113t189.5 43q114 0 195 -56t119 -151q4 -12 4 -15q0 -11 -12 -20z
M481 1155l125 258q12 21 31 21h205q14 0 14 -11q0 -2 -4 -10l-193 -260q-13 -18 -36 -18h-131q-13 0 -13 10q0 6 2 10z" />
    <glyph glyph-name="Rcommaaccent" unicode="&#x156;" 
d="M143 20v1393q0 21 21 21h434q205 0 314.5 -97t109.5 -282q0 -138 -69 -229.5t-189 -131.5l301 -674v-2q0 -1 1 -3t1 -3q0 -12 -16 -12h-150q-20 0 -29 20l-288 656h-269v-656q0 -20 -20 -20h-131q-21 0 -21 20zM315 1270v-430h301q125 0 179.5 53.5t54.5 161.5
t-54.5 161.5t-179.5 53.5h-301zM477 -446q58 0 76 19.5t18 76.5v14h-94q-20 0 -20 21v209q0 20 20 20h209q21 0 21 -20v-289q0 -83 -41.5 -124.5t-116.5 -41.5h-72q-20 0 -20 20v74q0 21 20 21z" />
    <glyph glyph-name="rcommaaccent" unicode="&#x157;" 
d="M1006 807l-115 -72q-8 -4 -14 -4q-14 0 -17 10q-48 84 -94.5 120t-126.5 36q-116 0 -191 -110.5t-75 -276.5v-490q0 -20 -21 -20h-119q-20 0 -20 20v988q0 20 20 20h119q21 0 21 -20v-115q53 70 137.5 113t189.5 43q114 0 195 -56t119 -151q4 -12 4 -15q0 -11 -12 -20z
M408 -446q58 0 76 19.5t18 76.5v14h-94q-21 0 -21 21v209q0 20 21 20h208q21 0 21 -20v-289q0 -83 -41.5 -124.5t-116.5 -41.5h-71q-21 0 -21 20v74q0 21 21 21z" />
    <glyph glyph-name="Rcaron" unicode="&#x158;" 
d="M143 20v1393q0 21 21 21h434q205 0 314.5 -97t109.5 -282q0 -138 -69 -229.5t-189 -131.5l301 -674v-2q0 -1 1 -3t1 -3q0 -12 -16 -12h-150q-20 0 -29 20l-288 656h-269v-656q0 -20 -20 -20h-131q-21 0 -21 20zM315 1270v-430h301q125 0 179.5 53.5t54.5 161.5
t-54.5 161.5t-179.5 53.5h-301zM817 1819l-199 -263q-16 -16 -30 -16h-115q-15 0 -31 16l-198 263q-4 8 -4 10q0 10 14 10h127q19 0 37 -18l112 -123l113 123q18 18 37 18h127q14 0 14 -10q0 -2 -4 -10z" />
    <glyph glyph-name="rcaron" unicode="&#x159;" 
d="M1006 807l-115 -72q-8 -4 -14 -4q-14 0 -17 10q-48 84 -94.5 120t-126.5 36q-116 0 -191 -110.5t-75 -276.5v-490q0 -20 -21 -20h-119q-20 0 -20 20v988q0 20 20 20h119q21 0 21 -20v-115q53 70 137.5 113t189.5 43q114 0 195 -56t119 -151q4 -12 4 -15q0 -11 -12 -20z
M901 1413l-199 -262q-16 -16 -30 -16h-115q-15 0 -31 16l-198 262q-4 8 -4 10q0 11 14 11h127q18 0 37 -19l112 -123l113 123q19 19 37 19h127q14 0 14 -11q0 -2 -4 -10z" />
    <glyph glyph-name="Sacute" unicode="&#x15a;" 
d="M106 1063q0 123 60.5 213t158.5 134t218 44q207 0 328.5 -114.5t121.5 -284.5q0 -21 -20 -21h-131q-21 0 -21 21q0 96 -79 165.5t-199 69.5q-123 0 -193.5 -56.5t-70.5 -158.5q0 -46 18.5 -83t45 -62t76 -48.5t89.5 -37t108 -33.5q82 -25 138.5 -47.5t112.5 -55.5t89 -71
t53.5 -92t20.5 -121q0 -208 -133.5 -326t-337.5 -118q-214 0 -347.5 121.5t-133.5 322.5q0 20 20 20h131q21 0 21 -20q0 -122 82.5 -201.5t226.5 -79.5q139 0 219 70t80 203q0 41 -16.5 74.5t-42 57t-69.5 45.5t-86 37t-105 34q-102 28 -176 61t-134.5 80t-91.5 111.5
t-31 146.5zM414 1561l125 258q11 20 30 20h205q14 0 14 -10q0 -2 -4 -10l-192 -260q-14 -19 -37 -19h-131q-12 0 -12 10q0 7 2 11z" />
    <glyph glyph-name="sacute" unicode="&#x15b;" 
d="M981 301q0 -149 -110 -235t-283 -86q-178 0 -297 96t-119 237q0 21 21 21h131q17 0 20 -21q12 -89 78.5 -135.5t171.5 -46.5q100 0 159.5 39.5t59.5 110.5q0 76 -61.5 113.5t-219.5 62.5q-172 30 -254.5 99t-82.5 200q0 136 105 214.5t267 78.5q169 0 268 -79t113 -216
q0 -21 -20 -21h-115q-3 0 -5.5 0.5t-4.5 1.5t-3.5 3.5t-2 4t-2 5.5t-2.5 6q-20 70 -80 106.5t-148 36.5q-96 0 -153.5 -35t-57.5 -102q0 -72 61.5 -108.5t215.5 -63.5q81 -14 139 -32.5t108.5 -50.5t76.5 -83t26 -121zM440 1155l125 258q12 21 31 21h205q14 0 14 -11
q0 -2 -4 -10l-193 -260q-13 -18 -36 -18h-131q-13 0 -13 10q0 6 2 10z" />
    <glyph glyph-name="Scircumflex" unicode="&#x15c;" 
d="M106 1063q0 123 60.5 213t158.5 134t218 44q207 0 328.5 -114.5t121.5 -284.5q0 -21 -20 -21h-131q-21 0 -21 21q0 96 -79 165.5t-199 69.5q-123 0 -193.5 -56.5t-70.5 -158.5q0 -46 18.5 -83t45 -62t76 -48.5t89.5 -37t108 -33.5q82 -25 138.5 -47.5t112.5 -55.5t89 -71
t53.5 -92t20.5 -121q0 -208 -133.5 -326t-337.5 -118q-214 0 -347.5 121.5t-133.5 322.5q0 20 20 20h131q21 0 21 -20q0 -122 82.5 -201.5t226.5 -79.5q139 0 219 70t80 203q0 41 -16.5 74.5t-42 57t-69.5 45.5t-86 37t-105 34q-102 28 -176 61t-134.5 80t-91.5 111.5
t-31 146.5zM635 1823l199 -262q4 -8 4 -11q0 -10 -15 -10h-127q-18 0 -37 19l-112 122l-113 -122q-19 -19 -37 -19h-127q-14 0 -14 10q0 3 4 11l199 262q16 16 30 16h115q15 0 31 -16z" />
    <glyph glyph-name="scircumflex" unicode="&#x15d;" 
d="M981 301q0 -149 -110 -235t-283 -86q-178 0 -297 96t-119 237q0 21 21 21h131q17 0 20 -21q12 -89 78.5 -135.5t171.5 -46.5q100 0 159.5 39.5t59.5 110.5q0 76 -61.5 113.5t-219.5 62.5q-172 30 -254.5 99t-82.5 200q0 136 105 214.5t267 78.5q169 0 268 -79t113 -216
q0 -21 -20 -21h-115q-3 0 -5.5 0.5t-4.5 1.5t-3.5 3.5t-2 4t-2 5.5t-2.5 6q-20 70 -80 106.5t-148 36.5q-96 0 -153.5 -35t-57.5 -102q0 -72 61.5 -108.5t215.5 -63.5q81 -14 139 -32.5t108.5 -50.5t76.5 -83t26 -121zM657 1417l199 -262q4 -8 4 -10q0 -10 -14 -10h-127
q-19 0 -37 18l-113 123l-112 -123q-18 -18 -37 -18h-127q-14 0 -14 10q0 2 4 10l198 262q17 17 31 17h115q13 0 30 -17z" />
    <glyph glyph-name="Scedilla" unicode="&#x15e;" 
d="M412 -211l-27 27q-4 4 -4 8q0 1 0.5 2.5t1.5 5t2 6.5l61 152q-167 30 -267.5 146t-100.5 288q0 20 20 20h131q21 0 21 -20q0 -122 82.5 -201.5t226.5 -79.5q139 0 219 70t80 203q0 41 -16.5 74.5t-42 57t-69.5 45.5t-86 37t-105 34q-102 28 -176 61t-134.5 80
t-91.5 111.5t-31 146.5q0 123 60.5 213t158.5 134t218 44q207 0 328.5 -114.5t121.5 -284.5q0 -21 -20 -21h-131q-21 0 -21 21q0 96 -79 165.5t-199 69.5q-123 0 -193.5 -56.5t-70.5 -158.5q0 -46 18.5 -83t45 -62t76 -48.5t89.5 -37t108 -33.5q82 -25 138.5 -47.5
t112.5 -55.5t89 -71t53.5 -92t20.5 -121q0 -208 -133.5 -326t-337.5 -118l-55 -105q54 14 119 14q81 0 128.5 -39.5t47.5 -105.5q0 -170 -219 -170q-130 0 -203 20q-18 8 -20 13q-1 3 -1 8v59q0 21 21 21q4 0 69 -11.5t127 -11.5q42 0 66.5 17t24.5 47q0 29 -25 46t-66 17
q-65 0 -133 -14q-2 -2 -4 -2h-8q-10 0 -16 6z" />
    <glyph glyph-name="scedilla" unicode="&#x15f;" 
d="M440 -211l-26 27q-4 4 -4 8q0 1 0.5 2.5t1.5 5t2 6.5l61 154q-136 30 -219.5 117t-83.5 204q0 21 21 21h131q17 0 20 -21q12 -89 78.5 -135.5t171.5 -46.5q100 0 159.5 39.5t59.5 110.5q0 76 -61.5 113.5t-219.5 62.5q-172 30 -254.5 99t-82.5 200q0 136 105 214.5
t267 78.5q169 0 268 -79t113 -216q0 -21 -20 -21h-115q-3 0 -5.5 0.5t-4.5 1.5t-3.5 3.5t-2 4t-2 5.5t-2.5 6q-20 70 -80 106.5t-148 36.5q-96 0 -153.5 -35t-57.5 -102q0 -72 61.5 -108.5t215.5 -63.5q81 -14 139 -32.5t108.5 -50.5t76.5 -83t26 -121q0 -149 -110 -235
t-283 -86l-56 -105q54 14 119 14q81 0 128.5 -39.5t47.5 -105.5q0 -170 -219 -170q-129 0 -202 20q-18 8 -20 13q-1 3 -1 8v59q0 21 21 21q4 0 69 -11.5t127 -11.5q42 0 66 17t24 47q0 29 -24.5 46t-65.5 17q-65 0 -133 -14q-2 -2 -4 -2h-8q-11 0 -17 6z" />
    <glyph glyph-name="Scaron" unicode="&#x160;" 
d="M106 1063q0 123 60.5 213t158.5 134t218 44q207 0 328.5 -114.5t121.5 -284.5q0 -21 -20 -21h-131q-21 0 -21 21q0 96 -79 165.5t-199 69.5q-123 0 -193.5 -56.5t-70.5 -158.5q0 -46 18.5 -83t45 -62t76 -48.5t89.5 -37t108 -33.5q82 -25 138.5 -47.5t112.5 -55.5t89 -71
t53.5 -92t20.5 -121q0 -208 -133.5 -326t-337.5 -118q-214 0 -347.5 121.5t-133.5 322.5q0 20 20 20h131q21 0 21 -20q0 -122 82.5 -201.5t226.5 -79.5q139 0 219 70t80 203q0 41 -16.5 74.5t-42 57t-69.5 45.5t-86 37t-105 34q-102 28 -176 61t-134.5 80t-91.5 111.5
t-31 146.5zM829 1819l-198 -263q-16 -16 -31 -16h-115q-14 0 -30 16l-199 263q-4 8 -4 10q0 10 14 10h127q19 0 37 -18l113 -123l112 123q18 18 37 18h127q15 0 15 -10z" />
    <glyph glyph-name="scaron" unicode="&#x161;" 
d="M981 301q0 -149 -110 -235t-283 -86q-178 0 -297 96t-119 237q0 21 21 21h131q17 0 20 -21q12 -89 78.5 -135.5t171.5 -46.5q100 0 159.5 39.5t59.5 110.5q0 76 -61.5 113.5t-219.5 62.5q-172 30 -254.5 99t-82.5 200q0 136 105 214.5t267 78.5q169 0 268 -79t113 -216
q0 -21 -20 -21h-115q-3 0 -5.5 0.5t-4.5 1.5t-3.5 3.5t-2 4t-2 5.5t-2.5 6q-20 70 -80 106.5t-148 36.5q-96 0 -153.5 -35t-57.5 -102q0 -72 61.5 -108.5t215.5 -63.5q81 -14 139 -32.5t108.5 -50.5t76.5 -83t26 -121zM852 1413l-199 -262q-16 -16 -30 -16h-115
q-15 0 -31 16l-198 262l-5 10q0 11 15 11h127q18 0 37 -19l112 -123l113 123q19 19 37 19h127q14 0 14 -11q0 -2 -4 -10z" />
    <glyph glyph-name="uni0162" unicode="&#x162;" 
d="M76 1290v123q0 21 20 21h934q21 0 21 -21v-123q0 -20 -21 -20h-381v-1250q0 -20 -20 -20h-6l-66 -125q54 14 119 14q81 0 128.5 -39.5t47.5 -105.5q0 -170 -219 -170q-130 0 -203 20q-17 7 -19 13q-1 3 -1 8v59q0 21 20 21q4 0 69.5 -11.5t127.5 -11.5q42 0 66 17t24 47
q0 29 -24.5 46t-65.5 17q-65 0 -133 -14q-2 -2 -5 -2h-8q-10 0 -16 6l-27 27q-4 4 -4 8q0 1 0.5 2.5t1.5 5t2 6.5l68 162h-8q-21 0 -21 20v1250h-381q-20 0 -20 20z" />
    <glyph glyph-name="uni0163" unicode="&#x163;" 
d="M494 -211l-27 27q-4 4 -4 8q0 1 0.5 2.5t1.5 5t2 6.5l65 162q-208 71 -208 375v502h-230q-20 0 -20 20v111q0 20 20 20h230v332q0 20 20 20h119q20 0 20 -20v-332h379q21 0 21 -20v-111q0 -20 -21 -20h-379v-500q0 -246 181 -246q94 0 136 49t56 158q2 18 23 18h118
q12 0 15.5 -2.5t3.5 -15.5q0 -95 -39 -175t-121 -131.5t-192 -51.5h-23l-55 -105q54 14 119 14q81 0 128.5 -39.5t47.5 -105.5q0 -170 -219 -170q-130 0 -203 20q-18 8 -20 13q-1 3 -1 8v59q0 21 21 21q4 0 69 -11.5t127 -11.5q42 0 66 17t24 47q0 29 -24.5 46t-65.5 17
q-65 0 -133 -14q-2 -2 -4 -2h-8q-10 0 -16 6z" />
    <glyph glyph-name="Tcaron" unicode="&#x164;" 
d="M76 1290v123q0 21 20 21h934q21 0 21 -21v-123q0 -20 -21 -20h-381v-1250q0 -20 -20 -20h-131q-21 0 -21 20v1250h-381q-20 0 -20 20zM850 1819l-199 -263q-16 -16 -30 -16h-115q-15 0 -31 16l-199 263q-4 8 -4 10q0 10 15 10h127q19 0 37 -18l112 -123l113 123
q18 18 37 18h127q14 0 14 -10q0 -2 -4 -10z" />
    <glyph glyph-name="tcaron" unicode="&#x165;" 
d="M94 1028h230v332q0 20 20 20h119q20 0 20 -20v-332h379q21 0 21 -20v-111q0 -20 -21 -20h-379v-500q0 -246 181 -246q94 0 136 49t56 158q2 18 23 18h118q12 0 15.5 -2.5t3.5 -15.5q0 -95 -39 -175t-121 -131.5t-192 -51.5q-164 0 -252 100t-88 295v502h-230
q-20 0 -20 20v111q0 20 20 20zM807 1204q58 0 76 22.5t18 86.5v39h-94q-21 0 -21 20v209q0 21 21 21h209q20 0 20 -21v-301q0 -90 -41.5 -140t-115.5 -50h-72q-21 0 -21 20v74q0 20 21 20z" />
    <glyph glyph-name="Tbar" unicode="&#x166;" 
d="M76 1290v123q0 21 20 21h934q21 0 21 -21v-123q0 -20 -21 -20h-381v-279h293q21 0 21 -20v-111q0 -20 -21 -20h-293v-820q0 -20 -20 -20h-131q-21 0 -21 20v820h-293q-20 0 -20 20v111q0 20 20 20h293v279h-381q-20 0 -20 20z" />
    <glyph glyph-name="tbar" unicode="&#x167;" 
d="M94 1028h230v332q0 20 20 20h119q20 0 20 -20v-332h379q21 0 21 -20v-111q0 -20 -21 -20h-379v-218h305q21 0 21 -20v-107q0 -20 -21 -20h-305v-135q0 -246 181 -246q94 0 136 49t56 158q2 18 23 18h118q12 0 15.5 -2.5t3.5 -15.5q0 -95 -39 -175t-121 -131.5t-192 -51.5
q-164 0 -252 100t-88 295v137h-195q-20 0 -20 20v107q0 20 20 20h195v218h-230q-20 0 -20 20v111q0 20 20 20z" />
    <glyph glyph-name="Utilde" unicode="&#x168;" 
d="M109 473v940q0 21 20 21h131q21 0 21 -21v-917q0 -176 68.5 -264.5t213.5 -88.5q146 0 214.5 88.5t68.5 264.5v917q0 21 20 21h131q21 0 21 -21v-940q0 -230 -129.5 -361.5t-325.5 -131.5q-199 0 -326.5 131t-127.5 362zM240 1761q105 78 196 78q48 0 84 -13t53.5 -29
t45 -29t61.5 -13q28 0 54.5 11.5t70.5 39.5q12 4 14 4q11 0 21 -16l57 -86q4 -8 4 -10q0 -10 -14 -21q-105 -78 -197 -78q-48 0 -84 13t-53.5 29t-45 29t-61.5 13q-28 0 -53.5 -11t-70.5 -40q-12 -4 -15 -4q-10 0 -20 17l-58 86q-4 8 -4 10q0 8 15 20z" />
    <glyph glyph-name="utilde" unicode="&#x169;" 
d="M948 1008v-988q0 -20 -20 -20h-119q-21 0 -21 20v107q-126 -147 -305 -147q-160 0 -241.5 82.5t-81.5 236.5v709q0 20 20 20h119q20 0 20 -20v-682q0 -195 197 -195q118 0 195 96t77 260v521q0 20 21 20h119q20 0 20 -20zM229 1356q105 78 197 78q48 0 84 -13t53.5 -29
t45 -29t61.5 -13q28 0 54.5 11.5t70.5 39.5q12 4 14 4q10 0 20 -16l58 -86q4 -8 4 -11q0 -9 -14 -20q-105 -78 -197 -78q-48 0 -84 13t-53.5 29t-45 29t-61.5 13q-28 0 -54.5 -11.5t-70.5 -39.5q-12 -4 -14 -4q-11 0 -21 16l-57 86q-4 8 -4 10q0 10 14 21z" />
    <glyph glyph-name="Umacron" unicode="&#x16a;" 
d="M109 473v940q0 21 20 21h131q21 0 21 -21v-917q0 -176 68.5 -264.5t213.5 -88.5q146 0 214.5 88.5t68.5 264.5v917q0 21 20 21h131q21 0 21 -21v-940q0 -230 -129.5 -361.5t-325.5 -131.5q-199 0 -326.5 131t-127.5 362zM348 1647v102q0 20 21 20h389q20 0 20 -20v-102
q0 -21 -20 -21h-389q-21 0 -21 21z" />
    <glyph glyph-name="umacron" unicode="&#x16b;" 
d="M948 1008v-988q0 -20 -20 -20h-119q-21 0 -21 20v107q-126 -147 -305 -147q-160 0 -241.5 82.5t-81.5 236.5v709q0 20 20 20h119q20 0 20 -20v-682q0 -195 197 -195q118 0 195 96t77 260v521q0 20 21 20h119q20 0 20 -20zM344 1241v102q0 21 21 21h389q20 0 20 -21v-102
q0 -20 -20 -20h-389q-21 0 -21 20z" />
    <glyph glyph-name="Ubreve" unicode="&#x16c;" 
d="M109 473v940q0 21 20 21h131q21 0 21 -21v-917q0 -176 68.5 -264.5t213.5 -88.5q146 0 214.5 88.5t68.5 264.5v917q0 21 20 21h131q21 0 21 -21v-940q0 -230 -129.5 -361.5t-325.5 -131.5q-199 0 -326.5 131t-127.5 362zM322 1808h98q20 0 20 -20q0 -50 32 -78.5
t91 -28.5t91 28.5t32 78.5q0 20 21 20h98q20 0 20 -20q0 -110 -72 -176t-190 -66t-190 66t-72 176q0 20 21 20z" />
    <glyph glyph-name="ubreve" unicode="&#x16d;" 
d="M948 1008v-988q0 -20 -20 -20h-119q-21 0 -21 20v107q-126 -147 -305 -147q-160 0 -241.5 82.5t-81.5 236.5v709q0 20 20 20h119q20 0 20 -20v-682q0 -195 197 -195q118 0 195 96t77 260v521q0 20 21 20h119q20 0 20 -20zM317 1403h99q20 0 20 -21q0 -50 32 -78t91 -28
t91 28t32 78q0 21 20 21h99q20 0 20 -21q0 -110 -72 -175.5t-190 -65.5t-190 65.5t-72 175.5q0 21 20 21z" />
    <glyph glyph-name="Uring" unicode="&#x16e;" 
d="M109 473v940q0 21 20 21h131q21 0 21 -21v-917q0 -176 68.5 -264.5t213.5 -88.5q146 0 214.5 88.5t68.5 264.5v917q0 21 20 21h131q21 0 21 -21v-940q0 -230 -129.5 -361.5t-325.5 -131.5q-199 0 -326.5 131t-127.5 362zM385 1708q0 75 50 123.5t128 48.5t128 -48.5
t50 -123.5t-50 -123.5t-128 -48.5t-128 48.5t-50 123.5zM483 1708q0 -38 22 -60t58 -22t58 22t22 60t-22 60t-58 22t-58 -22t-22 -60z" />
    <glyph glyph-name="uring" unicode="&#x16f;" 
d="M948 1008v-988q0 -20 -20 -20h-119q-21 0 -21 20v107q-126 -147 -305 -147q-160 0 -241.5 82.5t-81.5 236.5v709q0 20 20 20h119q20 0 20 -20v-682q0 -195 197 -195q118 0 195 96t77 260v521q0 20 21 20h119q20 0 20 -20zM377 1303q0 75 50 123.5t128 48.5t128 -48.5
t50 -123.5t-50 -124t-128 -49t-128 49t-50 124zM475 1303q0 -38 22 -60t58 -22t58 22t22 60t-22 59.5t-58 21.5t-58 -21.5t-22 -59.5z" />
    <glyph glyph-name="Uhungarumlaut" unicode="&#x170;" 
d="M109 473v940q0 21 20 21h131q21 0 21 -21v-917q0 -176 68.5 -264.5t213.5 -88.5q146 0 214.5 88.5t68.5 264.5v917q0 21 20 21h131q21 0 21 -21v-940q0 -230 -129.5 -361.5t-325.5 -131.5q-199 0 -326.5 131t-127.5 362zM242 1561l125 258q11 20 30 20h205q14 0 14 -10
q0 -2 -4 -10l-192 -260q-14 -19 -37 -19h-131q-12 0 -12 10q0 7 2 11zM618 1561l125 258q11 20 31 20h205q14 0 14 -10q0 -2 -4 -10l-192 -260q-14 -19 -37 -19h-131q-13 0 -13 10q0 7 2 11z" />
    <glyph glyph-name="uhungarumlaut" unicode="&#x171;" 
d="M948 1008v-988q0 -20 -20 -20h-119q-21 0 -21 20v107q-126 -147 -305 -147q-160 0 -241.5 82.5t-81.5 236.5v709q0 20 20 20h119q20 0 20 -20v-682q0 -195 197 -195q118 0 195 96t77 260v521q0 20 21 20h119q20 0 20 -20zM207 1155l125 258q12 21 30 21h205q15 0 15 -11
q0 -2 -4 -10l-193 -260q-13 -18 -37 -18h-131q-12 0 -12 10q0 6 2 10zM584 1155l125 258q12 21 30 21h205q14 0 14 -11q0 -2 -4 -10l-192 -260q-13 -18 -37 -18h-131q-12 0 -12 10q0 6 2 10z" />
    <glyph glyph-name="Uogonek" unicode="&#x172;" 
d="M109 473v940q0 21 20 21h131q21 0 21 -21v-917q0 -176 68.5 -264.5t213.5 -88.5q146 0 214.5 88.5t68.5 264.5v917q0 21 20 21h131q21 0 21 -21v-940q0 -188 -86.5 -310t-231.5 -165q-59 -18 -93 -54.5t-34 -86.5q0 -47 36 -76t93 -29h29q21 0 21 -20v-70q0 -20 -21 -20
h-65q-105 0 -173.5 47t-68.5 139q0 96 74 156q-172 21 -280.5 149.5t-108.5 339.5z" />
    <glyph glyph-name="uogonek" unicode="&#x173;" 
d="M948 1008v-988q0 -17 -14 -20q-62 -17 -97.5 -55t-35.5 -88q0 -47 36 -76t93 -29h28q21 0 21 -20v-70q0 -20 -21 -20h-65q-105 0 -173.5 47t-68.5 139q0 70 38.5 119.5t98.5 75.5v104q-126 -147 -305 -147q-160 0 -241.5 82.5t-81.5 236.5v709q0 20 20 20h119
q20 0 20 -20v-682q0 -195 197 -195q118 0 195 96t77 260v521q0 20 21 20h119q20 0 20 -20z" />
    <glyph glyph-name="Wcircumflex" unicode="&#x174;" 
d="M170 20l-137 1393q0 21 16 21h139q22 0 25 -21l90 -1175l168 829q3 20 25 20h135q18 0 24 -20l168 -829l90 1175q3 21 25 21h139q17 0 17 -21l-138 -1393q-3 -20 -22 -20h-191q-16 0 -22 20l-158 773l-157 -773q-6 -20 -23 -20h-190q-20 0 -23 20zM651 1823l199 -262
q4 -8 4 -11q0 -10 -14 -10h-127q-18 0 -37 19l-113 122l-112 -122q-19 -19 -37 -19h-127q-15 0 -15 10q0 3 4 11l199 262q16 16 31 16h115q14 0 30 -16z" />
    <glyph glyph-name="wcircumflex" unicode="&#x175;" 
d="M1094 997l-189 -977q-6 -20 -26 -20h-144q-20 0 -26 20l-146 639l-145 -639q-6 -20 -27 -20h-143q-24 0 -27 20l-188 977q-2 6 -2 17q0 14 16 14h135q26 0 29 -20l117 -750l135 616q1 2 2.5 5.5t2 5t1.5 3.5t2.5 3t3.5 2t4.5 1.5t5.5 0.5h156q10 0 13.5 -3t7.5 -14
q1 -3 2 -4l135 -616l116 750q3 20 29 20h135q17 0 17 -14q0 -11 -2 -17zM651 1417l199 -262q4 -8 4 -10q0 -10 -14 -10h-127q-19 0 -37 18l-113 123l-112 -123q-18 -18 -37 -18h-127q-15 0 -15 10q0 2 4 10l199 262q17 17 31 17h115q13 0 30 -17z" />
    <glyph glyph-name="Ycircumflex" unicode="&#x176;" 
d="M1055 1413l-406 -780v-613q0 -20 -20 -20h-131q-21 0 -21 20v613l-405 780q-2 2 -2 8q0 13 12 13h158q3 0 6 -0.5t4.5 -1.5t3.5 -3t2.5 -3t3 -4.5t2.5 -4.5l301 -594l301 594q10 17 23 17h157q13 0 13 -13q0 -6 -2 -8zM651 1823l199 -262q4 -8 4 -11q0 -10 -14 -10h-127
q-18 0 -37 19l-113 122l-112 -122q-19 -19 -37 -19h-127q-15 0 -15 10q0 3 4 11l199 262q16 16 31 16h115q14 0 30 -16z" />
    <glyph glyph-name="ycircumflex" unicode="&#x177;" 
d="M143 -360v110q0 21 17 21q8 0 54.5 -22.5t94.5 -22.5q38 0 64.5 13.5t50 49t42.5 81t46 126.5l4 12l-389 987q-4 16 -4 17q0 16 16 16h148q20 0 26 -20l287 -768l260 768q5 11 10.5 15.5t18.5 4.5h141q17 0 17 -14q0 -1 -1 -3t-2 -5.5t-2 -6.5l-401 -1124
q-57 -161 -131.5 -231t-190.5 -70q-88 0 -155 33q-21 12 -21 33zM678 1417l199 -262q4 -8 4 -10q0 -10 -15 -10h-127q-19 0 -37 18l-112 123l-113 -123q-18 -18 -37 -18h-127q-14 0 -14 10q0 2 4 10l199 262q17 17 30 17h115q14 0 31 -17z" />
    <glyph glyph-name="Ydieresis" unicode="&#x178;" 
d="M1055 1413l-406 -780v-613q0 -20 -20 -20h-131q-21 0 -21 20v613l-405 780q-2 2 -2 8q0 13 12 13h158q3 0 6 -0.5t4.5 -1.5t3.5 -3t2.5 -3t3 -4.5t2.5 -4.5l301 -594l301 594q10 17 23 17h157q13 0 13 -13q0 -6 -2 -8zM289 1647v172q0 20 20 20h172q21 0 21 -20v-172
q0 -21 -21 -21h-172q-20 0 -20 21zM625 1647v172q0 20 20 20h172q21 0 21 -20v-172q0 -21 -21 -21h-172q-20 0 -20 21z" />
    <glyph glyph-name="Zacute" unicode="&#x179;" 
d="M125 1290v123q0 21 20 21h840q21 0 21 -21v-123q0 -16 -13 -35l-696 -1091h719q20 0 20 -21v-123q0 -20 -20 -20h-893q-21 0 -21 20v123q0 15 13 35l698 1092h-668q-20 0 -20 20zM414 1561l125 258q11 20 30 20h205q14 0 14 -10q0 -2 -4 -10l-192 -260q-14 -19 -37 -19
h-131q-12 0 -12 10q0 7 2 11z" />
    <glyph glyph-name="zacute" unicode="&#x17a;" 
d="M215 897v111q0 20 21 20h663q21 0 21 -20v-111q0 -15 -17 -43l-528 -702h565q21 0 21 -21v-111q0 -20 -21 -20h-737q-21 0 -21 20v111q0 14 13 31l538 715h-497q-21 0 -21 20zM414 1155l125 258q12 21 30 21h205q14 0 14 -11q0 -2 -4 -10l-192 -260q-13 -18 -37 -18h-131
q-12 0 -12 10q0 6 2 10z" />
    <glyph glyph-name="Zdotaccent" unicode="&#x17b;" 
d="M125 1290v123q0 21 20 21h840q21 0 21 -21v-123q0 -16 -13 -35l-696 -1091h719q20 0 20 -21v-123q0 -20 -20 -20h-893q-21 0 -21 20v123q0 15 13 35l698 1092h-668q-20 0 -20 20zM469 1642v177q0 20 20 20h177q20 0 20 -20v-177q0 -20 -20 -20h-177q-20 0 -20 20z" />
    <glyph glyph-name="zdotaccent" unicode="&#x17c;" 
d="M215 897v111q0 20 21 20h663q21 0 21 -20v-111q0 -15 -17 -43l-528 -702h565q21 0 21 -21v-111q0 -20 -21 -20h-737q-21 0 -21 20v111q0 14 13 31l538 715h-497q-21 0 -21 20zM461 1237v176q0 21 20 21h176q21 0 21 -21v-176q0 -20 -21 -20h-176q-20 0 -20 20z" />
    <glyph glyph-name="Zcaron" unicode="&#x17d;" 
d="M125 1290v123q0 21 20 21h840q21 0 21 -21v-123q0 -16 -13 -35l-696 -1091h719q20 0 20 -21v-123q0 -20 -20 -20h-893q-21 0 -21 20v123q0 15 13 35l698 1092h-668q-20 0 -20 20zM852 1819l-199 -263q-16 -16 -30 -16h-115q-15 0 -31 16l-198 263l-5 10q0 10 15 10h127
q19 0 37 -18l112 -123l113 123q18 18 37 18h127q14 0 14 -10q0 -2 -4 -10z" />
    <glyph glyph-name="zcaron" unicode="&#x17e;" 
d="M215 897v111q0 20 21 20h663q21 0 21 -20v-111q0 -15 -17 -43l-528 -702h565q21 0 21 -21v-111q0 -20 -21 -20h-737q-21 0 -21 20v111q0 14 13 31l538 715h-497q-21 0 -21 20zM866 1413l-198 -262q-16 -16 -31 -16h-115q-14 0 -30 16l-199 262q-4 8 -4 10q0 11 14 11h127
q18 0 37 -19l113 -123l112 123q19 19 37 19h127q14 0 14 -11q0 -2 -4 -10z" />
    <glyph glyph-name="longs" unicode="&#x17f;" 
d="M559 1096v-1076q0 -20 -20 -20h-119q-21 0 -21 20v857h-235q-21 0 -21 20v111q0 20 21 20h235v78q0 148 86.5 248t243.5 100q149 0 244 -59q16 -11 16 -35v-109q0 -20 -14 -20q-2 0 -14 4q-110 68 -220 68q-86 0 -134 -54.5t-48 -152.5z" />
    <glyph glyph-name="uni018E" unicode="&#x18e;" 
d="M793 762v508h-648q-20 0 -20 20v123q0 21 20 21h799q21 0 21 -21v-1393q0 -20 -21 -20h-784q-21 0 -21 20v123q0 21 21 21h633v434h-570q-20 0 -20 20v123q0 21 20 21h570z" />
    <glyph glyph-name="uni018F" unicode="&#x18f;" 
d="M119 563h715q-8 151 -83 242.5t-208 91.5q-101 0 -158.5 -46t-91.5 -142q-7 -19 -29 -19h-133q-14 0 -14 15q0 11 4 20q53 159 154.5 241.5t267.5 82.5q145 0 251.5 -71.5t159 -191.5t52.5 -272q0 -229 -129.5 -381.5t-333.5 -152.5q-110 0 -196.5 42.5t-140 117
t-81 169.5t-27.5 205v29q0 20 21 20zM543 131q110 0 184.5 73.5t97.5 207.5h-555q23 -131 95.5 -206t177.5 -75z" />
    <glyph glyph-name="florin" unicode="&#x192;" 
d="M381 -27l121 904h-254q-19 0 -19 20v111q0 20 23 20h270l8 70q19 165 121 260.5t262 95.5q87 0 160 -24q17 -3 17 -35v-107q0 -20 -17 -20q-2 0 -14 4q-42 19 -70.5 25t-70.5 6q-93 0 -155 -52.5t-75 -167.5l-6 -55h385q20 0 20 -20v-111q0 -20 -20 -20h-405l-127 -949
q-49 -354 -328 -354q-120 0 -191 35q-11 6 -13.5 12t-2.5 23v106q0 23 14 23q8 0 17 -6q78 -41 149 -41q95 0 138.5 55t62.5 192z" />
    <glyph glyph-name="uni01B5" unicode="&#x1b5;" 
d="M125 1290v123q0 21 20 21h840q21 0 21 -21v-123q0 -16 -13 -35l-297 -462h242q20 0 20 -21v-110q0 -21 -20 -21h-338l-303 -477h719q20 0 20 -21v-123q0 -20 -20 -20h-893q-21 0 -21 20v123q0 15 13 35l295 463h-230q-20 0 -20 21v110q0 21 20 21h328l305 477h-668
q-20 0 -20 20z" />
    <glyph glyph-name="uni01B6" unicode="&#x1b6;" 
d="M215 897v111q0 20 21 20h663q21 0 21 -20v-111q0 -15 -17 -43l-201 -266h150q20 0 20 -21v-106q0 -21 -20 -21h-260l-217 -288h565q21 0 21 -21v-111q0 -20 -21 -20h-737q-21 0 -21 20v111q0 14 13 31l208 278h-141q-20 0 -20 21v106q0 21 20 21h254l217 289h-497
q-21 0 -21 20z" />
    <glyph glyph-name="Aringacute" unicode="&#x1fa;" 
d="M911 20l-112 386h-471l-113 -386q-5 -12 -9.5 -16t-15.5 -4h-139q-22 0 -22 20q0 9 2 13l418 1347q-64 46 -64 136q0 75 50 123.5t128 48.5t128 -48.5t50 -123.5q0 -86 -63 -136l418 -1347q2 -4 2 -13q0 -20 -23 -20h-139q-11 0 -15.5 4t-9.5 16zM563 1217l-188 -648h377
zM483 1516q0 -38 22 -60t58 -22t58 22t22 60t-22 59.5t-58 21.5t-58 -21.5t-22 -59.5zM459 1765l125 258q12 21 30 21h205q15 0 15 -10q0 -1 -5 -11l-192 -260q-13 -18 -37 -18h-131q-12 0 -12 10q0 6 2 10z" />
    <glyph glyph-name="aringacute" unicode="&#x1fb;" 
d="M326 729h-131q-15 0 -15 12q0 13 2 21q30 121 137.5 204t266.5 83q191 0 291 -99.5t100 -269.5v-483q0 -70 7 -105.5t28 -71.5q2 -2 2 -10q0 -10 -17 -10h-159q-21 0 -21 20v101q-117 -141 -328 -141q-142 0 -244 90t-102 239q0 83 31.5 149t84.5 106.5t120.5 61.5
t142.5 21q57 0 108 -6t84 -13t103 -24v64q0 229 -231 229q-174 0 -232 -149q-7 -19 -28 -19zM817 453q-157 43 -270 43q-109 0 -172.5 -46t-63.5 -141q0 -79 59 -128.5t148 -49.5q134 0 216.5 90t82.5 232zM408 1303q0 75 50 123.5t128 48.5t128 -48.5t50 -123.5t-50 -124
t-128 -49t-128 49t-50 124zM506 1303q0 -38 22 -60t58 -22t58 22t22 60t-22 59.5t-58 21.5t-58 -21.5t-22 -59.5zM483 1561l125 258q11 20 31 20h205q14 0 14 -10q0 -2 -4 -10l-192 -260q-14 -19 -37 -19h-131q-13 0 -13 10q0 7 2 11z" />
    <glyph glyph-name="AEacute" unicode="&#x1fc;" 
d="M653 672v-508h420q21 0 21 -21v-123q0 -20 -21 -20h-571q-21 0 -21 20v386h-233l-86 -386q-5 -12 -9.5 -16t-15.5 -4h-133q-22 0 -22 20q0 9 2 13l335 1380q8 18 13 20q3 1 8 1h713q20 0 20 -21v-123q0 -20 -20 -20h-400v-434h351q20 0 20 -21v-123q0 -20 -20 -20h-351z
M440 1270l-155 -701h196v701h-41zM545 1561l125 258q11 20 30 20h205q15 0 15 -10l-5 -10l-192 -260q-14 -19 -37 -19h-131q-12 0 -12 10q0 7 2 11z" />
    <glyph glyph-name="aeacute" unicode="&#x1fd;" 
d="M541 1049h41q118 0 212.5 -43t154 -117t91 -170t31.5 -205v-29q0 -20 -20 -20h-412v-334q91 0 145.5 45.5t87.5 142.5q7 19 29 19h133q15 0 15 -14q0 -9 -5 -21q-105 -323 -456 -323h-78q-207 0 -321.5 81t-114.5 234q0 105 58 179.5t145.5 108t193.5 33.5h8v277
q-147 -14 -198 -152q-7 -18 -29 -18h-131q-15 0 -15 12q0 9 3 21q13 53 48.5 104.5t89.5 94t131 68.5t163 26zM242 295q0 -79 55 -121.5t162 -42.5h20v334q-237 0 -237 -170zM639 616h252q-18 124 -82.5 202.5t-169.5 78.5v-281zM422 1155l125 258q12 21 31 21h204
q15 0 15 -11q0 -2 -4 -10l-193 -260q-13 -18 -37 -18h-131q-12 0 -12 10q0 6 2 10z" />
    <glyph glyph-name="Scommaaccent" unicode="&#x218;" 
d="M106 1063q0 123 60.5 213t158.5 134t218 44q207 0 328.5 -114.5t121.5 -284.5q0 -21 -20 -21h-131q-21 0 -21 21q0 96 -79 165.5t-199 69.5q-123 0 -193.5 -56.5t-70.5 -158.5q0 -46 18.5 -83t45 -62t76 -48.5t89.5 -37t108 -33.5q82 -25 138.5 -47.5t112.5 -55.5t89 -71
t53.5 -92t20.5 -121q0 -208 -133.5 -326t-337.5 -118q-214 0 -347.5 121.5t-133.5 322.5q0 20 20 20h131q21 0 21 -20q0 -122 82.5 -201.5t226.5 -79.5q139 0 219 70t80 203q0 41 -16.5 74.5t-42 57t-69.5 45.5t-86 37t-105 34q-102 28 -176 61t-134.5 80t-91.5 111.5
t-31 146.5zM459 -446q58 0 76 19.5t18 76.5v14h-94q-21 0 -21 21v209q0 20 21 20h209q20 0 20 -20v-289q0 -83 -41.5 -124.5t-116.5 -41.5h-71q-21 0 -21 20v74q0 21 21 21z" />
    <glyph glyph-name="scommaaccent" unicode="&#x219;" 
d="M981 301q0 -149 -110 -235t-283 -86q-178 0 -297 96t-119 237q0 21 21 21h131q17 0 20 -21q12 -89 78.5 -135.5t171.5 -46.5q100 0 159.5 39.5t59.5 110.5q0 76 -61.5 113.5t-219.5 62.5q-172 30 -254.5 99t-82.5 200q0 136 105 214.5t267 78.5q169 0 268 -79t113 -216
q0 -21 -20 -21h-115q-3 0 -5.5 0.5t-4.5 1.5t-3.5 3.5t-2 4t-2 5.5t-2.5 6q-20 70 -80 106.5t-148 36.5q-96 0 -153.5 -35t-57.5 -102q0 -72 61.5 -108.5t215.5 -63.5q81 -14 139 -32.5t108.5 -50.5t76.5 -83t26 -121zM459 -446q58 0 76 19.5t18 76.5v14h-94q-21 0 -21 21
v209q0 20 21 20h209q20 0 20 -20v-289q0 -83 -41.5 -124.5t-116.5 -41.5h-71q-21 0 -21 20v74q0 21 21 21z" />
    <glyph glyph-name="uni021A" unicode="&#x21a;" 
d="M76 1290v123q0 21 20 21h934q21 0 21 -21v-123q0 -20 -21 -20h-381v-1250q0 -20 -20 -20h-131q-21 0 -21 20v1250h-381q-20 0 -20 20zM459 -446q58 0 76 19.5t18 76.5v14h-94q-21 0 -21 21v209q0 20 21 20h209q20 0 20 -20v-289q0 -83 -41.5 -124.5t-116.5 -41.5h-71
q-21 0 -21 20v74q0 21 21 21z" />
    <glyph glyph-name="uni021B" unicode="&#x21b;" 
d="M94 1028h230v332q0 20 20 20h119q20 0 20 -20v-332h379q21 0 21 -20v-111q0 -20 -21 -20h-379v-500q0 -246 181 -246q94 0 136 49t56 158q2 18 23 18h118q12 0 15.5 -2.5t3.5 -15.5q0 -95 -39 -175t-121 -131.5t-192 -51.5q-164 0 -252 100t-88 295v502h-230
q-20 0 -20 20v111q0 20 20 20zM559 -446q58 0 76 19.5t18 76.5v14h-94q-20 0 -20 21v209q0 20 20 20h209q20 0 20 -20v-289q0 -83 -41 -124.5t-116 -41.5h-72q-20 0 -20 20v74q0 21 20 21z" />
    <glyph glyph-name="circumflex" unicode="&#x2c6;" 
d="M651 1417l199 -262q4 -8 4 -10q0 -10 -14 -10h-127q-19 0 -37 18l-113 123l-112 -123q-18 -18 -37 -18h-127q-15 0 -15 10q0 2 4 10l199 262q17 17 31 17h115q13 0 30 -17z" />
    <glyph glyph-name="caron" unicode="&#x2c7;" 
d="M850 1413l-199 -262q-16 -16 -30 -16h-115q-15 0 -31 16l-199 262q-4 8 -4 10q0 11 15 11h127q18 0 37 -19l112 -123l113 123q19 19 37 19h127q14 0 14 -11q0 -2 -4 -10z" />
    <glyph glyph-name="breve" unicode="&#x2d8;" 
d="M322 1403h98q20 0 20 -21q0 -50 32 -78t91 -28t91 28t32 78q0 21 21 21h98q20 0 20 -21q0 -110 -72 -175.5t-190 -65.5t-190 65.5t-72 175.5q0 21 21 21z" />
    <glyph glyph-name="dotaccent" unicode="&#x2d9;" 
d="M455 1237v176q0 21 20 21h176q21 0 21 -21v-176q0 -20 -21 -20h-176q-20 0 -20 20z" />
    <glyph glyph-name="ring" unicode="&#x2da;" 
d="M385 1303q0 75 50 123.5t128 48.5t128 -48.5t50 -123.5t-50 -124t-128 -49t-128 49t-50 124zM483 1303q0 -38 22 -60t58 -22t58 22t22 60t-22 59.5t-58 21.5t-58 -21.5t-22 -59.5z" />
    <glyph glyph-name="ogonek" unicode="&#x2db;" 
d="M594 31l88 -17l2 -2q4 -4 4 -6q0 -4 -4 -4l-2 -2q-62 -19 -97.5 -56t-35.5 -87q0 -47 36 -76t93 -29h29q20 0 20 -20v-70q0 -20 -20 -20h-66q-105 0 -173.5 47t-68.5 139q0 74 44.5 126t107.5 75q4 1 9 2l7.5 1.5t3.5 0.5q9 0 23 -2z" />
    <glyph glyph-name="tilde" unicode="&#x2dc;" 
d="M240 1356q105 78 196 78q48 0 84 -13t53.5 -29t45 -29t61.5 -13q28 0 54.5 11.5t70.5 39.5q12 4 14 4q11 0 21 -16l57 -86q4 -8 4 -11q0 -9 -14 -20q-105 -78 -197 -78q-48 0 -84 13t-53.5 29t-45 29t-61.5 13q-28 0 -53.5 -11t-70.5 -40q-12 -4 -15 -4q-10 0 -20 16
l-58 86q-4 8 -4 10q0 9 15 21z" />
    <glyph glyph-name="hungarumlaut" unicode="&#x2dd;" 
d="M188 1155l125 258q12 21 31 21h205q14 0 14 -11q0 -2 -4 -10l-192 -260q-13 -18 -37 -18h-131q-13 0 -13 10q0 6 2 10zM565 1155l125 258q12 21 31 21h205q14 0 14 -11q0 -2 -4 -10l-193 -260q-13 -18 -36 -18h-132q-12 0 -12 10q0 6 2 10z" />
    <glyph glyph-name="uni03A9" unicode="&#x3a9;" 
d="M563 1290q-156 0 -251 -101t-95 -302q0 -386 264 -709q17 -19 17 -41v-117q0 -20 -21 -20h-379q-20 0 -20 20v123q0 21 20 21h224q-277 358 -277 723q0 262 141.5 414.5t376.5 152.5t376.5 -152.5t141.5 -414.5q0 -366 -276 -723h223q21 0 21 -21v-123q0 -20 -21 -20
h-379q-20 0 -20 20v117q0 19 16 41q264 323 264 709q0 201 -95 302t-251 101z" />
    <glyph glyph-name="pi" unicode="&#x3c0;" 
d="M1024 881h-172v-617q0 -62 24.5 -87t84.5 -25h16q20 0 20 -21v-111q0 -20 -20 -20h-68q-217 0 -217 203v678h-268v-861q0 -20 -21 -20h-118q-21 0 -21 20v861h-182q-21 0 -21 20v107q0 20 21 20h942q20 0 20 -20v-107q0 -20 -20 -20z" />
    <glyph glyph-name="endash" unicode="&#x2013;" 
d="M172 780h780q21 0 21 -20v-119q0 -20 -21 -20h-780q-20 0 -20 20v119q0 20 20 20z" />
    <glyph glyph-name="emdash" unicode="&#x2014;" 
d="M102 780h922q20 0 20 -20v-119q0 -20 -20 -20h-922q-20 0 -20 20v119q0 20 20 20z" />
    <glyph glyph-name="quoteleft" unicode="&#x2018;" 
d="M668 1319q-58 0 -76.5 -22.5t-18.5 -86.5v-39h95q20 0 20 -20v-209q0 -20 -20 -20h-209q-21 0 -21 20v301q0 90 42 140.5t116 50.5h72q20 0 20 -21v-74q0 -20 -20 -20z" />
    <glyph glyph-name="quoteright" unicode="&#x2019;" 
d="M459 1036q58 0 76 22.5t18 86.5v39h-94q-21 0 -21 20v209q0 21 21 21h209q20 0 20 -21v-301q0 -90 -42 -140t-116 -50h-71q-21 0 -21 20v74q0 20 21 20z" />
    <glyph glyph-name="quotesinglbase" unicode="&#x201a;" 
d="M459 -147q58 0 76 22t18 86v39h-94q-21 0 -21 20v209q0 21 21 21h209q20 0 20 -21v-301q0 -90 -42 -140t-116 -50h-71q-21 0 -21 20v74q0 21 21 21z" />
    <glyph glyph-name="quotedblleft" unicode="&#x201c;" 
d="M459 1319q-58 0 -76 -22.5t-18 -86.5v-39h94q20 0 20 -20v-209q0 -20 -20 -20h-209q-21 0 -21 20v301q0 90 42 140.5t116 50.5h72q20 0 20 -21v-74q0 -20 -20 -20zM874 1319q-58 0 -76 -22.5t-18 -86.5v-39h94q21 0 21 -20v-209q0 -20 -21 -20h-208q-21 0 -21 20v301
q0 90 42 140.5t116 50.5h71q21 0 21 -21v-74q0 -20 -21 -20z" />
    <glyph glyph-name="quotedblright" unicode="&#x201d;" 
d="M666 1036q58 0 76 22.5t18 86.5v39h-94q-21 0 -21 20v209q0 21 21 21h208q21 0 21 -21v-301q0 -90 -42 -140t-116 -50h-71q-21 0 -21 20v74q0 20 21 20zM250 1036q58 0 76 22.5t18 86.5v39h-94q-21 0 -21 20v209q0 21 21 21h209q20 0 20 -21v-301q0 -90 -41.5 -140
t-115.5 -50h-72q-21 0 -21 20v74q0 20 21 20z" />
    <glyph glyph-name="quotedblbase" unicode="&#x201e;" 
d="M666 -147q58 0 76 22t18 86v39h-94q-21 0 -21 20v209q0 21 21 21h208q21 0 21 -21v-301q0 -90 -42 -140t-116 -50h-71q-21 0 -21 20v74q0 21 21 21zM250 -147q58 0 76 22t18 86v39h-94q-21 0 -21 20v209q0 21 21 21h209q20 0 20 -21v-301q0 -90 -41.5 -140t-115.5 -50
h-72q-21 0 -21 20v74q0 21 21 21z" />
    <glyph glyph-name="dagger" unicode="&#x2020;" 
d="M164 1028h313v385q0 21 21 21h131q20 0 20 -21v-385h314q20 0 20 -20v-119q0 -21 -20 -21h-314v-1253q0 -21 -20 -21h-131q-21 0 -21 21v1253h-313q-21 0 -21 21v119q0 20 21 20z" />
    <glyph glyph-name="daggerdbl" unicode="&#x2021;" 
d="M477 0h-313q-21 0 -21 20v119q0 21 21 21h313v708h-313q-21 0 -21 21v119q0 20 21 20h313v385q0 21 21 21h131q20 0 20 -21v-385h314q20 0 20 -20v-119q0 -21 -20 -21h-314v-708h314q20 0 20 -21v-119q0 -20 -20 -20h-314v-385q0 -21 -20 -21h-131q-21 0 -21 21v385z" />
    <glyph glyph-name="bullet" unicode="&#x2022;" 
d="M303 668q0 106 76.5 183t183.5 77q106 0 183 -77t77 -183q0 -107 -77 -183.5t-183 -76.5q-107 0 -183.5 76.5t-76.5 183.5z" />
    <glyph glyph-name="ellipsis" unicode="&#x2026;" 
d="M74 250h209q20 0 20 -21v-209q0 -20 -20 -20h-209q-21 0 -21 20v209q0 21 21 21zM459 250h209q20 0 20 -21v-209q0 -20 -20 -20h-209q-21 0 -21 20v209q0 21 21 21zM844 250h209q20 0 20 -21v-209q0 -20 -20 -20h-209q-21 0 -21 20v209q0 21 21 21z" />
    <glyph glyph-name="perthousand" unicode="&#x2030;" 
d="M608 1169q0 -127 -76.5 -205.5t-191.5 -78.5t-191.5 78.5t-76.5 205.5t76.5 206t191.5 79t191.5 -79t76.5 -206zM43 655l932 371q4 2 10 2q13 0 19 -14l24 -68q2 -4 2 -10q0 -10 -14 -16l-932 -371q-4 -2 -10 -2q-13 0 -19 14l-24 68q-2 4 -2 10q0 10 14 16zM489 1169
q0 83 -40.5 128.5t-108.5 45.5t-109 -45.5t-41 -128.5t41 -128.5t109 -45.5t108.5 45.5t40.5 128.5zM1079 264q0 -127 -76.5 -205.5t-191.5 -78.5q-133 0 -209 98q-76 -98 -209 -98q-115 0 -191.5 78.5t-76.5 205.5t76.5 206t191.5 79q133 0 209 -98q76 98 209 98
q115 0 191.5 -79t76.5 -206zM393 438q-68 0 -108.5 -45.5t-40.5 -128.5t40.5 -128.5t108.5 -45.5q64 0 107 46t43 128t-43 128t-107 46zM961 264q0 83 -41 128.5t-109 45.5t-108.5 -45.5t-40.5 -128.5t40.5 -128.5t108.5 -45.5t109 45.5t41 128.5z" />
    <glyph glyph-name="guilsinglleft" unicode="&#x2039;" 
d="M778 260v-172q0 -14 -12 -14q-6 0 -12 6l-422 387q-21 18 -21 37v114q0 19 21 37l422 387q7 7 12 7q12 0 12 -15v-172q0 -22 -14 -33l-289 -268l289 -268q14 -11 14 -33z" />
    <glyph glyph-name="guilsinglright" unicode="&#x203a;" 
d="M348 88v172q0 22 14 33l289 268l-289 268q-14 11 -14 33v172q0 15 12 15q6 0 13 -7l422 -387q20 -17 20 -37v-114q0 -20 -20 -37l-422 -387q-6 -6 -13 -6q-12 0 -12 14z" />
    <glyph glyph-name="fraction" unicode="&#x2044;" 
d="M139 358l770 684q11 7 15 7q7 0 16 -9l47 -55q6 -9 6 -14q0 -7 -8 -15l-770 -684q-9 -6 -14 -6q-9 0 -17 8l-47 56q-6 9 -6 14q0 6 8 14z" />
    <glyph glyph-name="zerosuperior" unicode="&#x2070;" 
d="M287 1051q0 185 77.5 290t198.5 105t199 -105t78 -290t-78 -290.5t-199 -105.5t-198.5 105.5t-77.5 290.5zM721 1051q0 151 -45 219l-137 -502q6 -2 24 -2q75 0 116.5 70t41.5 215zM406 1051q0 -154 45 -222l135 504q-6 2 -23 2q-157 0 -157 -284z" />
    <glyph glyph-name="foursuperior" unicode="&#x2074;" 
d="M600 688v125h-293q-20 0 -20 21v57q0 13 8 24l309 504q9 15 23 15h67q21 0 21 -21v-489h69q21 0 21 -21v-69q0 -21 -21 -21h-69v-125q0 -20 -21 -20h-73q-21 0 -21 20zM600 1210l-172 -286h172v286z" />
    <glyph glyph-name="fivesuperior" unicode="&#x2075;" 
d="M309 1036l53 381q3 17 21 17h352q21 0 21 -21v-70q0 -20 -21 -20h-274l-31 -190q62 43 139 43q111 0 170.5 -67.5t59.5 -195.5q0 -119 -70.5 -188.5t-177.5 -69.5q-101 0 -173.5 62t-72.5 157q0 21 21 21h80q17 0 20 -21q8 -52 40 -80t85 -28q63 0 96 40t33 105
q0 152 -127 152q-63 0 -117 -51q-8 -8 -14 -8h-6q-4 0 -6 2l-91 14q-10 3 -10 16z" />
    <glyph glyph-name="sixsuperior" unicode="&#x2076;" 
d="M340 1016q0 214 71 322t191 108q90 0 148.5 -54t70.5 -139q0 -10 -12 -10h-94q-7 0 -10 10q-27 82 -105 82q-60 0 -91.5 -54.5t-37.5 -172.5q59 53 139 53q109 0 172.5 -68t63.5 -184q0 -113 -71 -183.5t-175 -70.5q-110 0 -185 90.5t-75 270.5zM477 909
q0 -68 32.5 -105.5t92.5 -37.5t93.5 37.5t33.5 105.5q0 66 -33.5 104t-93.5 38t-92.5 -37.5t-32.5 -104.5z" />
    <glyph glyph-name="sevensuperior" unicode="&#x2077;" 
d="M342 1343v70q0 21 20 21h441q20 0 20 -21v-33q0 -16 -8 -32l-229 -662q-6 -18 -25 -18h-80q-16 0 -16 12q0 2 4 14l219 629h-326q-20 0 -20 20z" />
    <glyph glyph-name="eightsuperior" unicode="&#x2078;" 
d="M340 1243q0 92 62.5 147.5t160.5 55.5t160.5 -55.5t62.5 -147.5q0 -108 -90 -170q115 -56 115 -188q0 -103 -69 -166.5t-179 -63.5t-179 63.5t-69 166.5q0 132 115 188q-90 62 -90 170zM434 885q0 -58 36 -88.5t93 -30.5t93 30.5t36 88.5q0 56 -37 89.5t-92 33.5
t-92 -33.5t-37 -89.5zM449 1233q0 -51 31.5 -83t82.5 -32t83 32t32 83q0 52 -32.5 81t-82.5 29q-49 0 -81.5 -29t-32.5 -81z" />
    <glyph glyph-name="ninesuperior" unicode="&#x2079;" 
d="M809 1085q0 -214 -71 -322t-191 -108q-90 0 -148.5 54t-70.5 139q0 10 12 10h94q7 0 10 -10q27 -82 105 -82q60 0 91.5 54.5t37.5 172.5q-59 -53 -139 -53q-109 0 -172.5 68t-63.5 184q0 113 71 183.5t175 70.5q110 0 185 -90.5t75 -270.5zM672 1192q0 68 -32.5 105.5
t-92.5 37.5t-93.5 -37.5t-33.5 -105.5q0 -66 33.5 -103.5t93.5 -37.5t92.5 37.5t32.5 103.5z" />
    <glyph glyph-name="zeroinferior" unicode="&#x2080;" 
d="M287 -23q0 185 77.5 290.5t198.5 105.5t199 -105.5t78 -290.5t-78 -290t-199 -105t-198.5 105t-77.5 290zM721 -23q0 152 -45 220l-137 -502q6 -2 24 -2q75 0 116.5 69.5t41.5 214.5zM406 -23q0 -153 45 -221l135 504q-6 2 -23 2q-75 0 -116 -70t-41 -215z" />
    <glyph glyph-name="oneinferior" unicode="&#x2081;" 
d="M336 -385v70q0 20 20 20h168v500l-141 -76q-12 -6 -21 -6q-16 0 -16 16v97q0 12 14 20l181 96q13 8 30 8h47q21 0 21 -20v-635h168q20 0 20 -20v-70q0 -21 -20 -21h-451q-20 0 -20 21z" />
    <glyph glyph-name="twoinferior" unicode="&#x2082;" 
d="M305 -385v61q0 20 12 29l287 277q42 39 61 75t19 82q0 56 -29.5 89.5t-87.5 33.5t-92.5 -33.5t-42.5 -89.5q-3 -20 -20 -20h-80q-21 0 -21 20q6 102 75 168t181 66q111 0 173.5 -66.5t62.5 -167.5q0 -69 -28 -123t-85 -108l-211 -203h332q20 0 20 -20v-70q0 -21 -20 -21
h-485q-21 0 -21 21z" />
    <glyph glyph-name="threeinferior" unicode="&#x2083;" 
d="M471 -39v70q0 20 21 20h30q131 0 131 121q0 45 -28.5 71.5t-81.5 26.5q-45 0 -75.5 -26.5t-37.5 -75.5q-3 -16 -20 -16h-72q-21 0 -21 18q6 89 67.5 146t158.5 57q105 0 165 -57t60 -134q0 -117 -88 -172q119 -51 119 -192q0 -105 -70 -170.5t-180 -65.5
q-105 0 -182.5 67t-77.5 167q0 20 20 20h76q18 0 21 -20q20 -123 141 -123q61 0 97 32.5t36 92.5q0 58 -36 90.5t-101 32.5h-51q-21 0 -21 20z" />
    <glyph glyph-name="fourinferior" unicode="&#x2084;" 
d="M600 -385v125h-293q-20 0 -20 20v58q0 13 8 24l309 504q8 14 23 14h67q21 0 21 -20v-490h69q21 0 21 -20v-70q0 -20 -21 -20h-69v-125q0 -21 -21 -21h-73q-21 0 -21 21zM600 137l-172 -287h172v287z" />
    <glyph glyph-name="fiveinferior" unicode="&#x2085;" 
d="M309 -37l53 381q3 16 21 16h352q21 0 21 -20v-70q0 -20 -21 -20h-274l-31 -191q62 43 139 43q111 0 170.5 -67t59.5 -195q0 -119 -70.5 -188.5t-177.5 -69.5q-101 0 -173.5 62t-72.5 157q0 21 21 21h80q17 0 20 -21q8 -52 40 -80t85 -28q63 0 96 40t33 105
q0 152 -127 152q-63 0 -117 -51q-9 -9 -14 -9h-6q-4 0 -6 2l-91 15q-10 3 -10 16z" />
    <glyph glyph-name="sixinferior" unicode="&#x2086;" 
d="M340 -57q0 214 71 322t191 108q90 0 148.5 -54t70.5 -139q0 -10 -12 -10h-94q-7 0 -10 10q-27 82 -105 82q-60 0 -91.5 -54.5t-37.5 -172.5q59 53 139 53q109 0 172.5 -68t63.5 -184q0 -113 -71 -183.5t-175 -70.5q-110 0 -185 90.5t-75 270.5zM477 -164
q0 -68 32.5 -105.5t92.5 -37.5t93.5 37.5t33.5 105.5q0 66 -33.5 103.5t-93.5 37.5t-92.5 -37.5t-32.5 -103.5z" />
    <glyph glyph-name="seveninferior" unicode="&#x2087;" 
d="M342 270v70q0 20 20 20h441q20 0 20 -20v-33q0 -17 -8 -33l-229 -661q-6 -19 -25 -19h-80q-16 0 -16 13q0 2 4 14l219 629h-326q-20 0 -20 20z" />
    <glyph glyph-name="eightinferior" unicode="&#x2088;" 
d="M340 170q0 92 62.5 147.5t160.5 55.5t160.5 -55.5t62.5 -147.5q0 -108 -90 -170q115 -56 115 -188q0 -103 -69 -166.5t-179 -63.5t-179 63.5t-69 166.5q0 132 115 188q-90 62 -90 170zM434 -188q0 -58 36 -88.5t93 -30.5t93 30.5t36 88.5q0 56 -36.5 89t-92.5 33
t-92.5 -33t-36.5 -89zM449 160q0 -51 31.5 -83t82.5 -32t83 32t32 83q0 52 -32.5 81t-82.5 29q-49 0 -81.5 -29t-32.5 -81z" />
    <glyph glyph-name="nineinferior" unicode="&#x2089;" 
d="M809 12q0 -214 -71 -322t-191 -108q-90 0 -148.5 54t-70.5 139q0 10 12 10h94q7 0 10 -10q27 -82 105 -82q60 0 91.5 54.5t37.5 172.5q-59 -53 -139 -53q-109 0 -172.5 68t-63.5 184q0 113 71 183.5t175 70.5q110 0 185 -90.5t75 -270.5zM672 119q0 68 -32.5 105.5
t-92.5 37.5t-93.5 -37.5t-33.5 -105.5q0 -66 33.5 -104t93.5 -38t92.5 37.5t32.5 104.5z" />
    <glyph glyph-name="Euro" unicode="&#x20ac;" 
d="M166 717q0 73 2 108h-82q-20 0 -20 21v119q0 20 20 20h104q44 227 162 348t291 121q193 0 315 -125t134 -321q0 -21 -21 -21h-123q-17 0 -20 21q-20 140 -94 213t-193 73q-215 0 -281 -309h357q20 0 20 -20v-119q0 -21 -20 -21h-377q-2 -35 -2 -108q0 -76 2 -109h377
q20 0 20 -20v-119q0 -20 -20 -20h-357q66 -310 281 -310q119 0 193 73.5t94 213.5q3 20 20 20h123q21 0 21 -20q-12 -196 -134 -321t-315 -125q-173 0 -291 121t-162 348h-104q-20 0 -20 20v119q0 20 20 20h82q-2 35 -2 109z" />
    <glyph glyph-name="uni2117" unicode="&#x2117;" 
d="M563 172q-95 0 -185 35.5t-162 101t-115.5 167.5t-43.5 224q0 98 28.5 184t77.5 148.5t113.5 107.5t138 67t148.5 22t148.5 -22t138 -67t113.5 -107.5t77.5 -148.5t28.5 -184q0 -122 -43.5 -224t-115.5 -167.5t-162 -101t-185 -35.5zM563 262q78 0 150 28t131 80.5
t94 138t35 191.5t-35 191.5t-94 138.5t-131 81t-150 28t-150 -28t-130.5 -81t-93.5 -138.5t-35 -191.5t35 -191.5t93.5 -138t130.5 -80.5t150 -28zM389 412v579q0 15 14 15h197q93 0 146 -47t53 -132t-53 -131.5t-146 -46.5h-129v-237q0 -15 -14 -15h-54q-14 0 -14 15z
M471 928v-201h137q55 0 82 27.5t27 72.5t-27.5 73t-81.5 28h-137z" />
    <glyph glyph-name="trademark" unicode="&#x2122;" 
d="M16 1343v70q0 21 21 21h414q20 0 20 -21v-70q0 -20 -20 -20h-150v-635q0 -20 -20 -20h-74q-21 0 -21 20v635h-149q-21 0 -21 20zM1059 1413v-725q0 -20 -21 -20h-73q-21 0 -21 20v590l-100 -279q-6 -12 -17 -12h-57q-10 0 -16 12l-101 279v-590q0 -20 -20 -20h-74
q-20 0 -20 20v725q0 21 20 21h119q17 0 24 -17l97 -266l96 266q7 17 25 17h118q21 0 21 -21z" />
    <glyph glyph-name="Omega" unicode="&#x2126;" 
d="M563 1290q-156 0 -251 -101t-95 -302q0 -386 264 -709q17 -19 17 -41v-117q0 -20 -21 -20h-379q-20 0 -20 20v123q0 21 20 21h224q-277 358 -277 723q0 262 141.5 414.5t376.5 152.5t376.5 -152.5t141.5 -414.5q0 -366 -276 -723h223q21 0 21 -21v-123q0 -20 -21 -20
h-379q-20 0 -20 20v117q0 19 16 41q264 323 264 709q0 201 -95 302t-251 101z" />
    <glyph glyph-name="onethird" unicode="&#x2153;" 
d="M233 215l771 684q9 6 14 6q8 0 16 -8l47 -55q6 -9 6 -15t-8 -14l-770 -684q-9 -6 -14 -6q-8 0 -16 8l-48 55q-6 9 -6 15t8 14zM104 688v70q0 20 21 20h168v500l-141 -76q-12 -6 -21 -6q-16 0 -16 16v97q0 12 14 20l180 96q15 9 31 9h47q21 0 21 -21v-635h167q21 0 21 -20
v-70q0 -20 -21 -20h-450q-21 0 -21 20zM752 -39v70q0 20 20 20h31q131 0 131 121q0 45 -29 71.5t-82 26.5q-45 0 -75 -26.5t-37 -75.5q-3 -16 -21 -16h-72q-20 0 -20 18q6 89 67 146t158 57q105 0 165.5 -57t60.5 -134q0 -117 -88 -172q118 -51 118 -192q0 -105 -70 -170.5
t-180 -65.5q-105 0 -182.5 67t-77.5 167q0 20 21 20h76q17 0 20 -20q20 -123 141 -123q61 0 97.5 32.5t36.5 92.5q0 57 -36 90t-102 33h-51q-20 0 -20 20z" />
    <glyph glyph-name="twothirds" unicode="&#x2154;" 
d="M233 215l771 684q9 6 14 6q8 0 16 -8l47 -55q6 -9 6 -15t-8 -14l-770 -684q-9 -6 -14 -6q-8 0 -16 8l-48 55q-6 9 -6 15t8 14zM752 -39v70q0 20 20 20h31q131 0 131 121q0 45 -29 71.5t-82 26.5q-45 0 -75 -26.5t-37 -75.5q-3 -16 -21 -16h-72q-20 0 -20 18q6 89 67 146
t158 57q105 0 165.5 -57t60.5 -134q0 -117 -88 -172q118 -51 118 -192q0 -105 -70 -170.5t-180 -65.5q-105 0 -182.5 67t-77.5 167q0 20 21 20h76q17 0 20 -20q20 -123 141 -123q61 0 97.5 32.5t36.5 92.5q0 57 -36 90t-102 33h-51q-20 0 -20 20zM117 688v62q0 19 12 28
l287 277q42 39 61 75t19 82q0 56 -29.5 89.5t-87.5 33.5t-92.5 -33.5t-42.5 -89.5q-3 -20 -21 -20h-80q-20 0 -20 20q6 102 75 168t181 66q111 0 173 -66.5t62 -167.5q0 -69 -27.5 -123t-84.5 -108l-211 -203h332q20 0 20 -20v-70q0 -20 -20 -20h-486q-20 0 -20 20z" />
    <glyph glyph-name="oneeighth" unicode="&#x215b;" 
d="M606 170q0 92 62.5 147.5t160.5 55.5t161 -55.5t63 -147.5q0 -108 -90 -170q114 -55 114 -188q0 -103 -69 -166.5t-179 -63.5t-178.5 63.5t-68.5 166.5q0 133 114 188q-90 62 -90 170zM700 -188q0 -58 36 -88.5t93 -30.5t93 30.5t36 88.5q0 56 -36.5 89t-92.5 33
t-92.5 -33t-36.5 -89zM715 160q0 -51 31.5 -83t82.5 -32t83 32t32 83q0 52 -32.5 81t-82.5 29q-49 0 -81.5 -29t-32.5 -81zM233 215l771 684q9 6 14 6q8 0 16 -8l47 -55q6 -9 6 -15t-8 -14l-770 -684q-9 -6 -14 -6q-8 0 -16 8l-48 55q-6 9 -6 15t8 14zM104 688v70
q0 20 21 20h168v500l-141 -76q-12 -6 -21 -6q-16 0 -16 16v97q0 12 14 20l180 96q15 9 31 9h47q21 0 21 -21v-635h167q21 0 21 -20v-70q0 -20 -21 -20h-450q-21 0 -21 20z" />
    <glyph glyph-name="threeeighths" unicode="&#x215c;" 
d="M606 170q0 92 62.5 147.5t160.5 55.5t161 -55.5t63 -147.5q0 -108 -90 -170q114 -55 114 -188q0 -103 -69 -166.5t-179 -63.5t-178.5 63.5t-68.5 166.5q0 133 114 188q-90 62 -90 170zM700 -188q0 -58 36 -88.5t93 -30.5t93 30.5t36 88.5q0 56 -36.5 89t-92.5 33
t-92.5 -33t-36.5 -89zM715 160q0 -51 31.5 -83t82.5 -32t83 32t32 83q0 52 -32.5 81t-82.5 29q-49 0 -81.5 -29t-32.5 -81zM233 215l771 684q9 6 14 6q8 0 16 -8l47 -55q6 -9 6 -15t-8 -14l-770 -684q-9 -6 -14 -6q-8 0 -16 8l-48 55q-6 9 -6 15t8 14zM332 1034v70
q0 20 20 20h31q131 0 131 121q0 45 -29 71.5t-82 26.5q-45 0 -75 -26.5t-37 -75.5q-3 -16 -21 -16h-71q-21 0 -21 18q6 89 67 146t158 57q105 0 165.5 -57t60.5 -134q0 -117 -88 -172q118 -51 118 -192q0 -105 -70 -170.5t-179 -65.5q-105 0 -182.5 67t-77.5 167q0 20 20 20
h76q17 0 20 -20q20 -123 142 -123q61 0 97 32.5t36 92.5q0 57 -36 90t-102 33h-51q-20 0 -20 20z" />
    <glyph glyph-name="fiveeighths" unicode="&#x215d;" 
d="M606 170q0 92 62.5 147.5t160.5 55.5t161 -55.5t63 -147.5q0 -108 -90 -170q114 -55 114 -188q0 -103 -69 -166.5t-179 -63.5t-178.5 63.5t-68.5 166.5q0 133 114 188q-90 62 -90 170zM700 -188q0 -58 36 -88.5t93 -30.5t93 30.5t36 88.5q0 56 -36.5 89t-92.5 33
t-92.5 -33t-36.5 -89zM715 160q0 -51 31.5 -83t82.5 -32t83 32t32 83q0 52 -32.5 81t-82.5 29q-49 0 -81.5 -29t-32.5 -81zM233 215l771 684q9 6 14 6q8 0 16 -8l47 -55q6 -9 6 -15t-8 -14l-770 -684q-9 -6 -14 -6q-8 0 -16 8l-48 55q-6 9 -6 15t8 14zM193 1036l53 381
q3 17 20 17h352q21 0 21 -21v-70q0 -20 -21 -20h-274l-31 -190q62 43 140 43q111 0 170 -67.5t59 -195.5q0 -119 -70.5 -188.5t-177.5 -69.5q-101 0 -173.5 62t-72.5 157q0 21 21 21h80q17 0 20 -21q8 -52 40 -80t85 -28q63 0 96 40t33 105q0 152 -127 152q-63 0 -117 -51
q-8 -8 -14 -8h-6q-4 0 -6 2l-90 14q-10 3 -10 16z" />
    <glyph glyph-name="seveneighths" unicode="&#x215e;" 
d="M606 170q0 92 62.5 147.5t160.5 55.5t161 -55.5t63 -147.5q0 -108 -90 -170q114 -55 114 -188q0 -103 -69 -166.5t-179 -63.5t-178.5 63.5t-68.5 166.5q0 133 114 188q-90 62 -90 170zM700 -188q0 -58 36 -88.5t93 -30.5t93 30.5t36 88.5q0 56 -36.5 89t-92.5 33
t-92.5 -33t-36.5 -89zM715 160q0 -51 31.5 -83t82.5 -32t83 32t32 83q0 52 -32.5 81t-82.5 29q-49 0 -81.5 -29t-32.5 -81zM233 215l771 684q9 6 14 6q8 0 16 -8l47 -55q6 -9 6 -15t-8 -14l-770 -684q-9 -6 -14 -6q-8 0 -16 8l-48 55q-6 9 -6 15t8 14zM246 1343v70
q0 21 20 21h441q20 0 20 -21v-33q0 -16 -8 -32l-230 -662q-6 -18 -24 -18h-80q-16 0 -16 12q0 2 4 14l219 629h-326q-20 0 -20 20z" />
    <glyph glyph-name="partialdiff" unicode="&#x2202;" 
d="M809 934q-50 191 -166.5 271.5t-347.5 80.5q-16 0 -16 29v104q0 15 28 15q363 0 524.5 -200.5t161.5 -612.5q0 -318 -122 -479.5t-336 -161.5q-204 0 -331.5 147t-127.5 387q0 242 122.5 388.5t315.5 146.5q200 0 295 -115zM244 514q0 -383 291 -383q290 0 290 383
t-290 383q-291 0 -291 -383z" />
    <glyph glyph-name="Delta" unicode="&#x2206;" 
d="M672 1413l358 -1237q8 -27 8 -53v-103q0 -20 -20 -20h-909q-21 0 -21 20v103q0 26 8 53l359 1237q9 21 26 21h164q18 0 27 -21zM860 164l-297 1067l-297 -1067h594z" />
    <glyph glyph-name="product" unicode="&#x220f;" 
d="M303 1270v-1655q0 -21 -20 -21h-131q-21 0 -21 21v1798q0 21 21 21h823q20 0 20 -21v-1798q0 -21 -20 -21h-131q-21 0 -21 21v1655h-520z" />
    <glyph glyph-name="summation" unicode="&#x2211;" 
d="M100 -385v131q0 17 17 41l424 682q18 24 18 45t-18 45l-424 682q-17 27 -17 41v131q0 21 21 21h891q20 0 20 -21v-123q0 -20 -20 -20h-707l424 -690q21 -37 21 -66q0 -28 -21 -65l-424 -691h739q21 0 21 -20v-123q0 -21 -21 -21h-923q-21 0 -21 21z" />
    <glyph glyph-name="minus" unicode="&#x2212;" 
d="M172 780h780q21 0 21 -20v-119q0 -20 -21 -20h-780q-20 0 -20 20v119q0 20 20 20z" />
    <glyph glyph-name="radical" unicode="&#x221a;" 
d="M270 659h-125q-20 0 -20 21v111q0 20 20 20h234q23 0 29 -20l176 -582l360 1204q6 21 29 21h129q14 0 14 -11q0 -6 -2 -10l-426 -1393q-6 -20 -26 -20h-160q-13 0 -19 16q-1 3 -2 4z" />
    <glyph glyph-name="infinity" unicode="&#x221e;" 
d="M563 561q-49 -103 -113.5 -155t-152.5 -52q-100 0 -174 78t-74 221t74 221t174 78q88 0 152.5 -52t113.5 -155q49 103 113.5 155t152.5 52q100 0 174 -78t74 -221t-74 -221t-174 -78q-88 0 -152.5 52t-113.5 155zM156 653q0 -97 37 -147.5t104 -50.5q71 0 121.5 48.5
t93.5 149.5q-43 101 -93.5 150t-121.5 49q-67 0 -104 -51t-37 -148zM971 653q0 97 -37.5 148t-104.5 51q-71 0 -121.5 -49t-93.5 -150q43 -101 93.5 -149.5t121.5 -48.5q67 0 104.5 50.5t37.5 147.5z" />
    <glyph glyph-name="integral" unicode="&#x222b;" 
d="M381 -27l149 1125q24 164 124 260t259 96q87 0 160 -24q17 -3 17 -35v-107q0 -20 -17 -20q-2 0 -14 4q-42 19 -70.5 25t-70.5 6q-199 0 -230 -220l-153 -1155q-49 -354 -328 -354q-120 0 -191 35q-11 6 -13.5 12t-2.5 23v106q0 21 14 21q5 0 17 -4q78 -41 149 -41
q95 0 138.5 55t62.5 192z" />
    <glyph glyph-name="approxequal" unicode="&#x2248;" 
d="M168 889q99 74 227 74q66 0 125 -21t110.5 -42t100.5 -21q42 0 73 11.5t75 39.5q12 4 14 4q10 0 20 -16l62 -103q2 -2 2 -8q0 -14 -19 -27q-98 -73 -227 -73q-67 0 -125.5 21t-110 42t-100.5 21q-41 0 -71 -11.5t-76 -40.5q-12 -4 -15 -4q-10 0 -20 17l-61 102q-2 2 -2 8
q0 15 18 27zM168 500q98 73 227 73q66 0 125 -21t110.5 -42t100.5 -21q42 0 72.5 11.5t75.5 40.5q12 4 14 4q10 0 20 -17l62 -102q2 -2 2 -8q0 -14 -19 -27q-99 -74 -227 -74q-67 0 -125.5 21t-110 42t-100.5 21q-42 0 -72 -11.5t-75 -39.5q-12 -4 -15 -4q-10 0 -20 16
l-61 103q-2 2 -2 8q0 15 18 27z" />
    <glyph glyph-name="notequal" unicode="&#x2260;" 
d="M172 487h223l148 256h-371q-20 0 -20 21v119q0 20 20 20h463l164 281q9 12 16 12q4 0 12 -4l103 -59q12 -7 12 -17l-4 -12l-117 -201h131q21 0 21 -20v-119q0 -21 -21 -21h-223l-147 -256h370q21 0 21 -20v-119q0 -20 -21 -20h-463l-163 -281q-9 -12 -17 -12q-4 0 -12 4
l-102 59q-13 7 -13 17q0 1 0.5 2.5l1.5 4.5t2 5l117 201h-131q-20 0 -20 20v119q0 20 20 20z" />
    <glyph glyph-name="lessequal" unicode="&#x2264;" 
d="M172 160h780q21 0 21 -21v-119q0 -20 -21 -20h-780q-20 0 -20 20v119q0 21 20 21zM950 438v-147q0 -15 -10 -15q-4 0 -10 3l-752 374q-20 9 -20 27v143q0 18 20 27l752 375q4 2 10 2q10 0 10 -15v-147q0 -20 -20 -29l-586 -284l586 -285q20 -9 20 -29z" />
    <glyph glyph-name="greaterequal" unicode="&#x2265;" 
d="M172 160h780q21 0 21 -21v-119q0 -20 -21 -20h-780q-20 0 -20 20v119q0 21 20 21zM176 291v147q0 20 21 29l585 285l-585 284q-21 9 -21 29v147q0 15 10 15q7 0 11 -2l751 -375q21 -9 21 -27v-143q0 -18 -21 -27l-751 -374q-6 -3 -11 -3q-10 0 -10 15z" />
    <glyph glyph-name="lozenge" unicode="&#x25ca;" 
d="M670 1413l366 -676q6 -12 6 -20q0 -9 -6 -21l-366 -676q-9 -20 -29 -20h-154q-17 0 -28 20l-369 676q-6 12 -6 21q0 8 6 20l369 676q12 21 28 21h154q17 0 29 -21zM563 1286l-305 -569l305 -570l305 570z" />
    <glyph glyph-name="apple" unicode="&#xf8ff;" 
d="M1169 1264v-1219q0 -18 -12.5 -31.5t-32.5 -13.5q-8 0 -14 2l-547 158l-547 -158q-6 -2 -14 -2q-20 0 -32.5 13.5t-12.5 31.5v1219q0 36 33 45l553 159l20 5q1 0 21 -5l553 -159q32 -8 32 -45zM518 750v620l-471 -137q12 -190 146 -328t325 -155zM608 1370v-620
q191 17 325 155t146 328zM45 948v-844l473 138v417q-151 12 -275 88.5t-198 200.5zM1081 104v844q-76 -125 -199 -201t-274 -88v-417z" />
    <glyph glyph-name="fi" unicode="&#xfb01;" 
d="M705 877h-324v-857q0 -20 -21 -20h-118q-21 0 -21 20v857h-145q-21 0 -21 20v111q0 20 21 20h145v90q0 146 79 241t226 95q102 0 183 -37q8 -4 11.5 -9t4 -10t0.5 -16v-108q0 -21 -14 -21q-3 0 -15 4q-52 28 -82 37t-75 9q-158 0 -158 -185v-90h324q20 0 20 -20v-111
q0 -20 -20 -20zM850 1217v176q0 20 20 20h177q20 0 20 -20v-176q0 -21 -20 -21h-177q-20 0 -20 21zM879 20v988q0 20 20 20h119q20 0 20 -20v-988q0 -20 -20 -20h-119q-20 0 -20 20z" />
    <glyph glyph-name="fl" unicode="&#xfb02;" 
d="M879 20v1393q0 21 20 21h119q20 0 20 -21v-1393q0 -20 -20 -20h-119q-20 0 -20 20zM705 877h-324v-857q0 -20 -21 -20h-118q-21 0 -21 20v857h-145q-21 0 -21 20v111q0 20 21 20h145v90q0 146 79 241t226 95q102 0 183 -37q8 -4 11.5 -9t4 -10t0.5 -16v-108
q0 -21 -14 -21q-3 0 -15 4q-52 28 -82 37t-75 9q-158 0 -158 -185v-90h324q20 0 20 -20v-111q0 -20 -20 -20z" />
    <glyph glyph-name="sterling.tosn" 
d="M350 410v22h-137q-20 0 -20 21v106q0 21 20 21h86q-31 79 -31 135q0 154 94.5 244t243.5 90q161 0 249.5 -84.5t96.5 -225.5q0 -20 -20 -20h-119q-17 0 -20 20q-8 73 -53.5 115.5t-133.5 42.5q-80 0 -127 -50t-47 -136q0 -72 27 -131h313q21 0 21 -21v-106q0 -21 -21 -21
h-262v-16q0 -162 -111 -264h555q21 0 21 -21v-111q0 -20 -21 -20h-712q-21 0 -21 20v97q0 24 17 41q66 64 89 120t23 132z" />
    <glyph glyph-name="dollar.tosn" 
d="M981 301q0 -132 -88.5 -215.5t-233.5 -101.5v-168q0 -21 -20 -21h-119q-20 0 -20 21v170q-149 25 -238.5 113.5t-89.5 213.5q0 21 21 21h131q17 0 20 -21q21 -137 156 -172v320q-154 30 -229.5 99.5t-75.5 195.5q0 120 83.5 195t221.5 93v164q0 21 20 21h119q20 0 20 -21
v-168q128 -20 202.5 -94.5t86.5 -191.5q0 -21 -20 -21h-115q-3 0 -5.5 0.5t-4.5 1.5t-3.5 3.5t-2 4t-2 5.5t-2.5 6q-25 93 -134 131v-303q74 -13 128 -32.5t100 -51t70 -81t24 -116.5zM813 281q0 59 -35.5 92t-118.5 57v-295q73 12 113.5 49.5t40.5 96.5zM354 760
q0 -55 33.5 -88t112.5 -56v277q-68 -11 -107 -45t-39 -88z" />
    <glyph glyph-name="yen.tosn" 
d="M225 610h174l-241 398q-4 8 -4 10q0 10 16 10h162q13 0 20 -13q1 -2 2 -3l209 -365l209 365q10 16 23 16h161q17 0 17 -10q0 -2 -4 -10l-242 -398h174q21 0 21 -20v-111q0 -20 -21 -20h-258v-140h217q21 0 21 -20v-111q0 -20 -21 -20h-217v-148q0 -20 -20 -20h-119
q-21 0 -21 20v148h-217q-20 0 -20 20v111q0 20 20 20h217v140h-258q-20 0 -20 20v111q0 20 20 20z" />
    <glyph glyph-name="cent.tosn" 
d="M494 -184v168q-182 29 -283.5 172t-101.5 356q0 211 102 354t283 172v170q0 21 20 21h131q21 0 21 -21v-170q134 -22 217.5 -110t115.5 -223q2 -8 2 -21q0 -12 -14 -12h-125q-21 0 -28 18q-42 149 -168 193v-744q124 38 168 195q7 18 28 18h125q14 0 14 -12q0 -13 -2 -21
q-32 -135 -115.5 -223t-217.5 -112v-168q0 -21 -21 -21h-131q-20 0 -20 21zM276 512q0 -148 57 -246t161 -127v744q-104 -29 -161 -126.5t-57 -244.5z" />
    <glyph glyph-name="multiply.tosn" 
d="M895 733l-219 -217l219 -217q8 -8 8 -14q0 -9 -8 -17l-84 -84q-8 -8 -14 -8q-7 0 -15 8l-219 219l-221 -221q-6 -6 -12 -6q-7 0 -15 8l-84 84q-8 8 -8 17q0 6 6 12l222 219l-220 217q-8 8 -8 15q0 8 8 16l84 84q8 8 15 8q6 0 14 -8l219 -219l219 219q8 8 15 8q6 0 14 -8
l84 -84q8 -8 8 -16q0 -7 -8 -15z" />
    <glyph glyph-name="plus.tosn" 
d="M641 905v-309h311q21 0 21 -21v-118q0 -21 -21 -21h-311v-311q0 -21 -20 -21h-119q-21 0 -21 21v311h-309q-20 0 -20 21v118q0 21 20 21h309v309q0 21 21 21h119q20 0 20 -21z" />
    <glyph glyph-name="minus.tosn" 
d="M172 596h780q21 0 21 -21v-118q0 -21 -21 -21h-780q-20 0 -20 21v118q0 21 20 21z" />
    <glyph glyph-name="divide.tosn" 
d="M459 250h209q20 0 20 -21v-209q0 -20 -20 -20h-209q-21 0 -21 20v209q0 21 21 21zM459 967h209q20 0 20 -21v-209q0 -20 -20 -20h-209q-21 0 -21 20v209q0 21 21 21zM172 563h780q21 0 21 -20v-119q0 -21 -21 -21h-780q-20 0 -20 21v119q0 20 20 20z" />
    <glyph glyph-name="Euro.tosn" 
d="M127 453h96q-2 23 -2 61t2 61h-96q-21 0 -21 21v111q0 20 21 20h125q43 151 143 236.5t238 85.5q160 0 260 -93.5t121 -240.5q0 -21 -21 -21h-121q-17 0 -20 21q-18 87 -73.5 134.5t-145.5 47.5q-157 0 -221 -170h221q20 0 20 -20v-111q0 -21 -20 -21h-250q-2 -23 -2 -61
t2 -61h250q20 0 20 -21v-110q0 -21 -20 -21h-221q64 -170 221 -170q90 0 145.5 47.5t73.5 134.5q3 21 20 21h121q21 0 21 -21q-21 -147 -121 -240t-260 -93q-138 0 -238 85t-143 236h-125q-21 0 -21 21v110q0 21 21 21z" />
    <glyph glyph-name="equal.tosn" 
d="M172 784h780q21 0 21 -20v-119q0 -20 -21 -20h-780q-20 0 -20 20v119q0 20 20 20zM172 369h780q21 0 21 -21v-119q0 -20 -21 -20h-780q-20 0 -20 20v119q0 21 20 21z" />
    <glyph glyph-name="zero.tosn" 
d="M72 514q0 241 138.5 388t352.5 147t353 -147t139 -388t-139 -387.5t-353 -146.5t-352.5 146.5t-138.5 387.5zM887 514q0 206 -123 311l-279 -686q31 -8 78 -8q149 0 236.5 108.5t87.5 274.5zM240 514q0 -207 122 -311l279 686q-31 8 -78 8q-148 0 -235.5 -108.5
t-87.5 -274.5z" />
    <glyph glyph-name="one.tosn" 
d="M201 20v111q0 21 20 21h299v657l-262 -139q-12 -6 -22 -6q-15 0 -15 18v133q0 18 23 31l315 172q17 10 31 10h69q21 0 21 -20v-856h299q20 0 20 -21v-111q0 -20 -20 -20h-758q-20 0 -20 20z" />
    <glyph glyph-name="two.tosn" 
d="M205 20v86q0 29 22 48l406 352q70 59 98.5 105.5t28.5 115.5q0 79 -49.5 124.5t-135.5 45.5q-81 0 -132.5 -52t-57.5 -128q-1 -18 -7 -24.5t-20 -6.5h-108q-25 0 -25 31q7 155 107.5 243.5t242.5 88.5q157 0 251 -88t94 -218q0 -109 -43 -182.5t-125 -146.5l-303 -262
h471q20 0 20 -21v-111q0 -20 -20 -20h-695q-20 0 -20 20z" />
    <glyph glyph-name="three.tosn" 
d="M424 371v110q0 21 20 21h84q215 0 215 209q0 86 -53 136t-145 50q-89 0 -146.5 -49t-64.5 -143q-1 -16 -6.5 -19.5t-18.5 -3.5h-106q-25 0 -25 31q7 157 111 246.5t264 89.5t255 -92t95 -228q0 -207 -168 -289q104 -38 160.5 -118t56.5 -220q0 -173 -109 -279t-288 -106
q-173 0 -289 103.5t-123 275.5q0 31 25 31h108q25 0 27 -25q12 -116 78.5 -174.5t173.5 -58.5q116 0 177 61t61 176q0 113 -66 178.5t-188 65.5h-95q-20 0 -20 21z" />
    <glyph glyph-name="four.tosn" 
d="M651 -262v262h-520q-20 0 -20 20v60q0 25 16 47l557 885q10 16 27 16h80q20 0 20 -20v-856h172q21 0 21 -21v-111q0 -20 -21 -20h-172v-262q0 -21 -23 -21h-116q-21 0 -21 21zM651 674l-327 -522h327v522z" />
    <glyph glyph-name="five.tosn" 
d="M172 328l80 680q3 20 20 20h621q20 0 20 -20v-111q0 -20 -20 -20h-506l-43 -379q48 46 117 72t137 26q171 0 277 -113.5t106 -312.5q0 -206 -112 -329.5t-296 -123.5q-110 0 -201.5 45t-148 131t-59.5 197q0 31 24 31h113q12 0 17 -6t10 -25q17 -117 79 -169t166 -52
q119 0 183.5 79.5t64.5 217.5q0 136 -67 207t-181 71q-136 0 -233 -118q-16 -19 -35 -19h-112q-21 0 -21 21z" />
    <glyph glyph-name="six.tosn" 
d="M158 578q0 358 115.5 545.5t328.5 187.5q148 0 253.5 -94t117.5 -244q0 -21 -23 -21h-108q-20 0 -23 21q-43 186 -227 186q-109 0 -177 -102.5t-85 -308.5q67 58 135 85t153 27q168 0 278 -115t110 -327q0 -198 -118 -318t-298 -120q-73 0 -135.5 19t-118 63.5t-94.5 112
t-61.5 170.5t-22.5 233zM330 418q0 -132 71.5 -209.5t184.5 -77.5q112 0 182 77t70 210t-70 212t-182 79t-184 -79t-72 -212z" />
    <glyph glyph-name="seven.tosn" 
d="M174 897v111q0 20 21 20h759q21 0 21 -20v-68q0 -14 -10 -47l-408 -1161q-3 -15 -22 -15h-117q-21 0 -21 17q0 8 2 10l398 1133h-602q-21 0 -21 20z" />
    <glyph glyph-name="eight.tosn" 
d="M211 963q0 157 100.5 252.5t251.5 95.5t251.5 -95.5t100.5 -252.5q0 -178 -149 -275q190 -104 190 -323q0 -172 -110.5 -278.5t-282.5 -106.5q-174 0 -283.5 106.5t-109.5 278.5q0 219 190 323q-149 97 -149 275zM338 365q0 -108 62.5 -171t162.5 -63t162.5 63t62.5 171
t-62.5 170.5t-162.5 62.5t-162.5 -62.5t-62.5 -170.5zM371 954q0 -96 54 -150t138 -54q85 0 139 54t54 150q0 98 -56.5 151.5t-136.5 53.5t-136 -53.5t-56 -151.5z" />
    <glyph glyph-name="nine.tosn" 
d="M975 451q0 -358 -116 -546t-329 -188q-148 0 -253 94t-117 244q0 21 22 21h109q19 0 22 -21q43 -186 228 -186q109 0 177 103t85 309q-67 -58 -135.5 -85.5t-153.5 -27.5q-168 0 -277.5 115t-109.5 327q0 198 118 318.5t298 120.5q73 0 135.5 -19t118 -63.5t94.5 -112
t61.5 -170.5t22.5 -233zM803 610q0 132 -71.5 209.5t-184.5 77.5q-112 0 -182 -77t-70 -210t70 -212t182 -79t184 79t72 212z" />
    <glyph glyph-name="ampersand.alt" 
d="M721 856v160q0 20 20 20h127q21 0 21 -20v-160h160q22 0 22 -22v-117q0 -21 -20 -21h-162v-264q0 -205 -109 -328.5t-297 -123.5q-181 0 -295 119t-114 307q0 148 64.5 241t170.5 139q-90 50 -136 126t-46 196q0 158 106 252t275 94h86q20 0 20 -20v-119q0 -21 -20 -21
h-86q-97 0 -159 -53t-62 -154q0 -113 70 -172t192 -59h172zM246 410q0 -128 63 -199.5t174 -71.5q116 0 177 81.5t61 230.5v245h-178q-121 0 -209 -80t-88 -206z" />
    <glyph glyph-name="braceleft.ss03" 
d="M616 549v-150q0 -138 25 -186.5t113 -48.5h118q21 0 21 -21v-123q0 -20 -21 -20h-118q-160 0 -235 94t-75 305v117q0 119 -108 119h-82q-21 0 -21 20v123q0 21 21 21h82q108 0 108 119v116q0 211 75 305.5t235 94.5h118q21 0 21 -21v-123q0 -20 -21 -20h-118
q-88 0 -113 -48.5t-25 -187.5v-149q0 -65 -24 -107t-92 -61q68 -19 92 -61t24 -107z" />
    <glyph glyph-name="braceright.ss03" 
d="M510 399v150q0 65 24.5 107t92.5 61q-68 19 -92.5 61t-24.5 107v149q0 139 -24.5 187.5t-112.5 48.5h-119q-21 0 -21 20v123q0 21 21 21h119q160 0 234.5 -94.5t74.5 -305.5v-116q0 -119 109 -119h81q21 0 21 -21v-123q0 -20 -21 -20h-81q-109 0 -109 -119v-117
q0 -211 -74.5 -305t-234.5 -94h-119q-21 0 -21 20v123q0 21 21 21h119q88 0 112.5 48t24.5 187z" />
    <glyph glyph-name="bracketleft.ss03" 
d="M319 20v1393q0 21 21 21h528q21 0 21 -21v-123q0 -20 -21 -20h-376v-1106h376q21 0 21 -21v-123q0 -20 -21 -20h-528q-21 0 -21 20z" />
    <glyph glyph-name="bracketright.ss03" 
d="M807 1413v-1393q0 -20 -21 -20h-528q-20 0 -20 20v123q0 21 20 21h377v1106h-377q-20 0 -20 20v123q0 21 20 21h528q21 0 21 -21z" />
    <glyph glyph-name="parenleft.ss03" 
d="M489 743v-49q0 -111 12 -182t49.5 -134t88.5 -111t147 -122q9 -6 9 -14q0 -3 -7 -14l-83 -115q-5 -8 -15 -8q-5 0 -14 6q-111 76 -187 157.5t-124 195t-48 245.5v242q0 191 94 335t265 261q9 6 14 6q10 0 15 -8l83 -115q7 -11 7 -14q0 -9 -9 -15q-95 -74 -146 -122
t-88.5 -111t-50 -134t-12.5 -180z" />
    <glyph glyph-name="parenright.ss03" 
d="M637 694v49q0 109 -12.5 180t-50 134t-88.5 111t-146 122q-8 5 -8 15q0 5 6 14l84 115q5 8 14 8q6 0 15 -6q358 -244 358 -596v-242q0 -192 -94.5 -337.5t-263.5 -260.5q-9 -6 -15 -6q-9 0 -14 8l-84 115q-6 9 -6 14q0 9 8 14q96 74 147 122t88.5 111t49.5 134t12 182z
" />
    <glyph glyph-name="braceleft.case" 
d="M616 551v-352q0 -139 25 -187.5t113 -48.5h118q21 0 21 -20v-123q0 -21 -21 -21h-118q-160 0 -235 94.5t-75 305.5v319q0 119 -108 119h-82q-21 0 -21 20v123q0 21 21 21h82q108 0 108 119v319q0 211 75 305t235 94h118q21 0 21 -20v-123q0 -20 -21 -20h-118
q-88 0 -113 -48.5t-25 -187.5v-352q0 -65 -24 -107t-92 -61q68 -19 92 -61t24 -107z" />
    <glyph glyph-name="braceright.case" 
d="M510 199v352q0 65 24.5 107t92.5 61q-68 19 -92.5 61t-24.5 107v352q0 139 -24.5 187.5t-112.5 48.5h-119q-21 0 -21 20v123q0 20 21 20h119q160 0 234.5 -94t74.5 -305v-319q0 -119 109 -119h81q21 0 21 -21v-123q0 -20 -21 -20h-81q-109 0 -109 -119v-319
q0 -211 -74.5 -305.5t-234.5 -94.5h-119q-21 0 -21 21v123q0 20 21 20h119q88 0 112.5 48.5t24.5 187.5z" />
    <glyph glyph-name="bracketleft.case" 
d="M319 -180v1798q0 20 21 20h528q21 0 21 -20v-123q0 -20 -21 -20h-376v-1512h376q21 0 21 -20v-123q0 -21 -21 -21h-528q-21 0 -21 21z" />
    <glyph glyph-name="bracketright.case" 
d="M807 1618v-1798q0 -21 -21 -21h-528q-20 0 -20 21v123q0 20 20 20h377v1512h-377q-20 0 -20 20v123q0 20 20 20h528q21 0 21 -20z" />
    <glyph glyph-name="parenleft.case" 
d="M551 860v-280q0 -93 5 -158.5t20 -124.5t35 -101t58.5 -90t81.5 -88.5t113 -99.5q8 -8 8 -14t-6 -15l-80 -96q-8 -8 -14 -8q-5 0 -14 6q-151 126 -230 227.5t-114 217t-35 280.5v408q0 165 35 280.5t114 217t230 227.5q9 6 14 6q6 0 14 -8l80 -97q6 -9 6 -14q0 -6 -8 -14
q-70 -59 -113 -99.5t-81.5 -88.5t-58.5 -90t-35 -101t-20 -124.5t-5 -158.5z" />
    <glyph glyph-name="parenright.case" 
d="M575 580v280q0 93 -5 158.5t-20 124.5t-35 101t-58.5 90t-81.5 88.5t-113 99.5q-8 8 -8 14q0 5 6 14l80 97q8 8 14 8t15 -6q151 -126 230 -227.5t114 -217t35 -280.5v-408q0 -165 -35 -280.5t-114 -217t-230 -227.5q-9 -6 -15 -6t-14 8l-80 96q-6 9 -6 15t8 14
q70 59 113 99.5t81.5 88.5t58.5 90t35 101t20 124.5t5 158.5z" />
    <glyph glyph-name="bullet.case" 
d="M303 717q0 106 76.5 183t183.5 77q106 0 183 -77t77 -183q0 -107 -77 -183.5t-183 -76.5q-107 0 -183.5 76.5t-76.5 183.5z" />
    <glyph glyph-name="exclamdown.case" 
d="M629 0h-131q-21 0 -21 20v1014q0 21 21 21h131q20 0 20 -21v-1014q0 -20 -20 -20zM664 1192h-201q-21 0 -21 20v201q0 21 21 21h201q20 0 20 -21v-201q0 -20 -20 -20z" />
    <glyph glyph-name="questiondown.case" 
d="M979 375q-5 -165 -121 -280t-301 -115q-188 0 -294.5 101t-106.5 271q0 59 17.5 110.5t45.5 89.5t62.5 72.5t68.5 67t62 66t45.5 76.5t17.5 92v108q0 21 21 21h131q20 0 20 -21v-94q0 -65 -17.5 -121.5t-45.5 -97t-62 -76.5t-68.5 -68.5t-62.5 -64.5t-45.5 -73t-17.5 -87
q0 -98 60.5 -153.5t168.5 -55.5q100 0 170.5 62t83.5 170q3 20 20 20h127q21 0 21 -20zM662 1192h-201q-21 0 -21 20v201q0 21 21 21h201q20 0 20 -21v-201q0 -20 -20 -20z" />
    <glyph glyph-name="at.case" 
d="M1071 1120v-817q0 -18 -18 -18h-107q-18 0 -18 18v62q-86 -97 -223 -97q-159 0 -261 121.5t-102 327.5t100 327t256 121q150 0 230 -100v65q0 133 -77.5 211t-232.5 78q-134 0 -228.5 -92.5t-139.5 -248.5t-45 -361q0 -345 117 -519.5t331 -174.5q98 0 172 23t156 75
l12 4q7 0 13 -10l59 -90q2 -2 2 -9q0 -9 -10 -16q-98 -65 -191 -91t-213 -26q-138 0 -246 48t-188.5 147t-123 260.5t-42.5 378.5q0 247 65.5 436t194.5 297.5t305 108.5q214 0 333.5 -120t119.5 -319zM940 717q0 152 -57 230.5t-162 78.5q-106 0 -166.5 -79t-60.5 -230
q0 -150 61 -229.5t164 -79.5q105 0 163 81t58 228z" />
    <glyph glyph-name="less.tosn" 
d="M950 403v-147q0 -14 -10 -14q-6 0 -10 2l-752 374q-20 9 -20 27v143q0 18 20 27l752 375q4 2 10 2q10 0 10 -14v-148q0 -20 -20 -29l-586 -284l586 -285q20 -9 20 -29z" />
    <glyph glyph-name="greater.tosn" 
d="M176 256v147q0 20 21 29l585 285l-585 284q-21 9 -21 29v148q0 14 10 14q7 0 11 -2l751 -375q21 -9 21 -27v-143q0 -18 -21 -27l-751 -374q-4 -2 -11 -2q-10 0 -10 14z" />
    <glyph glyph-name="guilsinglleft.case" 
d="M778 416v-172q0 -15 -12 -15q-5 0 -12 7l-422 387q-21 18 -21 36v115q0 19 21 37l422 387q6 6 12 6q12 0 12 -14v-172q0 -22 -14 -33l-289 -268l289 -268q14 -11 14 -33z" />
    <glyph glyph-name="guilsinglright.case" 
d="M348 244v172q0 22 14 33l289 268l-289 268q-14 11 -14 33v172q0 14 12 14q7 0 13 -6l422 -387q20 -17 20 -37v-115q0 -19 -20 -36l-422 -387q-7 -7 -13 -7q-12 0 -12 15z" />
    <glyph glyph-name="guillemotleft.case" 
d="M586 416v-172q0 -15 -13 -15q-5 0 -12 7l-422 387q-20 17 -20 36v115q0 20 20 37l422 387q6 6 12 6q13 0 13 -14v-172q0 -21 -15 -33l-288 -268l288 -268q15 -12 15 -33zM979 416v-172q0 -15 -12 -15q-6 0 -13 7l-422 387q-20 17 -20 36v115q0 20 20 37l422 387q6 6 13 6
q12 0 12 -14v-172q0 -22 -14 -33l-289 -268l289 -268q14 -11 14 -33z" />
    <glyph glyph-name="guillemotright.case" 
d="M541 244v172q0 22 14 33l289 268l-289 268q-14 11 -14 33v172q0 14 12 14q6 0 12 -6l422 -387q21 -18 21 -37v-115q0 -18 -21 -36l-422 -387q-7 -7 -12 -7q-12 0 -12 15zM147 244v172q0 21 15 33l289 268l-289 268q-15 12 -15 33v172q0 14 13 14q6 0 12 -6l422 -387
q20 -17 20 -37v-115q0 -19 -20 -36l-422 -387q-7 -7 -12 -7q-13 0 -13 15z" />
    <glyph glyph-name="a.alt" 
d="M1001 1008v-988q0 -20 -20 -20h-119q-20 0 -20 20v86q-48 -56 -132 -91t-175 -35q-194 0 -316.5 145t-122.5 389t122.5 389.5t316.5 145.5q91 0 175 -35.5t132 -91.5v86q0 20 20 20h119q20 0 20 -20zM858 514q0 170 -81.5 276.5t-211.5 106.5q-139 0 -220 -105.5
t-81 -277.5t81 -277.5t220 -105.5q130 0 211.5 106.5t81.5 276.5z" />
    <glyph glyph-name="aacute.alt" 
d="M1001 1008v-988q0 -20 -20 -20h-119q-20 0 -20 20v86q-48 -56 -132 -91t-175 -35q-194 0 -316.5 145t-122.5 389t122.5 389.5t316.5 145.5q91 0 175 -35.5t132 -91.5v86q0 20 20 20h119q20 0 20 -20zM858 514q0 170 -81.5 276.5t-211.5 106.5q-139 0 -220 -105.5
t-81 -277.5t81 -277.5t220 -105.5q130 0 211.5 106.5t81.5 276.5zM414 1155l125 258q12 21 30 21h205q14 0 14 -11q0 -2 -4 -10l-192 -260q-13 -18 -37 -18h-131q-12 0 -12 10q0 6 2 10z" />
    <glyph glyph-name="agrave.alt" 
d="M1001 1008v-988q0 -20 -20 -20h-119q-20 0 -20 20v86q-48 -56 -132 -91t-175 -35q-194 0 -316.5 145t-122.5 389t122.5 389.5t316.5 145.5q91 0 175 -35.5t132 -91.5v86q0 20 20 20h119q20 0 20 -20zM858 514q0 170 -81.5 276.5t-211.5 106.5q-139 0 -220 -105.5
t-81 -277.5t81 -277.5t220 -105.5q130 0 211.5 106.5t81.5 276.5zM565 1413l125 -258q2 -4 2 -10q0 -10 -12 -10h-131q-22 0 -37 18l-193 260q-4 8 -4 10q0 11 15 11h205q18 0 30 -21z" />
    <glyph glyph-name="acircumflex.alt" 
d="M1001 1008v-988q0 -20 -20 -20h-119q-20 0 -20 20v86q-48 -56 -132 -91t-175 -35q-194 0 -316.5 145t-122.5 389t122.5 389.5t316.5 145.5q91 0 175 -35.5t132 -91.5v86q0 20 20 20h119q20 0 20 -20zM858 514q0 170 -81.5 276.5t-211.5 106.5q-139 0 -220 -105.5
t-81 -277.5t81 -277.5t220 -105.5q130 0 211.5 106.5t81.5 276.5zM647 1417l199 -262q4 -8 4 -10q0 -10 -14 -10h-127q-19 0 -37 18l-113 123l-113 -123q-12 -11 -17.5 -14.5t-18.5 -3.5h-127q-15 0 -15 10q0 2 4 10l199 262q17 17 31 17h114q14 0 31 -17z" />
    <glyph glyph-name="adieresis.alt" 
d="M1001 1008v-988q0 -20 -20 -20h-119q-20 0 -20 20v86q-48 -56 -132 -91t-175 -35q-194 0 -316.5 145t-122.5 389t122.5 389.5t316.5 145.5q91 0 175 -35.5t132 -91.5v86q0 20 20 20h119q20 0 20 -20zM858 514q0 170 -81.5 276.5t-211.5 106.5q-139 0 -220 -105.5
t-81 -277.5t81 -277.5t220 -105.5q130 0 211.5 106.5t81.5 276.5zM303 1241v172q0 21 21 21h172q20 0 20 -21v-172q0 -20 -20 -20h-172q-21 0 -21 20zM639 1241v172q0 21 20 21h172q21 0 21 -21v-172q0 -20 -21 -20h-172q-20 0 -20 20z" />
    <glyph glyph-name="atilde.alt" 
d="M1001 1008v-988q0 -20 -20 -20h-119q-20 0 -20 20v86q-48 -56 -132 -91t-175 -35q-194 0 -316.5 145t-122.5 389t122.5 389.5t316.5 145.5q91 0 175 -35.5t132 -91.5v86q0 20 20 20h119q20 0 20 -20zM858 514q0 170 -81.5 276.5t-211.5 106.5q-139 0 -220 -105.5
t-81 -277.5t81 -277.5t220 -105.5q130 0 211.5 106.5t81.5 276.5zM260 1356q105 78 197 78q40 0 70 -8.5t48.5 -21t35.5 -25t39 -21t50 -8.5t54.5 11.5t70.5 39.5q12 4 15 4q10 0 20 -16l58 -86q4 -8 4 -11q0 -8 -15 -20q-105 -78 -196 -78q-48 0 -84 13t-53.5 29t-45 29
t-61.5 13q-28 0 -54.5 -11.5t-70.5 -39.5q-12 -4 -14 -4q-11 0 -21 16l-57 86q-4 8 -4 10q0 10 14 21z" />
    <glyph glyph-name="aring.alt" 
d="M1001 1008v-988q0 -20 -20 -20h-119q-20 0 -20 20v86q-48 -56 -132 -91t-175 -35q-194 0 -316.5 145t-122.5 389t122.5 389.5t316.5 145.5q91 0 175 -35.5t132 -91.5v86q0 20 20 20h119q20 0 20 -20zM858 514q0 170 -81.5 276.5t-211.5 106.5q-139 0 -220 -105.5
t-81 -277.5t81 -277.5t220 -105.5q130 0 211.5 106.5t81.5 276.5zM385 1303q0 75 50 123.5t128 48.5t128 -48.5t50 -123.5t-50 -124t-128 -49t-128 49t-50 124zM483 1303q0 -38 22 -60t58 -22t58 22t22 60t-22 59.5t-58 21.5t-58 -21.5t-22 -59.5z" />
    <glyph glyph-name="amacron.alt" 
d="M1001 1008v-988q0 -20 -20 -20h-119q-20 0 -20 20v86q-48 -56 -132 -91t-175 -35q-194 0 -316.5 145t-122.5 389t122.5 389.5t316.5 145.5q91 0 175 -35.5t132 -91.5v86q0 20 20 20h119q20 0 20 -20zM858 514q0 170 -81.5 276.5t-211.5 106.5q-139 0 -220 -105.5
t-81 -277.5t81 -277.5t220 -105.5q130 0 211.5 106.5t81.5 276.5zM342 1241v102q0 21 20 21h390q20 0 20 -21v-102q0 -20 -20 -20h-390q-20 0 -20 20z" />
    <glyph glyph-name="abreve.alt" 
d="M1001 1008v-988q0 -20 -20 -20h-119q-20 0 -20 20v86q-48 -56 -132 -91t-175 -35q-194 0 -316.5 145t-122.5 389t122.5 389.5t316.5 145.5q91 0 175 -35.5t132 -91.5v86q0 20 20 20h119q20 0 20 -20zM858 514q0 170 -81.5 276.5t-211.5 106.5q-139 0 -220 -105.5
t-81 -277.5t81 -277.5t220 -105.5q130 0 211.5 106.5t81.5 276.5zM338 1403h98q21 0 21 -21q0 -50 32 -78t91 -28t90.5 28t31.5 78q0 21 21 21h98q21 0 21 -21q0 -110 -72 -175.5t-190 -65.5t-190.5 65.5t-72.5 175.5q0 21 21 21z" />
    <glyph glyph-name="aogonek.alt" 
d="M1001 1008v-988q0 -17 -14 -20q-62 -17 -97.5 -55t-35.5 -88q0 -47 36 -76t93 -29h29q20 0 20 -20v-70q0 -20 -20 -20h-66q-105 0 -173 47t-68 139q0 70 38.5 119.5t98.5 75.5v83q-48 -56 -132 -91t-175 -35q-194 0 -316.5 145t-122.5 389t122.5 389.5t316.5 145.5
q91 0 175 -35.5t132 -91.5v86q0 20 20 20h119q20 0 20 -20zM858 514q0 170 -81.5 276.5t-211.5 106.5q-139 0 -220 -105.5t-81 -277.5t81 -277.5t220 -105.5q130 0 211.5 106.5t81.5 276.5z" />
    <glyph glyph-name="aringacute.alt" 
d="M1001 1008v-988q0 -20 -20 -20h-119q-20 0 -20 20v86q-48 -56 -132 -91t-175 -35q-194 0 -316.5 145t-122.5 389t122.5 389.5t316.5 145.5q91 0 175 -35.5t132 -91.5v86q0 20 20 20h119q20 0 20 -20zM858 514q0 170 -81.5 276.5t-211.5 106.5q-139 0 -220 -105.5
t-81 -277.5t81 -277.5t220 -105.5q130 0 211.5 106.5t81.5 276.5zM385 1303q0 75 50 123.5t128 48.5t128 -48.5t50 -123.5t-50 -124t-128 -49t-128 49t-50 124zM483 1303q0 -38 22 -60t58 -22t58 22t22 60t-22 59.5t-58 21.5t-58 -21.5t-22 -59.5zM457 1561l125 258
q11 20 30 20h205q14 0 14 -10q0 -2 -4 -10l-192 -260q-14 -19 -37 -19h-131q-12 0 -12 10q0 7 2 11z" />
    <glyph glyph-name="g.alt" 
d="M588 -426q-165 0 -276 93.5t-115 240.5q0 20 20 20h119q17 0 20 -20q21 -182 230 -182q71 0 120 23.5t76.5 68.5t39.5 102.5t12 134.5v72q-59 -62 -127 -92.5t-162 -30.5q-185 0 -297.5 139t-112.5 383q0 245 111 384t299 139q183 0 289 -121v80q0 20 20 20h119
q20 0 20 -20v-961q0 -102 -24.5 -186.5t-73 -149.5t-127 -101t-180.5 -36zM850 526q0 173 -72.5 272t-202.5 99q-133 0 -202.5 -98t-69.5 -273t69.5 -272.5t202.5 -97.5q130 0 202.5 98.5t72.5 271.5z" />
    <glyph glyph-name="gcircumflex.alt" 
d="M588 -426q-165 0 -276 93.5t-115 240.5q0 20 20 20h119q17 0 20 -20q21 -182 230 -182q71 0 120 23.5t76.5 68.5t39.5 102.5t12 134.5v72q-59 -62 -127 -92.5t-162 -30.5q-185 0 -297.5 139t-112.5 383q0 245 111 384t299 139q183 0 289 -121v80q0 20 20 20h119
q20 0 20 -20v-961q0 -102 -24.5 -186.5t-73 -149.5t-127 -101t-180.5 -36zM850 526q0 173 -72.5 272t-202.5 99q-133 0 -202.5 -98t-69.5 -273t69.5 -272.5t202.5 -97.5q130 0 202.5 98.5t72.5 271.5zM676 1417l198 -262l5 -10q0 -10 -15 -10h-127q-19 0 -37 18l-112 123
l-113 -123q-18 -18 -37 -18h-127q-14 0 -14 10q0 2 4 10l199 262q17 17 30 17h115q14 0 31 -17z" />
    <glyph glyph-name="gbreve.alt" 
d="M588 -426q-165 0 -276 93.5t-115 240.5q0 20 20 20h119q17 0 20 -20q21 -182 230 -182q71 0 120 23.5t76.5 68.5t39.5 102.5t12 134.5v72q-59 -62 -127 -92.5t-162 -30.5q-185 0 -297.5 139t-112.5 383q0 245 111 384t299 139q183 0 289 -121v80q0 20 20 20h119
q20 0 20 -20v-961q0 -102 -24.5 -186.5t-73 -149.5t-127 -101t-180.5 -36zM850 526q0 173 -72.5 272t-202.5 99q-133 0 -202.5 -98t-69.5 -273t69.5 -272.5t202.5 -97.5q130 0 202.5 98.5t72.5 271.5zM336 1403h98q21 0 21 -21q0 -50 32 -78t91 -28t90.5 28t31.5 78
q0 21 21 21h98q21 0 21 -21q0 -110 -72 -175.5t-190 -65.5t-190.5 65.5t-72.5 175.5q0 21 21 21z" />
    <glyph glyph-name="gdotaccent.alt" 
d="M588 -426q-165 0 -276 93.5t-115 240.5q0 20 20 20h119q17 0 20 -20q21 -182 230 -182q71 0 120 23.5t76.5 68.5t39.5 102.5t12 134.5v72q-59 -62 -127 -92.5t-162 -30.5q-185 0 -297.5 139t-112.5 383q0 245 111 384t299 139q183 0 289 -121v80q0 20 20 20h119
q20 0 20 -20v-961q0 -102 -24.5 -186.5t-73 -149.5t-127 -101t-180.5 -36zM850 526q0 173 -72.5 272t-202.5 99q-133 0 -202.5 -98t-69.5 -273t69.5 -272.5t202.5 -97.5q130 0 202.5 98.5t72.5 271.5zM477 1237v176q0 21 21 21h176q20 0 20 -21v-176q0 -20 -20 -20h-176
q-21 0 -21 20z" />
    <glyph glyph-name="gcommaaccent.alt" 
d="M588 -426q-165 0 -276 93.5t-115 240.5q0 20 20 20h119q17 0 20 -20q21 -182 230 -182q71 0 120 23.5t76.5 68.5t39.5 102.5t12 134.5v72q-59 -62 -127 -92.5t-162 -30.5q-185 0 -297.5 139t-112.5 383q0 245 111 384t299 139q183 0 289 -121v80q0 20 20 20h119
q20 0 20 -20v-961q0 -102 -24.5 -186.5t-73 -149.5t-127 -101t-180.5 -36zM850 526q0 173 -72.5 272t-202.5 99q-133 0 -202.5 -98t-69.5 -273t69.5 -272.5t202.5 -97.5q130 0 202.5 98.5t72.5 271.5zM684 1552q-58 0 -76 -22t-18 -86v-39h94q21 0 21 -21v-208
q0 -21 -21 -21h-209q-20 0 -20 21v301q0 90 41.5 140t115.5 50h72q21 0 21 -20v-74q0 -21 -21 -21z" />
    <glyph glyph-name="left.arrow" 
d="M518 1161l68 -71q8 -8 8 -17q0 -8 -10 -18l-262 -258h727q20 0 20 -21v-110q0 -21 -20 -21h-727l262 -258q10 -10 10 -18q0 -9 -8 -17l-68 -71q-11 -11 -20 -11q-12 0 -21 9l-399 399q-21 21 -21 43t21 43l399 399q8 8 21 8q10 0 20 -10z" />
    <glyph glyph-name="right.arrow" 
d="M541 1090l67 71q10 10 21 10q12 0 20 -8l400 -399q20 -20 20 -43t-20 -43l-400 -399q-9 -9 -20 -9q-10 0 -21 11l-67 71q-9 9 -9 17q0 7 11 18l262 258h-727q-21 0 -21 21v110q0 21 21 21h727l-262 258q-11 11 -11 18q0 8 9 17z" />
    <glyph glyph-name="up.arrow" 
d="M1004 766l-72 -68q-8 -8 -17 -8q-8 0 -18 10l-258 263v-727q0 -21 -21 -21h-110q-21 0 -21 21v727l-258 -263q-10 -10 -18 -10t-16 8l-72 68q-10 10 -10 20q0 13 8 21l399 399q21 21 43 21t43 -21l400 -399q8 -8 8 -21q0 -10 -10 -20z" />
    <glyph glyph-name="down.arrow" 
d="M932 743l72 -67q10 -10 10 -21q0 -12 -8 -20l-400 -399q-21 -21 -43 -21t-43 21l-399 399q-8 8 -8 20q0 11 10 21l72 67q9 9 16 9t18 -11l258 -262v727q0 21 21 21h110q21 0 21 -21v-727l258 262q11 11 18 11q8 0 17 -9z" />
    <glyph glyph-name="ul.arrow" 
d="M305 442h-110q-21 0 -21 21v571q0 60 59 60h572q20 0 20 -21v-106q0 -21 -20 -21h-375l514 -514q8 -8 8 -16q0 -7 -8 -15l-78 -77q-9 -9 -14 -9q-7 0 -16 9l-510 514v-375q0 -21 -21 -21z" />
    <glyph glyph-name="ur.arrow" 
d="M932 442h-111q-20 0 -20 21v375l-510 -514q-9 -9 -17 -9q-5 0 -14 9l-78 77q-8 8 -8 15q0 8 8 16l514 514h-374q-21 0 -21 21v106q0 21 21 21h571q59 0 59 -60v-571q0 -21 -20 -21z" />
    <glyph glyph-name="dl.arrow" 
d="M195 967h110q21 0 21 -21v-375l510 514q9 9 16 9q5 0 14 -9l78 -77q8 -8 8 -15q0 -8 -8 -16l-514 -514h375q20 0 20 -21v-106q0 -21 -20 -21h-572q-59 0 -59 60v571q0 21 21 21z" />
    <glyph glyph-name="dr.arrow" 
d="M821 967h111q20 0 20 -21v-571q0 -60 -59 -60h-571q-21 0 -21 21v106q0 21 21 21h374l-514 514q-8 8 -8 16q0 7 8 15l78 77q9 9 14 9q8 0 17 -9l510 -514v375q0 21 20 21z" />
    <glyph glyph-name="orn.001" 
d="M993 696v-676q0 -20 -20 -20h-819q-21 0 -21 20v676q0 21 21 21h819q20 0 20 -21zM903 635h-680v-553h680v553z" />
    <glyph glyph-name="orn.002" 
d="M993 1008v-988q0 -20 -20 -20h-819q-21 0 -21 20v988q0 20 21 20h819q20 0 20 -20zM903 946h-680v-864h680v864z" />
    <glyph glyph-name="orn.003" 
d="M993 1413v-1393q0 -20 -20 -20h-819q-21 0 -21 20v1393q0 21 21 21h819q20 0 20 -21zM903 1352h-680v-1270h680v1270z" />
    <glyph glyph-name="orn.004" 
d="M993 1413v-1798q0 -21 -20 -21h-819q-21 0 -21 21v1798q0 21 21 21h819q20 0 20 -21zM903 1352h-680v-1676h680v1676z" />
    <glyph glyph-name="orn.005" 
d="M993 696v-676q0 -20 -20 -20h-819q-21 0 -21 20v676q0 21 21 21h819q20 0 20 -21zM858 82l-295 235l-295 -235h590zM563 399l295 236h-590zM903 127v463l-289 -232zM223 590v-463l289 231z" />
    <glyph glyph-name="orn.006" 
d="M993 1008v-988q0 -20 -20 -20h-819q-21 0 -21 20v988q0 20 21 20h819q20 0 20 -20zM903 131v766l-295 -383zM223 897v-766l295 383zM854 82l-291 375l-291 -375h582zM563 571l291 375h-582z" />
    <glyph glyph-name="orn.007" 
d="M993 1413v-1393q0 -20 -20 -20h-819q-21 0 -21 20v1393q0 21 21 21h819q20 0 20 -21zM903 143v1147l-293 -573zM223 1290v-1147l293 574zM842 82l-279 545l-278 -545h557zM563 807l279 545h-557z" />
    <glyph glyph-name="orn.008" 
d="M993 1413v-1798q0 -21 -20 -21h-819q-21 0 -21 21v1798q0 21 21 21h819q20 0 20 -21zM903 -254v1536l-291 -768zM223 1282v-1536l291 768zM834 -324l-271 711l-270 -711h541zM563 641l271 711h-541z" />
  </font>
</defs>
</svg>
