<?xml version="1.0" standalone="no"?>
<!DOCTYPE svg PUBLIC "-//W3C//DTD SVG 1.1//EN" "http://www.w3.org/Graphics/SVG/1.1/DTD/svg11.dtd" >
<svg xmlns="http://www.w3.org/2000/svg" xmlns:xlink="http://www.w3.org/1999/xlink" version="1.1">
<metadata>
Created by FontForge 20201107 at Wed Sep 11 12:56:54 2024
 By 
Copyright (c) 2011 by Colophon Foundry. All rights reserved. |DCNT
</metadata>
<defs>
<font id="Relative-Mono12Pitch" horiz-adv-x="1024" >
  <font-face 
    font-family="Relative Mono 12 Pitch"
    font-weight="770"
    font-stretch="normal"
    units-per-em="2048"
    panose-1="2 0 5 9 4 0 0 2 0 4"
    ascent="1638"
    descent="-410"
    x-height="1028"
    cap-height="1434"
    bbox="-94 -561 1118 2044"
    underline-thickness="102"
    underline-position="-204"
    unicode-range="U+000D-FB02"
  />
<missing-glyph 
d="M922 1413v-1393q0 -20 -21 -20h-778q-21 0 -21 20v1393q0 21 21 21h778q21 0 21 -21zM750 1270h-476v-1106h476v1106z" />
    <glyph glyph-name=".notdef" 
d="M922 1413v-1393q0 -20 -21 -20h-778q-21 0 -21 20v1393q0 21 21 21h778q21 0 21 -21zM750 1270h-476v-1106h476v1106z" />
    <glyph glyph-name=".null" 
 />
    <glyph glyph-name=".null" 
 />
    <glyph glyph-name="nonmarkingreturn" 
 />
    <glyph glyph-name="CR" unicode="&#xd;" 
 />
    <glyph glyph-name="space" unicode=" " 
 />
    <glyph glyph-name="exclam" unicode="!" 
d="M446 1434h132q20 0 20 -21v-1014q0 -20 -20 -20h-132q-20 0 -20 20v1014q0 21 20 21zM412 242h200q21 0 21 -21v-201q0 -20 -21 -20h-200q-21 0 -21 20v201q0 21 21 21z" />
    <glyph glyph-name="quotedbl" unicode="&#x22;" 
d="M627 983v430q0 21 20 21h119q20 0 20 -21v-430q0 -20 -20 -20h-119q-20 0 -20 20zM238 983v430q0 21 20 21h119q20 0 20 -21v-430q0 -20 -20 -20h-119q-20 0 -20 20z" />
    <glyph glyph-name="numbersign" unicode="#" 
d="M508 20l61 386h-192l-62 -386q-3 -20 -22 -20h-131q-19 0 -19 20l62 386h-133q-21 0 -21 20v123q0 20 21 20h157l45 295h-120q-21 0 -21 21v123q0 20 21 20h147l61 385q3 21 23 21h131q19 0 19 -21l-62 -385h193l61 385q3 21 23 21h131q18 0 18 -21l-61 -385h133
q20 0 20 -20v-123q0 -21 -20 -21h-158l-45 -295h121q20 0 20 -20v-123q0 -20 -20 -20h-148l-61 -386q-3 -20 -23 -20h-131q-18 0 -18 20zM446 864l-45 -295h195l45 295h-195z" />
    <glyph glyph-name="dollar" unicode="$" 
d="M94 1069q0 158 89.5 258t228.5 121v170q0 20 20 20h131q21 0 21 -20v-172q153 -27 236 -135t83 -256q0 -21 -20 -21h-131q-21 0 -21 21q0 76 -38 136t-109 85v-471q91 -33 151.5 -65t109.5 -77t72 -104.5t23 -138.5q0 -178 -98.5 -293.5t-257.5 -140.5v-170
q0 -21 -21 -21h-131q-20 0 -20 21v174q-160 30 -253 144t-93 290q0 20 20 20h131q21 0 21 -20q0 -99 44.5 -170t129.5 -100v534q-155 60 -236.5 152t-81.5 229zM768 406q0 84 -44 135.5t-140 89.5v-481q91 20 137.5 86t46.5 170zM266 1081q0 -76 36.5 -125t109.5 -86v414
q-71 -19 -108.5 -71.5t-37.5 -131.5z" />
    <glyph glyph-name="percent" unicode="%" 
d="M618 1153q0 -138 -88 -219.5t-202 -81.5q-73 0 -138 33.5t-109 104t-44 163.5t44 163.5t109 104t138 33.5q114 0 202 -81.5t88 -219.5zM500 1153q0 89 -49.5 139.5t-122.5 50.5t-122.5 -50.5t-49.5 -139.5t49.5 -139.5t122.5 -50.5t122.5 50.5t49.5 139.5zM963 281
q0 -93 -44 -163.5t-109 -104t-138 -33.5t-138 33.5t-109 104t-44 163.5t44 163.5t109 104t138 33.5t138 -33.5t109 -104t44 -163.5zM844 281q0 89 -49.5 139.5t-122.5 50.5t-122.5 -50.5t-49.5 -139.5t50 -140t122 -51t122 51t50 140zM123 492l682 540q9 6 14 6t15 -10
l45 -57q6 -9 6 -15t-8 -14l-682 -541q-9 -6 -15 -6q-3 0 -14 11l-45 57q-6 9 -6 14q0 7 8 15z" />
    <glyph glyph-name="ampersand" unicode="&#x26;" 
d="M911 571v-26q0 -165 -49 -291l121 -221q6 -18 6 -19q0 -14 -16 -14h-135q-15 0 -27 18l-45 76q-111 -114 -295 -114q-180 0 -289.5 116t-109.5 307q0 270 245 433q-54 92 -76 159t-22 150q0 130 87.5 219.5t225.5 89.5q141 0 225.5 -82t84.5 -194q0 -130 -66 -217
t-231 -173l203 -346q4 22 4 105v170q0 18 20 18h199q20 0 20 -20v-123q0 -21 -20 -21h-60zM471 139q131 0 205 103l-277 456q-81 -65 -118 -136.5t-37 -158.5q0 -127 68 -195.5t159 -68.5zM383 1145q0 -51 18.5 -98t65.5 -125q127 65 169 109t42 126q0 66 -40 106t-106 40
q-65 0 -107 -42.5t-42 -115.5z" />
    <glyph glyph-name="quotesingle" unicode="'" 
d="M432 983v430q0 21 21 21h118q21 0 21 -21v-430q0 -20 -21 -20h-118q-21 0 -21 20z" />
    <glyph glyph-name="parenleft" unicode="(" 
d="M520 655v-280q0 -96 4 -161t18 -125t32.5 -100.5t56.5 -88.5t80 -87.5t112 -99.5q8 -8 8 -14q0 -5 -6 -14l-82 -97q-8 -8 -14 -8q-5 0 -14 6q-218 181 -292.5 330.5t-74.5 394.5v408q0 245 74.5 394.5t292.5 330.5q9 6 14 6q6 0 14 -8l82 -96q6 -9 6 -15t-8 -14
q-70 -60 -112 -99.5t-80 -87.5t-56.5 -88.5t-32.5 -100.5t-18 -125t-4 -161z" />
    <glyph glyph-name="parenright" unicode=")" 
d="M504 375v280q0 96 -4 161t-18 125t-32.5 100.5t-56.5 88.5t-80 87.5t-112 99.5q-8 8 -8 14t6 15l82 96q8 8 14 8q5 0 14 -6q218 -181 292.5 -330.5t74.5 -394.5v-408q0 -245 -74.5 -394.5t-292.5 -330.5q-9 -6 -14 -6q-6 0 -14 8l-82 97q-6 9 -6 14q0 6 8 14
q70 60 112 99.5t80 87.5t56.5 88.5t32.5 100.5t18 125t4 161z" />
    <glyph glyph-name="asterisk" unicode="*" 
d="M160 1143l33 96q6 16 16 16q6 0 10 -2l221 -71v231q0 21 21 21h102q21 0 21 -21v-231l221 71q4 2 10 2q10 0 16 -16l33 -96q2 -4 2 -10q0 -11 -16 -17l-219 -74l135 -186q6 -9 6 -14q0 -7 -10 -17l-82 -59q-9 -6 -14 -6q-10 0 -17 10l-137 188l-137 -188q-7 -10 -17 -10
q-5 0 -14 6l-82 59q-10 10 -10 17q0 5 6 14l135 186l-219 74q-16 6 -16 17q0 6 2 10z" />
    <glyph glyph-name="plus" unicode="+" 
d="M592 1061v-281h280q21 0 21 -20v-119q0 -20 -21 -20h-280v-281q0 -21 -21 -21h-118q-21 0 -21 21v281h-280q-21 0 -21 20v119q0 20 21 20h280v281q0 20 21 20h118q21 0 21 -20z" />
    <glyph glyph-name="comma" unicode="," 
d="M408 -111q58 0 76 20t18 77v14h-94q-21 0 -21 20v209q0 21 21 21h208q21 0 21 -21v-288q0 -83 -41.5 -124.5t-116.5 -41.5h-71q-21 0 -21 20v74q0 20 21 20z" />
    <glyph glyph-name="hyphen" unicode="-" 
d="M168 780h688q21 0 21 -20v-119q0 -20 -21 -20h-688q-21 0 -21 20v119q0 20 21 20z" />
    <glyph glyph-name="period" unicode="." 
d="M408 250h208q21 0 21 -21v-209q0 -20 -21 -20h-208q-21 0 -21 20v209q0 21 21 21z" />
    <glyph glyph-name="slash" unicode="/" 
d="M98 20l621 1393q9 21 29 21h133q14 0 14 -11q0 -6 -2 -10l-621 -1393q-9 -20 -28 -20h-133q-15 0 -15 10q0 6 2 10z" />
    <glyph glyph-name="zero" unicode="0" 
d="M61 717q0 357 116 547t335 190t335 -190t116 -547t-116 -547t-335 -190t-335 190t-116 547zM233 717q0 -302 80 -453l281 1016q-32 14 -82 14q-279 0 -279 -577zM791 717q0 301 -80 452l-281 -1015q34 -15 82 -15q279 0 279 578z" />
    <glyph glyph-name="one" unicode="1" 
d="M184 20v119q0 21 21 21h262v1046l-225 -123q-12 -6 -23 -6q-14 0 -14 19v141q0 18 22 31l283 155q18 11 31 11h73q21 0 21 -21v-1253h262q21 0 21 -21v-119q0 -20 -21 -20h-692q-21 0 -21 20z" />
    <glyph glyph-name="two" unicode="2" 
d="M121 20v86q0 29 22 48l457 544q85 101 115 175.5t30 168.5q0 252 -231 252q-107 0 -166.5 -65.5t-64.5 -173.5q0 -27 -27 -27h-113q-24 0 -24 27q0 173 114 286t281 113q103 0 182 -33.5t125 -92.5t69 -133t23 -161q0 -118 -48.5 -218t-141.5 -212l-371 -444h557
q21 0 21 -21v-119q0 -20 -21 -20h-768q-20 0 -20 20z" />
    <glyph glyph-name="three" unicode="3" 
d="M387 707v114q0 23 23 23h53q112 0 177 60t65 175q0 101 -54 158t-151 57q-99 0 -157 -61t-71 -160q-1 -16 -6.5 -20t-19.5 -4h-111q-26 0 -26 30q19 172 123 273.5t268 101.5q167 0 265.5 -104t98.5 -250q0 -120 -42 -195t-132 -131q103 -40 165.5 -129.5t62.5 -232.5
q0 -186 -112 -309t-304 -123q-181 0 -294.5 119t-125.5 309q0 32 27 32h108q27 0 29 -26q12 -129 78.5 -202t177.5 -73q119 0 183.5 72t64.5 207q0 129 -71.5 197.5t-207.5 68.5h-61q-23 0 -23 23z" />
    <glyph glyph-name="four" unicode="4" 
d="M616 20v275h-526q-20 0 -20 20v76q0 19 16 47l541 979q10 17 26 17h111q20 0 20 -21v-958h140q20 0 20 -21v-119q0 -20 -20 -20h-140v-275q0 -20 -22 -20h-125q-21 0 -21 20zM616 1075l-335 -620h335v620z" />
    <glyph glyph-name="five" unicode="5" 
d="M109 676l86 737q3 21 20 21h635q20 0 20 -21v-119q0 -20 -20 -20h-510l-61 -436q49 49 124 80.5t154 31.5q189 0 288 -125t99 -356q0 -216 -112 -352.5t-308 -136.5q-119 0 -216 56.5t-151 147t-59 195.5q0 31 25 31h117q12 0 16.5 -6t9.5 -25q25 -125 92.5 -182.5
t165.5 -57.5q128 0 190 89t62 237t-57.5 237t-186.5 89q-132 0 -249 -117q-19 -19 -35 -19h-119q-20 0 -20 21z" />
    <glyph glyph-name="six" unicode="6" 
d="M111 645q0 396 116.5 602.5t317.5 206.5q157 0 256.5 -93.5t116.5 -254.5q0 -21 -23 -21h-123q-19 0 -22 21q-37 197 -205 197q-234 0 -254 -500q50 59 122.5 91t149.5 32q185 0 287 -122.5t102 -350.5q0 -209 -113 -341t-292 -132q-199 0 -317.5 164.5t-118.5 500.5z
M784 453q0 145 -60.5 229t-176.5 84t-179 -84.5t-63 -228.5t63 -229t179 -85t176.5 84.5t60.5 229.5z" />
    <glyph glyph-name="seven" unicode="7" 
d="M129 1294v119q0 21 21 21h751q21 0 21 -21v-78q0 -18 -11 -51l-397 -1270q-6 -14 -22 -14h-119q-21 0 -21 16q0 3 4 15l383 1243h-589q-21 0 -21 20z" />
    <glyph glyph-name="eight" unicode="8" 
d="M147 1075q0 165 104.5 272t260.5 107t260.5 -107t104.5 -272q0 -205 -158 -313q201 -103 201 -356q0 -185 -113.5 -305.5t-294.5 -120.5t-294.5 120.5t-113.5 305.5q0 253 201 356q-158 108 -158 313zM272 406q0 -119 64.5 -193t175.5 -74t175.5 74t64.5 193t-64.5 194.5
t-175.5 75.5t-175.5 -75.5t-64.5 -194.5zM307 1067q0 -100 52.5 -168t152.5 -68t152.5 68t52.5 168q0 103 -54 167t-151 64t-151 -64t-54 -167z" />
    <glyph glyph-name="nine" unicode="9" 
d="M926 788q0 -396 -116.5 -602t-317.5 -206q-157 0 -256.5 93.5t-116.5 254.5q0 20 22 20h123q20 0 23 -20q37 -197 205 -197q233 0 253 500q-50 -59 -122.5 -91t-149.5 -32q-185 0 -287 122.5t-102 350.5q0 209 113 341t292 132q199 0 318 -165t119 -501zM252 981
q0 -145 60.5 -229t176.5 -84t179 84.5t63 228.5t-63 228.5t-179 84.5t-176.5 -84t-60.5 -229z" />
    <glyph glyph-name="colon" unicode=":" 
d="M408 250h208q21 0 21 -21v-209q0 -20 -21 -20h-208q-21 0 -21 20v209q0 21 21 21zM408 967h208q21 0 21 -21v-209q0 -20 -21 -20h-208q-21 0 -21 20v209q0 21 21 21z" />
    <glyph glyph-name="semicolon" unicode=";" 
d="M408 -111q58 0 76 20t18 77v14h-94q-21 0 -21 20v209q0 21 21 21h208q21 0 21 -21v-288q0 -83 -41.5 -124.5t-116.5 -41.5h-71q-21 0 -21 20v74q0 20 21 20zM408 967h208q21 0 21 -21v-209q0 -20 -21 -20h-208q-21 0 -21 20v209q0 21 21 21z" />
    <glyph glyph-name="less" unicode="&#x3c;" 
d="M868 285v-148q0 -14 -10 -14q-8 0 -10 2l-690 377q-12 7 -16.5 11.5t-4.5 14.5v140q0 10 4.5 14.5t16.5 11.5l690 377q2 2 10 2q10 0 10 -14v-148q0 -17 -20 -28l-522 -285l522 -285q20 -11 20 -28z" />
    <glyph glyph-name="equal" unicode="=" 
d="M152 903h720q21 0 21 -20v-119q0 -21 -21 -21h-720q-21 0 -21 21v119q0 20 21 20zM152 487h720q21 0 21 -20v-119q0 -20 -21 -20h-720q-21 0 -21 20v119q0 20 21 20z" />
    <glyph glyph-name="greater" unicode="&#x3e;" 
d="M156 137v148q0 17 20 28l522 285l-522 285q-20 11 -20 28v148q0 14 10 14q8 0 10 -2l690 -377q12 -7 16.5 -11.5t4.5 -14.5v-140q0 -10 -4.5 -14.5t-16.5 -11.5l-690 -377q-2 -2 -10 -2q-10 0 -10 14z" />
    <glyph glyph-name="question" unicode="?" 
d="M123 1069q8 163 111.5 274t273.5 111q183 0 282 -98t99 -266q0 -80 -31 -146t-74.5 -113t-87.5 -92t-75 -103.5t-31 -127.5v-109q0 -20 -21 -20h-131q-20 0 -20 20v95q0 88 31 159.5t75 119.5t87.5 92.5t74.5 101t31 123.5q0 96 -54.5 148t-154.5 52q-91 0 -148.5 -60.5
t-68.5 -160.5q-3 -20 -21 -20h-127q-20 0 -20 20zM403 242h201q21 0 21 -21v-201q0 -20 -21 -20h-201q-20 0 -20 20v201q0 21 20 21z" />
    <glyph glyph-name="at" unicode="@" 
d="M975 995v-817q0 -18 -19 -18h-106q-19 0 -19 18v49q-63 -84 -202 -84q-147 0 -241.5 119t-94.5 330q0 210 95 329t241 119q67 0 121.5 -23t80.5 -65v54q0 137 -72.5 212.5t-205.5 75.5q-94 0 -163.5 -50.5t-111 -145t-61.5 -220.5t-20 -286q0 -364 95 -529t286 -165
q91 0 154.5 23t152.5 91q8 4 10 4q9 0 14 -8l62 -90q1 -2 2 -4.5t1.5 -3.5t0.5 -2q0 -4 -8 -12q-105 -77 -190.5 -107.5t-198.5 -30.5q-101 0 -182.5 28.5t-147.5 91.5t-110.5 160t-68.5 236.5t-24 317.5q0 253 55.5 440.5t171.5 294.5t281 107q200 0 311 -120t111 -319z
M844 592q0 157 -51.5 233t-145.5 76q-89 0 -146 -72.5t-57 -236.5t57 -236.5t146 -72.5q94 0 145.5 76t51.5 233z" />
    <glyph glyph-name="A" unicode="A" 
d="M811 20l-94 375h-410l-94 -375q-5 -12 -9.5 -16t-15.5 -4h-139q-22 0 -22 20q0 9 2 13l379 1380q1 2 2.5 6t2 5.5t2 4t3.5 3.5t4.5 1.5t5.5 0.5h168q3 0 5.5 -0.5t4.5 -1.5t3.5 -3.5t2 -4t2 -5.5t2.5 -6l379 -1380q2 -4 2 -13q0 -20 -22 -20h-139q-11 0 -15.5 4t-9.5 16z
M512 1212l-164 -653h328z" />
    <glyph glyph-name="B" unicode="B" 
d="M561 0h-389q-20 0 -20 20v1393q0 21 20 21h352q173 0 277 -97.5t104 -257.5q0 -211 -164 -319q114 -44 170 -127t56 -225q0 -182 -109.5 -295t-296.5 -113zM324 672v-502h225q246 0 246 250q0 122 -62.5 187t-183.5 65h-225zM324 1264v-428h208q201 0 201 215
q0 100 -52 156.5t-149 56.5h-208z" />
    <glyph glyph-name="C" unicode="C" 
d="M834 461h124q23 0 23 -21q-8 -198 -125.5 -329t-310.5 -131q-102 0 -187 45.5t-149 134.5t-99.5 231.5t-35.5 325.5t35.5 325.5t99.5 231.5t149 134.5t187 45.5q97 0 178.5 -36.5t136 -99.5t86 -146.5t35.5 -178.5q0 -20 -23 -20h-124q-25 0 -25 20q-6 134 -75 215.5
t-189 81.5q-140 0 -215.5 -143t-75.5 -430t75.5 -430.5t215.5 -143.5q120 0 189 81.5t75 215.5q0 21 25 21z" />
    <glyph glyph-name="D" unicode="D" 
d="M121 20v1393q0 21 20 21h246q269 0 416 -182.5t147 -534.5t-147 -534.5t-416 -182.5h-246q-20 0 -20 20zM293 164h94q197 0 290 134.5t93 418.5t-93 418.5t-290 134.5h-94v-1106z" />
    <glyph glyph-name="E" unicode="E" 
d="M315 672v-508h578q20 0 20 -21v-123q0 -20 -20 -20h-729q-21 0 -21 20v1393q0 21 21 21h715q20 0 20 -21v-123q0 -20 -20 -20h-564v-434h500q21 0 21 -21v-123q0 -20 -21 -20h-500z" />
    <glyph glyph-name="F" unicode="F" 
d="M315 641v-621q0 -20 -20 -20h-131q-21 0 -21 20v1393q0 21 21 21h737q21 0 21 -21v-123q0 -20 -21 -20h-586v-465h523q20 0 20 -21v-122q0 -21 -20 -21h-523z" />
    <glyph glyph-name="G" unicode="G" 
d="M588 694h362q21 0 21 -20v-330q0 -40 -23 -84q-118 -280 -391 -280q-105 0 -193 46.5t-154.5 136.5t-104 232t-37.5 322q0 356 132 546.5t345 190.5q172 0 288 -117t123 -301q0 -20 -22 -20h-127q-22 0 -25 20q-13 115 -71.5 184.5t-165.5 69.5q-297 0 -297 -573
q0 -296 77 -435t232 -139q96 0 153 51t89 144v192h-211q-21 0 -21 21v123q0 20 21 20z" />
    <glyph glyph-name="H" unicode="H" 
d="M266 666v-646q0 -20 -20 -20h-131q-21 0 -21 20v1393q0 21 21 21h131q20 0 20 -21v-584h492v584q0 21 20 21h131q21 0 21 -21v-1393q0 -20 -21 -20h-131q-20 0 -20 20v646h-492z" />
    <glyph glyph-name="I" unicode="I" 
d="M166 1290v123q0 21 20 21h652q20 0 20 -21v-123q0 -20 -20 -20h-240v-1106h260q21 0 21 -21v-123q0 -20 -21 -20h-692q-21 0 -21 20v123q0 21 21 21h260v1106h-240q-20 0 -20 20z" />
    <glyph glyph-name="J" unicode="J" 
d="M870 1413v-926q0 -258 -102 -382.5t-293 -124.5q-99 0 -176 35t-124 98t-71 144.5t-24 178.5q0 21 20 21h131q21 0 21 -21q0 -137 58 -215t165 -78q124 0 173.5 83.5t49.5 269.5v917q0 21 21 21h131q20 0 20 -21z" />
    <glyph glyph-name="K" unicode="K" 
d="M963 1405l-340 -432l358 -944q2 -4 2 -13q0 -16 -16 -16h-142q-28 0 -37 31l-294 776l-166 -211v-576q0 -20 -21 -20h-131q-20 0 -20 20v1393q0 21 20 21h131q21 0 21 -21v-555l434 555l5 5l5 5l4 4t4.5 3.5t4 1.5t5 1.5t5.5 0.5h155q19 0 19 -13q0 -7 -6 -16z" />
    <glyph glyph-name="L" unicode="L" 
d="M201 20v1393q0 21 20 21h131q21 0 21 -21v-1249h581q21 0 21 -21v-123q0 -20 -21 -20h-733q-20 0 -20 20z" />
    <glyph glyph-name="M" unicode="M" 
d="M928 1413v-1393q0 -20 -21 -20h-131q-20 0 -20 20v1125l-162 -424q-3 -10 -27 -10h-110q-24 0 -27 10l-162 424v-1125q0 -20 -20 -20h-131q-21 0 -21 20v1393q0 21 21 21h174q26 0 33 -17l188 -504l188 504q7 17 33 17h174q21 0 21 -21z" />
    <glyph glyph-name="N" unicode="N" 
d="M901 0h-160q-25 0 -32 16l-435 1069v-1065q0 -20 -20 -20h-131q-21 0 -21 20v1393q0 21 21 21h160q25 0 32 -17l435 -1069v1065q0 21 20 21h131q21 0 21 -21v-1393q0 -20 -21 -20z" />
    <glyph glyph-name="O" unicode="O" 
d="M512 -20q-213 0 -336 188.5t-123 548.5t123 548.5t336 188.5t336 -188.5t123 -548.5t-123 -548.5t-336 -188.5zM512 143q142 0 210.5 139.5t68.5 434.5t-68.5 434t-210.5 139t-210.5 -139t-68.5 -434t68.5 -434.5t210.5 -139.5z" />
    <glyph glyph-name="P" unicode="P" 
d="M152 20v1393q0 21 20 21h348q206 0 319 -108.5t113 -291.5q0 -182 -112.5 -290.5t-319.5 -108.5h-196v-615q0 -20 -21 -20h-131q-20 0 -20 20zM324 1270v-471h219q229 0 229 235q0 236 -229 236h-219z" />
    <glyph glyph-name="Q" unicode="Q" 
d="M512 -20q-213 0 -336 188.5t-123 548.5t123 548.5t336 188.5t336 -188.5t123 -548.5q0 -326 -105 -516l92 -88q9 -9 9 -15q0 -5 -9 -14l-86 -90q-8 -8 -14 -8t-14 8l-80 76q-110 -90 -252 -90zM512 143q78 0 133 43l-119 115q-8 8 -8 14q0 7 8 15l86 90q8 8 15 8
q6 0 14 -8l98 -96q52 137 52 393q0 295 -68.5 434t-210.5 139t-210.5 -139t-68.5 -434t68.5 -434.5t210.5 -139.5z" />
    <glyph glyph-name="R" unicode="R" 
d="M127 20v1393q0 21 20 21h377q201 0 308.5 -101.5t107.5 -277.5q0 -132 -66 -225.5t-184 -135.5l291 -674q2 -2 2 -8q0 -12 -16 -12h-148q-17 0 -28 20l-285 656h-207v-656q0 -20 -20 -20h-132q-20 0 -20 20zM299 1270v-430h246q122 0 172.5 54.5t50.5 160.5t-50.5 160.5
t-172.5 54.5h-246z" />
    <glyph glyph-name="S" unicode="S" 
d="M94 1069q0 181 113.5 283t281.5 102q197 0 305.5 -113t108.5 -286q0 -21 -20 -21h-131q-21 0 -21 21q0 99 -64 167t-178 68q-106 0 -164.5 -55.5t-58.5 -153.5q0 -56 20 -98t63.5 -73.5t91.5 -52.5t124 -46q96 -33 160 -65t115.5 -77.5t75.5 -106.5t24 -142
q0 -197 -121.5 -318.5t-308.5 -121.5q-198 0 -321 121.5t-123 322.5q0 20 20 20h131q21 0 21 -20q0 -123 71.5 -202t200.5 -79q127 0 192.5 69.5t65.5 193.5q0 99 -67.5 156.5t-213.5 101.5q-193 58 -293 155t-100 250z" />
    <glyph glyph-name="T" unicode="T" 
d="M59 1290v123q0 21 21 21h864q21 0 21 -21v-123q0 -20 -21 -20h-346v-1250q0 -20 -20 -20h-132q-20 0 -20 20v1250h-346q-21 0 -21 20z" />
    <glyph glyph-name="U" unicode="U" 
d="M82 459v954q0 21 20 21h131q21 0 21 -21v-932q0 -173 62 -255.5t196 -82.5t196 82.5t62 255.5v932q0 21 21 21h131q20 0 20 -21v-954q0 -120 -33.5 -213t-92.5 -150t-136 -86.5t-168 -29.5t-168 29.5t-136 86.5t-92.5 150t-33.5 213z" />
    <glyph glyph-name="V" unicode="V" 
d="M387 20l-354 1393q-2 2 -2 4v4q0 13 18 13h152q18 0 24 -21l287 -1212l287 1212q6 21 24 21h152q18 0 18 -13q0 -1 -1 -2t-1 -2v-4l-354 -1393q-6 -20 -23 -20h-204q-17 0 -23 20z" />
    <glyph glyph-name="W" unicode="W" 
d="M143 20l-116 1393q0 21 16 21h131q25 0 25 -21l80 -1165l141 780q3 21 24 21h136q21 0 24 -21l141 -780l80 1165q0 21 25 21h131q16 0 16 -21l-116 -1393q-3 -20 -23 -20h-190q-17 0 -23 20l-133 730l-133 -730q-6 -20 -23 -20h-190q-20 0 -23 20z" />
    <glyph glyph-name="X" unicode="X" 
d="M262 1413l250 -471l250 471q7 13 12.5 17t16.5 4h137q16 0 16 -13q0 -6 -2 -8l-340 -641l399 -752q3 -3 3 -8q0 -12 -15 -12h-139q-11 0 -16.5 3.5t-12.5 16.5l-309 582l-309 -582q-7 -13 -12.5 -16.5t-16.5 -3.5h-139q-15 0 -15 12q0 5 3 8l399 752l-340 641q-2 2 -2 8
q0 13 16 13h137q11 0 16.5 -4t12.5 -17z" />
    <glyph glyph-name="Y" unicode="Y" 
d="M961 1413l-363 -751v-642q0 -20 -20 -20h-132q-20 0 -20 20v642l-363 751q-2 4 -2 10q0 11 13 11h162q15 0 22 -17l254 -565l254 565q7 17 22 17h162q13 0 13 -11q0 -6 -2 -10z" />
    <glyph glyph-name="Z" unicode="Z" 
d="M96 1290v123q0 21 21 21h788q21 0 21 -21v-123q0 -16 -13 -35l-643 -1091h670q21 0 21 -21v-123q0 -20 -21 -20h-844q-20 0 -20 20v123q0 17 12 35l645 1092h-616q-21 0 -21 20z" />
    <glyph glyph-name="bracketleft" unicode="[" 
d="M287 -385v1798q0 21 20 21h467q21 0 21 -21v-123q0 -20 -21 -20h-315v-1512h315q21 0 21 -20v-123q0 -21 -21 -21h-467q-20 0 -20 21z" />
    <glyph glyph-name="backslash" unicode="\" 
d="M305 1413l621 -1393q2 -4 2 -10q0 -10 -15 -10h-133q-19 0 -28 20l-621 1393q-2 4 -2 10q0 11 14 11h133q20 0 29 -21z" />
    <glyph glyph-name="bracketright" unicode="]" 
d="M737 1413v-1798q0 -21 -20 -21h-467q-21 0 -21 21v123q0 20 21 20h315v1512h-315q-21 0 -21 20v123q0 21 21 21h467q20 0 20 -21z" />
    <glyph glyph-name="asciicircum" unicode="^" 
d="M279 850h-148q-14 0 -14 12q0 6 2 8l293 543q9 21 26 21h152q17 0 26 -21l289 -543q2 -2 2 -8q0 -12 -14 -12h-148q-19 0 -28 20l-203 404l-207 -404q-9 -20 -28 -20z" />
    <glyph glyph-name="underscore" unicode="_" 
d="M121 0h782q21 0 21 -20v-119q0 -21 -21 -21h-782q-21 0 -21 21v119q0 20 21 20z" />
    <glyph glyph-name="grave" unicode="`" 
d="M578 1413l116 -258q2 -2 2 -8q0 -12 -14 -12h-129q-22 0 -37 18l-184 260q-4 8 -4 10q0 11 14 11h205q22 0 31 -21z" />
    <glyph glyph-name="a" unicode="a" 
d="M309 735h-131q-14 0 -14 13q0 12 2 20q31 122 130.5 201.5t246.5 79.5q178 0 266 -99t88 -270v-483q0 -70 7 -105.5t28 -71.5q2 -2 2 -10q0 -10 -16 -10h-160q-21 0 -21 20v93q-63 -71 -129 -102t-162 -31q-138 0 -230.5 92t-92.5 241q0 108 54.5 186t134 113t169.5 35
q56 0 101.5 -6t72.5 -13t82 -24v76q0 217 -194 217q-159 0 -205 -143q-7 -19 -29 -19zM737 453q-77 24 -125.5 33.5t-109.5 9.5q-93 0 -152 -48.5t-59 -134.5q0 -84 53 -133t139 -49q124 0 189 92t65 230z" />
    <glyph glyph-name="b" unicode="b" 
d="M139 20v1393q0 21 21 21h119q20 0 20 -21v-481q108 117 256 117q186 0 292.5 -141.5t106.5 -393.5t-106.5 -393t-292.5 -141q-149 0 -256 116v-76q0 -20 -20 -20h-119q-21 0 -21 20zM283 514q0 -180 67 -281.5t185 -101.5t184.5 101.5t66.5 281.5t-66.5 281.5
t-184.5 101.5t-185 -101.5t-67 -281.5z" />
    <glyph glyph-name="c" unicode="c" 
d="M539 897q-135 0 -202 -102t-67 -281t67 -281t202 -102q100 0 153 55t76 150q7 18 29 18h125q14 0 14 -12t-2 -20q-13 -71 -42.5 -130.5t-76.5 -108t-117.5 -76t-158.5 -27.5q-136 0 -236 69.5t-150.5 189t-50.5 275.5t50.5 276t150.5 189.5t236 69.5q88 0 158.5 -27.5
t117.5 -76t76.5 -108t42.5 -130.5q2 -8 2 -21q0 -12 -14 -12h-125q-22 0 -29 18q-23 95 -76 150t-153 55z" />
    <glyph glyph-name="d" unicode="d" 
d="M905 1413v-1393q0 -20 -20 -20h-119q-21 0 -21 20v76q-107 -116 -256 -116q-186 0 -292.5 141t-106.5 393t106.5 393.5t292.5 141.5q148 0 256 -117v481q0 21 21 21h119q20 0 20 -21zM762 514q0 180 -67 281.5t-185 101.5t-185 -101.5t-67 -281.5t67 -281.5t185 -101.5
t185 101.5t67 281.5z" />
    <glyph glyph-name="e" unicode="e" 
d="M924 465h-654q5 -151 71 -242.5t189 -91.5q91 0 139.5 46t82.5 142q7 19 28 19h133q15 0 15 -14q0 -12 -4 -21q-27 -75 -58.5 -130t-77.5 -100.5t-110.5 -69t-147.5 -23.5q-136 0 -235 71.5t-148 191t-49 271.5q0 150 53 271.5t152.5 192.5t226.5 71q86 0 155.5 -28
t117 -77.5t80 -117.5t47 -146t14.5 -166v-29q0 -20 -20 -20zM530 897q-207 0 -251 -281h493q-17 137 -78.5 209t-163.5 72z" />
    <glyph glyph-name="f" unicode="f" 
d="M907 877h-362v-857q0 -20 -21 -20h-118q-21 0 -21 20v857h-250q-20 0 -20 20v111q0 20 20 20h250v100q0 66 18.5 124t54.5 103.5t94 72t132 26.5q66 0 108 -11t89 -40q16 -11 16 -35v-111q0 -18 -14 -18q-7 0 -15 4q-52 33 -90 46.5t-82 13.5q-73 0 -112 -44.5
t-39 -130.5v-100h362q21 0 21 -20v-111q0 -20 -21 -20z" />
    <glyph glyph-name="g" unicode="g" 
d="M543 1049q112 0 192 -52l111 109q8 8 16 8q7 0 17 -10l77 -82q9 -9 9 -16q0 -8 -11 -19l-108 -113q37 -75 37 -176q0 -158 -95 -253t-245 -95q-149 0 -238 86q-76 -49 -76 -133q0 -49 29.5 -81t81.5 -32q34 0 114.5 19.5t139.5 19.5q177 0 276 -89t99 -244
q0 -144 -110.5 -233t-303.5 -89q-197 0 -311.5 87.5t-114.5 234.5q0 109 64 188q-63 50 -93 103t-30 128q0 76 43 140t114 100q-22 71 -22 143q0 158 94.5 254.5t243.5 96.5zM289 -86q0 -82 69 -135t197 -53q116 0 185 46t69 124q0 182 -250 182q-46 0 -114.5 -15
t-104.5 -18q-51 -51 -51 -131zM365 698q0 -95 50.5 -145.5t127.5 -50.5t128.5 50.5t51.5 145.5q0 97 -51.5 148t-128.5 51t-127.5 -50.5t-50.5 -148.5z" />
    <glyph glyph-name="h" unicode="h" 
d="M164 20v1393q0 21 20 21h119q21 0 21 -21v-498q47 58 122.5 96t157.5 38q160 0 233.5 -86.5t73.5 -237.5v-705q0 -20 -20 -20h-119q-20 0 -20 20v685q0 91 -44.5 141.5t-134.5 50.5q-114 0 -181.5 -95.5t-67.5 -279.5v-502q0 -20 -21 -20h-119q-20 0 -20 20z" />
    <glyph glyph-name="i" unicode="i" 
d="M209 901v107q0 20 20 20h375q21 0 21 -20v-856h288q21 0 21 -21v-111q0 -20 -21 -20h-737q-20 0 -20 20v111q0 21 20 21h289v729h-236q-20 0 -20 20zM422 1237v176q0 21 20 21h176q21 0 21 -21v-176q0 -20 -21 -20h-176q-20 0 -20 20z" />
    <glyph glyph-name="j" unicode="j" 
d="M168 901v107q0 20 20 20h547q21 0 21 -20v-1114q0 -146 -15 -231t-47 -157q-6 -16 -14 -16h-6q-2 0 -4 2l-121 35q-12 3 -12 12q0 6 2 10q57 156 57 320v1012h-408q-20 0 -20 20zM547 1237v176q0 21 20 21h176q21 0 21 -21v-176q0 -20 -21 -20h-176q-20 0 -20 20z" />
    <glyph glyph-name="k" unicode="k" 
d="M883 997l-297 -331l340 -635q4 -12 4 -15q0 -16 -19 -16h-135q-24 0 -33 18l-274 517l-141 -158v-357q0 -20 -21 -20h-119q-20 0 -20 20v1393q0 21 20 21h119q21 0 21 -21v-805l350 402q18 18 33 18h163q17 0 17 -14q0 -9 -8 -17z" />
    <glyph glyph-name="l" unicode="l" 
d="M168 1303v110q0 21 20 21h402q20 0 20 -21v-1261h308q20 0 20 -21v-111q0 -20 -20 -20h-775q-20 0 -20 20v111q0 21 20 21h308v1130h-263q-20 0 -20 21z" />
    <glyph glyph-name="m" unicode="m" 
d="M72 20v988q0 20 20 20h119q20 0 20 -20v-60q36 46 88.5 73.5t108.5 27.5q58 0 92 -24t55 -73q85 97 203 97q197 0 197 -193v-836q0 -20 -21 -20h-118q-21 0 -21 20v771q0 106 -82 106q-129 0 -129 -227v-650q0 -20 -20 -20h-119q-21 0 -21 20v771q0 106 -82 106
q-68 0 -99.5 -53.5t-31.5 -173.5v-650q0 -20 -20 -20h-119q-20 0 -20 20z" />
    <glyph glyph-name="n" unicode="n" 
d="M158 20v988q0 20 20 20h119q20 0 20 -20v-95q117 136 269 136q147 0 225 -77t78 -224v-728q0 -20 -21 -20h-118q-21 0 -21 20v705q0 172 -182 172q-102 0 -166 -94t-64 -262v-521q0 -20 -20 -20h-119q-20 0 -20 20z" />
    <glyph glyph-name="o" unicode="o" 
d="M70 514q0 249 120 392t322 143t322 -143t120 -392t-119.5 -391.5t-322.5 -142.5t-322.5 142.5t-119.5 391.5zM238 514q0 -181 70.5 -282t203.5 -101t203.5 101t70.5 282t-70.5 282t-203.5 101t-203.5 -101t-70.5 -282z" />
    <glyph glyph-name="p" unicode="p" 
d="M127 -385v1393q0 20 20 20h119q21 0 21 -20v-76q108 117 256 117q186 0 292.5 -141.5t106.5 -393.5t-106.5 -393t-292.5 -141q-149 0 -256 116v-481q0 -21 -21 -21h-119q-20 0 -20 21zM270 514q0 -180 67 -281.5t185 -101.5t185 101.5t67 281.5t-67 281.5t-185 101.5
t-185 -101.5t-67 -281.5z" />
    <glyph glyph-name="q" unicode="q" 
d="M891 1008v-1393q0 -21 -21 -21h-118q-21 0 -21 21v481q-107 -116 -256 -116q-186 0 -292.5 141t-106.5 393t106.5 393.5t292.5 141.5q148 0 256 -117v76q0 20 21 20h118q21 0 21 -20zM748 514q0 180 -67 281.5t-185 101.5t-185 -101.5t-67 -281.5t67 -281.5t185 -101.5
t185 101.5t67 281.5z" />
    <glyph glyph-name="r" unicode="r" 
d="M922 817l-119 -72q-8 -4 -15 -4q-12 0 -16 11q-38 77 -78 111t-110 34q-107 0 -174.5 -104t-67.5 -265v-508q0 -20 -20 -20h-119q-21 0 -21 20v988q0 20 21 20h119q20 0 20 -20v-101q50 64 128.5 103t174.5 39q104 0 177 -55.5t108 -141.5q4 -12 4 -14q0 -15 -12 -21z
" />
    <glyph glyph-name="s" unicode="s" 
d="M905 301q0 -143 -100 -232t-264 -89q-174 0 -282.5 96.5t-108.5 236.5q0 21 20 21h131q18 0 21 -21q12 -90 69.5 -136t155.5 -46q94 0 142 40.5t48 109.5q0 77 -52 114.5t-200 61.5q-155 27 -234 98t-79 201q0 134 95 213.5t249 79.5q163 0 251.5 -79t106.5 -216
q0 -21 -20 -21h-115q-3 0 -5.5 0.5t-4.5 1.5t-3.5 3.5t-2 4t-2 5.5t-2.5 6q-37 143 -201 143q-88 0 -137 -35t-49 -102q0 -70 55.5 -108t196.5 -64q65 -13 109.5 -26t87.5 -35t68.5 -51t40.5 -73t15 -102z" />
    <glyph glyph-name="t" unicode="t" 
d="M82 1028h207v332q0 20 20 20h119q21 0 21 -20v-332h350q20 0 20 -20v-111q0 -20 -20 -20h-350v-521q0 -225 157 -225q81 0 120 48t50 157q2 18 23 18h119q11 0 14.5 -2.5t3.5 -15.5q0 -70 -21 -133t-60.5 -113t-104 -80t-144.5 -30q-151 0 -234 95t-83 279v523h-207
q-21 0 -21 20v111q0 20 21 20z" />
    <glyph glyph-name="u" unicode="u" 
d="M870 1008v-988q0 -20 -20 -20h-119q-20 0 -20 20v95q-116 -135 -269 -135q-147 0 -225 77t-78 224v727q0 20 21 20h119q20 0 20 -20v-705q0 -172 182 -172q102 0 166 94t64 262v521q0 20 20 20h119q20 0 20 -20z" />
    <glyph glyph-name="v" unicode="v" 
d="M948 995l-340 -975q-9 -20 -20 -20h-152q-11 0 -20 20l-340 975q-2 4 -2 15q0 18 18 18h139q23 0 29 -20l252 -787l252 787q6 20 29 20h139q18 0 18 -18q0 -11 -2 -15z" />
    <glyph glyph-name="w" unicode="w" 
d="M993 997l-157 -977q-6 -20 -27 -20h-143q-21 0 -27 20l-127 621l-127 -621q-6 -20 -27 -20h-143q-24 0 -27 20l-157 977q-2 6 -2 17q0 14 16 14h135q11 0 16.5 -3t7 -5t5.5 -12l86 -727l117 563q1 2 2.5 5.5t2 4.5t1.5 3.5t2.5 3t3.5 1.5t4.5 1.5t5.5 0.5h156q4 0 7 -0.5
t4.5 -1t3.5 -3.5t2.5 -3.5t2 -5.5t2.5 -6l117 -563l86 727q1 1 2 4t1.5 4t1.5 3.5t2 3t2.5 2t3 1.5t4 1t5.5 1h7h135q16 0 16 -14q0 -11 -2 -17z" />
    <glyph glyph-name="x" unicode="x" 
d="M113 27l313 512l-281 462q-4 12 -4 13q0 14 15 14h129q20 0 28 -14l199 -332l199 332q8 14 28 14h129q15 0 15 -14q0 -1 -4 -13l-281 -462l313 -512q7 -11 7 -17q0 -10 -13 -10h-137q-18 0 -29 20l-227 375l-227 -375q-11 -20 -29 -20h-137q-13 0 -13 10q0 6 7 17z" />
    <glyph glyph-name="y" unicode="y" 
d="M111 -360v110q0 21 16 21q9 0 30.5 -11t54.5 -22.5t69 -11.5q68 0 106.5 56t83.5 214l4 14l-358 985q-4 16 -4 17q0 16 16 16h147q21 0 27 -20l254 -758l213 758q5 11 10.5 15.5t18.5 4.5h141q16 0 16 -14q0 -1 -0.5 -3t-1.5 -5.5t-2 -6.5l-358 -1140
q-47 -153 -116.5 -219t-184.5 -66q-95 0 -162 33q-20 11 -20 33z" />
    <glyph glyph-name="z" unicode="z" 
d="M188 897v111q0 20 21 20h610q21 0 21 -20v-111q0 -15 -17 -43l-483 -702h522q21 0 21 -21v-111q0 -20 -21 -20h-692q-20 0 -20 20v111q0 15 12 31l493 715h-446q-21 0 -21 20z" />
    <glyph glyph-name="braceleft" unicode="{" 
d="M539 346v-352q0 -139 24.5 -187.5t112.5 -48.5h98q21 0 21 -20v-123q0 -21 -21 -21h-98q-160 0 -234.5 94.5t-74.5 305.5v319q0 119 -109 119h-74q-20 0 -20 21v122q0 21 20 21h74q109 0 109 119v319q0 211 74.5 305.5t234.5 94.5h98q21 0 21 -21v-123q0 -20 -21 -20h-98
q-88 0 -112.5 -48.5t-24.5 -187.5v-352q0 -65 -24.5 -107t-92.5 -61q68 -19 92.5 -61t24.5 -107z" />
    <glyph glyph-name="bar" unicode="|" 
d="M426 -184v1802q0 20 20 20h132q20 0 20 -20v-1802q0 -21 -20 -21h-132q-20 0 -20 21z" />
    <glyph glyph-name="braceright" unicode="}" 
d="M485 -6v352q0 65 24.5 107t92.5 61q-68 19 -92.5 61t-24.5 107v352q0 139 -24.5 187.5t-112.5 48.5h-98q-21 0 -21 20v123q0 21 21 21h98q160 0 234.5 -94.5t74.5 -305.5v-319q0 -119 109 -119h74q20 0 20 -21v-122q0 -21 -20 -21h-74q-109 0 -109 -119v-319
q0 -211 -74.5 -305.5t-234.5 -94.5h-98q-21 0 -21 21v123q0 20 21 20h98q88 0 112.5 48.5t24.5 187.5z" />
    <glyph glyph-name="asciitilde" unicode="~" 
d="M141 745q99 74 221 74q52 0 95.5 -13t68.5 -29t59.5 -29t71.5 -13q42 0 73.5 11t72.5 40q2 1 5 2t5 2t4 1q11 0 21 -17l61 -102q2 -2 2 -8q0 -15 -18 -27q-99 -74 -221 -74q-52 0 -95.5 13t-68 29t-59.5 29t-72 13q-42 0 -73.5 -11t-72.5 -40q-12 -4 -14 -4q-11 0 -21 16
l-61 103q-2 2 -2 8q0 14 18 26z" />
    <glyph glyph-name="uni00A0" unicode="&#xa0;" 
 />
    <glyph glyph-name="exclamdown" unicode="&#xa1;" 
d="M578 -406h-132q-20 0 -20 21v1014q0 20 20 20h132q20 0 20 -20v-1014q0 -21 -20 -21zM612 786h-200q-21 0 -21 21v201q0 20 21 20h200q21 0 21 -20v-201q0 -21 -21 -21z" />
    <glyph glyph-name="cent" unicode="&#xa2;" 
d="M442 20v168q-164 32 -255 175.5t-91 353.5t91 353t255 175v168q0 21 21 21h131q20 0 20 -21v-168q134 -24 213 -115t101 -221q2 -8 2 -20t-15 -12h-124q-22 0 -29 18q-20 75 -53.5 124t-94.5 71v-746q61 22 94.5 71t53.5 124q7 18 29 18h124q15 0 15 -12q0 -13 -2 -21
q-22 -130 -101 -221t-213 -115v-168q0 -20 -20 -20h-131q-21 0 -21 20zM264 717q0 -146 44 -244t134 -129v746q-90 -31 -134 -129t-44 -244z" />
    <glyph glyph-name="sterling" unicode="&#xa3;" 
d="M274 580q0 21 -4 57h-149q-21 0 -21 20v119q0 21 21 21h104q-30 73 -44.5 127.5t-14.5 122.5q0 182 108.5 294.5t278.5 112.5q96 0 173 -30.5t126 -83.5t75.5 -122.5t26.5 -148.5q0 -20 -20 -20h-131q-18 0 -21 20q-24 221 -229 221q-100 0 -157.5 -59.5t-57.5 -177.5
q0 -55 9.5 -104.5t19 -75.5t30.5 -76h400q20 0 20 -21v-119q0 -20 -20 -20h-355q4 -46 4 -68q0 -194 -145 -405h643q21 0 21 -21v-123q0 -20 -21 -20h-803q-20 0 -20 20v144q0 19 16 41q76 99 106.5 173t30.5 202z" />
    <glyph glyph-name="currency" unicode="&#xa4;" 
d="M512 217q-111 0 -193 55l-92 -90q-8 -8 -14 -8t-14 8l-78 78q-8 8 -8 14q0 7 8 15l94 92q-63 100 -63 233q0 134 63 234l-94 92q-8 8 -8 14q0 7 8 15l78 78q8 8 14 8t14 -8l92 -91q83 56 193 56t193 -56l92 91q8 8 14 8t14 -8l78 -78q8 -8 8 -15q0 -6 -8 -14l-94 -92
q63 -100 63 -234q0 -133 -63 -233l94 -92q8 -8 8 -15q0 -6 -8 -14l-78 -78q-8 -8 -14 -8t-14 8l-92 90q-82 -55 -193 -55zM303 614q0 -121 57.5 -189.5t151.5 -68.5t151.5 68.5t57.5 189.5t-57.5 189.5t-151.5 68.5t-151.5 -68.5t-57.5 -189.5z" />
    <glyph glyph-name="yen" unicode="&#xa5;" 
d="M133 821h211l-303 592q-2 2 -2 8q0 13 12 13h162q13 0 23 -17l276 -571l276 571q10 17 23 17h162q12 0 12 -13q0 -6 -2 -8l-303 -592h211q20 0 20 -20v-119q0 -20 -20 -20h-293v-175h231q21 0 21 -20v-119q0 -20 -21 -20h-231v-308q0 -20 -20 -20h-132q-20 0 -20 20v308
h-231q-21 0 -21 20v119q0 20 21 20h231v175h-293q-20 0 -20 20v119q0 20 20 20z" />
    <glyph glyph-name="brokenbar" unicode="&#xa6;" 
d="M426 860v758q0 20 20 20h132q20 0 20 -20v-758q0 -20 -20 -20h-132q-20 0 -20 20zM426 -184v757q0 21 20 21h132q20 0 20 -21v-757q0 -21 -20 -21h-132q-20 0 -20 21z" />
    <glyph glyph-name="section" unicode="&#xa7;" 
d="M844 -84q0 -101 -51.5 -180.5t-133 -120.5t-176.5 -41q-76 0 -139.5 19.5t-107 52t-74 77t-44.5 93.5t-14 102q0 21 21 21h131q17 0 20 -21q8 -83 60 -131.5t147 -48.5q80 0 134.5 50.5t54.5 127.5q0 93 -47 154.5t-176 134.5q-203 114 -271.5 184t-68.5 176
q0 136 145 240q-70 64 -100.5 138t-30.5 169q0 150 107 246t253 96q76 0 139.5 -19.5t107 -52t74 -77t44.5 -93.5t14 -102q0 -20 -20 -20h-131q-18 0 -21 20q-8 83 -60 131.5t-147 48.5q-80 0 -134 -50.5t-54 -127.5q0 -94 46.5 -155t176.5 -134q203 -114 271.5 -184
t68.5 -176q0 -136 -145 -240q70 -64 100.5 -138t30.5 -169zM395 707l-12 8q-48 -23 -75 -58t-27 -73q0 -68 50.5 -112.5t239.5 -149.5l13 -9q48 23 75 58t27 73q0 66 -49.5 109t-241.5 154z" />
    <glyph glyph-name="dieresis" unicode="&#xa8;" 
d="M240 1241v172q0 21 20 21h172q21 0 21 -21v-172q0 -20 -21 -20h-172q-20 0 -20 20zM571 1241v172q0 21 21 21h172q20 0 20 -21v-172q0 -20 -20 -20h-172q-21 0 -21 20z" />
    <glyph glyph-name="copyright" unicode="&#xa9;" 
d="M682 604h49q14 0 14 -14q-12 -95 -75.5 -147t-157.5 -52q-48 0 -93 19.5t-82.5 56.5t-60 97.5t-22.5 135.5q0 146 78 229t180 83q94 0 157.5 -52t75.5 -147q0 -14 -14 -14h-49q-15 0 -18 14q-27 121 -152 121q-76 0 -124 -60t-48 -174q0 -112 48 -171.5t124 -59.5
q125 0 152 121q3 14 18 14zM512 172q-95 0 -185 35.5t-162 101t-115.5 167.5t-43.5 224q0 98 28.5 184t77.5 148.5t113.5 107.5t138 67t148.5 22t148.5 -22t138 -67t113.5 -107.5t77.5 -148.5t28.5 -184q0 -122 -43.5 -224t-115.5 -167.5t-162 -101t-185 -35.5zM512 262
q78 0 150 28t131 80.5t94 138t35 191.5t-35 191.5t-94 138.5t-131 81t-150 28t-150 -28t-131 -81t-94 -138.5t-35 -191.5t35 -191.5t94 -138t131 -80.5t150 -28z" />
    <glyph glyph-name="ordfeminine" unicode="&#xaa;" 
d="M825 1419v-737q0 -14 -14 -14h-88q-16 0 -16 14v72q-39 -52 -85.5 -77.5t-123.5 -25.5q-129 0 -214 109t-85 291t85 290.5t214 108.5q77 0 123.5 -25t85.5 -77v71q0 15 16 15h88q14 0 14 -15zM719 1051q0 132 -51.5 208t-147.5 76q-94 0 -145 -80t-51 -204
q0 -125 51 -205t145 -80q96 0 147.5 76.5t51.5 208.5z" />
    <glyph glyph-name="guillemotleft" unicode="&#xab;" 
d="M541 260v-172q0 -14 -13 -14q-6 0 -12 6l-401 387q-21 21 -21 37v114q0 16 21 37l401 387q7 7 12 7q13 0 13 -15v-172q0 -18 -15 -33l-268 -268l268 -268q15 -15 15 -33zM895 260v-172q0 -14 -12 -14q-7 0 -13 6l-401 387q-20 20 -20 37v114q0 17 20 37l401 387q7 7 13 7
q12 0 12 -15v-172q0 -19 -14 -33l-269 -268l269 -268q14 -14 14 -33z" />
    <glyph glyph-name="logicalnot" unicode="&#xac;" 
d="M115 594v106q0 21 20 21h737q21 0 21 -21v-378q0 -21 -21 -21h-118q-21 0 -21 21v251h-598q-20 0 -20 21z" />
    <glyph glyph-name="registered" unicode="&#xae;" 
d="M512 172q-95 0 -185 35.5t-162 101t-115.5 167.5t-43.5 224q0 98 28.5 184t77.5 148.5t113.5 107.5t138 67t148.5 22t148.5 -22t138 -67t113.5 -107.5t77.5 -148.5t28.5 -184q0 -122 -43.5 -224t-115.5 -167.5t-162 -101t-185 -35.5zM512 262q78 0 150 28t131 80.5
t94 138t35 191.5t-35 191.5t-94 138.5t-131 81t-150 28t-150 -28t-131 -81t-94 -138.5t-35 -191.5t35 -191.5t94 -138t131 -80.5t150 -28zM338 412v579q0 15 14 15h180q93 0 143 -43.5t50 -124.5q0 -119 -123 -162l131 -264q2 -2 2 -9q0 -6 -8 -6h-63q-14 0 -21 13l-129 258
h-94v-256q0 -15 -14 -15h-54q-14 0 -14 15zM420 928v-183h121q102 0 102 93q0 90 -102 90h-121z" />
    <glyph glyph-name="macron" unicode="&#xaf;" 
d="M301 1241v102q0 21 21 21h380q21 0 21 -21v-102q0 -20 -21 -20h-380q-21 0 -21 20z" />
    <glyph glyph-name="degree" unicode="&#xb0;" 
d="M182 1106q0 151 92 249.5t238 98.5t238 -98.5t92 -249.5t-92 -249.5t-238 -98.5t-238 98.5t-92 249.5zM326 1106q0 -99 50.5 -160t135.5 -61t135.5 61t50.5 160t-50.5 160t-135.5 61t-135.5 -61t-50.5 -160z" />
    <glyph glyph-name="plusminus" unicode="&#xb1;" 
d="M592 1094v-281h280q21 0 21 -20v-119q0 -21 -21 -21h-280v-280q0 -21 -21 -21h-118q-21 0 -21 21v280h-280q-21 0 -21 21v119q0 20 21 20h280v281q0 20 21 20h118q21 0 21 -20zM152 160h720q21 0 21 -21v-119q0 -20 -21 -20h-720q-21 0 -21 20v119q0 21 21 21z" />
    <glyph glyph-name="twosuperior" unicode="&#xb2;" 
d="M229 688v62q0 18 13 28l262 283q43 44 62.5 81.5t19.5 80.5q0 51 -28 81.5t-81 30.5q-107 0 -123 -112q-3 -21 -20 -21h-80q-21 0 -21 21q8 100 72.5 161.5t171.5 61.5q109 0 168.5 -62.5t59.5 -164.5q0 -64 -28.5 -116.5t-86.5 -115.5l-191 -209h310q20 0 20 -20v-70
q0 -20 -20 -20h-459q-21 0 -21 20z" />
    <glyph glyph-name="threesuperior" unicode="&#xb3;" 
d="M426 1034v70q0 20 20 20h21q127 0 127 123q0 45 -25.5 70.5t-74.5 25.5q-43 0 -70 -27t-33 -71q-3 -16 -20 -16h-72q-20 0 -20 18q11 88 67.5 143.5t147.5 55.5q103 0 159 -56.5t56 -134.5q0 -112 -84 -172q114 -49 114 -192q0 -104 -66.5 -170t-170.5 -66
q-105 0 -177.5 67t-72.5 165q0 20 20 20h74q18 0 21 -20q24 -121 133 -121q121 0 121 125q0 56 -35 89.5t-97 33.5h-43q-20 0 -20 20z" />
    <glyph glyph-name="acute" unicode="&#xb4;" 
d="M330 1155l116 258q9 21 31 21h205q14 0 14 -11q0 -2 -4 -10l-184 -260q-13 -18 -37 -18h-129q-14 0 -14 12q0 6 2 8z" />
    <glyph glyph-name="mu" unicode="&#xb5;" 
d="M870 1008v-988q0 -20 -20 -20h-119q-20 0 -20 20v95q-116 -135 -269 -135q-73 0 -143 24v-389q0 -21 -20 -21h-119q-21 0 -21 21v1393q0 20 21 20h119q20 0 20 -20v-705q0 -172 182 -172q102 0 166 94t64 262v521q0 20 20 20h119q20 0 20 -20z" />
    <glyph glyph-name="paragraph" unicode="&#xb6;" 
d="M375 1434h588q20 0 20 -21v-123q0 -20 -20 -20h-82v-1454q0 -21 -21 -21h-131q-20 0 -20 21v1454h-121v-1454q0 -21 -21 -21h-131q-20 0 -20 21v989h-41q-164 0 -256 84.5t-92 228.5q0 147 91.5 231.5t256.5 84.5z" />
    <glyph glyph-name="periodcentered" unicode="&#xb7;" 
d="M408 842h208q21 0 21 -21v-209q0 -20 -21 -20h-208q-21 0 -21 20v209q0 21 21 21z" />
    <glyph glyph-name="cedilla" unicode="&#xb8;" 
d="M346 -211l-24 25q-5 5 -5 12q0 8 2 12l82 219q9 21 21 21h90q16 0 16 -12q0 -7 -2 -11l-88 -180q54 14 113 14q73 0 116.5 -39.5t43.5 -105.5q0 -82 -47.5 -126t-155.5 -44q-101 0 -174 20q-18 8 -20 13q-1 3 -1 8v59q0 21 21 21q12 0 62 -11.5t106 -11.5q73 0 73 64
q0 63 -73 63q-57 0 -125 -14q-6 -2 -15 -2q-10 0 -16 6z" />
    <glyph glyph-name="onesuperior" unicode="&#xb9;" 
d="M293 688v70q0 20 20 20h152v500l-125 -68q-12 -6 -21 -6q-16 0 -16 17v96q0 12 14 20l164 88q15 9 31 9h47q21 0 21 -21v-635h151q21 0 21 -20v-70q0 -20 -21 -20h-418q-20 0 -20 20z" />
    <glyph glyph-name="ordmasculine" unicode="&#xba;" 
d="M174 1051q0 172 92 285.5t246 113.5t246 -113.5t92 -285.5t-92 -286t-246 -114t-246 114t-92 286zM299 1051q0 -125 57 -205t156 -80t156 80t57 205t-57 204.5t-156 79.5t-156 -79.5t-57 -204.5z" />
    <glyph glyph-name="guillemotright" unicode="&#xbb;" 
d="M483 88v172q0 18 15 33l268 268l-268 268q-15 15 -15 33v172q0 15 13 15q5 0 12 -7l401 -387q21 -21 21 -37v-114q0 -16 -21 -37l-401 -387q-6 -6 -12 -6q-13 0 -13 14zM129 88v172q0 19 14 33l269 268l-269 268q-14 14 -14 33v172q0 15 12 15q6 0 13 -7l401 -387
q20 -20 20 -37v-114q0 -17 -20 -37l-401 -387q-6 -6 -13 -6q-12 0 -12 14z" />
    <glyph glyph-name="onequarter" unicode="&#xbc;" 
d="M215 240l682 540q9 6 14 6t15 -10l45 -57q6 -9 6 -14q0 -7 -8 -15l-682 -540q-11 -7 -15 -7q-3 0 -14 11l-45 57q-6 9 -6 14q0 7 8 15zM109 688v70q0 20 20 20h152v500l-125 -68q-12 -6 -21 -6q-16 0 -16 17v96q0 12 14 20l164 88q15 9 31 9h47q20 0 20 -21v-635h152
q20 0 20 -20v-70q0 -20 -20 -20h-418q-20 0 -20 20zM713 -385v125h-283q-20 0 -20 20v58q0 13 8 24l299 504q8 14 22 14h68q20 0 20 -20v-490h66q20 0 20 -20v-70q0 -20 -20 -20h-66v-125q0 -21 -20 -21h-74q-20 0 -20 21zM713 139l-166 -289h166v289z" />
    <glyph glyph-name="onehalf" unicode="&#xbd;" 
d="M139 240l682 540q9 6 15 6q4 0 14 -10l45 -57q6 -9 6 -14q0 -7 -8 -15l-682 -540q-11 -7 -14 -7q-4 0 -15 11l-45 57q-6 9 -6 14q0 7 8 15zM109 688v70q0 20 20 20h152v500l-125 -68q-12 -6 -21 -6q-16 0 -16 17v96q0 12 14 20l164 88q15 9 31 9h47q20 0 20 -21v-635h152
q20 0 20 -20v-70q0 -20 -20 -20h-418q-20 0 -20 20zM455 -385v61q0 20 12 29l262 283q43 44 62.5 81.5t19.5 80.5q0 51 -28 81.5t-81 30.5q-106 0 -122 -112q-3 -21 -21 -21h-80q-20 0 -20 21q8 100 72 161.5t171 61.5q109 0 168.5 -63t59.5 -165q0 -64 -28.5 -116
t-86.5 -115l-190 -209h309q20 0 20 -20v-70q0 -21 -20 -21h-459q-20 0 -20 21z" />
    <glyph glyph-name="threequarters" unicode="&#xbe;" 
d="M135 240l682 540q9 6 14 6t15 -10l45 -57q6 -9 6 -14q0 -7 -8 -15l-682 -540q-11 -7 -14 -7q-4 0 -15 11l-45 57q-6 9 -6 14q0 7 8 15zM713 -385v125h-283q-20 0 -20 20v58q0 13 8 24l299 504q8 14 22 14h68q20 0 20 -20v-490h66q20 0 20 -20v-70q0 -20 -20 -20h-66v-125
q0 -21 -20 -21h-74q-20 0 -20 21zM713 139l-166 -289h166v289zM283 1034v70q0 20 20 20h21q127 0 127 123q0 45 -26 70.5t-75 25.5q-43 0 -69.5 -27t-32.5 -71q-3 -16 -21 -16h-71q-21 0 -21 18q11 88 67.5 143.5t147.5 55.5q103 0 159 -56.5t56 -134.5q0 -112 -84 -172
q115 -49 115 -192q0 -104 -67 -170t-171 -66q-105 0 -177 67t-72 165q0 20 20 20h74q17 0 20 -20q24 -121 133 -121q121 0 121 125q0 56 -34.5 89.5t-96.5 33.5h-43q-20 0 -20 20z" />
    <glyph glyph-name="questiondown" unicode="&#xbf;" 
d="M901 -41q-8 -163 -111.5 -274t-273.5 -111q-183 0 -282 98.5t-99 266.5q0 80 31 146t74.5 112.5t87.5 91.5t75 103.5t31 127.5v109q0 20 21 20h131q20 0 20 -20v-94q0 -88 -31 -159.5t-75 -119.5t-87.5 -92.5t-74.5 -101t-31 -123.5q0 -97 54.5 -149t154.5 -52
q91 0 148.5 60.5t68.5 160.5q3 21 21 21h127q20 0 20 -21zM621 786h-201q-21 0 -21 21v201q0 20 21 20h201q20 0 20 -20v-201q0 -21 -20 -21z" />
    <glyph glyph-name="Agrave" unicode="&#xc0;" 
d="M811 20l-94 375h-410l-94 -375q-5 -12 -9.5 -16t-15.5 -4h-139q-22 0 -22 20q0 9 2 13l379 1380q1 2 2.5 6t2 5.5t2 4t3.5 3.5t4.5 1.5t5.5 0.5h168q3 0 5.5 -0.5t4.5 -1.5t3.5 -3.5t2 -4t2 -5.5t2.5 -6l379 -1380q2 -4 2 -13q0 -20 -22 -20h-139q-11 0 -15.5 4t-9.5 16z
M512 1212l-164 -653h328zM485 1819l117 -258q2 -2 2 -9q0 -12 -14 -12h-129q-21 0 -37 19l-184 260q-4 8 -4 10q0 10 14 10h205q21 0 30 -20z" />
    <glyph glyph-name="Aacute" unicode="&#xc1;" 
d="M811 20l-94 375h-410l-94 -375q-5 -12 -9.5 -16t-15.5 -4h-139q-22 0 -22 20q0 9 2 13l379 1380q1 2 2.5 6t2 5.5t2 4t3.5 3.5t4.5 1.5t5.5 0.5h168q3 0 5.5 -0.5t4.5 -1.5t3.5 -3.5t2 -4t2 -5.5t2.5 -6l379 -1380q2 -4 2 -13q0 -20 -22 -20h-139q-11 0 -15.5 4t-9.5 16z
M512 1212l-164 -653h328zM418 1561l117 258q9 20 30 20h205q14 0 14 -10q0 -2 -4 -10l-184 -260q-14 -19 -37 -19h-129q-14 0 -14 12q0 7 2 9z" />
    <glyph glyph-name="Acircumflex" unicode="&#xc2;" 
d="M811 20l-94 375h-410l-94 -375q-5 -12 -9.5 -16t-15.5 -4h-139q-22 0 -22 20q0 9 2 13l379 1380q1 2 2.5 6t2 5.5t2 4t3.5 3.5t4.5 1.5t5.5 0.5h168q3 0 5.5 -0.5t4.5 -1.5t3.5 -3.5t2 -4t2 -5.5t2.5 -6l379 -1380q2 -4 2 -13q0 -20 -22 -20h-139q-11 0 -15.5 4t-9.5 16z
M512 1212l-164 -653h328zM600 1823l191 -262q4 -8 4 -11q0 -10 -15 -10h-127q-21 0 -37 19l-104 120l-104 -120q-14 -19 -37 -19h-127q-15 0 -15 10q0 3 4 11l191 262q16 16 31 16h114q15 0 31 -16z" />
    <glyph glyph-name="Atilde" unicode="&#xc3;" 
d="M811 20l-94 375h-410l-94 -375q-5 -12 -9.5 -16t-15.5 -4h-139q-22 0 -22 20q0 9 2 13l379 1380q1 2 2.5 6t2 5.5t2 4t3.5 3.5t4.5 1.5t5.5 0.5h168q3 0 5.5 -0.5t4.5 -1.5t3.5 -3.5t2 -4t2 -5.5t2.5 -6l379 -1380q2 -4 2 -13q0 -20 -22 -20h-139q-11 0 -15.5 4t-9.5 16z
M512 1212l-164 -653h328zM211 1765q99 74 184 74q44 0 78 -13t51 -29t43 -29t56 -13q29 0 53 11t61 40q12 4 15 4q10 0 20 -16l57 -86q2 -2 2 -8q0 -15 -18 -27q-99 -74 -184 -74q-43 0 -77 13t-51.5 29t-43.5 29t-56 13q-29 0 -53 -11t-61 -40q-12 -4 -15 -4q-10 0 -20 17
l-57 86q-2 2 -2 8q0 14 18 26z" />
    <glyph glyph-name="Adieresis" unicode="&#xc4;" 
d="M811 20l-94 375h-410l-94 -375q-5 -12 -9.5 -16t-15.5 -4h-139q-22 0 -22 20q0 9 2 13l379 1380q1 2 2.5 6t2 5.5t2 4t3.5 3.5t4.5 1.5t5.5 0.5h168q3 0 5.5 -0.5t4.5 -1.5t3.5 -3.5t2 -4t2 -5.5t2.5 -6l379 -1380q2 -4 2 -13q0 -20 -22 -20h-139q-11 0 -15.5 4t-9.5 16z
M512 1212l-164 -653h328zM240 1647v172q0 20 20 20h172q21 0 21 -20v-172q0 -21 -21 -21h-172q-20 0 -20 21zM571 1647v172q0 20 21 20h172q20 0 20 -20v-172q0 -21 -20 -21h-172q-21 0 -21 21z" />
    <glyph glyph-name="Aring" unicode="&#xc5;" 
d="M811 20l-94 375h-410l-94 -375q-5 -12 -9.5 -16t-15.5 -4h-139q-22 0 -22 20q0 9 2 13l379 1380q1 2 2.5 6t2 5.5t2 4t3.5 3.5t4.5 1.5t5.5 0.5h168q3 0 5.5 -0.5t4.5 -1.5t3.5 -3.5t2 -4t2 -5.5t2.5 -6l379 -1380q2 -4 2 -13q0 -20 -22 -20h-139q-11 0 -15.5 4t-9.5 16z
M512 1212l-164 -653h328zM334 1708q0 75 50 123.5t128 48.5t128 -48.5t50 -123.5t-50 -123.5t-128 -48.5t-128 48.5t-50 123.5zM432 1708q0 -38 22 -60t58 -22t58 22t22 60t-22 60t-58 22t-58 -22t-22 -60z" />
    <glyph glyph-name="AE" unicode="&#xc6;" 
d="M608 672v-508h359q20 0 20 -21v-123q0 -20 -20 -20h-510q-21 0 -21 20v375h-200l-70 -375q-5 -12 -9.5 -16t-15.5 -4h-131q-22 0 -22 20q0 9 2 13l286 1380q8 18 13 20q3 1 8 1h655q21 0 21 -21v-123q0 -20 -21 -20h-344v-434h303q21 0 21 -21v-123q0 -20 -21 -20h-303z
M401 1270l-135 -711h170v711h-35z" />
    <glyph glyph-name="Ccedilla" unicode="&#xc7;" 
d="M436 -211l-24 25q-4 4 -4 12t2 12l55 150q-179 34 -285 218.5t-106 510.5q0 183 35.5 325.5t99.5 231.5t149 134.5t187 45.5q97 0 178.5 -36.5t136 -99.5t86 -146.5t35.5 -178.5q0 -20 -23 -20h-124q-25 0 -25 20q-6 134 -75 215.5t-189 81.5q-140 0 -215.5 -143
t-75.5 -430t75.5 -430.5t215.5 -143.5q120 0 189 81.5t75 215.5q0 21 25 21h124q23 0 23 -21q-8 -190 -114.5 -318t-286.5 -140l-52 -107q54 14 113 14q73 0 116.5 -39.5t43.5 -105.5q0 -82 -47.5 -126t-155.5 -44q-101 0 -174 20q-18 8 -20 13q-1 3 -1 8v59q0 21 21 21
q12 0 62 -11.5t106 -11.5q74 0 74 64q0 63 -74 63q-57 0 -125 -14q-6 -2 -14 -2q-11 0 -17 6z" />
    <glyph glyph-name="Egrave" unicode="&#xc8;" 
d="M315 672v-508h578q20 0 20 -21v-123q0 -20 -20 -20h-729q-21 0 -21 20v1393q0 21 21 21h715q20 0 20 -21v-123q0 -20 -20 -20h-564v-434h500q21 0 21 -21v-123q0 -20 -21 -20h-500zM532 1819l117 -258q2 -2 2 -9q0 -12 -14 -12h-129q-21 0 -37 19l-184 260q-4 8 -4 10
q0 10 14 10h205q21 0 30 -20z" />
    <glyph glyph-name="Eacute" unicode="&#xc9;" 
d="M315 672v-508h578q20 0 20 -21v-123q0 -20 -20 -20h-729q-21 0 -21 20v1393q0 21 21 21h715q20 0 20 -21v-123q0 -20 -20 -20h-564v-434h500q21 0 21 -21v-123q0 -20 -21 -20h-500zM391 1561l117 258q9 20 31 20h204q15 0 15 -10q0 -2 -4 -10l-185 -260q-14 -19 -37 -19
h-129q-14 0 -14 12q0 7 2 9z" />
    <glyph glyph-name="Ecircumflex" unicode="&#xca;" 
d="M315 672v-508h578q20 0 20 -21v-123q0 -20 -20 -20h-729q-21 0 -21 20v1393q0 21 21 21h715q20 0 20 -21v-123q0 -20 -20 -20h-564v-434h500q21 0 21 -21v-123q0 -20 -21 -20h-500zM610 1823l191 -262q4 -8 4 -11q0 -10 -14 -10h-127q-21 0 -37 19l-105 120l-104 -120
q-14 -19 -37 -19h-127q-14 0 -14 10q0 3 4 11l190 262q16 16 31 16h115q14 0 30 -16z" />
    <glyph glyph-name="Edieresis" unicode="&#xcb;" 
d="M315 672v-508h578q20 0 20 -21v-123q0 -20 -20 -20h-729q-21 0 -21 20v1393q0 21 21 21h715q20 0 20 -21v-123q0 -20 -20 -20h-564v-434h500q21 0 21 -21v-123q0 -20 -21 -20h-500zM244 1647v172q0 20 20 20h172q21 0 21 -20v-172q0 -21 -21 -21h-172q-20 0 -20 21z
M575 1647v172q0 20 21 20h172q20 0 20 -20v-172q0 -21 -20 -21h-172q-21 0 -21 21z" />
    <glyph glyph-name="Igrave" unicode="&#xcc;" 
d="M166 1290v123q0 21 20 21h652q20 0 20 -21v-123q0 -20 -20 -20h-240v-1106h260q21 0 21 -21v-123q0 -20 -21 -20h-692q-21 0 -21 20v123q0 21 21 21h260v1106h-240q-20 0 -20 20zM512 1819l117 -258q2 -2 2 -9q0 -12 -15 -12h-129q-20 0 -36 19l-185 260q-4 8 -4 10
q0 10 14 10h205q22 0 31 -20z" />
    <glyph glyph-name="Iacute" unicode="&#xcd;" 
d="M166 1290v123q0 21 20 21h652q20 0 20 -21v-123q0 -20 -20 -20h-240v-1106h260q21 0 21 -21v-123q0 -20 -21 -20h-692q-21 0 -21 20v123q0 21 21 21h260v1106h-240q-20 0 -20 20zM395 1561l117 258q9 20 31 20h205q14 0 14 -10q0 -2 -4 -10l-185 -260q-14 -19 -36 -19
h-129q-15 0 -15 12q0 7 2 9z" />
    <glyph glyph-name="Icircumflex" unicode="&#xce;" 
d="M166 1290v123q0 21 20 21h652q20 0 20 -21v-123q0 -20 -20 -20h-240v-1106h260q21 0 21 -21v-123q0 -20 -21 -20h-692q-21 0 -21 20v123q0 21 21 21h260v1106h-240q-20 0 -20 20zM600 1823l191 -262q4 -8 4 -11q0 -10 -15 -10h-127q-21 0 -37 19l-104 120l-104 -120
q-14 -19 -37 -19h-127q-15 0 -15 10q0 3 4 11l191 262q16 16 31 16h114q15 0 31 -16z" />
    <glyph glyph-name="Idieresis" unicode="&#xcf;" 
d="M166 1290v123q0 21 20 21h652q20 0 20 -21v-123q0 -20 -20 -20h-240v-1106h260q21 0 21 -21v-123q0 -20 -21 -20h-692q-21 0 -21 20v123q0 21 21 21h260v1106h-240q-20 0 -20 20zM240 1647v172q0 20 20 20h172q21 0 21 -20v-172q0 -21 -21 -21h-172q-20 0 -20 21z
M571 1647v172q0 20 21 20h172q20 0 20 -20v-172q0 -21 -20 -21h-172q-21 0 -21 21z" />
    <glyph glyph-name="Eth" unicode="&#xd0;" 
d="M150 20v617h-101q-20 0 -20 20v119q0 21 20 21h101v616q0 21 20 21h246q269 0 416 -182.5t147 -534.5t-147 -534.5t-416 -182.5h-246q-20 0 -20 20zM322 164h94q197 0 290 134.5t93 418.5t-93 418.5t-290 134.5h-94v-473h172q20 0 20 -21v-119q0 -20 -20 -20h-172v-473z
" />
    <glyph glyph-name="Ntilde" unicode="&#xd1;" 
d="M901 0h-160q-25 0 -32 16l-435 1069v-1065q0 -20 -20 -20h-131q-21 0 -21 20v1393q0 21 21 21h160q25 0 32 -17l435 -1069v1065q0 21 20 21h131q21 0 21 -21v-1393q0 -20 -21 -20zM211 1765q99 74 184 74q44 0 78 -13t51 -29t43 -29t56 -13q29 0 53 11t61 40q12 4 15 4
q10 0 20 -16l57 -86q2 -2 2 -8q0 -15 -18 -27q-99 -74 -184 -74q-43 0 -77 13t-51.5 29t-43.5 29t-56 13q-29 0 -53 -11t-61 -40q-12 -4 -15 -4q-10 0 -20 17l-57 86q-2 2 -2 8q0 14 18 26z" />
    <glyph glyph-name="Ograve" unicode="&#xd2;" 
d="M512 -20q-213 0 -336 188.5t-123 548.5t123 548.5t336 188.5t336 -188.5t123 -548.5t-123 -548.5t-336 -188.5zM512 143q142 0 210.5 139.5t68.5 434.5t-68.5 434t-210.5 139t-210.5 -139t-68.5 -434t68.5 -434.5t210.5 -139.5zM500 1819l116 -258q2 -2 2 -9
q0 -12 -14 -12h-129q-21 0 -37 19l-184 260q-4 8 -4 10q0 10 14 10h205q22 0 31 -20z" />
    <glyph glyph-name="Oacute" unicode="&#xd3;" 
d="M512 -20q-213 0 -336 188.5t-123 548.5t123 548.5t336 188.5t336 -188.5t123 -548.5t-123 -548.5t-336 -188.5zM512 143q142 0 210.5 139.5t68.5 434.5t-68.5 434t-210.5 139t-210.5 -139t-68.5 -434t68.5 -434.5t210.5 -139.5zM393 1561l117 258q9 20 31 20h204
q15 0 15 -10q0 -2 -4 -10l-185 -260q-14 -19 -36 -19h-129q-15 0 -15 12q0 7 2 9z" />
    <glyph glyph-name="Ocircumflex" unicode="&#xd4;" 
d="M512 -20q-213 0 -336 188.5t-123 548.5t123 548.5t336 188.5t336 -188.5t123 -548.5t-123 -548.5t-336 -188.5zM512 143q142 0 210.5 139.5t68.5 434.5t-68.5 434t-210.5 139t-210.5 -139t-68.5 -434t68.5 -434.5t210.5 -139.5zM600 1823l191 -262q4 -8 4 -11
q0 -10 -15 -10h-127q-21 0 -37 19l-104 120l-104 -120q-14 -19 -37 -19h-127q-15 0 -15 10q0 3 4 11l191 262q16 16 31 16h114q15 0 31 -16z" />
    <glyph glyph-name="Otilde" unicode="&#xd5;" 
d="M512 -20q-213 0 -336 188.5t-123 548.5t123 548.5t336 188.5t336 -188.5t123 -548.5t-123 -548.5t-336 -188.5zM512 143q142 0 210.5 139.5t68.5 434.5t-68.5 434t-210.5 139t-210.5 -139t-68.5 -434t68.5 -434.5t210.5 -139.5zM211 1765q99 74 184 74q44 0 78 -13
t51 -29t43 -29t56 -13q29 0 53 11t61 40q12 4 15 4q10 0 20 -16l57 -86q2 -2 2 -8q0 -15 -18 -27q-99 -74 -184 -74q-43 0 -77 13t-51.5 29t-43.5 29t-56 13q-29 0 -53 -11t-61 -40q-12 -4 -15 -4q-10 0 -20 17l-57 86q-2 2 -2 8q0 14 18 26z" />
    <glyph glyph-name="Odieresis" unicode="&#xd6;" 
d="M512 -20q-213 0 -336 188.5t-123 548.5t123 548.5t336 188.5t336 -188.5t123 -548.5t-123 -548.5t-336 -188.5zM512 143q142 0 210.5 139.5t68.5 434.5t-68.5 434t-210.5 139t-210.5 -139t-68.5 -434t68.5 -434.5t210.5 -139.5zM240 1647v172q0 20 20 20h172q21 0 21 -20
v-172q0 -21 -21 -21h-172q-20 0 -20 21zM571 1647v172q0 20 21 20h172q20 0 20 -20v-172q0 -21 -20 -21h-172q-21 0 -21 21z" />
    <glyph glyph-name="multiply" unicode="&#xd7;" 
d="M823 899l-198 -199l198 -198q8 -8 8 -15q0 -6 -8 -14l-84 -84q-8 -8 -14 -8t-14 8l-199 199l-199 -199q-8 -8 -14 -8t-14 8l-84 84q-8 8 -8 14q0 7 8 15l198 198l-198 199q-8 8 -8 14q0 7 8 15l84 84q8 8 14 8t14 -8l199 -199l199 199q8 8 14 8t14 -8l84 -84q8 -8 8 -15
q0 -6 -8 -14z" />
    <glyph glyph-name="Oslash" unicode="&#xd8;" 
d="M512 -20q-179 0 -293 129l-92 -158q-9 -12 -16 -12q-1 0 -13 4l-55 32q-12 9 -12 17q0 1 0.5 2.5l1.5 4.5t2 5l117 203q-99 193 -99 510q0 360 123 548.5t336 188.5q179 0 293 -129l92 158q9 12 16 12q1 0 13 -4l55 -33q12 -9 12 -16l-4 -12l-117 -203q99 -193 99 -510
q0 -360 -123 -548.5t-336 -188.5zM512 143q142 0 210.5 139.5t68.5 434.5q0 213 -29 319l-451 -770q65 -123 201 -123zM233 717q0 -214 29 -320l451 770q-65 123 -201 123q-142 0 -210.5 -139t-68.5 -434z" />
    <glyph glyph-name="Ugrave" unicode="&#xd9;" 
d="M82 459v954q0 21 20 21h131q21 0 21 -21v-932q0 -173 62 -255.5t196 -82.5t196 82.5t62 255.5v932q0 21 21 21h131q20 0 20 -21v-954q0 -120 -33.5 -213t-92.5 -150t-136 -86.5t-168 -29.5t-168 29.5t-136 86.5t-92.5 150t-33.5 213zM502 1819l116 -258q3 -3 3 -9
q0 -12 -15 -12h-129q-21 0 -37 19l-184 260q-4 8 -4 10q0 10 14 10h205q22 0 31 -20z" />
    <glyph glyph-name="Uacute" unicode="&#xda;" 
d="M82 459v954q0 21 20 21h131q21 0 21 -21v-932q0 -173 62 -255.5t196 -82.5t196 82.5t62 255.5v932q0 21 21 21h131q20 0 20 -21v-954q0 -120 -33.5 -213t-92.5 -150t-136 -86.5t-168 -29.5t-168 29.5t-136 86.5t-92.5 150t-33.5 213zM401 1561l117 258q9 20 31 20h205
q14 0 14 -10q0 -2 -4 -10l-184 -260q-14 -19 -37 -19h-129q-15 0 -15 12q0 7 2 9z" />
    <glyph glyph-name="Ucircumflex" unicode="&#xdb;" 
d="M82 459v954q0 21 20 21h131q21 0 21 -21v-932q0 -173 62 -255.5t196 -82.5t196 82.5t62 255.5v932q0 21 21 21h131q20 0 20 -21v-954q0 -120 -33.5 -213t-92.5 -150t-136 -86.5t-168 -29.5t-168 29.5t-136 86.5t-92.5 150t-33.5 213zM600 1823l191 -262q4 -8 4 -11
q0 -10 -15 -10h-127q-21 0 -37 19l-104 120l-104 -120q-14 -19 -37 -19h-127q-15 0 -15 10q0 3 4 11l191 262q16 16 31 16h114q15 0 31 -16z" />
    <glyph glyph-name="Udieresis" unicode="&#xdc;" 
d="M82 459v954q0 21 20 21h131q21 0 21 -21v-932q0 -173 62 -255.5t196 -82.5t196 82.5t62 255.5v932q0 21 21 21h131q20 0 20 -21v-954q0 -120 -33.5 -213t-92.5 -150t-136 -86.5t-168 -29.5t-168 29.5t-136 86.5t-92.5 150t-33.5 213zM240 1647v172q0 20 20 20h172
q21 0 21 -20v-172q0 -21 -21 -21h-172q-20 0 -20 21zM571 1647v172q0 20 21 20h172q20 0 20 -20v-172q0 -21 -20 -21h-172q-21 0 -21 21z" />
    <glyph glyph-name="Yacute" unicode="&#xdd;" 
d="M961 1413l-363 -751v-642q0 -20 -20 -20h-132q-20 0 -20 20v642l-363 751q-2 4 -2 10q0 11 13 11h162q15 0 22 -17l254 -565l254 565q7 17 22 17h162q13 0 13 -11q0 -6 -2 -10zM385 1561l117 258q9 20 30 20h205q15 0 15 -10q0 -2 -4 -10l-185 -260q-14 -19 -37 -19h-129
q-14 0 -14 12q0 7 2 9z" />
    <glyph glyph-name="Thorn" unicode="&#xde;" 
d="M133 20v1393q0 21 21 21h131q20 0 20 -21v-297h197q207 0 319.5 -108.5t112.5 -290.5q0 -183 -113 -291.5t-319 -108.5h-197v-297q0 -20 -20 -20h-131q-21 0 -21 20zM305 952v-471h219q230 0 230 236q0 235 -230 235h-219z" />
    <glyph glyph-name="germandbls" unicode="&#xdf;" 
d="M700 -20q-122 0 -205.5 75.5t-95.5 192.5q0 20 21 20h115q3 0 5 -0.5t4 -1.5l3 -1.5t2 -2.5t1.5 -3.5t2 -5t2.5 -5.5q34 -117 145 -117q140 0 140 160q0 53 -18 95t-46 70.5t-62.5 54t-69 50t-62.5 52.5t-46 69t-18 92q0 50 18.5 92.5t44.5 72.5t52 59.5t44.5 68.5
t18.5 84q0 70 -45.5 111t-124.5 41q-83 0 -133.5 -56.5t-50.5 -161.5v-1065q0 -20 -20 -20h-119q-21 0 -21 20v857h-108q-21 0 -21 20v111q0 20 21 20h108v66q0 149 92 254.5t252 105.5q154 0 242 -80t88 -215q0 -63 -18.5 -114.5t-44.5 -84.5t-52 -60.5t-44.5 -56.5
t-18.5 -59q0 -29 18 -56t47.5 -50.5t64.5 -49t70 -57t64.5 -68.5t47.5 -90.5t18 -115.5q0 -140 -86 -228.5t-222 -88.5z" />
    <glyph glyph-name="agrave" unicode="&#xe0;" 
d="M309 735h-131q-14 0 -14 13q0 12 2 20q31 122 130.5 201.5t246.5 79.5q178 0 266 -99t88 -270v-483q0 -70 7 -105.5t28 -71.5q2 -2 2 -10q0 -10 -16 -10h-160q-21 0 -21 20v93q-63 -71 -129 -102t-162 -31q-138 0 -230.5 92t-92.5 241q0 108 54.5 186t134 113t169.5 35
q56 0 101.5 -6t72.5 -13t82 -24v76q0 217 -194 217q-159 0 -205 -143q-7 -19 -29 -19zM737 453q-77 24 -125.5 33.5t-109.5 9.5q-93 0 -152 -48.5t-59 -134.5q0 -84 53 -133t139 -49q124 0 189 92t65 230zM528 1413l117 -258q2 -2 2 -8q0 -12 -14 -12h-129q-22 0 -37 18
l-184 260q-4 8 -4 10q0 11 14 11h205q21 0 30 -21z" />
    <glyph glyph-name="aacute" unicode="&#xe1;" 
d="M309 735h-131q-14 0 -14 13q0 12 2 20q31 122 130.5 201.5t246.5 79.5q178 0 266 -99t88 -270v-483q0 -70 7 -105.5t28 -71.5q2 -2 2 -10q0 -10 -16 -10h-160q-21 0 -21 20v93q-63 -71 -129 -102t-162 -31q-138 0 -230.5 92t-92.5 241q0 108 54.5 186t134 113t169.5 35
q56 0 101.5 -6t72.5 -13t82 -24v76q0 217 -194 217q-159 0 -205 -143q-7 -19 -29 -19zM737 453q-77 24 -125.5 33.5t-109.5 9.5q-93 0 -152 -48.5t-59 -134.5q0 -84 53 -133t139 -49q124 0 189 92t65 230zM424 1155l117 258q9 21 30 21h205q15 0 15 -11l-5 -10l-184 -260
q-13 -18 -37 -18h-129q-14 0 -14 12q0 6 2 8z" />
    <glyph glyph-name="acircumflex" unicode="&#xe2;" 
d="M309 735h-131q-14 0 -14 13q0 12 2 20q31 122 130.5 201.5t246.5 79.5q178 0 266 -99t88 -270v-483q0 -70 7 -105.5t28 -71.5q2 -2 2 -10q0 -10 -16 -10h-160q-21 0 -21 20v93q-63 -71 -129 -102t-162 -31q-138 0 -230.5 92t-92.5 241q0 108 54.5 186t134 113t169.5 35
q56 0 101.5 -6t72.5 -13t82 -24v76q0 217 -194 217q-159 0 -205 -143q-7 -19 -29 -19zM737 453q-77 24 -125.5 33.5t-109.5 9.5q-93 0 -152 -48.5t-59 -134.5q0 -84 53 -133t139 -49q124 0 189 92t65 230zM633 1417l190 -262q4 -8 4 -10q0 -10 -14 -10h-127q-22 0 -37 18
l-104 121l-105 -121q-13 -18 -37 -18h-127q-14 0 -14 10q0 2 4 10l191 262q17 17 30 17h115q14 0 31 -17z" />
    <glyph glyph-name="atilde" unicode="&#xe3;" 
d="M309 735h-131q-14 0 -14 13q0 12 2 20q31 122 130.5 201.5t246.5 79.5q178 0 266 -99t88 -270v-483q0 -70 7 -105.5t28 -71.5q2 -2 2 -10q0 -10 -16 -10h-160q-21 0 -21 20v93q-63 -71 -129 -102t-162 -31q-138 0 -230.5 92t-92.5 241q0 108 54.5 186t134 113t169.5 35
q56 0 101.5 -6t72.5 -13t82 -24v76q0 217 -194 217q-159 0 -205 -143q-7 -19 -29 -19zM737 453q-77 24 -125.5 33.5t-109.5 9.5q-93 0 -152 -48.5t-59 -134.5q0 -84 53 -133t139 -49q124 0 189 92t65 230zM248 1360q99 74 184 74q44 0 77.5 -13t50.5 -29t43 -29t56 -13
q29 0 53.5 11t61.5 40q12 4 14 4q11 0 21 -16l57 -86q2 -2 2 -9q0 -14 -18 -26q-99 -74 -184 -74q-43 0 -77 13t-51.5 29t-43.5 29t-56 13q-29 0 -53 -11t-61 -40q-12 -4 -15 -4q-10 0 -20 16l-58 86q-2 2 -2 8q0 14 19 27z" />
    <glyph glyph-name="adieresis" unicode="&#xe4;" 
d="M309 735h-131q-14 0 -14 13q0 12 2 20q31 122 130.5 201.5t246.5 79.5q178 0 266 -99t88 -270v-483q0 -70 7 -105.5t28 -71.5q2 -2 2 -10q0 -10 -16 -10h-160q-21 0 -21 20v93q-63 -71 -129 -102t-162 -31q-138 0 -230.5 92t-92.5 241q0 108 54.5 186t134 113t169.5 35
q56 0 101.5 -6t72.5 -13t82 -24v76q0 217 -194 217q-159 0 -205 -143q-7 -19 -29 -19zM737 453q-77 24 -125.5 33.5t-109.5 9.5q-93 0 -152 -48.5t-59 -134.5q0 -84 53 -133t139 -49q124 0 189 92t65 230zM268 1241v172q0 21 21 21h172q20 0 20 -21v-172q0 -20 -20 -20h-172
q-21 0 -21 20zM600 1241v172q0 21 21 21h172q20 0 20 -21v-172q0 -20 -20 -20h-172q-21 0 -21 20z" />
    <glyph glyph-name="aring" unicode="&#xe5;" 
d="M309 735h-131q-14 0 -14 13q0 12 2 20q31 122 130.5 201.5t246.5 79.5q178 0 266 -99t88 -270v-483q0 -70 7 -105.5t28 -71.5q2 -2 2 -10q0 -10 -16 -10h-160q-21 0 -21 20v93q-63 -71 -129 -102t-162 -31q-138 0 -230.5 92t-92.5 241q0 108 54.5 186t134 113t169.5 35
q56 0 101.5 -6t72.5 -13t82 -24v76q0 217 -194 217q-159 0 -205 -143q-7 -19 -29 -19zM737 453q-77 24 -125.5 33.5t-109.5 9.5q-93 0 -152 -48.5t-59 -134.5q0 -84 53 -133t139 -49q124 0 189 92t65 230zM365 1303q0 75 50 123.5t128 48.5t128 -48.5t50 -123.5t-50 -124
t-128 -49t-128 49t-50 124zM463 1303q0 -38 22 -60t58 -22t58 22t22 60t-22 59.5t-58 21.5t-58 -21.5t-22 -59.5z" />
    <glyph glyph-name="ae" unicode="&#xe6;" 
d="M496 1049h24q122 0 214 -42.5t146 -118t80.5 -169.5t26.5 -205v-29q0 -20 -20 -20h-381v-334q142 0 202 188q7 19 29 19h133q15 0 15 -14q0 -12 -4 -21q-103 -323 -426 -323h-78q-193 0 -298.5 85t-105.5 234q0 99 52.5 173t133 109t175.5 35h12v277q-71 -7 -112 -45
t-68 -107q-7 -18 -29 -18h-125q-14 0 -14 12q0 13 2 21q15 54 47.5 104t82 93.5t124 69.5t162.5 26zM221 299q0 -79 47 -123.5t138 -44.5h20v334q-205 0 -205 -166zM586 616h221q-5 115 -61.5 196t-159.5 81v-277z" />
    <glyph glyph-name="ccedilla" unicode="&#xe7;" 
d="M408 -211l-25 25q-4 4 -4 12t2 12l55 152q-161 32 -250.5 174.5t-89.5 349.5q0 238 116 386.5t320 148.5q88 0 159 -27.5t118 -76t76.5 -108t42.5 -130.5q2 -8 2 -21q0 -12 -15 -12h-124q-22 0 -29 18q-49 205 -230 205q-135 0 -201.5 -102t-66.5 -281t66.5 -281
t201.5 -102q181 0 230 205q7 18 29 18h124q15 0 15 -12t-2 -20q-13 -69 -41 -127.5t-72.5 -107t-112 -77t-151.5 -30.5l-51 -105q54 14 112 14q73 0 116.5 -39.5t43.5 -105.5q0 -82 -47.5 -126t-155.5 -44q-101 0 -174 20q-17 7 -19 13q-1 3 -1 8v59q0 21 20 21
q12 0 62 -11.5t106 -11.5q74 0 74 64q0 63 -74 63q-57 0 -125 -14q-6 -2 -14 -2q-10 0 -16 6z" />
    <glyph glyph-name="egrave" unicode="&#xe8;" 
d="M924 465h-654q5 -151 71 -242.5t189 -91.5q91 0 139.5 46t82.5 142q7 19 28 19h133q15 0 15 -14q0 -12 -4 -21q-27 -75 -58.5 -130t-77.5 -100.5t-110.5 -69t-147.5 -23.5q-136 0 -235 71.5t-148 191t-49 271.5q0 150 53 271.5t152.5 192.5t226.5 71q86 0 155.5 -28
t117 -77.5t80 -117.5t47 -146t14.5 -166v-29q0 -20 -20 -20zM530 897q-207 0 -251 -281h493q-17 137 -78.5 209t-163.5 72zM532 1413l117 -258q2 -2 2 -8q0 -12 -14 -12h-129q-22 0 -37 18l-184 260q-4 8 -4 10q0 11 14 11h205q21 0 30 -21z" />
    <glyph glyph-name="eacute" unicode="&#xe9;" 
d="M924 465h-654q5 -151 71 -242.5t189 -91.5q91 0 139.5 46t82.5 142q7 19 28 19h133q15 0 15 -14q0 -12 -4 -21q-27 -75 -58.5 -130t-77.5 -100.5t-110.5 -69t-147.5 -23.5q-136 0 -235 71.5t-148 191t-49 271.5q0 150 53 271.5t152.5 192.5t226.5 71q86 0 155.5 -28
t117 -77.5t80 -117.5t47 -146t14.5 -166v-29q0 -20 -20 -20zM530 897q-207 0 -251 -281h493q-17 137 -78.5 209t-163.5 72zM399 1155l117 258q9 21 31 21h205q14 0 14 -11q0 -2 -4 -10l-184 -260q-13 -18 -37 -18h-129q-15 0 -15 12q0 6 2 8z" />
    <glyph glyph-name="ecircumflex" unicode="&#xea;" 
d="M924 465h-654q5 -151 71 -242.5t189 -91.5q91 0 139.5 46t82.5 142q7 19 28 19h133q15 0 15 -14q0 -12 -4 -21q-27 -75 -58.5 -130t-77.5 -100.5t-110.5 -69t-147.5 -23.5q-136 0 -235 71.5t-148 191t-49 271.5q0 150 53 271.5t152.5 192.5t226.5 71q86 0 155.5 -28
t117 -77.5t80 -117.5t47 -146t14.5 -166v-29q0 -20 -20 -20zM530 897q-207 0 -251 -281h493q-17 137 -78.5 209t-163.5 72zM618 1417l191 -262q4 -8 4 -10q0 -10 -14 -10h-127q-22 0 -37 18l-105 121l-104 -121q-13 -18 -37 -18h-127q-14 0 -14 10q0 2 4 10l190 262
q17 17 31 17h115q13 0 30 -17z" />
    <glyph glyph-name="edieresis" unicode="&#xeb;" 
d="M924 465h-654q5 -151 71 -242.5t189 -91.5q91 0 139.5 46t82.5 142q7 19 28 19h133q15 0 15 -14q0 -12 -4 -21q-27 -75 -58.5 -130t-77.5 -100.5t-110.5 -69t-147.5 -23.5q-136 0 -235 71.5t-148 191t-49 271.5q0 150 53 271.5t152.5 192.5t226.5 71q86 0 155.5 -28
t117 -77.5t80 -117.5t47 -146t14.5 -166v-29q0 -20 -20 -20zM530 897q-207 0 -251 -281h493q-17 137 -78.5 209t-163.5 72zM258 1241v172q0 21 21 21h172q20 0 20 -21v-172q0 -20 -20 -20h-172q-21 0 -21 20zM590 1241v172q0 21 20 21h172q21 0 21 -21v-172q0 -20 -21 -20
h-172q-20 0 -20 20z" />
    <glyph glyph-name="igrave" unicode="&#xec;" 
d="M209 901v107q0 20 20 20h375q21 0 21 -20v-856h288q21 0 21 -21v-111q0 -20 -21 -20h-737q-20 0 -20 20v111q0 21 20 21h289v729h-236q-20 0 -20 20zM510 1413l117 -258q2 -2 2 -8q0 -12 -15 -12h-129q-21 0 -36 18l-185 260q-4 8 -4 10q0 11 14 11h205q22 0 31 -21z" />
    <glyph glyph-name="iacute" unicode="&#xed;" 
d="M209 901v107q0 20 20 20h375q21 0 21 -20v-856h288q21 0 21 -21v-111q0 -20 -21 -20h-737q-20 0 -20 20v111q0 21 20 21h289v729h-236q-20 0 -20 20zM401 1155l117 258q9 21 31 21h205q14 0 14 -11q0 -2 -4 -10l-184 -260q-13 -18 -37 -18h-129q-15 0 -15 12q0 6 2 8z
" />
    <glyph glyph-name="icircumflex" unicode="&#xee;" 
d="M209 901v107q0 20 20 20h375q21 0 21 -20v-856h288q21 0 21 -21v-111q0 -20 -21 -20h-737q-20 0 -20 20v111q0 21 20 21h289v729h-236q-20 0 -20 20zM618 1417l191 -262q4 -8 4 -10q0 -10 -14 -10h-127q-22 0 -37 18l-105 121l-104 -121q-13 -18 -37 -18h-127
q-14 0 -14 10q0 2 4 10l190 262q17 17 31 17h115q13 0 30 -17z" />
    <glyph glyph-name="idieresis" unicode="&#xef;" 
d="M209 901v107q0 20 20 20h375q21 0 21 -20v-856h288q21 0 21 -21v-111q0 -20 -21 -20h-737q-20 0 -20 20v111q0 21 20 21h289v729h-236q-20 0 -20 20zM258 1241v172q0 21 21 21h172q20 0 20 -21v-172q0 -20 -20 -20h-172q-21 0 -21 20zM590 1241v172q0 21 20 21h172
q21 0 21 -21v-172q0 -20 -21 -20h-172q-20 0 -20 20z" />
    <glyph glyph-name="eth" unicode="&#xf0;" 
d="M358 1096l-36 96q-3 6 -3 10q0 11 15 17l106 41q-63 22 -196 36q-17 3 -17 25l19 109q2 14 28 14q220 -23 369 -105l166 70l12 4q9 0 15 -14l45 -92q2 -4 2 -11q0 -10 -15 -16l-100 -45q81 -81 119.5 -246.5t38.5 -367.5q0 -134 -21.5 -241t-59.5 -181.5t-92.5 -124
t-119.5 -72t-141 -22.5q-188 0 -309.5 146.5t-121.5 387.5q0 245 114.5 390t309.5 145q80 0 135 -20.5t103 -65.5q-17 78 -44.5 124.5t-76.5 81.5l-217 -84q-3 -1 -6.5 -2t-5 -1.5t-2.5 -0.5q-7 0 -13 15zM229 514q0 -178 66 -280.5t197 -102.5q123 0 194.5 102t71.5 281
q0 181 -67.5 282t-198.5 101t-197 -102.5t-66 -280.5z" />
    <glyph glyph-name="ntilde" unicode="&#xf1;" 
d="M158 20v988q0 20 20 20h119q20 0 20 -20v-95q117 136 269 136q147 0 225 -77t78 -224v-728q0 -20 -21 -20h-118q-21 0 -21 20v705q0 172 -182 172q-102 0 -166 -94t-64 -262v-521q0 -20 -20 -20h-119q-20 0 -20 20zM219 1360q99 74 184 74q44 0 78 -13t51 -29t43 -29
t56 -13q29 0 53 11t61 40q12 4 15 4q10 0 20 -16l58 -86q2 -2 2 -9q0 -13 -19 -26q-99 -74 -184 -74q-43 0 -77 13t-51.5 29t-43 29t-55.5 13q-29 0 -53.5 -11t-61.5 -40q-12 -4 -14 -4q-11 0 -21 16l-57 86q-2 2 -2 8q0 15 18 27z" />
    <glyph glyph-name="ograve" unicode="&#xf2;" 
d="M70 514q0 249 120 392t322 143t322 -143t120 -392t-119.5 -391.5t-322.5 -142.5t-322.5 142.5t-119.5 391.5zM238 514q0 -181 70.5 -282t203.5 -101t203.5 101t70.5 282t-70.5 282t-203.5 101t-203.5 -101t-70.5 -282zM492 1413l116 -258q2 -2 2 -8q0 -12 -14 -12h-129
q-22 0 -37 18l-184 260q-4 8 -4 10q0 11 14 11h205q22 0 31 -21z" />
    <glyph glyph-name="oacute" unicode="&#xf3;" 
d="M70 514q0 249 120 392t322 143t322 -143t120 -392t-119.5 -391.5t-322.5 -142.5t-322.5 142.5t-119.5 391.5zM238 514q0 -181 70.5 -282t203.5 -101t203.5 101t70.5 282t-70.5 282t-203.5 101t-203.5 -101t-70.5 -282zM393 1155l117 258q9 21 31 21h204q15 0 15 -11
q0 -2 -4 -10l-185 -260q-13 -18 -36 -18h-129q-15 0 -15 12q0 6 2 8z" />
    <glyph glyph-name="ocircumflex" unicode="&#xf4;" 
d="M70 514q0 249 120 392t322 143t322 -143t120 -392t-119.5 -391.5t-322.5 -142.5t-322.5 142.5t-119.5 391.5zM238 514q0 -181 70.5 -282t203.5 -101t203.5 101t70.5 282t-70.5 282t-203.5 101t-203.5 -101t-70.5 -282zM600 1417l191 -262q4 -8 4 -10q0 -10 -15 -10h-127
q-22 0 -37 18l-104 121l-104 -121q-13 -18 -37 -18h-127q-15 0 -15 10q0 2 4 10l191 262q17 17 31 17h114q14 0 31 -17z" />
    <glyph glyph-name="otilde" unicode="&#xf5;" 
d="M70 514q0 249 120 392t322 143t322 -143t120 -392t-119.5 -391.5t-322.5 -142.5t-322.5 142.5t-119.5 391.5zM238 514q0 -181 70.5 -282t203.5 -101t203.5 101t70.5 282t-70.5 282t-203.5 101t-203.5 -101t-70.5 -282zM211 1360q99 74 184 74q44 0 78 -13t51 -29t43 -29
t56 -13q29 0 53 11t61 40q12 4 15 4q10 0 20 -16l57 -86q2 -2 2 -9q0 -14 -18 -26q-99 -74 -184 -74q-43 0 -77 13t-51.5 29t-43.5 29t-56 13q-29 0 -53 -11t-61 -40q-12 -4 -15 -4q-10 0 -20 16l-57 86q-2 2 -2 8q0 15 18 27z" />
    <glyph glyph-name="odieresis" unicode="&#xf6;" 
d="M70 514q0 249 120 392t322 143t322 -143t120 -392t-119.5 -391.5t-322.5 -142.5t-322.5 142.5t-119.5 391.5zM238 514q0 -181 70.5 -282t203.5 -101t203.5 101t70.5 282t-70.5 282t-203.5 101t-203.5 -101t-70.5 -282zM240 1241v172q0 21 20 21h172q21 0 21 -21v-172
q0 -20 -21 -20h-172q-20 0 -20 20zM571 1241v172q0 21 21 21h172q20 0 20 -21v-172q0 -20 -20 -20h-172q-21 0 -21 20z" />
    <glyph glyph-name="divide" unicode="&#xf7;" 
d="M408 332h208q21 0 21 -21v-209q0 -20 -21 -20h-208q-21 0 -21 20v209q0 21 21 21zM408 1049h208q21 0 21 -21v-209q0 -20 -21 -20h-208q-21 0 -21 20v209q0 21 21 21zM152 645h720q21 0 21 -20v-119q0 -21 -21 -21h-720q-21 0 -21 21v119q0 20 21 20z" />
    <glyph glyph-name="oslash" unicode="&#xf8;" 
d="M70 514q0 249 120 392t322 143q118 0 219 -56l55 94q6 13 17 13q1 0 2.5 -0.5l4.5 -1.5t5 -2l55 -33q13 -10 13 -16q0 -1 -4 -13l-64 -106q139 -142 139 -414q0 -249 -119.5 -391.5t-322.5 -142.5q-120 0 -219 55l-55 -94q-6 -13 -17 -13l-12 4l-55 33q-13 10 -13 17
l4 12l64 106q-139 142 -139 414zM786 514q0 159 -59 262l-356 -606q56 -39 141 -39q133 0 203.5 101t70.5 282zM238 514q0 -159 59 -262l356 606q-56 39 -141 39q-133 0 -203.5 -101t-70.5 -282z" />
    <glyph glyph-name="ugrave" unicode="&#xf9;" 
d="M870 1008v-988q0 -20 -20 -20h-119q-20 0 -20 20v95q-116 -135 -269 -135q-147 0 -225 77t-78 224v727q0 20 21 20h119q20 0 20 -20v-705q0 -172 182 -172q102 0 166 94t64 262v521q0 20 20 20h119q20 0 20 -20zM535 1413l116 -258q2 -2 2 -8q0 -12 -14 -12h-129
q-22 0 -37 18l-184 260q-4 8 -4 10q0 11 14 11h205q22 0 31 -21z" />
    <glyph glyph-name="uacute" unicode="&#xfa;" 
d="M870 1008v-988q0 -20 -20 -20h-119q-20 0 -20 20v95q-116 -135 -269 -135q-147 0 -225 77t-78 224v727q0 20 21 20h119q20 0 20 -20v-705q0 -172 182 -172q102 0 166 94t64 262v521q0 20 20 20h119q20 0 20 -20zM375 1155l117 258q9 21 30 21h205q14 0 14 -11
q0 -2 -4 -10l-184 -260q-13 -18 -37 -18h-129q-14 0 -14 12q0 6 2 8z" />
    <glyph glyph-name="ucircumflex" unicode="&#xfb;" 
d="M870 1008v-988q0 -20 -20 -20h-119q-20 0 -20 20v95q-116 -135 -269 -135q-147 0 -225 77t-78 224v727q0 20 21 20h119q20 0 20 -20v-705q0 -172 182 -172q102 0 166 94t64 262v521q0 20 20 20h119q20 0 20 -20zM592 1417l190 -262q4 -8 4 -10q0 -10 -14 -10h-127
q-22 0 -37 18l-104 121l-105 -121q-13 -18 -37 -18h-126q-15 0 -15 10q0 2 4 10l191 262q17 17 30 17h115q14 0 31 -17z" />
    <glyph glyph-name="udieresis" unicode="&#xfc;" 
d="M870 1008v-988q0 -20 -20 -20h-119q-20 0 -20 20v95q-116 -135 -269 -135q-147 0 -225 77t-78 224v727q0 20 21 20h119q20 0 20 -20v-705q0 -172 182 -172q102 0 166 94t64 262v521q0 20 20 20h119q20 0 20 -20zM242 1241v172q0 21 20 21h172q21 0 21 -21v-172
q0 -20 -21 -20h-172q-20 0 -20 20zM573 1241v172q0 21 21 21h172q20 0 20 -21v-172q0 -20 -20 -20h-172q-21 0 -21 20z" />
    <glyph glyph-name="yacute" unicode="&#xfd;" 
d="M111 -360v110q0 21 16 21q9 0 30.5 -11t54.5 -22.5t69 -11.5q68 0 106.5 56t83.5 214l4 14l-358 985q-4 16 -4 17q0 16 16 16h147q21 0 27 -20l254 -758l213 758q5 11 10.5 15.5t18.5 4.5h141q16 0 16 -14q0 -1 -0.5 -3t-1.5 -5.5t-2 -6.5l-358 -1140
q-47 -153 -116.5 -219t-184.5 -66q-95 0 -162 33q-20 11 -20 33zM403 1155l117 258q9 21 31 21h205q14 0 14 -11q0 -2 -4 -10l-184 -260q-13 -18 -37 -18h-129q-15 0 -15 12q0 6 2 8z" />
    <glyph glyph-name="thorn" unicode="&#xfe;" 
d="M139 -385v1798q0 21 21 21h119q20 0 20 -21v-481q108 117 256 117q186 0 292.5 -141.5t106.5 -393.5t-106.5 -393t-292.5 -141q-149 0 -256 116v-481q0 -21 -20 -21h-119q-21 0 -21 21zM283 514q0 -180 67 -281.5t185 -101.5t184.5 101.5t66.5 281.5t-66.5 281.5
t-184.5 101.5t-185 -101.5t-67 -281.5z" />
    <glyph glyph-name="ydieresis" unicode="&#xff;" 
d="M111 -360v110q0 21 16 21q9 0 30.5 -11t54.5 -22.5t69 -11.5q68 0 106.5 56t83.5 214l4 14l-358 985q-4 16 -4 17q0 16 16 16h147q21 0 27 -20l254 -758l213 758q5 11 10.5 15.5t18.5 4.5h141q16 0 16 -14q0 -1 -0.5 -3t-1.5 -5.5t-2 -6.5l-358 -1140
q-47 -153 -116.5 -219t-184.5 -66q-95 0 -162 33q-20 11 -20 33zM270 1241v172q0 21 21 21h172q20 0 20 -21v-172q0 -20 -20 -20h-172q-21 0 -21 20zM602 1241v172q0 21 21 21h172q20 0 20 -21v-172q0 -20 -20 -20h-172q-21 0 -21 20z" />
    <glyph glyph-name="Amacron" unicode="&#x100;" 
d="M811 20l-94 375h-410l-94 -375q-5 -12 -9.5 -16t-15.5 -4h-139q-22 0 -22 20q0 9 2 13l379 1380q1 2 2.5 6t2 5.5t2 4t3.5 3.5t4.5 1.5t5.5 0.5h168q3 0 5.5 -0.5t4.5 -1.5t3.5 -3.5t2 -4t2 -5.5t2.5 -6l379 -1380q2 -4 2 -13q0 -20 -22 -20h-139q-11 0 -15.5 4t-9.5 16z
M512 1212l-164 -653h328zM301 1647v102q0 20 21 20h380q21 0 21 -20v-102q0 -21 -21 -21h-380q-21 0 -21 21z" />
    <glyph glyph-name="amacron" unicode="&#x101;" 
d="M309 735h-131q-14 0 -14 13q0 12 2 20q31 122 130.5 201.5t246.5 79.5q178 0 266 -99t88 -270v-483q0 -70 7 -105.5t28 -71.5q2 -2 2 -10q0 -10 -16 -10h-160q-21 0 -21 20v93q-63 -71 -129 -102t-162 -31q-138 0 -230.5 92t-92.5 241q0 108 54.5 186t134 113t169.5 35
q56 0 101.5 -6t72.5 -13t82 -24v76q0 217 -194 217q-159 0 -205 -143q-7 -19 -29 -19zM737 453q-77 24 -125.5 33.5t-109.5 9.5q-93 0 -152 -48.5t-59 -134.5q0 -84 53 -133t139 -49q124 0 189 92t65 230zM334 1241v102q0 21 20 21h381q21 0 21 -21v-102q0 -20 -21 -20h-381
q-20 0 -20 20z" />
    <glyph glyph-name="Abreve" unicode="&#x102;" 
d="M811 20l-94 375h-410l-94 -375q-5 -12 -9.5 -16t-15.5 -4h-139q-22 0 -22 20q0 9 2 13l379 1380q1 2 2.5 6t2 5.5t2 4t3.5 3.5t4.5 1.5t5.5 0.5h168q3 0 5.5 -0.5t4.5 -1.5t3.5 -3.5t2 -4t2 -5.5t2.5 -6l379 -1380q2 -4 2 -13q0 -20 -22 -20h-139q-11 0 -15.5 4t-9.5 16z
M512 1212l-164 -653h328zM276 1808h99q20 0 20 -20q0 -48 30.5 -77.5t86.5 -29.5t86.5 29.5t30.5 77.5q0 20 20 20h99q20 0 20 -20q0 -110 -70 -176t-186 -66t-186 66t-70 176q0 20 20 20z" />
    <glyph glyph-name="abreve" unicode="&#x103;" 
d="M309 735h-131q-14 0 -14 13q0 12 2 20q31 122 130.5 201.5t246.5 79.5q178 0 266 -99t88 -270v-483q0 -70 7 -105.5t28 -71.5q2 -2 2 -10q0 -10 -16 -10h-160q-21 0 -21 20v93q-63 -71 -129 -102t-162 -31q-138 0 -230.5 92t-92.5 241q0 108 54.5 186t134 113t169.5 35
q56 0 101.5 -6t72.5 -13t82 -24v76q0 217 -194 217q-159 0 -205 -143q-7 -19 -29 -19zM737 453q-77 24 -125.5 33.5t-109.5 9.5q-93 0 -152 -48.5t-59 -134.5q0 -84 53 -133t139 -49q124 0 189 92t65 230zM311 1403h99q20 0 20 -21q0 -48 30.5 -77t86.5 -29t86.5 29t30.5 77
q0 21 20 21h98q21 0 21 -21q0 -110 -70 -175.5t-186 -65.5t-186 65.5t-70 175.5q0 21 20 21z" />
    <glyph glyph-name="Aogonek" unicode="&#x104;" 
d="M813 12l-96 383h-410l-94 -375q-5 -12 -9.5 -16t-15.5 -4h-139q-22 0 -22 20q0 9 2 13l379 1380q1 2 2.5 6t2 5.5t2 4t3.5 3.5t4.5 1.5t5.5 0.5h168q3 0 5.5 -0.5t4.5 -1.5t3.5 -3.5t2 -4t2 -5.5t2.5 -6l379 -1380v-4q0 -1 1 -4.5t1 -4.5q0 -17 -16 -20
q-62 -19 -95.5 -55.5t-33.5 -87.5q0 -48 34.5 -76.5t94.5 -28.5h20q21 0 21 -20v-70q0 -20 -21 -20h-61q-100 0 -169 47.5t-69 138.5q0 126 111 184zM512 1212l-164 -653h328z" />
    <glyph glyph-name="aogonek" unicode="&#x105;" 
d="M309 735h-131q-14 0 -14 13q0 12 2 20q31 122 130.5 201.5t246.5 79.5q178 0 266 -99t88 -270v-483q0 -70 7 -105.5t28 -71.5q2 -2 2 -10q0 -7 -8 -10q-129 -44 -129 -143q0 -48 34.5 -76.5t94.5 -28.5h20q21 0 21 -20v-70q0 -20 -21 -20h-61q-100 0 -169 47.5t-69 138.5
q0 58 25.5 102t64.5 70v113q-63 -71 -129 -102t-162 -31q-138 0 -230.5 92t-92.5 241q0 108 54.5 186t134 113t169.5 35q56 0 101.5 -6t72.5 -13t82 -24v76q0 217 -194 217q-159 0 -205 -143q-7 -19 -29 -19zM737 453q-77 24 -125.5 33.5t-109.5 9.5q-93 0 -152 -48.5
t-59 -134.5q0 -84 53 -133t139 -49q124 0 189 92t65 230z" />
    <glyph glyph-name="Cacute" unicode="&#x106;" 
d="M834 461h124q23 0 23 -21q-8 -198 -125.5 -329t-310.5 -131q-102 0 -187 45.5t-149 134.5t-99.5 231.5t-35.5 325.5t35.5 325.5t99.5 231.5t149 134.5t187 45.5q97 0 178.5 -36.5t136 -99.5t86 -146.5t35.5 -178.5q0 -20 -23 -20h-124q-25 0 -25 20q-6 134 -75 215.5
t-189 81.5q-140 0 -215.5 -143t-75.5 -430t75.5 -430.5t215.5 -143.5q120 0 189 81.5t75 215.5q0 21 25 21zM434 1561l117 258q9 20 31 20h204q15 0 15 -10q0 -2 -4 -10l-185 -260q-14 -19 -37 -19h-129q-14 0 -14 12q0 7 2 9z" />
    <glyph glyph-name="cacute" unicode="&#x107;" 
d="M539 897q-135 0 -202 -102t-67 -281t67 -281t202 -102q100 0 153 55t76 150q7 18 29 18h125q14 0 14 -12t-2 -20q-13 -71 -42.5 -130.5t-76.5 -108t-117.5 -76t-158.5 -27.5q-136 0 -236 69.5t-150.5 189t-50.5 275.5t50.5 276t150.5 189.5t236 69.5q88 0 158.5 -27.5
t117.5 -76t76.5 -108t42.5 -130.5q2 -8 2 -21q0 -12 -14 -12h-125q-22 0 -29 18q-23 95 -76 150t-153 55zM426 1155l117 258q9 21 30 21h205q15 0 15 -11l-5 -10l-184 -260q-13 -18 -37 -18h-129q-14 0 -14 12q0 6 2 8z" />
    <glyph glyph-name="Ccircumflex" unicode="&#x108;" 
d="M834 461h124q23 0 23 -21q-8 -198 -125.5 -329t-310.5 -131q-102 0 -187 45.5t-149 134.5t-99.5 231.5t-35.5 325.5t35.5 325.5t99.5 231.5t149 134.5t187 45.5q97 0 178.5 -36.5t136 -99.5t86 -146.5t35.5 -178.5q0 -20 -23 -20h-124q-25 0 -25 20q-6 134 -75 215.5
t-189 81.5q-140 0 -215.5 -143t-75.5 -430t75.5 -430.5t215.5 -143.5q120 0 189 81.5t75 215.5q0 21 25 21zM633 1823l190 -262q4 -8 4 -11q0 -10 -14 -10h-127q-21 0 -37 19l-104 120l-105 -120q-14 -19 -37 -19h-127q-14 0 -14 10q0 3 4 11l191 262q16 16 30 16h115
q15 0 31 -16z" />
    <glyph glyph-name="ccircumflex" unicode="&#x109;" 
d="M539 897q-135 0 -202 -102t-67 -281t67 -281t202 -102q100 0 153 55t76 150q7 18 29 18h125q14 0 14 -12t-2 -20q-13 -71 -42.5 -130.5t-76.5 -108t-117.5 -76t-158.5 -27.5q-136 0 -236 69.5t-150.5 189t-50.5 275.5t50.5 276t150.5 189.5t236 69.5q88 0 158.5 -27.5
t117.5 -76t76.5 -108t42.5 -130.5q2 -8 2 -21q0 -12 -14 -12h-125q-22 0 -29 18q-23 95 -76 150t-153 55zM621 1417l190 -262q4 -8 4 -10q0 -10 -14 -10h-127q-22 0 -37 18l-105 121l-104 -121q-13 -18 -37 -18h-127q-14 0 -14 10q0 2 4 10l190 262q17 17 31 17h115
q14 0 31 -17z" />
    <glyph glyph-name="Cdotaccent" unicode="&#x10a;" 
d="M834 461h124q23 0 23 -21q-8 -198 -125.5 -329t-310.5 -131q-102 0 -187 45.5t-149 134.5t-99.5 231.5t-35.5 325.5t35.5 325.5t99.5 231.5t149 134.5t187 45.5q97 0 178.5 -36.5t136 -99.5t86 -146.5t35.5 -178.5q0 -20 -23 -20h-124q-25 0 -25 20q-6 134 -75 215.5
t-189 81.5q-140 0 -215.5 -143t-75.5 -430t75.5 -430.5t215.5 -143.5q120 0 189 81.5t75 215.5q0 21 25 21zM436 1642v177q0 20 21 20h176q20 0 20 -20v-177q0 -20 -20 -20h-176q-21 0 -21 20z" />
    <glyph glyph-name="cdotaccent" unicode="&#x10b;" 
d="M539 897q-135 0 -202 -102t-67 -281t67 -281t202 -102q100 0 153 55t76 150q7 18 29 18h125q14 0 14 -12t-2 -20q-13 -71 -42.5 -130.5t-76.5 -108t-117.5 -76t-158.5 -27.5q-136 0 -236 69.5t-150.5 189t-50.5 275.5t50.5 276t150.5 189.5t236 69.5q88 0 158.5 -27.5
t117.5 -76t76.5 -108t42.5 -130.5q2 -8 2 -21q0 -12 -14 -12h-125q-22 0 -29 18q-23 95 -76 150t-153 55zM424 1237v176q0 21 20 21h177q20 0 20 -21v-176q0 -20 -20 -20h-177q-20 0 -20 20z" />
    <glyph glyph-name="Ccaron" unicode="&#x10c;" 
d="M834 461h124q23 0 23 -21q-8 -198 -125.5 -329t-310.5 -131q-102 0 -187 45.5t-149 134.5t-99.5 231.5t-35.5 325.5t35.5 325.5t99.5 231.5t149 134.5t187 45.5q97 0 178.5 -36.5t136 -99.5t86 -146.5t35.5 -178.5q0 -20 -23 -20h-124q-25 0 -25 20q-6 134 -75 215.5
t-189 81.5q-140 0 -215.5 -143t-75.5 -430t75.5 -430.5t215.5 -143.5q120 0 189 81.5t75 215.5q0 21 25 21zM823 1819l-190 -263q-16 -16 -31 -16h-115q-14 0 -30 16l-191 263q-4 8 -4 10q0 10 14 10h127q24 0 37 -18l105 -121l104 121q15 18 37 18h127q14 0 14 -10
q0 -2 -4 -10z" />
    <glyph glyph-name="ccaron" unicode="&#x10d;" 
d="M539 897q-135 0 -202 -102t-67 -281t67 -281t202 -102q100 0 153 55t76 150q7 18 29 18h125q14 0 14 -12t-2 -20q-13 -71 -42.5 -130.5t-76.5 -108t-117.5 -76t-158.5 -27.5q-136 0 -236 69.5t-150.5 189t-50.5 275.5t50.5 276t150.5 189.5t236 69.5q88 0 158.5 -27.5
t117.5 -76t76.5 -108t42.5 -130.5q2 -8 2 -21q0 -12 -14 -12h-125q-22 0 -29 18q-23 95 -76 150t-153 55zM811 1413l-190 -262q-16 -16 -31 -16h-115q-15 0 -31 16l-190 262q-4 8 -4 10q0 11 14 11h127q23 0 37 -19l104 -121l105 121q16 19 37 19h127q14 0 14 -11
q0 -2 -4 -10z" />
    <glyph glyph-name="Dcaron" unicode="&#x10e;" 
d="M121 20v1393q0 21 20 21h246q269 0 416 -182.5t147 -534.5t-147 -534.5t-416 -182.5h-246q-20 0 -20 20zM293 164h94q197 0 290 134.5t93 418.5t-93 418.5t-290 134.5h-94v-1106zM684 1819l-190 -263q-16 -16 -31 -16h-115q-15 0 -31 16l-190 263q-4 8 -4 10q0 10 14 10
h127q24 0 37 -18l105 -121l104 121q15 18 37 18h127q14 0 14 -10q0 -2 -4 -10z" />
    <glyph glyph-name="dcaron" unicode="&#x10f;" 
d="M799 1413v-1393q0 -20 -21 -20h-119q-20 0 -20 20v76q-107 -116 -256 -116q-186 0 -292.5 141t-106.5 393t106.5 393.5t292.5 141.5q148 0 256 -117v481q0 21 20 21h119q21 0 21 -21zM655 514q0 180 -67 281.5t-185 101.5t-184.5 -101.5t-66.5 -281.5t66.5 -281.5
t184.5 -101.5t185 101.5t67 281.5zM879 1036q58 0 76 22.5t18 86.5v39h-94q-21 0 -21 20v209q0 21 21 21h208q21 0 21 -21v-301q0 -90 -42 -140t-116 -50h-71q-21 0 -21 20v74q0 20 21 20z" />
    <glyph glyph-name="Dcroat" unicode="&#x110;" 
d="M150 20v617h-101q-20 0 -20 20v119q0 21 20 21h101v616q0 21 20 21h246q269 0 416 -182.5t147 -534.5t-147 -534.5t-416 -182.5h-246q-20 0 -20 20zM322 164h94q197 0 290 134.5t93 418.5t-93 418.5t-290 134.5h-94v-473h172q20 0 20 -21v-119q0 -20 -20 -20h-172v-473z
" />
    <glyph glyph-name="dcroat" unicode="&#x111;" 
d="M913 1413v-139h82q21 0 21 -21v-106q0 -21 -21 -21h-82v-1106q0 -20 -20 -20h-119q-20 0 -20 20v86q-42 -58 -115 -92t-158 -34q-193 0 -304 142t-111 392t111 392.5t304 142.5q77 0 152.5 -34.5t120.5 -88.5v200h-176q-21 0 -21 21v106q0 21 21 21h176v139q0 21 20 21
h119q20 0 20 -21zM770 514q0 174 -70 278.5t-198 104.5q-131 0 -200 -103.5t-69 -279.5t69 -279.5t200 -103.5q128 0 198 104.5t70 278.5z" />
    <glyph glyph-name="Emacron" unicode="&#x112;" 
d="M315 672v-508h578q20 0 20 -21v-123q0 -20 -20 -20h-729q-21 0 -21 20v1393q0 21 21 21h715q20 0 20 -21v-123q0 -20 -20 -20h-564v-434h500q21 0 21 -21v-123q0 -20 -21 -20h-500zM322 1647v102q0 20 20 20h381q20 0 20 -20v-102q0 -21 -20 -21h-381q-20 0 -20 21z" />
    <glyph glyph-name="emacron" unicode="&#x113;" 
d="M924 465h-654q5 -151 71 -242.5t189 -91.5q91 0 139.5 46t82.5 142q7 19 28 19h133q15 0 15 -14q0 -12 -4 -21q-27 -75 -58.5 -130t-77.5 -100.5t-110.5 -69t-147.5 -23.5q-136 0 -235 71.5t-148 191t-49 271.5q0 150 53 271.5t152.5 192.5t226.5 71q86 0 155.5 -28
t117 -77.5t80 -117.5t47 -146t14.5 -166v-29q0 -20 -20 -20zM530 897q-207 0 -251 -281h493q-17 137 -78.5 209t-163.5 72zM319 1241v102q0 21 21 21h381q20 0 20 -21v-102q0 -20 -20 -20h-381q-21 0 -21 20z" />
    <glyph glyph-name="Ebreve" unicode="&#x114;" 
d="M315 672v-508h578q20 0 20 -21v-123q0 -20 -20 -20h-729q-21 0 -21 20v1393q0 21 21 21h715q20 0 20 -21v-123q0 -20 -20 -20h-564v-434h500q21 0 21 -21v-123q0 -20 -21 -20h-500zM281 1808h98q20 0 20 -20q0 -48 30.5 -77.5t86.5 -29.5t86.5 29.5t30.5 77.5q0 20 20 20
h99q20 0 20 -20q0 -110 -70 -176t-186 -66t-186 66t-70 176q0 20 21 20z" />
    <glyph glyph-name="ebreve" unicode="&#x115;" 
d="M924 465h-654q5 -151 71 -242.5t189 -91.5q91 0 139.5 46t82.5 142q7 19 28 19h133q15 0 15 -14q0 -12 -4 -21q-27 -75 -58.5 -130t-77.5 -100.5t-110.5 -69t-147.5 -23.5q-136 0 -235 71.5t-148 191t-49 271.5q0 150 53 271.5t152.5 192.5t226.5 71q86 0 155.5 -28
t117 -77.5t80 -117.5t47 -146t14.5 -166v-29q0 -20 -20 -20zM530 897q-207 0 -251 -281h493q-17 137 -78.5 209t-163.5 72zM295 1403h98q21 0 21 -21q0 -48 30 -77t86 -29t86.5 29t30.5 77q0 21 21 21h98q20 0 20 -21q0 -110 -70 -175.5t-186 -65.5t-186 65.5t-70 175.5
q0 21 21 21z" />
    <glyph glyph-name="Edotaccent" unicode="&#x116;" 
d="M315 672v-508h578q20 0 20 -21v-123q0 -20 -20 -20h-729q-21 0 -21 20v1393q0 21 21 21h715q20 0 20 -21v-123q0 -20 -20 -20h-564v-434h500q21 0 21 -21v-123q0 -20 -21 -20h-500zM422 1642v177q0 20 20 20h176q21 0 21 -20v-177q0 -20 -21 -20h-176q-20 0 -20 20z" />
    <glyph glyph-name="edotaccent" unicode="&#x117;" 
d="M924 465h-654q5 -151 71 -242.5t189 -91.5q91 0 139.5 46t82.5 142q7 19 28 19h133q15 0 15 -14q0 -12 -4 -21q-27 -75 -58.5 -130t-77.5 -100.5t-110.5 -69t-147.5 -23.5q-136 0 -235 71.5t-148 191t-49 271.5q0 150 53 271.5t152.5 192.5t226.5 71q86 0 155.5 -28
t117 -77.5t80 -117.5t47 -146t14.5 -166v-29q0 -20 -20 -20zM530 897q-207 0 -251 -281h493q-17 137 -78.5 209t-163.5 72zM422 1237v176q0 21 20 21h176q21 0 21 -21v-176q0 -20 -21 -20h-176q-20 0 -20 20z" />
    <glyph glyph-name="Eogonek" unicode="&#x118;" 
d="M315 672v-508h578q20 0 20 -21v-123q0 -17 -14 -20q-62 -19 -95.5 -55.5t-33.5 -87.5q0 -48 34.5 -76.5t94.5 -28.5h21q20 0 20 -20v-70q0 -20 -20 -20h-62q-100 0 -168.5 47.5t-68.5 138.5q0 110 90 172h-547q-21 0 -21 20v1393q0 21 21 21h715q20 0 20 -21v-123
q0 -20 -20 -20h-564v-434h500q21 0 21 -21v-123q0 -20 -21 -20h-500z" />
    <glyph glyph-name="eogonek" unicode="&#x119;" 
d="M924 465h-654q5 -151 71 -242.5t189 -91.5q91 0 139.5 46t82.5 142q7 19 28 19h133q15 0 15 -14q0 -12 -4 -21q-46 -124 -105.5 -198.5t-161.5 -108.5q-118 -40 -118 -139q0 -48 34.5 -76.5t94.5 -28.5h20q21 0 21 -20v-70q0 -20 -21 -20h-61q-100 0 -169 47.5t-69 138.5
q0 88 72 156q-169 29 -266 173.5t-97 356.5q0 150 53 271.5t152.5 192.5t226.5 71q86 0 155.5 -28t117 -77.5t80 -117.5t47 -146t14.5 -166v-29q0 -20 -20 -20zM530 897q-207 0 -251 -281h493q-17 137 -78.5 209t-163.5 72z" />
    <glyph glyph-name="Ecaron" unicode="&#x11a;" 
d="M315 672v-508h578q20 0 20 -21v-123q0 -20 -20 -20h-729q-21 0 -21 20v1393q0 21 21 21h715q20 0 20 -21v-123q0 -20 -20 -20h-564v-434h500q21 0 21 -21v-123q0 -20 -21 -20h-500zM801 1819l-191 -263q-16 -16 -30 -16h-115q-15 0 -31 16l-190 263q-4 8 -4 10
q0 10 14 10h127q24 0 37 -18l104 -121l105 121q15 18 37 18h127q14 0 14 -10q0 -2 -4 -10z" />
    <glyph glyph-name="ecaron" unicode="&#x11b;" 
d="M924 465h-654q5 -151 71 -242.5t189 -91.5q91 0 139.5 46t82.5 142q7 19 28 19h133q15 0 15 -14q0 -12 -4 -21q-27 -75 -58.5 -130t-77.5 -100.5t-110.5 -69t-147.5 -23.5q-136 0 -235 71.5t-148 191t-49 271.5q0 150 53 271.5t152.5 192.5t226.5 71q86 0 155.5 -28
t117 -77.5t80 -117.5t47 -146t14.5 -166v-29q0 -20 -20 -20zM530 897q-207 0 -251 -281h493q-17 137 -78.5 209t-163.5 72zM809 1413l-191 -262q-16 -16 -30 -16h-115q-15 0 -31 16l-190 262q-4 8 -4 10q0 11 14 11h127q23 0 37 -19l104 -121l105 121q16 19 37 19h127
q14 0 14 -11q0 -2 -4 -10z" />
    <glyph glyph-name="Gcircumflex" unicode="&#x11c;" 
d="M588 694h362q21 0 21 -20v-330q0 -40 -23 -84q-118 -280 -391 -280q-105 0 -193 46.5t-154.5 136.5t-104 232t-37.5 322q0 356 132 546.5t345 190.5q172 0 288 -117t123 -301q0 -20 -22 -20h-127q-22 0 -25 20q-13 115 -71.5 184.5t-165.5 69.5q-297 0 -297 -573
q0 -296 77 -435t232 -139q96 0 153 51t89 144v192h-211q-21 0 -21 21v123q0 20 21 20zM633 1823l190 -262q4 -8 4 -11q0 -10 -14 -10h-127q-21 0 -37 19l-104 120l-105 -120q-14 -19 -37 -19h-127q-14 0 -14 10q0 3 4 11l191 262q16 16 30 16h115q15 0 31 -16z" />
    <glyph glyph-name="gcircumflex" unicode="&#x11d;" 
d="M543 1049q112 0 192 -52l111 109q8 8 16 8q7 0 17 -10l77 -82q9 -9 9 -16q0 -8 -11 -19l-108 -113q37 -75 37 -176q0 -158 -95 -253t-245 -95q-149 0 -238 86q-76 -49 -76 -133q0 -49 29.5 -81t81.5 -32q34 0 114.5 19.5t139.5 19.5q177 0 276 -89t99 -244
q0 -144 -110.5 -233t-303.5 -89q-197 0 -311.5 87.5t-114.5 234.5q0 109 64 188q-63 50 -93 103t-30 128q0 76 43 140t114 100q-22 71 -22 143q0 158 94.5 254.5t243.5 96.5zM289 -86q0 -82 69 -135t197 -53q116 0 185 46t69 124q0 182 -250 182q-46 0 -114.5 -15
t-104.5 -18q-51 -51 -51 -131zM365 698q0 -95 50.5 -145.5t127.5 -50.5t128.5 50.5t51.5 145.5q0 97 -51.5 148t-128.5 51t-127.5 -50.5t-50.5 -148.5zM631 1417l190 -262q4 -8 4 -10q0 -10 -14 -10h-127q-22 0 -37 18l-104 121l-105 -121q-13 -18 -37 -18h-127
q-14 0 -14 10q0 2 4 10l191 262q17 17 30 17h115q14 0 31 -17z" />
    <glyph glyph-name="Gbreve" unicode="&#x11e;" 
d="M588 694h362q21 0 21 -20v-330q0 -40 -23 -84q-118 -280 -391 -280q-105 0 -193 46.5t-154.5 136.5t-104 232t-37.5 322q0 356 132 546.5t345 190.5q172 0 288 -117t123 -301q0 -20 -22 -20h-127q-22 0 -25 20q-13 115 -71.5 184.5t-165.5 69.5q-297 0 -297 -573
q0 -296 77 -435t232 -139q96 0 153 51t89 144v192h-211q-21 0 -21 21v123q0 20 21 20zM309 1808h99q20 0 20 -20q0 -48 30.5 -77.5t86.5 -29.5t86.5 29.5t30.5 77.5q0 20 20 20h98q21 0 21 -20q0 -110 -70 -176t-186 -66t-186 66t-70 176q0 20 20 20z" />
    <glyph glyph-name="gbreve" unicode="&#x11f;" 
d="M543 1049q112 0 192 -52l111 109q8 8 16 8q7 0 17 -10l77 -82q9 -9 9 -16q0 -8 -11 -19l-108 -113q37 -75 37 -176q0 -158 -95 -253t-245 -95q-149 0 -238 86q-76 -49 -76 -133q0 -49 29.5 -81t81.5 -32q34 0 114.5 19.5t139.5 19.5q177 0 276 -89t99 -244
q0 -144 -110.5 -233t-303.5 -89q-197 0 -311.5 87.5t-114.5 234.5q0 109 64 188q-63 50 -93 103t-30 128q0 76 43 140t114 100q-22 71 -22 143q0 158 94.5 254.5t243.5 96.5zM289 -86q0 -82 69 -135t197 -53q116 0 185 46t69 124q0 182 -250 182q-46 0 -114.5 -15
t-104.5 -18q-51 -51 -51 -131zM365 698q0 -95 50.5 -145.5t127.5 -50.5t128.5 50.5t51.5 145.5q0 97 -51.5 148t-128.5 51t-127.5 -50.5t-50.5 -148.5zM307 1403h99q20 0 20 -21q0 -48 30.5 -77t86.5 -29t86 29t30 77q0 21 21 21h98q21 0 21 -21q0 -110 -70 -175.5
t-186 -65.5t-186 65.5t-70 175.5q0 21 20 21z" />
    <glyph glyph-name="Gdotaccent" unicode="&#x120;" 
d="M588 694h362q21 0 21 -20v-330q0 -40 -23 -84q-118 -280 -391 -280q-105 0 -193 46.5t-154.5 136.5t-104 232t-37.5 322q0 356 132 546.5t345 190.5q172 0 288 -117t123 -301q0 -20 -22 -20h-127q-22 0 -25 20q-13 115 -71.5 184.5t-165.5 69.5q-297 0 -297 -573
q0 -296 77 -435t232 -139q96 0 153 51t89 144v192h-211q-21 0 -21 21v123q0 20 21 20zM436 1642v177q0 20 21 20h176q20 0 20 -20v-177q0 -20 -20 -20h-176q-21 0 -21 20z" />
    <glyph glyph-name="gdotaccent" unicode="&#x121;" 
d="M543 1049q112 0 192 -52l111 109q8 8 16 8q7 0 17 -10l77 -82q9 -9 9 -16q0 -8 -11 -19l-108 -113q37 -75 37 -176q0 -158 -95 -253t-245 -95q-149 0 -238 86q-76 -49 -76 -133q0 -49 29.5 -81t81.5 -32q34 0 114.5 19.5t139.5 19.5q177 0 276 -89t99 -244
q0 -144 -110.5 -233t-303.5 -89q-197 0 -311.5 87.5t-114.5 234.5q0 109 64 188q-63 50 -93 103t-30 128q0 76 43 140t114 100q-22 71 -22 143q0 158 94.5 254.5t243.5 96.5zM289 -86q0 -82 69 -135t197 -53q116 0 185 46t69 124q0 182 -250 182q-46 0 -114.5 -15
t-104.5 -18q-51 -51 -51 -131zM365 698q0 -95 50.5 -145.5t127.5 -50.5t128.5 50.5t51.5 145.5q0 97 -51.5 148t-128.5 51t-127.5 -50.5t-50.5 -148.5zM434 1237v176q0 21 21 21h176q20 0 20 -21v-176q0 -20 -20 -20h-176q-21 0 -21 20z" />
    <glyph glyph-name="Gcommaaccent" unicode="&#x122;" 
d="M588 694h362q21 0 21 -20v-330q0 -40 -23 -84q-118 -280 -391 -280q-105 0 -193 46.5t-154.5 136.5t-104 232t-37.5 322q0 356 132 546.5t345 190.5q172 0 288 -117t123 -301q0 -20 -22 -20h-127q-22 0 -25 20q-13 115 -71.5 184.5t-165.5 69.5q-297 0 -297 -573
q0 -296 77 -435t232 -139q96 0 153 51t89 144v192h-211q-21 0 -21 21v123q0 20 21 20zM455 -446q58 0 76 19.5t18 76.5v14h-94q-21 0 -21 21v209q0 20 21 20h209q20 0 20 -20v-289q0 -83 -41.5 -124.5t-116.5 -41.5h-71q-21 0 -21 20v74q0 21 21 21z" />
    <glyph glyph-name="gcommaaccent" unicode="&#x123;" 
d="M543 1049q112 0 192 -52l111 109q8 8 16 8q7 0 17 -10l77 -82q9 -9 9 -16q0 -8 -11 -19l-108 -113q37 -75 37 -176q0 -158 -95 -253t-245 -95q-149 0 -238 86q-76 -49 -76 -133q0 -49 29.5 -81t81.5 -32q34 0 114.5 19.5t139.5 19.5q177 0 276 -89t99 -244
q0 -144 -110.5 -233t-303.5 -89q-197 0 -311.5 87.5t-114.5 234.5q0 109 64 188q-63 50 -93 103t-30 128q0 76 43 140t114 100q-22 71 -22 143q0 158 94.5 254.5t243.5 96.5zM289 -86q0 -82 69 -135t197 -53q116 0 185 46t69 124q0 182 -250 182q-46 0 -114.5 -15
t-104.5 -18q-51 -51 -51 -131zM365 698q0 -95 50.5 -145.5t127.5 -50.5t128.5 50.5t51.5 145.5q0 97 -51.5 148t-128.5 51t-127.5 -50.5t-50.5 -148.5zM647 1552q-58 0 -76 -22t-18 -86v-39h94q21 0 21 -21v-208q0 -21 -21 -21h-209q-20 0 -20 21v301q0 90 41.5 140
t115.5 50h72q21 0 21 -20v-74q0 -21 -21 -21z" />
    <glyph glyph-name="Hcircumflex" unicode="&#x124;" 
d="M266 666v-646q0 -20 -20 -20h-131q-21 0 -21 20v1393q0 21 21 21h131q20 0 20 -21v-584h492v584q0 21 20 21h131q21 0 21 -21v-1393q0 -20 -21 -20h-131q-20 0 -20 20v646h-492zM600 1823l191 -262q4 -8 4 -11q0 -10 -15 -10h-127q-21 0 -37 19l-104 120l-104 -120
q-14 -19 -37 -19h-127q-15 0 -15 10q0 3 4 11l191 262q16 16 31 16h114q15 0 31 -16z" />
    <glyph glyph-name="hcircumflex" unicode="&#x125;" 
d="M164 20v1393q0 21 20 21h119q21 0 21 -21v-498q47 58 122.5 96t157.5 38q160 0 233.5 -86.5t73.5 -237.5v-705q0 -20 -20 -20h-119q-20 0 -20 20v685q0 91 -44.5 141.5t-134.5 50.5q-114 0 -181.5 -95.5t-67.5 -279.5v-502q0 -20 -21 -20h-119q-20 0 -20 20zM537 1823
l190 -262q4 -8 4 -11q0 -10 -14 -10h-127q-21 0 -37 19l-104 120l-105 -120q-14 -19 -37 -19h-127q-14 0 -14 10q0 3 4 11l190 262q16 16 31 16h115q15 0 31 -16z" />
    <glyph glyph-name="Hbar" unicode="&#x126;" 
d="M266 666v-646q0 -20 -20 -20h-131q-21 0 -21 20v1024h-53q-21 0 -21 21v111q0 20 21 20h53v217q0 21 21 21h131q20 0 20 -21v-217h492v217q0 21 20 21h131q21 0 21 -21v-217h53q21 0 21 -20v-111q0 -21 -21 -21h-53v-1024q0 -20 -21 -20h-131q-20 0 -20 20v646h-492z
M266 829h492v215h-492v-215z" />
    <glyph glyph-name="hbar" unicode="&#x127;" 
d="M104 20v1106h-81q-21 0 -21 21v106q0 21 21 21h81v139q0 21 21 21h119q20 0 20 -21v-139h182q21 0 21 -21v-106q0 -21 -21 -21h-182v-221q53 64 138.5 104t179.5 40q163 0 256.5 -94.5t93.5 -241.5v-693q0 -20 -21 -20h-118q-21 0 -21 20v658q0 105 -57 162t-166 57
q-121 0 -203 -97.5t-82 -258.5v-521q0 -20 -20 -20h-119q-21 0 -21 20z" />
    <glyph glyph-name="Itilde" unicode="&#x128;" 
d="M166 1290v123q0 21 20 21h652q20 0 20 -21v-123q0 -20 -20 -20h-240v-1106h260q21 0 21 -21v-123q0 -20 -21 -20h-692q-21 0 -21 20v123q0 21 21 21h260v1106h-240q-20 0 -20 20zM211 1765q99 74 184 74q44 0 78 -13t51 -29t43 -29t56 -13q29 0 53 11t61 40q12 4 15 4
q10 0 20 -16l57 -86q2 -2 2 -8q0 -15 -18 -27q-99 -74 -184 -74q-43 0 -77 13t-51.5 29t-43.5 29t-56 13q-29 0 -53 -11t-61 -40q-12 -4 -15 -4q-10 0 -20 17l-57 86q-2 2 -2 8q0 14 18 26z" />
    <glyph glyph-name="itilde" unicode="&#x129;" 
d="M209 901v107q0 20 20 20h375q21 0 21 -20v-856h288q21 0 21 -21v-111q0 -20 -21 -20h-737q-20 0 -20 20v111q0 21 20 21h289v729h-236q-20 0 -20 20zM199 1360q99 74 184 74q44 0 77.5 -13t50.5 -29t43 -29t56 -13q29 0 53.5 11t61.5 40q12 4 14 4q11 0 21 -16l57 -86
q2 -2 2 -9q0 -14 -18 -26q-99 -74 -185 -74q-43 0 -77 13t-51.5 29t-43 29t-55.5 13q-29 0 -53.5 -11t-61.5 -40q-12 -4 -14 -4q-10 0 -20 16l-58 86q-2 2 -2 8q0 14 19 27z" />
    <glyph glyph-name="uni012A" unicode="&#x12a;" 
d="M166 1290v123q0 21 20 21h652q20 0 20 -21v-123q0 -20 -20 -20h-240v-1106h260q21 0 21 -21v-123q0 -20 -21 -20h-692q-21 0 -21 20v123q0 21 21 21h260v1106h-240q-20 0 -20 20zM301 1647v102q0 20 21 20h380q21 0 21 -20v-102q0 -21 -21 -21h-380q-21 0 -21 21z" />
    <glyph glyph-name="imacron" unicode="&#x12b;" 
d="M209 901v107q0 20 20 20h375q21 0 21 -20v-856h288q21 0 21 -21v-111q0 -20 -21 -20h-737q-20 0 -20 20v111q0 21 20 21h289v729h-236q-20 0 -20 20zM299 1241v102q0 21 20 21h381q21 0 21 -21v-102q0 -20 -21 -20h-381q-20 0 -20 20z" />
    <glyph glyph-name="Ibreve" unicode="&#x12c;" 
d="M166 1290v123q0 21 20 21h652q20 0 20 -21v-123q0 -20 -20 -20h-240v-1106h260q21 0 21 -21v-123q0 -20 -21 -20h-692q-21 0 -21 20v123q0 21 21 21h260v1106h-240q-20 0 -20 20zM276 1808h99q20 0 20 -20q0 -48 30.5 -77.5t86.5 -29.5t86.5 29.5t30.5 77.5q0 20 20 20
h99q20 0 20 -20q0 -110 -70 -176t-186 -66t-186 66t-70 176q0 20 20 20z" />
    <glyph glyph-name="uni012D" unicode="&#x12d;" 
d="M209 901v107q0 20 20 20h375q21 0 21 -20v-856h288q21 0 21 -21v-111q0 -20 -21 -20h-737q-20 0 -20 20v111q0 21 20 21h289v729h-236q-20 0 -20 20zM299 1403h98q21 0 21 -21q0 -48 30.5 -77t86.5 -29t86 29t30 77q0 21 21 21h98q21 0 21 -21q0 -110 -70 -175.5
t-186 -65.5t-186 65.5t-70 175.5q0 21 20 21z" />
    <glyph glyph-name="Iogonek" unicode="&#x12e;" 
d="M166 1290v123q0 21 20 21h652q20 0 20 -21v-123q0 -20 -20 -20h-240v-1106h260q21 0 21 -21v-123q0 -17 -15 -20q-62 -19 -95.5 -55.5t-33.5 -87.5q0 -48 34.5 -76.5t94.5 -28.5h21q20 0 20 -20v-70q0 -20 -20 -20h-62q-100 0 -168.5 47.5t-68.5 138.5q0 110 90 172h-510
q-21 0 -21 20v123q0 21 21 21h260v1106h-240q-20 0 -20 20z" />
    <glyph glyph-name="iogonek" unicode="&#x12f;" 
d="M209 901v107q0 20 20 20h375q21 0 21 -20v-856h288q21 0 21 -21v-111q0 -17 -14 -20q-62 -19 -95.5 -55.5t-33.5 -87.5q0 -48 34.5 -76.5t94.5 -28.5h20q21 0 21 -20v-70q0 -20 -21 -20h-61q-100 0 -169 47.5t-69 138.5q0 110 90 172h-555q-20 0 -20 20v111q0 21 20 21
h289v729h-236q-20 0 -20 20zM422 1217v176q0 20 20 20h176q21 0 21 -20v-176q0 -21 -21 -21h-176q-20 0 -20 21z" />
    <glyph glyph-name="Idotaccent" unicode="&#x130;" 
d="M166 1290v123q0 21 20 21h652q20 0 20 -21v-123q0 -20 -20 -20h-240v-1106h260q21 0 21 -21v-123q0 -20 -21 -20h-692q-21 0 -21 20v123q0 21 21 21h260v1106h-240q-20 0 -20 20zM403 1642v177q0 20 21 20h176q21 0 21 -20v-177q0 -20 -21 -20h-176q-21 0 -21 20z" />
    <glyph glyph-name="dotlessi" unicode="&#x131;" 
d="M209 901v107q0 20 20 20h375q21 0 21 -20v-856h288q21 0 21 -21v-111q0 -20 -21 -20h-737q-20 0 -20 20v111q0 21 20 21h289v729h-236q-20 0 -20 20z" />
    <glyph glyph-name="IJ" unicode="&#x132;" 
d="M1004 1413v-1067q0 -91 -11.5 -151t-33.5 -99.5t-65.5 -60t-96.5 -28t-138 -7.5q-20 0 -20 20v123q0 21 20 21q42 0 66.5 1.5t46 9.5t31.5 18.5t17.5 34t9 51.5t1.5 75v1059q0 21 21 21h131q21 0 21 -21zM55 1290v123q0 21 21 21h463q20 0 20 -21v-123q0 -20 -20 -20
h-146v-1106h166q21 0 21 -21v-123q0 -20 -21 -20h-504q-20 0 -20 20v123q0 21 20 21h166v1106h-145q-21 0 -21 20z" />
    <glyph glyph-name="ij" unicode="&#x133;" 
d="M94 901v107q0 20 21 20h297q20 0 20 -20v-856h191q20 0 20 -21v-111q0 -20 -20 -20h-541q-21 0 -21 20v111q0 21 21 21h190v729h-157q-21 0 -21 20zM229 1237v176q0 21 21 21h176q20 0 20 -21v-176q0 -20 -20 -20h-176q-21 0 -21 20zM559 901v107q0 20 21 20h358
q20 0 20 -20v-1114q0 -147 -14.5 -232t-46.5 -156q-6 -16 -14 -16h-6q-3 0 -5 2l-120 35q-13 3 -13 12q0 6 2 10q58 159 58 320v1012h-219q-21 0 -21 20zM750 1237v176q0 21 20 21h176q21 0 21 -21v-176q0 -20 -21 -20h-176q-20 0 -20 20z" />
    <glyph glyph-name="Jcircumflex" unicode="&#x134;" 
d="M870 1413v-926q0 -258 -102 -382.5t-293 -124.5q-99 0 -176 35t-124 98t-71 144.5t-24 178.5q0 21 20 21h131q21 0 21 -21q0 -137 58 -215t165 -78q124 0 173.5 83.5t49.5 269.5v917q0 21 21 21h131q20 0 20 -21zM872 1823l191 -262q4 -8 4 -11q0 -10 -14 -10h-127
q-21 0 -37 19l-105 120l-104 -120q-14 -19 -37 -19h-127q-14 0 -14 10q0 3 4 11l190 262q16 16 31 16h115q14 0 30 -16z" />
    <glyph glyph-name="jcircumflex" unicode="&#x135;" 
d="M203 901v107q0 20 20 20h563q21 0 21 -20v-1114q0 -146 -15 -231t-47 -157q-6 -16 -14 -16h-6q-2 0 -4 2l-121 35q-12 3 -12 12q0 6 2 10q57 156 57 320v1012h-424q-20 0 -20 20zM621 1417l190 -262q4 -8 4 -10q0 -10 -14 -10h-127q-22 0 -37 18l-105 121l-104 -121
q-13 -18 -37 -18h-127q-14 0 -14 10q0 2 4 10l190 262q17 17 31 17h115q14 0 31 -17z" />
    <glyph glyph-name="Kcommaaccent" unicode="&#x136;" 
d="M963 1405l-340 -432l358 -944q2 -4 2 -13q0 -16 -16 -16h-142q-28 0 -37 31l-294 776l-166 -211v-576q0 -20 -21 -20h-131q-20 0 -20 20v1393q0 21 20 21h131q21 0 21 -21v-555l434 555l5 5l5 5l4 4t4.5 3.5t4 1.5t5 1.5t5.5 0.5h155q19 0 19 -13q0 -7 -6 -16zM446 -446
q59 0 77 19.5t18 76.5v14h-95q-20 0 -20 21v209q0 20 20 20h209q21 0 21 -20v-289q0 -83 -41.5 -124.5t-116.5 -41.5h-72q-20 0 -20 20v74q0 21 20 21z" />
    <glyph glyph-name="kcommaaccent" unicode="&#x137;" 
d="M883 997l-297 -331l340 -635q4 -12 4 -15q0 -16 -19 -16h-135q-24 0 -33 18l-274 517l-141 -158v-357q0 -20 -21 -20h-119q-20 0 -20 20v1393q0 21 20 21h119q21 0 21 -21v-805l350 402q18 18 33 18h163q17 0 17 -14q0 -9 -8 -17zM438 -446q58 0 76 19.5t18 76.5v14h-94
q-20 0 -20 21v209q0 20 20 20h209q21 0 21 -20v-289q0 -83 -41.5 -124.5t-116.5 -41.5h-72q-20 0 -20 20v74q0 21 20 21z" />
    <glyph glyph-name="kgreenlandic" unicode="&#x138;" 
d="M883 997l-297 -331l340 -635q4 -12 4 -15q0 -16 -19 -16h-135q-24 0 -33 18l-274 517l-141 -158v-357q0 -20 -21 -20h-119q-20 0 -20 20v988q0 20 20 20h119q21 0 21 -20v-400l350 402q18 18 33 18h163q17 0 17 -14q0 -9 -8 -17z" />
    <glyph glyph-name="Lacute" unicode="&#x139;" 
d="M201 20v1393q0 21 20 21h131q21 0 21 -21v-1249h581q21 0 21 -21v-123q0 -20 -21 -20h-733q-20 0 -20 20zM203 1561l116 258q9 20 31 20h205q14 0 14 -10q0 -2 -4 -10l-184 -260q-14 -19 -37 -19h-129q-14 0 -14 12q0 7 2 9z" />
    <glyph glyph-name="lacute" unicode="&#x13a;" 
d="M168 1303v110q0 21 20 21h402q20 0 20 -21v-1261h308q20 0 20 -21v-111q0 -20 -20 -20h-775q-20 0 -20 20v111q0 21 20 21h308v1130h-263q-20 0 -20 21zM391 1561l117 258q9 20 31 20h204q15 0 15 -10q0 -2 -4 -10l-185 -260q-14 -19 -37 -19h-129q-14 0 -14 12q0 7 2 9z
" />
    <glyph glyph-name="Lcommaaccent" unicode="&#x13b;" 
d="M201 20v1393q0 21 20 21h131q21 0 21 -21v-1249h581q21 0 21 -21v-123q0 -20 -21 -20h-733q-20 0 -20 20zM500 -446q58 0 76 19.5t18 76.5v14h-94q-21 0 -21 21v209q0 20 21 20h209q20 0 20 -20v-289q0 -83 -41.5 -124.5t-116.5 -41.5h-71q-21 0 -21 20v74q0 21 21 21z
" />
    <glyph glyph-name="lcommaaccent" unicode="&#x13c;" 
d="M168 1303v110q0 21 20 21h402q20 0 20 -21v-1261h308q20 0 20 -21v-111q0 -20 -20 -20h-775q-20 0 -20 20v111q0 21 20 21h308v1130h-263q-20 0 -20 21zM424 -446q58 0 76 19.5t18 76.5v14h-94q-21 0 -21 21v209q0 20 21 20h209q20 0 20 -20v-289q0 -83 -41 -124.5
t-116 -41.5h-72q-21 0 -21 20v74q0 21 21 21z" />
    <glyph glyph-name="Lcaron" unicode="&#x13d;" 
d="M201 20v1393q0 21 20 21h131q21 0 21 -21v-1249h581q21 0 21 -21v-123q0 -20 -21 -20h-733q-20 0 -20 20zM641 1036q58 0 76 22.5t18 86.5v39h-94q-20 0 -20 20v209q0 21 20 21h209q20 0 20 -21v-301q0 -90 -41.5 -140t-115.5 -50h-72q-20 0 -20 20v74q0 20 20 20z" />
    <glyph glyph-name="lcaron" unicode="&#x13e;" 
d="M168 1303v110q0 21 20 21h402q20 0 20 -21v-1261h308q20 0 20 -21v-111q0 -20 -20 -20h-775q-20 0 -20 20v111q0 21 20 21h308v1130h-263q-20 0 -20 21zM764 1036q58 0 76 22.5t18 86.5v39h-94q-21 0 -21 20v209q0 21 21 21h209q20 0 20 -21v-301q0 -90 -41.5 -140
t-115.5 -50h-72q-21 0 -21 20v74q0 20 21 20z" />
    <glyph glyph-name="Ldot" unicode="&#x13f;" 
d="M201 20v1393q0 21 20 21h131q21 0 21 -21v-1249h581q21 0 21 -21v-123q0 -20 -21 -20h-733q-20 0 -20 20zM590 864h209q20 0 20 -20v-209q0 -21 -20 -21h-209q-21 0 -21 21v209q0 20 21 20z" />
    <glyph glyph-name="ldot" unicode="&#x140;" 
d="M168 1303v110q0 21 20 21h402q20 0 20 -21v-1261h308q20 0 20 -21v-111q0 -20 -20 -20h-775q-20 0 -20 20v111q0 21 20 21h308v1130h-263q-20 0 -20 21zM745 864h209q21 0 21 -20v-209q0 -21 -21 -21h-209q-20 0 -20 21v209q0 20 20 20z" />
    <glyph glyph-name="Lslash" unicode="&#x141;" 
d="M37 584l188 98v731q0 21 21 21h131q20 0 20 -21v-641l172 92q12 4 13 4q8 0 14 -12l53 -98q4 -12 4 -13q0 -8 -14 -14l-242 -127v-440h557q21 0 21 -21v-123q0 -20 -21 -20h-708q-21 0 -21 20v492l-119 -61q-2 -1 -5 -2t-4.5 -2t-2.5 -1q-8 0 -14 13l-53 98l-4 12
q0 9 14 15z" />
    <glyph glyph-name="lslash" unicode="&#x142;" 
d="M168 1303v110q0 21 20 21h402q20 0 20 -21v-629l152 80l12 4q8 0 14 -12l54 -98q4 -12 4 -13q0 -8 -15 -14l-221 -117v-462h308q20 0 20 -21v-111q0 -20 -20 -20h-775q-20 0 -20 20v111q0 21 20 21h308v378l-152 -79q-2 -1 -5 -2t-4.5 -2t-2.5 -1q-9 0 -15 13l-53 98
l-4 12q0 9 14 15l222 116v582h-263q-20 0 -20 21z" />
    <glyph glyph-name="Nacute" unicode="&#x143;" 
d="M901 0h-160q-25 0 -32 16l-435 1069v-1065q0 -20 -20 -20h-131q-21 0 -21 20v1393q0 21 21 21h160q25 0 32 -17l435 -1069v1065q0 21 20 21h131q21 0 21 -21v-1393q0 -20 -21 -20zM416 1561l116 258q9 20 31 20h205q14 0 14 -10q0 -2 -4 -10l-184 -260q-14 -19 -37 -19
h-129q-14 0 -14 12q0 7 2 9z" />
    <glyph glyph-name="nacute" unicode="&#x144;" 
d="M158 20v988q0 20 20 20h119q20 0 20 -20v-95q117 136 269 136q147 0 225 -77t78 -224v-728q0 -20 -21 -20h-118q-21 0 -21 20v705q0 172 -182 172q-102 0 -166 -94t-64 -262v-521q0 -20 -20 -20h-119q-20 0 -20 20zM434 1155l117 258q9 21 31 21h204q15 0 15 -11
q0 -2 -4 -10l-185 -260q-13 -18 -37 -18h-129q-14 0 -14 12q0 6 2 8z" />
    <glyph glyph-name="Ncommaaccent" unicode="&#x145;" 
d="M901 0h-160q-25 0 -32 16l-435 1069v-1065q0 -20 -20 -20h-131q-21 0 -21 20v1393q0 21 21 21h160q25 0 32 -17l435 -1069v1065q0 21 20 21h131q21 0 21 -21v-1393q0 -20 -21 -20zM416 -446q58 0 76 19.5t18 76.5v14h-94q-21 0 -21 21v209q0 20 21 20h209q20 0 20 -20
v-289q0 -83 -41.5 -124.5t-116.5 -41.5h-71q-21 0 -21 20v74q0 21 21 21z" />
    <glyph glyph-name="ncommaaccent" unicode="&#x146;" 
d="M158 20v988q0 20 20 20h119q20 0 20 -20v-95q117 136 269 136q147 0 225 -77t78 -224v-728q0 -20 -21 -20h-118q-21 0 -21 20v705q0 172 -182 172q-102 0 -166 -94t-64 -262v-521q0 -20 -20 -20h-119q-20 0 -20 20zM420 -446q58 0 76 19.5t18 76.5v14h-94q-21 0 -21 21
v209q0 20 21 20h209q20 0 20 -20v-289q0 -83 -41 -124.5t-116 -41.5h-72q-21 0 -21 20v74q0 21 21 21z" />
    <glyph glyph-name="Ncaron" unicode="&#x147;" 
d="M901 0h-160q-25 0 -32 16l-435 1069v-1065q0 -20 -20 -20h-131q-21 0 -21 20v1393q0 21 21 21h160q25 0 32 -17l435 -1069v1065q0 21 20 21h131q21 0 21 -21v-1393q0 -20 -21 -20zM791 1819l-191 -263q-16 -16 -31 -16h-114q-15 0 -31 16l-191 263q-4 8 -4 10q0 10 15 10
h127q24 0 37 -18l104 -121l104 121q15 18 37 18h127q15 0 15 -10q0 -2 -4 -10z" />
    <glyph glyph-name="ncaron" unicode="&#x148;" 
d="M158 20v988q0 20 20 20h119q20 0 20 -20v-95q117 136 269 136q147 0 225 -77t78 -224v-728q0 -20 -21 -20h-118q-21 0 -21 20v705q0 172 -182 172q-102 0 -166 -94t-64 -262v-521q0 -20 -20 -20h-119q-20 0 -20 20zM819 1413l-190 -262q-16 -16 -31 -16h-115
q-14 0 -30 16l-191 262q-4 8 -4 10q0 11 14 11h127q23 0 37 -19l105 -121l104 121q16 19 37 19h127q14 0 14 -11q0 -2 -4 -10z" />
    <glyph glyph-name="napostrophe" unicode="&#x149;" 
d="M285 18v988q0 20 20 20h119q20 0 20 -20v-95q117 136 269 136q147 0 225 -77.5t78 -224.5v-727q0 -20 -21 -20h-118q-21 0 -21 20v705q0 172 -182 172q-102 0 -166 -94t-64 -262v-521q0 -20 -20 -20h-119q-20 0 -20 20zM14 1096q58 0 76.5 22.5t18.5 85.5v39h-95
q-20 0 -20 21v209q0 20 20 20h209q21 0 21 -20v-302q0 -90 -42 -140t-116 -50h-72q-20 0 -20 20v74q0 21 20 21z" />
    <glyph glyph-name="Eng" unicode="&#x14a;" 
d="M922 1413v-1405q0 -134 -21.5 -218t-73.5 -132.5t-125.5 -66t-191.5 -17.5q-21 0 -21 20v123q0 21 21 21q63 0 102 6.5t68 22.5t43 49t20.5 79.5t6.5 120.5l-476 1074v-1070q0 -20 -20 -20h-131q-21 0 -21 20v1393q0 21 21 21h160q25 0 32 -17l435 -1016v1012q0 21 20 21
h131q21 0 21 -21z" />
    <glyph glyph-name="eng" unicode="&#x14b;" 
d="M158 20v988q0 20 20 20h119q20 0 20 -20v-95q117 136 269 136q147 0 225 -77t78 -224v-854q0 -146 -15 -231t-47 -157q-6 -16 -14 -16h-6q-2 0 -4 2l-121 35q-12 3 -12 12q0 6 2 10q57 156 57 320v856q0 82 -48 127t-134 45q-102 0 -166 -94t-64 -262v-521q0 -20 -20 -20
h-119q-20 0 -20 20z" />
    <glyph glyph-name="Omacron" unicode="&#x14c;" 
d="M512 -20q-213 0 -336 188.5t-123 548.5t123 548.5t336 188.5t336 -188.5t123 -548.5t-123 -548.5t-336 -188.5zM512 143q142 0 210.5 139.5t68.5 434.5t-68.5 434t-210.5 139t-210.5 -139t-68.5 -434t68.5 -434.5t210.5 -139.5zM301 1647v102q0 20 21 20h380q21 0 21 -20
v-102q0 -21 -21 -21h-380q-21 0 -21 21z" />
    <glyph glyph-name="omacron" unicode="&#x14d;" 
d="M70 514q0 249 120 392t322 143t322 -143t120 -392t-119.5 -391.5t-322.5 -142.5t-322.5 142.5t-119.5 391.5zM238 514q0 -181 70.5 -282t203.5 -101t203.5 101t70.5 282t-70.5 282t-203.5 101t-203.5 -101t-70.5 -282zM301 1241v102q0 21 21 21h380q21 0 21 -21v-102
q0 -20 -21 -20h-380q-21 0 -21 20z" />
    <glyph glyph-name="Obreve" unicode="&#x14e;" 
d="M512 -20q-213 0 -336 188.5t-123 548.5t123 548.5t336 188.5t336 -188.5t123 -548.5t-123 -548.5t-336 -188.5zM512 143q142 0 210.5 139.5t68.5 434.5t-68.5 434t-210.5 139t-210.5 -139t-68.5 -434t68.5 -434.5t210.5 -139.5zM276 1808h99q20 0 20 -20
q0 -48 30.5 -77.5t86.5 -29.5t86.5 29.5t30.5 77.5q0 20 20 20h99q20 0 20 -20q0 -110 -70 -176t-186 -66t-186 66t-70 176q0 20 20 20z" />
    <glyph glyph-name="obreve" unicode="&#x14f;" 
d="M70 514q0 249 120 392t322 143t322 -143t120 -392t-119.5 -391.5t-322.5 -142.5t-322.5 142.5t-119.5 391.5zM238 514q0 -181 70.5 -282t203.5 -101t203.5 101t70.5 282t-70.5 282t-203.5 101t-203.5 -101t-70.5 -282zM276 1403h99q20 0 20 -21q0 -48 30.5 -77t86.5 -29
t86.5 29t30.5 77q0 21 20 21h99q20 0 20 -21q0 -110 -70 -175.5t-186 -65.5t-186 65.5t-70 175.5q0 21 20 21z" />
    <glyph glyph-name="Ohungarumlaut" unicode="&#x150;" 
d="M512 -20q-213 0 -336 188.5t-123 548.5t123 548.5t336 188.5t336 -188.5t123 -548.5t-123 -548.5t-336 -188.5zM512 143q142 0 210.5 139.5t68.5 434.5t-68.5 434t-210.5 139t-210.5 -139t-68.5 -434t68.5 -434.5t210.5 -139.5zM199 1561l116 258q9 20 31 20h205
q14 0 14 -10q0 -2 -4 -10l-184 -260q-14 -19 -37 -19h-129q-14 0 -14 12q0 7 2 9zM563 1561l117 258q9 20 31 20h204q15 0 15 -10q0 -2 -4 -10l-185 -260q-14 -19 -36 -19h-130q-14 0 -14 12q0 7 2 9z" />
    <glyph glyph-name="ohungarumlaut" unicode="&#x151;" 
d="M70 514q0 249 120 392t322 143t322 -143t120 -392t-119.5 -391.5t-322.5 -142.5t-322.5 142.5t-119.5 391.5zM238 514q0 -181 70.5 -282t203.5 -101t203.5 101t70.5 282t-70.5 282t-203.5 101t-203.5 -101t-70.5 -282zM199 1155l116 258q9 21 31 21h205q14 0 14 -11
q0 -2 -4 -10l-184 -260q-13 -18 -37 -18h-129q-14 0 -14 12q0 6 2 8zM563 1155l117 258q9 21 31 21h204q15 0 15 -11q0 -2 -4 -10l-185 -260q-13 -18 -36 -18h-130q-14 0 -14 12q0 6 2 8z" />
    <glyph glyph-name="OE" unicode="&#x152;" 
d="M672 672v-508h323q21 0 21 -21v-123q0 -20 -21 -20h-475q-50 -20 -106 -20q-195 0 -293 175.5t-98 561.5q0 383 98 560t293 177q56 0 106 -20h469q21 0 21 -21v-123q0 -20 -21 -20h-317v-434h299q20 0 20 -21v-123q0 -20 -20 -20h-299zM500 170v1094q-39 26 -97 26
q-200 0 -200 -573q0 -574 200 -574q57 0 97 27z" />
    <glyph glyph-name="oe" unicode="&#x153;" 
d="M526 1049q113 0 200 -43t139.5 -117.5t79 -169.5t26.5 -205v-29q0 -20 -21 -20h-338v-326q64 17 102 59.5t64 120.5q7 19 29 19h133q14 0 14 -14q0 -12 -4 -21q-108 -323 -422 -323q-210 0 -330 141.5t-120 392.5q0 249 121.5 392t326.5 143zM246 514q0 -156 52.5 -253.5
t154.5 -121.5v750q-102 -26 -154.5 -123t-52.5 -252zM612 616h187q-10 113 -60 180.5t-127 92.5v-273z" />
    <glyph glyph-name="Racute" unicode="&#x154;" 
d="M127 20v1393q0 21 20 21h377q201 0 308.5 -101.5t107.5 -277.5q0 -132 -66 -225.5t-184 -135.5l291 -674q2 -2 2 -8q0 -12 -16 -12h-148q-17 0 -28 20l-285 656h-207v-656q0 -20 -20 -20h-132q-20 0 -20 20zM299 1270v-430h246q122 0 172.5 54.5t50.5 160.5t-50.5 160.5
t-172.5 54.5h-246zM328 1561l116 258q9 20 31 20h205q14 0 14 -10q0 -2 -4 -10l-184 -260q-14 -19 -37 -19h-129q-14 0 -14 12q0 7 2 9z" />
    <glyph glyph-name="racute" unicode="&#x155;" 
d="M922 817l-119 -72q-8 -4 -15 -4q-12 0 -16 11q-38 77 -78 111t-110 34q-107 0 -174.5 -104t-67.5 -265v-508q0 -20 -20 -20h-119q-21 0 -21 20v988q0 20 21 20h119q20 0 20 -20v-101q50 64 128.5 103t174.5 39q104 0 177 -55.5t108 -141.5q4 -12 4 -14q0 -15 -12 -21z
M420 1155l117 258q9 21 30 21h205q14 0 14 -11q0 -2 -4 -10l-184 -260q-13 -18 -37 -18h-129q-14 0 -14 12q0 6 2 8z" />
    <glyph glyph-name="Rcommaaccent" unicode="&#x156;" 
d="M127 20v1393q0 21 20 21h377q201 0 308.5 -101.5t107.5 -277.5q0 -132 -66 -225.5t-184 -135.5l291 -674q2 -2 2 -8q0 -12 -16 -12h-148q-17 0 -28 20l-285 656h-207v-656q0 -20 -20 -20h-132q-20 0 -20 20zM299 1270v-430h246q122 0 172.5 54.5t50.5 160.5t-50.5 160.5
t-172.5 54.5h-246zM430 -446q58 0 76 19.5t18 76.5v14h-94q-20 0 -20 21v209q0 20 20 20h209q20 0 20 -20v-289q0 -83 -41 -124.5t-116 -41.5h-72q-20 0 -20 20v74q0 21 20 21z" />
    <glyph glyph-name="rcommaaccent" unicode="&#x157;" 
d="M922 817l-119 -72q-8 -4 -15 -4q-12 0 -16 11q-38 77 -78 111t-110 34q-107 0 -174.5 -104t-67.5 -265v-508q0 -20 -20 -20h-119q-21 0 -21 20v988q0 20 21 20h119q20 0 20 -20v-101q50 64 128.5 103t174.5 39q104 0 177 -55.5t108 -141.5q4 -12 4 -14q0 -15 -12 -21z
M375 -446q58 0 76 19.5t18 76.5v14h-94q-21 0 -21 21v209q0 20 21 20h209q20 0 20 -20v-289q0 -83 -41.5 -124.5t-116.5 -41.5h-71q-21 0 -21 20v74q0 21 21 21z" />
    <glyph glyph-name="Rcaron" unicode="&#x158;" 
d="M127 20v1393q0 21 20 21h377q201 0 308.5 -101.5t107.5 -277.5q0 -132 -66 -225.5t-184 -135.5l291 -674q2 -2 2 -8q0 -12 -16 -12h-148q-17 0 -28 20l-285 656h-207v-656q0 -20 -20 -20h-132q-20 0 -20 20zM299 1270v-430h246q122 0 172.5 54.5t50.5 160.5t-50.5 160.5
t-172.5 54.5h-246zM756 1819l-191 -263q-16 -16 -30 -16h-115q-15 0 -31 16l-190 263q-4 8 -4 10q0 10 14 10h127q24 0 37 -18l104 -121l105 121q15 18 36 18h127q15 0 15 -10q0 -2 -4 -10z" />
    <glyph glyph-name="rcaron" unicode="&#x159;" 
d="M922 817l-119 -72q-8 -4 -15 -4q-12 0 -16 11q-38 77 -78 111t-110 34q-107 0 -174.5 -104t-67.5 -265v-508q0 -20 -20 -20h-119q-21 0 -21 20v988q0 20 21 20h119q20 0 20 -20v-101q50 64 128.5 103t174.5 39q104 0 177 -55.5t108 -141.5q4 -12 4 -14q0 -15 -12 -21z
M829 1413l-190 -262q-16 -16 -31 -16h-114q-15 0 -31 16l-191 262q-4 8 -4 10q0 11 15 11h127q22 0 36 -19l105 -121l104 121q16 19 37 19h127q15 0 15 -11z" />
    <glyph glyph-name="Sacute" unicode="&#x15a;" 
d="M94 1069q0 181 113.5 283t281.5 102q197 0 305.5 -113t108.5 -286q0 -21 -20 -21h-131q-21 0 -21 21q0 99 -64 167t-178 68q-106 0 -164.5 -55.5t-58.5 -153.5q0 -56 20 -98t63.5 -73.5t91.5 -52.5t124 -46q96 -33 160 -65t115.5 -77.5t75.5 -106.5t24 -142
q0 -197 -121.5 -318.5t-308.5 -121.5q-198 0 -321 121.5t-123 322.5q0 20 20 20h131q21 0 21 -20q0 -123 71.5 -202t200.5 -79q127 0 192.5 69.5t65.5 193.5q0 99 -67.5 156.5t-213.5 101.5q-193 58 -293 155t-100 250zM369 1561l116 258q9 20 31 20h205q14 0 14 -10
q0 -2 -4 -10l-184 -260q-14 -19 -37 -19h-129q-14 0 -14 12q0 7 2 9z" />
    <glyph glyph-name="sacute" unicode="&#x15b;" 
d="M905 301q0 -143 -100 -232t-264 -89q-174 0 -282.5 96.5t-108.5 236.5q0 21 20 21h131q18 0 21 -21q12 -90 69.5 -136t155.5 -46q94 0 142 40.5t48 109.5q0 77 -52 114.5t-200 61.5q-155 27 -234 98t-79 201q0 134 95 213.5t249 79.5q163 0 251.5 -79t106.5 -216
q0 -21 -20 -21h-115q-3 0 -5.5 0.5t-4.5 1.5t-3.5 3.5t-2 4t-2 5.5t-2.5 6q-37 143 -201 143q-88 0 -137 -35t-49 -102q0 -70 55.5 -108t196.5 -64q65 -13 109.5 -26t87.5 -35t68.5 -51t40.5 -73t15 -102zM395 1155l117 258q9 21 31 21h205q14 0 14 -11q0 -2 -4 -10
l-185 -260q-13 -18 -36 -18h-129q-15 0 -15 12q0 6 2 8z" />
    <glyph glyph-name="Scircumflex" unicode="&#x15c;" 
d="M94 1069q0 181 113.5 283t281.5 102q197 0 305.5 -113t108.5 -286q0 -21 -20 -21h-131q-21 0 -21 21q0 99 -64 167t-178 68q-106 0 -164.5 -55.5t-58.5 -153.5q0 -56 20 -98t63.5 -73.5t91.5 -52.5t124 -46q96 -33 160 -65t115.5 -77.5t75.5 -106.5t24 -142
q0 -197 -121.5 -318.5t-308.5 -121.5q-198 0 -321 121.5t-123 322.5q0 20 20 20h131q21 0 21 -20q0 -123 71.5 -202t200.5 -79q127 0 192.5 69.5t65.5 193.5q0 99 -67.5 156.5t-213.5 101.5q-193 58 -293 155t-100 250zM584 1823l190 -262q4 -8 4 -11q0 -10 -14 -10h-127
q-21 0 -37 19l-104 120l-105 -120q-14 -19 -37 -19h-127q-14 0 -14 10q0 3 4 11l191 262q16 16 30 16h115q15 0 31 -16z" />
    <glyph glyph-name="scircumflex" unicode="&#x15d;" 
d="M905 301q0 -143 -100 -232t-264 -89q-174 0 -282.5 96.5t-108.5 236.5q0 21 20 21h131q18 0 21 -21q12 -90 69.5 -136t155.5 -46q94 0 142 40.5t48 109.5q0 77 -52 114.5t-200 61.5q-155 27 -234 98t-79 201q0 134 95 213.5t249 79.5q163 0 251.5 -79t106.5 -216
q0 -21 -20 -21h-115q-3 0 -5.5 0.5t-4.5 1.5t-3.5 3.5t-2 4t-2 5.5t-2.5 6q-37 143 -201 143q-88 0 -137 -35t-49 -102q0 -70 55.5 -108t196.5 -64q65 -13 109.5 -26t87.5 -35t68.5 -51t40.5 -73t15 -102zM606 1417l191 -262q4 -8 4 -10q0 -10 -15 -10h-127q-21 0 -36 18
l-105 121l-104 -121q-13 -18 -37 -18h-127q-14 0 -14 10q0 2 4 10l190 262q17 17 31 17h114q14 0 31 -17z" />
    <glyph glyph-name="Scedilla" unicode="&#x15e;" 
d="M373 -211l-25 25q-4 4 -4 12t2 12l55 152q-155 31 -245 146.5t-90 287.5q0 20 20 20h131q21 0 21 -20q0 -123 71.5 -202t200.5 -79q127 0 192.5 69.5t65.5 193.5q0 99 -67.5 156.5t-213.5 101.5q-193 58 -293 155t-100 250q0 181 113.5 283t281.5 102q197 0 305.5 -113
t108.5 -286q0 -21 -20 -21h-131q-21 0 -21 21q0 99 -64 167t-178 68q-106 0 -164.5 -55.5t-58.5 -153.5q0 -56 20 -98t63.5 -73.5t91.5 -52.5t124 -46q96 -33 160 -65t115.5 -77.5t75.5 -106.5t24 -142q0 -194 -120 -314.5t-304 -125.5l-51 -105q54 14 113 14
q73 0 116 -39.5t43 -105.5q0 -82 -47 -126t-155 -44q-102 0 -175 20q-17 7 -19 13q-1 3 -1 8v59q0 21 20 21q12 0 62 -11.5t106 -11.5q74 0 74 64q0 63 -74 63q-57 0 -125 -14q-6 -2 -14 -2q-10 0 -16 6z" />
    <glyph glyph-name="scedilla" unicode="&#x15f;" 
d="M410 -211l-25 25q-4 4 -4 12t2 12l55 152q-132 26 -210 115t-78 208q0 21 20 21h131q18 0 21 -21q12 -90 69.5 -136t155.5 -46q94 0 142 40.5t48 109.5q0 77 -52 114.5t-200 61.5q-155 27 -234 98t-79 201q0 134 95 213.5t249 79.5q163 0 251.5 -79t106.5 -216
q0 -21 -20 -21h-115q-3 0 -5.5 0.5t-4.5 1.5t-3.5 3.5t-2 4t-2 5.5t-2.5 6q-37 143 -201 143q-88 0 -137 -35t-49 -102q0 -70 55.5 -108t196.5 -64q65 -13 109.5 -26t87.5 -35t68.5 -51t40.5 -73t15 -102q0 -140 -97 -228.5t-255 -92.5l-51 -105q54 14 112 14
q73 0 116.5 -39.5t43.5 -105.5q0 -82 -47.5 -126t-155.5 -44q-101 0 -174 20q-17 7 -19 13q-1 3 -1 8v59q0 21 20 21q12 0 62 -11.5t106 -11.5q74 0 74 64q0 63 -74 63q-57 0 -125 -14q-6 -2 -14 -2q-10 0 -16 6z" />
    <glyph glyph-name="Scaron" unicode="&#x160;" 
d="M94 1069q0 181 113.5 283t281.5 102q197 0 305.5 -113t108.5 -286q0 -21 -20 -21h-131q-21 0 -21 21q0 99 -64 167t-178 68q-106 0 -164.5 -55.5t-58.5 -153.5q0 -56 20 -98t63.5 -73.5t91.5 -52.5t124 -46q96 -33 160 -65t115.5 -77.5t75.5 -106.5t24 -142
q0 -197 -121.5 -318.5t-308.5 -121.5q-198 0 -321 121.5t-123 322.5q0 20 20 20h131q21 0 21 -20q0 -123 71.5 -202t200.5 -79q127 0 192.5 69.5t65.5 193.5q0 99 -67.5 156.5t-213.5 101.5q-193 58 -293 155t-100 250zM772 1819l-190 -263q-16 -16 -31 -16h-115
q-14 0 -30 16l-191 263q-4 8 -4 10q0 10 14 10h127q24 0 37 -18l105 -121l104 121q15 18 37 18h127q14 0 14 -10q0 -2 -4 -10z" />
    <glyph glyph-name="scaron" unicode="&#x161;" 
d="M905 301q0 -143 -100 -232t-264 -89q-174 0 -282.5 96.5t-108.5 236.5q0 21 20 21h131q18 0 21 -21q12 -90 69.5 -136t155.5 -46q94 0 142 40.5t48 109.5q0 77 -52 114.5t-200 61.5q-155 27 -234 98t-79 201q0 134 95 213.5t249 79.5q163 0 251.5 -79t106.5 -216
q0 -21 -20 -21h-115q-3 0 -5.5 0.5t-4.5 1.5t-3.5 3.5t-2 4t-2 5.5t-2.5 6q-37 143 -201 143q-88 0 -137 -35t-49 -102q0 -70 55.5 -108t196.5 -64q65 -13 109.5 -26t87.5 -35t68.5 -51t40.5 -73t15 -102zM797 1413l-191 -262q-16 -16 -31 -16h-114q-15 0 -31 16l-190 262
q-4 8 -4 10q0 11 14 11h127q23 0 37 -19l104 -121l105 121q16 19 36 19h127q15 0 15 -11q0 -2 -4 -10z" />
    <glyph glyph-name="uni0162" unicode="&#x162;" 
d="M59 1290v123q0 21 21 21h864q21 0 21 -21v-123q0 -20 -21 -20h-346v-1250q0 -20 -20 -20h-5l-61 -125q54 14 113 14q73 0 116 -39.5t43 -105.5q0 -82 -47 -126t-155 -44q-101 0 -174 20q-18 8 -20 13q-1 3 -1 8v59q0 21 21 21q12 0 61.5 -11.5t105.5 -11.5q74 0 74 64
q0 63 -74 63q-56 0 -124 -14q-6 -2 -15 -2q-10 0 -16 6l-25 25q-4 4 -4 12t2 12l60 162h-7q-20 0 -20 20v1250h-346q-21 0 -21 20z" />
    <glyph glyph-name="uni0163" unicode="&#x163;" 
d="M449 -211l-25 25q-4 4 -4 12t2 12l59 162q-192 73 -192 354v523h-207q-21 0 -21 20v111q0 20 21 20h207v332q0 20 20 20h119q21 0 21 -20v-332h350q20 0 20 -20v-111q0 -20 -20 -20h-350v-521q0 -225 157 -225q81 0 120 48t50 157q2 18 23 18h119q11 0 14.5 -2.5
t3.5 -15.5q0 -70 -21 -133t-60.5 -113t-104 -80t-144.5 -30h-14l-51 -105q54 14 112 14q73 0 116.5 -39.5t43.5 -105.5q0 -82 -47.5 -126t-155.5 -44q-101 0 -174 20q-17 7 -19 13q-1 3 -1 8v59q0 21 20 21q12 0 62 -11.5t106 -11.5q74 0 74 64q0 63 -74 63q-57 0 -125 -14
q-6 -2 -14 -2q-10 0 -16 6z" />
    <glyph glyph-name="Tcaron" unicode="&#x164;" 
d="M59 1290v123q0 21 21 21h864q21 0 21 -21v-123q0 -20 -21 -20h-346v-1250q0 -20 -20 -20h-132q-20 0 -20 20v1250h-346q-21 0 -21 20zM791 1819l-191 -263q-16 -16 -31 -16h-114q-15 0 -31 16l-191 263q-4 8 -4 10q0 10 15 10h127q24 0 37 -18l104 -121l104 121
q15 18 37 18h127q15 0 15 -10q0 -2 -4 -10z" />
    <glyph glyph-name="tcaron" unicode="&#x165;" 
d="M82 1028h207v332q0 20 20 20h119q21 0 21 -20v-332h350q20 0 20 -20v-111q0 -20 -20 -20h-350v-521q0 -225 157 -225q81 0 120 48t50 157q2 18 23 18h119q11 0 14.5 -2.5t3.5 -15.5q0 -70 -21 -133t-60.5 -113t-104 -80t-144.5 -30q-151 0 -234 95t-83 279v523h-207
q-21 0 -21 20v111q0 20 21 20zM770 1204q58 0 76 22.5t18 86.5v39h-94q-20 0 -20 20v209q0 21 20 21h209q20 0 20 -21v-301q0 -90 -41.5 -140t-115.5 -50h-72q-20 0 -20 20v74q0 20 20 20z" />
    <glyph glyph-name="Tbar" unicode="&#x166;" 
d="M59 1290v123q0 21 21 21h864q21 0 21 -21v-123q0 -20 -21 -20h-346v-279h252q20 0 20 -20v-111q0 -20 -20 -20h-252v-820q0 -20 -20 -20h-132q-20 0 -20 20v820h-252q-20 0 -20 20v111q0 20 20 20h252v279h-346q-21 0 -21 20z" />
    <glyph glyph-name="tbar" unicode="&#x167;" 
d="M82 1028h207v332q0 20 20 20h119q21 0 21 -20v-332h350q20 0 20 -20v-111q0 -20 -20 -20h-350v-218h282q21 0 21 -20v-107q0 -20 -21 -20h-282v-156q0 -225 157 -225q81 0 120 48t50 157q2 18 23 18h119q11 0 14.5 -2.5t3.5 -15.5q0 -70 -21 -133t-60.5 -113t-104 -80
t-144.5 -30q-151 0 -234 95t-83 279v158h-164q-21 0 -21 20v107q0 20 21 20h164v218h-207q-21 0 -21 20v111q0 20 21 20z" />
    <glyph glyph-name="Utilde" unicode="&#x168;" 
d="M82 459v954q0 21 20 21h131q21 0 21 -21v-932q0 -173 62 -255.5t196 -82.5t196 82.5t62 255.5v932q0 21 21 21h131q20 0 20 -21v-954q0 -120 -33.5 -213t-92.5 -150t-136 -86.5t-168 -29.5t-168 29.5t-136 86.5t-92.5 150t-33.5 213zM211 1765q99 74 184 74q44 0 78 -13
t51 -29t43 -29t56 -13q29 0 53 11t61 40q12 4 15 4q10 0 20 -16l57 -86q2 -2 2 -8q0 -15 -18 -27q-99 -74 -184 -74q-43 0 -77 13t-51.5 29t-43.5 29t-56 13q-29 0 -53 -11t-61 -40q-12 -4 -15 -4q-10 0 -20 17l-57 86q-2 2 -2 8q0 14 18 26z" />
    <glyph glyph-name="utilde" unicode="&#x169;" 
d="M870 1008v-988q0 -20 -20 -20h-119q-20 0 -20 20v95q-116 -135 -269 -135q-147 0 -225 77t-78 224v727q0 20 21 20h119q20 0 20 -20v-705q0 -172 182 -172q102 0 166 94t64 262v521q0 20 20 20h119q20 0 20 -20zM211 1360q99 74 184 74q44 0 78 -13t51 -29t43 -29t56 -13
q29 0 53 11t61 40q12 4 15 4q10 0 20 -16l57 -86q2 -2 2 -9q0 -14 -18 -26q-99 -74 -184 -74q-43 0 -77 13t-51.5 29t-43.5 29t-56 13q-29 0 -53 -11t-61 -40q-12 -4 -15 -4q-10 0 -20 16l-57 86q-2 2 -2 8q0 15 18 27z" />
    <glyph glyph-name="Umacron" unicode="&#x16a;" 
d="M82 459v954q0 21 20 21h131q21 0 21 -21v-932q0 -173 62 -255.5t196 -82.5t196 82.5t62 255.5v932q0 21 21 21h131q20 0 20 -21v-954q0 -120 -33.5 -213t-92.5 -150t-136 -86.5t-168 -29.5t-168 29.5t-136 86.5t-92.5 150t-33.5 213zM301 1647v102q0 20 21 20h380
q21 0 21 -20v-102q0 -21 -21 -21h-380q-21 0 -21 21z" />
    <glyph glyph-name="umacron" unicode="&#x16b;" 
d="M870 1008v-988q0 -20 -20 -20h-119q-20 0 -20 20v95q-116 -135 -269 -135q-147 0 -225 77t-78 224v727q0 20 21 20h119q20 0 20 -20v-705q0 -172 182 -172q102 0 166 94t64 262v521q0 20 20 20h119q20 0 20 -20zM301 1241v102q0 21 21 21h380q21 0 21 -21v-102
q0 -20 -21 -20h-380q-21 0 -21 20z" />
    <glyph glyph-name="Ubreve" unicode="&#x16c;" 
d="M82 459v954q0 21 20 21h131q21 0 21 -21v-932q0 -173 62 -255.5t196 -82.5t196 82.5t62 255.5v932q0 21 21 21h131q20 0 20 -21v-954q0 -120 -33.5 -213t-92.5 -150t-136 -86.5t-168 -29.5t-168 29.5t-136 86.5t-92.5 150t-33.5 213zM276 1808h99q20 0 20 -20
q0 -48 30.5 -77.5t86.5 -29.5t86.5 29.5t30.5 77.5q0 20 20 20h99q20 0 20 -20q0 -110 -70 -176t-186 -66t-186 66t-70 176q0 20 20 20z" />
    <glyph glyph-name="ubreve" unicode="&#x16d;" 
d="M870 1008v-988q0 -20 -20 -20h-119q-20 0 -20 20v95q-116 -135 -269 -135q-147 0 -225 77t-78 224v727q0 20 21 20h119q20 0 20 -20v-705q0 -172 182 -172q102 0 166 94t64 262v521q0 20 20 20h119q20 0 20 -20zM276 1403h99q20 0 20 -21q0 -48 30.5 -77t86.5 -29
t86.5 29t30.5 77q0 21 20 21h99q20 0 20 -21q0 -110 -70 -175.5t-186 -65.5t-186 65.5t-70 175.5q0 21 20 21z" />
    <glyph glyph-name="Uring" unicode="&#x16e;" 
d="M82 459v954q0 21 20 21h131q21 0 21 -21v-932q0 -173 62 -255.5t196 -82.5t196 82.5t62 255.5v932q0 21 21 21h131q20 0 20 -21v-954q0 -120 -33.5 -213t-92.5 -150t-136 -86.5t-168 -29.5t-168 29.5t-136 86.5t-92.5 150t-33.5 213zM334 1708q0 75 50 123.5t128 48.5
t128 -48.5t50 -123.5t-50 -123.5t-128 -48.5t-128 48.5t-50 123.5zM432 1708q0 -38 22 -60t58 -22t58 22t22 60t-22 60t-58 22t-58 -22t-22 -60z" />
    <glyph glyph-name="uring" unicode="&#x16f;" 
d="M870 1008v-988q0 -20 -20 -20h-119q-20 0 -20 20v95q-116 -135 -269 -135q-147 0 -225 77t-78 224v727q0 20 21 20h119q20 0 20 -20v-705q0 -172 182 -172q102 0 166 94t64 262v521q0 20 20 20h119q20 0 20 -20zM334 1303q0 75 50 123.5t128 48.5t128 -48.5t50 -123.5
t-50 -124t-128 -49t-128 49t-50 124zM432 1303q0 -38 22 -60t58 -22t58 22t22 60t-22 59.5t-58 21.5t-58 -21.5t-22 -59.5z" />
    <glyph glyph-name="Uhungarumlaut" unicode="&#x170;" 
d="M82 459v954q0 21 20 21h131q21 0 21 -21v-932q0 -173 62 -255.5t196 -82.5t196 82.5t62 255.5v932q0 21 21 21h131q20 0 20 -21v-954q0 -120 -33.5 -213t-92.5 -150t-136 -86.5t-168 -29.5t-168 29.5t-136 86.5t-92.5 150t-33.5 213zM199 1561l116 258q9 20 31 20h205
q14 0 14 -10q0 -2 -4 -10l-184 -260q-14 -19 -37 -19h-129q-14 0 -14 12q0 7 2 9zM563 1561l117 258q9 20 31 20h204q15 0 15 -10q0 -2 -4 -10l-185 -260q-14 -19 -36 -19h-130q-14 0 -14 12q0 7 2 9z" />
    <glyph glyph-name="uhungarumlaut" unicode="&#x171;" 
d="M870 1008v-988q0 -20 -20 -20h-119q-20 0 -20 20v95q-116 -135 -269 -135q-147 0 -225 77t-78 224v727q0 20 21 20h119q20 0 20 -20v-705q0 -172 182 -172q102 0 166 94t64 262v521q0 20 20 20h119q20 0 20 -20zM190 1155l117 258q9 21 31 21h205q14 0 14 -11
q0 -2 -4 -10l-184 -260q-13 -18 -37 -18h-129q-15 0 -15 12q0 6 2 8zM555 1155l117 258q9 21 30 21h205q15 0 15 -11q0 -2 -4 -10l-185 -260q-13 -18 -37 -18h-129q-14 0 -14 12q0 6 2 8z" />
    <glyph glyph-name="Uogonek" unicode="&#x172;" 
d="M82 459v954q0 21 20 21h131q21 0 21 -21v-932q0 -173 62 -255.5t196 -82.5t196 82.5t62 255.5v932q0 21 21 21h131q20 0 20 -21v-954q0 -188 -78.5 -304t-210.5 -155q-61 -19 -95 -56.5t-34 -86.5q0 -48 34.5 -76.5t94.5 -28.5h21q20 0 20 -20v-70q0 -20 -20 -20h-62
q-100 0 -168.5 47.5t-68.5 138.5q0 96 71 160q-163 18 -263.5 139t-100.5 332z" />
    <glyph glyph-name="uogonek" unicode="&#x173;" 
d="M870 1008v-988q0 -17 -14 -20q-62 -19 -95.5 -55.5t-33.5 -87.5q0 -48 34.5 -76.5t94.5 -28.5h21q20 0 20 -20v-70q0 -20 -20 -20h-62q-100 0 -168.5 47.5t-68.5 138.5q0 71 37 120.5t96 74.5v92q-116 -135 -269 -135q-147 0 -225 77t-78 224v727q0 20 21 20h119
q20 0 20 -20v-705q0 -172 182 -172q102 0 166 94t64 262v521q0 20 20 20h119q20 0 20 -20z" />
    <glyph glyph-name="Wcircumflex" unicode="&#x174;" 
d="M143 20l-116 1393q0 21 16 21h131q25 0 25 -21l80 -1165l141 780q3 21 24 21h136q21 0 24 -21l141 -780l80 1165q0 21 25 21h131q16 0 16 -21l-116 -1393q-3 -20 -23 -20h-190q-17 0 -23 20l-133 730l-133 -730q-6 -20 -23 -20h-190q-20 0 -23 20zM600 1823l191 -262
q4 -8 4 -11q0 -10 -15 -10h-127q-21 0 -37 19l-104 120l-104 -120q-14 -19 -37 -19h-127q-15 0 -15 10q0 3 4 11l191 262q16 16 31 16h114q15 0 31 -16z" />
    <glyph glyph-name="wcircumflex" unicode="&#x175;" 
d="M993 997l-157 -977q-6 -20 -27 -20h-143q-21 0 -27 20l-127 621l-127 -621q-6 -20 -27 -20h-143q-24 0 -27 20l-157 977q-2 6 -2 17q0 14 16 14h135q11 0 16.5 -3t7 -5t5.5 -12l86 -727l117 563q1 2 2.5 5.5t2 4.5t1.5 3.5t2.5 3t3.5 1.5t4.5 1.5t5.5 0.5h156q4 0 7 -0.5
t4.5 -1t3.5 -3.5t2.5 -3.5t2 -5.5t2.5 -6l117 -563l86 727q1 1 2 4t1.5 4t1.5 3.5t2 3t2.5 2t3 1.5t4 1t5.5 1h7h135q16 0 16 -14q0 -11 -2 -17zM600 1417l191 -262q4 -8 4 -10q0 -10 -15 -10h-127q-22 0 -37 18l-104 121l-104 -121q-13 -18 -37 -18h-127q-15 0 -15 10
q0 2 4 10l191 262q17 17 31 17h114q14 0 31 -17z" />
    <glyph glyph-name="Ycircumflex" unicode="&#x176;" 
d="M961 1413l-363 -751v-642q0 -20 -20 -20h-132q-20 0 -20 20v642l-363 751q-2 4 -2 10q0 11 13 11h162q15 0 22 -17l254 -565l254 565q7 17 22 17h162q13 0 13 -11q0 -6 -2 -10zM600 1823l191 -262q4 -8 4 -11q0 -10 -15 -10h-127q-21 0 -37 19l-104 120l-104 -120
q-14 -19 -37 -19h-127q-15 0 -15 10q0 3 4 11l191 262q16 16 31 16h114q15 0 31 -16z" />
    <glyph glyph-name="ycircumflex" unicode="&#x177;" 
d="M111 -360v110q0 21 16 21q9 0 30.5 -11t54.5 -22.5t69 -11.5q68 0 106.5 56t83.5 214l4 14l-358 985q-4 16 -4 17q0 16 16 16h147q21 0 27 -20l254 -758l213 758q5 11 10.5 15.5t18.5 4.5h141q16 0 16 -14q0 -1 -0.5 -3t-1.5 -5.5t-2 -6.5l-358 -1140
q-47 -153 -116.5 -219t-184.5 -66q-95 0 -162 33q-20 11 -20 33zM633 1417l190 -262q4 -8 4 -10q0 -10 -14 -10h-127q-22 0 -37 18l-104 121l-105 -121q-13 -18 -37 -18h-127q-14 0 -14 10q0 2 4 10l191 262q17 17 30 17h115q14 0 31 -17z" />
    <glyph glyph-name="Ydieresis" unicode="&#x178;" 
d="M961 1413l-363 -751v-642q0 -20 -20 -20h-132q-20 0 -20 20v642l-363 751q-2 4 -2 10q0 11 13 11h162q15 0 22 -17l254 -565l254 565q7 17 22 17h162q13 0 13 -11q0 -6 -2 -10zM240 1647v172q0 20 20 20h172q21 0 21 -20v-172q0 -21 -21 -21h-172q-20 0 -20 21zM571 1647
v172q0 20 21 20h172q20 0 20 -20v-172q0 -21 -20 -21h-172q-21 0 -21 21z" />
    <glyph glyph-name="Zacute" unicode="&#x179;" 
d="M96 1290v123q0 21 21 21h788q21 0 21 -21v-123q0 -16 -13 -35l-643 -1091h670q21 0 21 -21v-123q0 -20 -21 -20h-844q-20 0 -20 20v123q0 17 12 35l645 1092h-616q-21 0 -21 20zM377 1561l117 258q9 20 30 20h205q14 0 14 -10q0 -2 -4 -10l-184 -260q-14 -19 -37 -19
h-129q-14 0 -14 12q0 7 2 9z" />
    <glyph glyph-name="zacute" unicode="&#x17a;" 
d="M188 897v111q0 20 21 20h610q21 0 21 -20v-111q0 -15 -17 -43l-483 -702h522q21 0 21 -21v-111q0 -20 -21 -20h-692q-20 0 -20 20v111q0 15 12 31l493 715h-446q-21 0 -21 20zM385 1155l117 258q9 21 30 21h205q15 0 15 -11q0 -2 -4 -10l-185 -260q-13 -18 -37 -18h-129
q-14 0 -14 12q0 6 2 8z" />
    <glyph glyph-name="Zdotaccent" unicode="&#x17b;" 
d="M96 1290v123q0 21 21 21h788q21 0 21 -21v-123q0 -16 -13 -35l-643 -1091h670q21 0 21 -21v-123q0 -20 -21 -20h-844q-20 0 -20 20v123q0 17 12 35l645 1092h-616q-21 0 -21 20zM414 1642v177q0 20 20 20h176q21 0 21 -20v-177q0 -20 -21 -20h-176q-20 0 -20 20z" />
    <glyph glyph-name="zdotaccent" unicode="&#x17c;" 
d="M188 897v111q0 20 21 20h610q21 0 21 -20v-111q0 -15 -17 -43l-483 -702h522q21 0 21 -21v-111q0 -20 -21 -20h-692q-20 0 -20 20v111q0 15 12 31l493 715h-446q-21 0 -21 20zM412 1237v176q0 21 20 21h176q21 0 21 -21v-176q0 -20 -21 -20h-176q-20 0 -20 20z" />
    <glyph glyph-name="Zcaron" unicode="&#x17d;" 
d="M96 1290v123q0 21 21 21h788q21 0 21 -21v-123q0 -16 -13 -35l-643 -1091h670q21 0 21 -21v-123q0 -20 -21 -20h-844q-20 0 -20 20v123q0 17 12 35l645 1092h-616q-21 0 -21 20zM805 1819l-191 -263q-16 -16 -30 -16h-115q-15 0 -31 16l-190 263q-4 8 -4 10q0 10 14 10
h127q24 0 37 -18l104 -121l105 121q15 18 37 18h127q14 0 14 -10q0 -2 -4 -10z" />
    <glyph glyph-name="zcaron" unicode="&#x17e;" 
d="M188 897v111q0 20 21 20h610q21 0 21 -20v-111q0 -15 -17 -43l-483 -702h522q21 0 21 -21v-111q0 -20 -21 -20h-692q-20 0 -20 20v111q0 15 12 31l493 715h-446q-21 0 -21 20zM795 1413l-191 -262q-16 -16 -31 -16h-114q-15 0 -31 16l-190 262l-5 10q0 11 15 11h127
q23 0 37 -19l104 -121l105 121q16 19 36 19h127q15 0 15 -11q0 -2 -4 -10z" />
    <glyph glyph-name="longs" unicode="&#x17f;" 
d="M518 1092v-1072q0 -20 -20 -20h-119q-21 0 -21 20v857h-215q-20 0 -20 20v111q0 20 20 20h215v64q0 160 84.5 261t241.5 101q67 0 113 -11t92 -40q16 -11 16 -35v-108q0 -19 -16 -19q-5 0 -17 4q-89 58 -176 58t-132.5 -53.5t-45.5 -157.5z" />
    <glyph glyph-name="uni018E" unicode="&#x18e;" 
d="M709 762v508h-578q-20 0 -20 20v123q0 21 20 21h729q21 0 21 -21v-1393q0 -20 -21 -20h-715q-20 0 -20 20v123q0 21 20 21h564v434h-500q-21 0 -21 20v123q0 21 21 21h500z" />
    <glyph glyph-name="uni018F" unicode="&#x18f;" 
d="M100 563h654q-5 151 -71 242.5t-189 91.5q-91 0 -139.5 -46t-82.5 -142q-7 -19 -28 -19h-133q-15 0 -15 15q0 11 4 20q27 75 58.5 130t77.5 101t110.5 69.5t147.5 23.5q136 0 235 -71.5t148 -191.5t49 -272q0 -229 -120 -381.5t-312 -152.5q-106 0 -187.5 42.5
t-130 117.5t-72.5 169t-24 205v29q0 20 20 20zM494 131q207 0 251 281h-493q17 -137 78.5 -209t163.5 -72z" />
    <glyph glyph-name="florin" unicode="&#x192;" 
d="M319 -27l121 904h-247q-19 0 -19 20v111q0 20 23 20h264l8 70q20 168 117.5 262t257.5 94q84 0 153 -20q17 -3 17 -35v-105q0 -20 -17 -20q-1 0 -2.5 0.5t-5 1.5t-6.5 2q-60 25 -135 25q-91 0 -149.5 -52.5t-71.5 -167.5l-6 -55h370q21 0 21 -20v-111q0 -20 -21 -20h-391
l-131 -971q-23 -173 -96 -252.5t-209 -79.5q-116 0 -178 29q-11 5 -14 11.5t-3 23.5v106q0 20 15 20q4 0 16 -4q69 -34 137 -34q89 0 128.5 55t53.5 192z" />
    <glyph glyph-name="uni01B5" unicode="&#x1b5;" 
d="M96 1290v123q0 21 21 21h788q21 0 21 -21v-123q0 -16 -13 -35l-272 -462h233q21 0 21 -21v-110q0 -21 -21 -21h-323l-281 -477h670q21 0 21 -21v-123q0 -20 -21 -20h-844q-20 0 -20 20v123q0 17 12 35l272 463h-200q-21 0 -21 21v110q0 21 21 21h291l282 477h-616
q-21 0 -21 20z" />
    <glyph glyph-name="uni01B6" unicode="&#x1b6;" 
d="M188 897v111q0 20 21 20h610q21 0 21 -20v-111q0 -15 -17 -43l-186 -266h154q20 0 20 -21v-106q0 -21 -20 -21h-254l-197 -288h522q21 0 21 -21v-111q0 -20 -21 -20h-692q-20 0 -20 20v111q0 15 12 31l194 278h-129q-20 0 -20 21v106q0 21 20 21h230l198 289h-446
q-21 0 -21 20z" />
    <glyph glyph-name="Aringacute" unicode="&#x1fa;" 
d="M334 1516q0 75 50 123.5t128 48.5t128 -48.5t50 -123.5q0 -88 -65 -138l370 -1345q2 -4 2 -13q0 -20 -22 -20h-139q-11 0 -15.5 4t-9.5 16l-94 375h-410l-94 -375q-5 -12 -9.5 -16t-15.5 -4h-139q-22 0 -22 20q0 9 2 13l368 1345q-63 45 -63 138zM512 1212l-164 -653h328
zM432 1516q0 -38 22 -60t58 -22q35 0 57.5 22.5t22.5 59.5q0 38 -22 59.5t-58 21.5t-58 -21.5t-22 -59.5zM410 1765l116 258q9 21 31 21h205q14 0 14 -10q0 -3 -4 -11l-184 -260q-13 -18 -37 -18h-129q-14 0 -14 12q0 6 2 8z" />
    <glyph glyph-name="aringacute" unicode="&#x1fb;" 
d="M309 735h-131q-14 0 -14 13q0 12 2 20q31 122 130.5 201.5t246.5 79.5q178 0 266 -99t88 -270v-483q0 -70 7 -105.5t28 -71.5q2 -2 2 -10q0 -10 -16 -10h-160q-21 0 -21 20v93q-63 -71 -129 -102t-162 -31q-138 0 -230.5 92t-92.5 241q0 108 54.5 186t134 113t169.5 35
q56 0 101.5 -6t72.5 -13t82 -24v76q0 217 -194 217q-159 0 -205 -143q-7 -19 -29 -19zM737 453q-77 24 -125.5 33.5t-109.5 9.5q-93 0 -152 -48.5t-59 -134.5q0 -84 53 -133t139 -49q124 0 189 92t65 230zM367 1303q0 75 50 123.5t128 48.5t128 -48.5t50 -123.5t-50 -124
t-128 -49t-128 49t-50 124zM465 1303q0 -38 22 -60t58 -22t58 22t22 60t-22 59.5t-58 21.5t-58 -21.5t-22 -59.5zM428 1561l117 258q9 20 30 20h205q15 0 15 -10q0 -2 -4 -10l-185 -260q-14 -19 -37 -19h-129q-14 0 -14 12q0 7 2 9z" />
    <glyph glyph-name="AEacute" unicode="&#x1fc;" 
d="M608 672v-508h359q20 0 20 -21v-123q0 -20 -20 -20h-510q-21 0 -21 20v375h-200l-70 -375q-5 -12 -9.5 -16t-15.5 -4h-131q-22 0 -22 20q0 9 2 13l286 1380q8 18 13 20q3 1 8 1h655q21 0 21 -21v-123q0 -20 -21 -20h-344v-434h303q21 0 21 -21v-123q0 -20 -21 -20h-303z
M401 1270l-135 -711h170v711h-35zM487 1561l117 258q9 20 31 20h205q14 0 14 -10q0 -2 -4 -10l-184 -260q-14 -19 -37 -19h-129q-15 0 -15 12q0 7 2 9z" />
    <glyph glyph-name="aeacute" unicode="&#x1fd;" 
d="M496 1049h24q122 0 214 -42.5t146 -118t80.5 -169.5t26.5 -205v-29q0 -20 -20 -20h-381v-334q142 0 202 188q7 19 29 19h133q15 0 15 -14q0 -12 -4 -21q-103 -323 -426 -323h-78q-193 0 -298.5 85t-105.5 234q0 99 52.5 173t133 109t175.5 35h12v277q-71 -7 -112 -45
t-68 -107q-7 -18 -29 -18h-125q-14 0 -14 12q0 13 2 21q15 54 47.5 104t82 93.5t124 69.5t162.5 26zM221 299q0 -79 47 -123.5t138 -44.5h20v334q-205 0 -205 -166zM586 616h221q-5 115 -61.5 196t-159.5 81v-277zM367 1155l116 258q9 21 31 21h205q14 0 14 -11q0 -2 -4 -10
l-184 -260q-13 -18 -37 -18h-129q-14 0 -14 12q0 6 2 8z" />
    <glyph glyph-name="Scommaaccent" unicode="&#x218;" 
d="M94 1069q0 181 113.5 283t281.5 102q197 0 305.5 -113t108.5 -286q0 -21 -20 -21h-131q-21 0 -21 21q0 99 -64 167t-178 68q-106 0 -164.5 -55.5t-58.5 -153.5q0 -56 20 -98t63.5 -73.5t91.5 -52.5t124 -46q96 -33 160 -65t115.5 -77.5t75.5 -106.5t24 -142
q0 -197 -121.5 -318.5t-308.5 -121.5q-198 0 -321 121.5t-123 322.5q0 20 20 20h131q21 0 21 -20q0 -123 71.5 -202t200.5 -79q127 0 192.5 69.5t65.5 193.5q0 99 -67.5 156.5t-213.5 101.5q-193 58 -293 155t-100 250zM408 -446q58 0 76 19.5t18 76.5v14h-94q-21 0 -21 21
v209q0 20 21 20h208q21 0 21 -20v-289q0 -83 -41.5 -124.5t-116.5 -41.5h-71q-21 0 -21 20v74q0 21 21 21z" />
    <glyph glyph-name="scommaaccent" unicode="&#x219;" 
d="M905 301q0 -143 -100 -232t-264 -89q-174 0 -282.5 96.5t-108.5 236.5q0 21 20 21h131q18 0 21 -21q12 -90 69.5 -136t155.5 -46q94 0 142 40.5t48 109.5q0 77 -52 114.5t-200 61.5q-155 27 -234 98t-79 201q0 134 95 213.5t249 79.5q163 0 251.5 -79t106.5 -216
q0 -21 -20 -21h-115q-3 0 -5.5 0.5t-4.5 1.5t-3.5 3.5t-2 4t-2 5.5t-2.5 6q-37 143 -201 143q-88 0 -137 -35t-49 -102q0 -70 55.5 -108t196.5 -64q65 -13 109.5 -26t87.5 -35t68.5 -51t40.5 -73t15 -102zM408 -446q58 0 76 19.5t18 76.5v14h-94q-21 0 -21 21v209
q0 20 21 20h208q21 0 21 -20v-289q0 -83 -41.5 -124.5t-116.5 -41.5h-71q-21 0 -21 20v74q0 21 21 21z" />
    <glyph glyph-name="uni021A" unicode="&#x21a;" 
d="M59 1290v123q0 21 21 21h864q21 0 21 -21v-123q0 -20 -21 -20h-346v-1250q0 -20 -20 -20h-132q-20 0 -20 20v1250h-346q-21 0 -21 20zM408 -446q58 0 76 19.5t18 76.5v14h-94q-21 0 -21 21v209q0 20 21 20h208q21 0 21 -20v-289q0 -83 -41.5 -124.5t-116.5 -41.5h-71
q-21 0 -21 20v74q0 21 21 21z" />
    <glyph glyph-name="uni021B" unicode="&#x21b;" 
d="M82 1028h207v332q0 20 20 20h119q21 0 21 -20v-332h350q20 0 20 -20v-111q0 -20 -20 -20h-350v-521q0 -225 157 -225q81 0 120 48t50 157q2 18 23 18h119q11 0 14.5 -2.5t3.5 -15.5q0 -70 -21 -133t-60.5 -113t-104 -80t-144.5 -30q-151 0 -234 95t-83 279v523h-207
q-21 0 -21 20v111q0 20 21 20zM502 -446q58 0 76 19.5t18 76.5v14h-94q-21 0 -21 21v209q0 20 21 20h209q20 0 20 -20v-289q0 -83 -41.5 -124.5t-116.5 -41.5h-71q-21 0 -21 20v74q0 21 21 21z" />
    <glyph glyph-name="circumflex" unicode="&#x2c6;" 
d="M600 1417l191 -262q4 -8 4 -10q0 -10 -15 -10h-127q-22 0 -37 18l-104 121l-104 -121q-13 -18 -37 -18h-127q-15 0 -15 10q0 2 4 10l191 262q17 17 31 17h114q14 0 31 -17z" />
    <glyph glyph-name="caron" unicode="&#x2c7;" 
d="M791 1413l-191 -262q-16 -16 -31 -16h-114q-15 0 -31 16l-191 262q-4 8 -4 10q0 11 15 11h127q23 0 37 -19l104 -121l104 121q16 19 37 19h127q15 0 15 -11q0 -2 -4 -10z" />
    <glyph glyph-name="breve" unicode="&#x2d8;" 
d="M276 1403h99q20 0 20 -21q0 -48 30.5 -77t86.5 -29t86.5 29t30.5 77q0 21 20 21h99q20 0 20 -21q0 -110 -70 -175.5t-186 -65.5t-186 65.5t-70 175.5q0 21 20 21z" />
    <glyph glyph-name="dotaccent" unicode="&#x2d9;" 
d="M403 1237v176q0 21 21 21h176q21 0 21 -21v-176q0 -20 -21 -20h-176q-21 0 -21 20z" />
    <glyph glyph-name="ring" unicode="&#x2da;" 
d="M334 1303q0 75 50 123.5t128 48.5t128 -48.5t50 -123.5t-50 -124t-128 -49t-128 49t-50 124zM432 1303q0 -38 22 -60t58 -22t58 22t22 60t-22 59.5t-58 21.5t-58 -21.5t-22 -59.5z" />
    <glyph glyph-name="ogonek" unicode="&#x2db;" 
d="M543 31l88 -17l2 -2q4 -4 4 -6q0 -4 -4 -4l-2 -2q-129 -44 -129 -143q0 -48 34.5 -76.5t94.5 -28.5h20q21 0 21 -20v-70q0 -20 -21 -20h-61q-100 0 -169 47.5t-69 138.5q0 74 42 124.5t106 76.5q4 1 9 2l7.5 1.5t3.5 0.5q9 0 23 -2z" />
    <glyph glyph-name="tilde" unicode="&#x2dc;" 
d="M211 1360q99 74 184 74q44 0 78 -13t51 -29t43 -29t56 -13q29 0 53 11t61 40q12 4 15 4q10 0 20 -16l57 -86q2 -2 2 -9q0 -14 -18 -26q-99 -74 -184 -74q-43 0 -77 13t-51.5 29t-43.5 29t-56 13q-29 0 -53 -11t-61 -40q-12 -4 -15 -4q-10 0 -20 16l-57 86q-2 2 -2 8
q0 15 18 27z" />
    <glyph glyph-name="hungarumlaut" unicode="&#x2dd;" 
d="M147 1155l117 258q9 21 31 21h205q14 0 14 -11q0 -2 -4 -10l-184 -260q-13 -18 -37 -18h-129q-15 0 -15 12q0 6 2 8zM512 1155l117 258q9 21 30 21h205q15 0 15 -11l-5 -10l-184 -260q-13 -18 -37 -18h-129q-14 0 -14 12q0 6 2 8z" />
    <glyph glyph-name="uni03A9" unicode="&#x3a9;" 
d="M512 1290q-140 0 -220.5 -92t-80.5 -278q0 -204 49.5 -377.5t179.5 -368.5q17 -27 17 -41v-113q0 -20 -21 -20h-348q-20 0 -20 20v123q0 21 20 21h193q-242 380 -242 756q0 253 125.5 393.5t347.5 140.5t347.5 -140.5t125.5 -393.5q0 -376 -242 -756h193q20 0 20 -21
v-123q0 -20 -20 -20h-348q-21 0 -21 20v113q0 17 17 41q130 195 179.5 368.5t49.5 377.5q0 186 -80.5 278t-220.5 92z" />
    <glyph glyph-name="pi" unicode="&#x3c0;" 
d="M930 881h-160v-617q0 -62 22.5 -87t81.5 -25h11q20 0 20 -21v-111q0 -20 -20 -20h-66q-209 0 -209 203v678h-202v-861q0 -20 -21 -20h-119q-20 0 -20 20v861h-170q-21 0 -21 20v107q0 20 21 20h852q20 0 20 -20v-107q0 -20 -20 -20z" />
    <glyph glyph-name="endash" unicode="&#x2013;" 
d="M152 780h720q21 0 21 -20v-119q0 -20 -21 -20h-720q-21 0 -21 20v119q0 20 21 20z" />
    <glyph glyph-name="emdash" unicode="&#x2014;" 
d="M106 780h844q21 0 21 -20v-119q0 -20 -21 -20h-844q-20 0 -20 20v119q0 20 20 20z" />
    <glyph glyph-name="quoteleft" unicode="&#x2018;" 
d="M616 1319q-58 0 -76 -22.5t-18 -86.5v-39h94q21 0 21 -20v-209q0 -20 -21 -20h-208q-21 0 -21 20v301q0 90 42 140.5t116 50.5h71q21 0 21 -21v-74q0 -20 -21 -20z" />
    <glyph glyph-name="quoteright" unicode="&#x2019;" 
d="M408 1036q58 0 76 22.5t18 86.5v39h-94q-21 0 -21 20v209q0 21 21 21h208q21 0 21 -21v-301q0 -90 -42 -140t-116 -50h-71q-21 0 -21 20v74q0 20 21 20z" />
    <glyph glyph-name="quotesinglbase" unicode="&#x201a;" 
d="M408 -147q58 0 76 22t18 86v39h-94q-21 0 -21 20v209q0 21 21 21h208q21 0 21 -21v-301q0 -90 -42 -140t-116 -50h-71q-21 0 -21 20v74q0 21 21 21z" />
    <glyph glyph-name="quotedblleft" unicode="&#x201c;" 
d="M412 1319q-58 0 -76.5 -22.5t-18.5 -86.5v-39h95q20 0 20 -20v-209q0 -20 -20 -20h-209q-21 0 -21 20v301q0 90 42 140.5t116 50.5h72q20 0 20 -21v-74q0 -20 -20 -20zM821 1319q-58 0 -76 -22.5t-18 -86.5v-39h94q21 0 21 -20v-209q0 -20 -21 -20h-209q-20 0 -20 20v301
q0 90 42 140.5t116 50.5h71q21 0 21 -21v-74q0 -20 -21 -20z" />
    <glyph glyph-name="quotedblright" unicode="&#x201d;" 
d="M612 1036q58 0 76.5 22.5t18.5 86.5v39h-95q-20 0 -20 20v209q0 21 20 21h209q21 0 21 -21v-301q0 -90 -42 -140t-116 -50h-72q-20 0 -20 20v74q0 20 20 20zM203 1036q58 0 76 22.5t18 86.5v39h-94q-21 0 -21 20v209q0 21 21 21h209q20 0 20 -21v-301q0 -90 -42 -140
t-116 -50h-71q-21 0 -21 20v74q0 20 21 20z" />
    <glyph glyph-name="quotedblbase" unicode="&#x201e;" 
d="M612 -147q58 0 76.5 22.5t18.5 85.5v39h-95q-20 0 -20 20v209q0 21 20 21h209q21 0 21 -21v-301q0 -90 -42 -140t-116 -50h-72q-20 0 -20 20v74q0 21 20 21zM203 -147q58 0 76 22t18 86v39h-94q-21 0 -21 20v209q0 21 21 21h209q20 0 20 -21v-301q0 -90 -42 -140
t-116 -50h-71q-21 0 -21 20v74q0 21 21 21z" />
    <glyph glyph-name="dagger" unicode="&#x2020;" 
d="M139 1028h287v385q0 21 20 21h132q20 0 20 -21v-385h287q20 0 20 -20v-119q0 -21 -20 -21h-287v-1253q0 -21 -20 -21h-132q-20 0 -20 21v1253h-287q-20 0 -20 21v119q0 20 20 20z" />
    <glyph glyph-name="daggerdbl" unicode="&#x2021;" 
d="M885 0h-287v-385q0 -21 -20 -21h-132q-20 0 -20 21v385h-287q-20 0 -20 20v119q0 21 20 21h287v708h-287q-20 0 -20 21v119q0 20 20 20h287v385q0 21 20 21h132q20 0 20 -21v-385h287q20 0 20 -20v-119q0 -21 -20 -21h-287v-708h287q20 0 20 -21v-119q0 -20 -20 -20z" />
    <glyph glyph-name="bullet" unicode="&#x2022;" 
d="M252 668q0 106 76.5 183t183.5 77q106 0 183 -77t77 -183q0 -107 -77 -183.5t-183 -76.5q-107 0 -183.5 76.5t-76.5 183.5z" />
    <glyph glyph-name="ellipsis" unicode="&#x2026;" 
d="M59 250h209q21 0 21 -21v-209q0 -20 -21 -20h-209q-20 0 -20 20v209q0 21 20 21zM408 250h208q21 0 21 -21v-209q0 -20 -21 -20h-208q-21 0 -21 20v209q0 21 21 21zM756 250h209q20 0 20 -21v-209q0 -20 -20 -20h-209q-21 0 -21 20v209q0 21 21 21z" />
    <glyph glyph-name="perthousand" unicode="&#x2030;" 
d="M983 264q0 -131 -72.5 -207.5t-181.5 -76.5q-121 0 -194 92q-74 -92 -195 -92q-109 0 -181.5 76.5t-72.5 207.5t72.5 208t181.5 77q121 0 195 -92q73 92 194 92q109 0 181.5 -77t72.5 -208zM578 1169q0 -131 -72.5 -207.5t-181.5 -76.5t-181.5 76.5t-72.5 207.5t72.5 208
t181.5 77t181.5 -77t72.5 -208zM33 672l809 317q4 2 12 2q10 0 16 -14l27 -68q2 -4 2 -10q0 -8 -12 -14l-809 -318q-4 -2 -12 -2q-11 0 -17 15l-26 67q-3 6 -3 10q0 9 13 15zM459 1169q0 83 -38 128.5t-97 45.5q-60 0 -98 -45.5t-38 -128.5t38 -128.5t98 -45.5q59 0 97 45.5
t38 128.5zM864 264q0 83 -38 128.5t-97 45.5q-58 0 -96.5 -45.5t-38.5 -128.5t38 -128.5t97 -45.5t97 45.5t38 128.5zM475 264q0 83 -38 128.5t-97 45.5t-97 -45.5t-38 -128.5t38 -128.5t97 -45.5t97 45.5t38 128.5z" />
    <glyph glyph-name="guilsinglleft" unicode="&#x2039;" 
d="M717 260v-172q0 -14 -12 -14q-7 0 -13 6l-401 387q-21 21 -21 37v114q0 16 21 37l401 387q7 7 13 7q12 0 12 -15v-172q0 -18 -15 -33l-268 -268l268 -268q15 -15 15 -33z" />
    <glyph glyph-name="guilsinglright" unicode="&#x203a;" 
d="M307 88v172q0 18 15 33l268 268l-268 268q-15 15 -15 33v172q0 15 12 15q6 0 13 -7l401 -387q21 -21 21 -37v-114q0 -16 -21 -37l-401 -387q-6 -6 -13 -6q-12 0 -12 14z" />
    <glyph glyph-name="fraction" unicode="&#x2044;" 
d="M135 416l682 540q11 7 14 7q4 0 15 -11l45 -57q6 -9 6 -14q0 -7 -8 -15l-682 -540q-11 -7 -14 -7q-4 0 -15 11l-45 57q-6 9 -6 14q0 7 8 15z" />
    <glyph glyph-name="zerosuperior" unicode="&#x2070;" 
d="M250 1051q0 190 72.5 292.5t189.5 102.5t189.5 -102.5t72.5 -292.5t-72.5 -293t-189.5 -103t-189.5 103t-72.5 293zM369 1051q0 -138 34 -207l132 489q-6 2 -23 2q-65 0 -104 -71t-39 -213zM655 1051q0 137 -34 206l-132 -489q6 -2 23 -2q65 0 104 71.5t39 213.5z" />
    <glyph glyph-name="foursuperior" unicode="&#x2074;" 
d="M549 688v125h-283q-20 0 -20 21v57q0 13 8 24l299 504q9 15 22 15h68q21 0 21 -21v-489h65q21 0 21 -21v-69q0 -21 -21 -21h-65v-125q0 -20 -21 -20h-74q-20 0 -20 20zM549 1212l-166 -288h166v288z" />
    <glyph glyph-name="fivesuperior" unicode="&#x2075;" 
d="M266 1042l51 375q3 17 21 17h334q20 0 20 -21v-70q0 -20 -20 -20h-252l-37 -188q64 41 133 41q107 0 162 -66.5t55 -191.5q0 -121 -65.5 -192t-169.5 -71q-97 0 -163.5 60.5t-72.5 154.5q0 21 21 21h79q18 0 21 -21q23 -104 115 -104q59 0 87.5 42t28.5 107
q0 148 -114 148q-59 0 -111 -49q-6 -6 -24 -6l-89 18q-10 3 -10 16z" />
    <glyph glyph-name="sixsuperior" unicode="&#x2076;" 
d="M295 1016q0 213 68.5 321.5t183.5 108.5q86 0 139 -54.5t66 -138.5q0 -10 -13 -10h-92q-7 0 -10 10q-24 82 -96 82q-104 0 -119 -219q65 45 129 45q108 0 165.5 -68t57.5 -184q0 -112 -65 -183t-168 -71q-111 0 -178.5 90t-67.5 271zM428 909q0 -68 31.5 -105.5
t83.5 -37.5t83 37.5t31 105.5q0 67 -31 104.5t-83 37.5t-83.5 -38t-31.5 -104z" />
    <glyph glyph-name="sevensuperior" unicode="&#x2077;" 
d="M303 1343v70q0 21 21 21h401q20 0 20 -21v-33q0 -16 -8 -37l-198 -657q-6 -18 -25 -18h-82q-16 0 -16 12q0 2 4 14l194 629h-290q-21 0 -21 20z" />
    <glyph glyph-name="eightsuperior" unicode="&#x2078;" 
d="M303 1243q0 92 56 147.5t153 55.5t153 -55.5t56 -147.5q0 -108 -90 -170q114 -60 114 -188q0 -101 -64 -165.5t-169 -64.5t-169 64.5t-64 165.5q0 128 114 188q-90 62 -90 170zM397 885q0 -60 32 -89.5t83 -29.5t83 29.5t32 89.5q0 59 -32.5 91t-82.5 32t-82.5 -32
t-32.5 -91zM412 1233q0 -54 26.5 -84.5t73.5 -30.5t73.5 30.5t26.5 84.5t-27.5 82t-72.5 28t-72.5 -28t-27.5 -82z" />
    <glyph glyph-name="ninesuperior" unicode="&#x2079;" 
d="M745 1085q0 -214 -68 -322t-183 -108q-86 0 -139 54.5t-66 138.5q0 10 12 10h92q7 0 10 -10q24 -82 97 -82q103 0 118 219q-65 -45 -129 -45q-108 0 -165.5 68t-57.5 184q0 112 65.5 183t168.5 71q110 0 177.5 -90t67.5 -271zM612 1192q0 68 -31 105.5t-83 37.5
t-83.5 -37.5t-31.5 -105.5q0 -66 31.5 -103.5t83.5 -37.5t83 37.5t31 103.5z" />
    <glyph glyph-name="zeroinferior" unicode="&#x2080;" 
d="M250 -23q0 190 72.5 293t189.5 103t189.5 -103t72.5 -293t-72.5 -292.5t-189.5 -102.5t-189.5 102.5t-72.5 292.5zM369 -23q0 -137 34 -206l132 489q-6 2 -23 2q-65 0 -104 -71.5t-39 -213.5zM655 -23q0 138 -34 207l-132 -489q6 -2 23 -2q65 0 104 71t39 213z" />
    <glyph glyph-name="oneinferior" unicode="&#x2081;" 
d="M293 -385v70q0 20 20 20h152v500l-125 -68q-12 -6 -21 -6q-16 0 -16 16v97q0 12 14 20l164 88q13 8 31 8h47q21 0 21 -20v-635h151q21 0 21 -20v-70q0 -21 -21 -21h-418q-20 0 -20 21z" />
    <glyph glyph-name="twoinferior" unicode="&#x2082;" 
d="M229 -385v61q0 19 13 29l262 283q43 44 62.5 81.5t19.5 80.5q0 51 -28 81.5t-81 30.5q-107 0 -123 -112q-3 -21 -20 -21h-80q-21 0 -21 21q8 100 72.5 161.5t171.5 61.5q109 0 168.5 -63t59.5 -165q0 -64 -28.5 -116t-86.5 -115l-191 -209h310q20 0 20 -20v-70
q0 -21 -20 -21h-459q-21 0 -21 21z" />
    <glyph glyph-name="threeinferior" unicode="&#x2083;" 
d="M426 -39v70q0 20 20 20h21q127 0 127 123q0 45 -25.5 70.5t-74.5 25.5q-43 0 -70 -27t-33 -71q-3 -16 -20 -16h-72q-20 0 -20 18q11 88 67.5 143.5t147.5 55.5q103 0 159 -56.5t56 -134.5q0 -112 -84 -172q114 -49 114 -192q0 -104 -66.5 -170t-170.5 -66
q-105 0 -177.5 67t-72.5 165q0 20 20 20h74q18 0 21 -20q24 -121 133 -121q121 0 121 125q0 56 -35 89.5t-97 33.5h-43q-20 0 -20 20z" />
    <glyph glyph-name="fourinferior" unicode="&#x2084;" 
d="M549 -385v125h-283q-20 0 -20 20v58q0 13 8 24l299 504q8 14 22 14h68q21 0 21 -20v-490h65q21 0 21 -20v-70q0 -20 -21 -20h-65v-125q0 -21 -21 -21h-74q-20 0 -20 21zM549 139l-166 -289h166v289z" />
    <glyph glyph-name="fiveinferior" unicode="&#x2085;" 
d="M266 -31l51 375q3 16 21 16h334q20 0 20 -20v-70q0 -20 -20 -20h-252l-37 -189q64 41 133 41q107 0 162 -66.5t55 -191.5q0 -121 -65 -191.5t-170 -70.5q-97 0 -163.5 60.5t-72.5 154.5q0 21 21 21h79q18 0 21 -21q23 -104 115 -104q59 0 87.5 42t28.5 107
q0 148 -114 148q-59 0 -111 -49q-7 -7 -24 -7l-89 19q-10 3 -10 16z" />
    <glyph glyph-name="sixinferior" unicode="&#x2086;" 
d="M295 -57q0 213 68.5 321.5t183.5 108.5q86 0 139 -54.5t66 -138.5q0 -10 -13 -10h-92q-7 0 -10 10q-24 82 -96 82q-104 0 -119 -219q65 45 129 45q108 0 165.5 -68t57.5 -184q0 -112 -65 -183t-168 -71q-111 0 -178.5 90t-67.5 271zM428 -164q0 -68 31.5 -105.5
t83.5 -37.5t83 37.5t31 105.5q0 66 -31 103.5t-83 37.5t-83.5 -37.5t-31.5 -103.5z" />
    <glyph glyph-name="seveninferior" unicode="&#x2087;" 
d="M303 270v70q0 20 21 20h401q20 0 20 -20v-33q0 -16 -8 -37l-198 -657q-6 -19 -25 -19h-82q-16 0 -16 13q0 2 4 14l194 629h-290q-21 0 -21 20z" />
    <glyph glyph-name="eightinferior" unicode="&#x2088;" 
d="M303 170q0 92 56 147.5t153 55.5t153 -55.5t56 -147.5q0 -108 -90 -170q114 -60 114 -188q0 -101 -64 -165.5t-169 -64.5t-169 64.5t-64 165.5q0 128 114 188q-90 62 -90 170zM397 -188q0 -60 32 -89.5t83 -29.5t83 29.5t32 89.5q0 59 -32.5 90.5t-82.5 31.5t-82.5 -31.5
t-32.5 -90.5zM412 160q0 -54 26.5 -84.5t73.5 -30.5t73.5 30.5t26.5 84.5t-27.5 82t-72.5 28t-72.5 -28t-27.5 -82z" />
    <glyph glyph-name="nineinferior" unicode="&#x2089;" 
d="M745 12q0 -214 -68 -322t-183 -108q-86 0 -139 54.5t-66 138.5q0 10 12 10h92q7 0 10 -10q24 -82 97 -82q103 0 118 219q-65 -45 -129 -45q-108 0 -165.5 68t-57.5 184q0 112 65.5 183t168.5 71q110 0 177.5 -90t67.5 -271zM612 119q0 68 -31 105.5t-83 37.5t-83.5 -37.5
t-31.5 -105.5q0 -66 31.5 -104t83.5 -38t83 37.5t31 104.5z" />
    <glyph glyph-name="Euro" unicode="&#x20ac;" 
d="M74 985h92q41 229 149 349t275 120q176 0 286.5 -116t118.5 -289q0 -21 -20 -21h-121q-17 0 -20 21q-42 245 -250 245q-197 0 -250 -309h305q20 0 20 -20v-119q0 -21 -20 -21h-320q-2 -35 -2 -108q0 -76 2 -109h320q20 0 20 -20v-119q0 -20 -20 -20h-305
q53 -310 250 -310q207 0 250 246q3 21 20 21h121q20 0 20 -21q-8 -173 -118.5 -289t-286.5 -116q-167 0 -275 120t-149 349h-92q-21 0 -21 20v119q0 20 21 20h73q-2 35 -2 109q0 73 2 108h-73q-21 0 -21 21v119q0 20 21 20z" />
    <glyph glyph-name="uni2117" unicode="&#x2117;" 
d="M512 172q-95 0 -185 35.5t-162 101t-115.5 167.5t-43.5 224q0 98 28.5 184t77.5 148.5t113.5 107.5t138 67t148.5 22t148.5 -22t138 -67t113.5 -107.5t77.5 -148.5t28.5 -184q0 -122 -43.5 -224t-115.5 -167.5t-162 -101t-185 -35.5zM512 262q78 0 150 28t131 80.5
t94 138t35 191.5t-35 191.5t-94 138.5t-131 81t-150 28t-150 -28t-131 -81t-94 -138.5t-35 -191.5t35 -191.5t94 -138t131 -80.5t150 -28zM338 412v579q0 15 14 15h197q93 0 146 -47t53 -132t-53 -131.5t-146 -46.5h-129v-237q0 -15 -14 -15h-54q-14 0 -14 15zM420 928v-201
h137q55 0 82 27.5t27 72.5t-27.5 73t-81.5 28h-137z" />
    <glyph glyph-name="trademark" unicode="&#x2122;" 
d="M8 1343v70q0 21 21 21h389q20 0 20 -21v-70q0 -20 -20 -20h-137v-635q0 -20 -21 -20h-74q-20 0 -20 20v635h-137q-21 0 -21 20zM975 1413v-725q0 -20 -21 -20h-73q-21 0 -21 20v594l-82 -242q-6 -12 -16 -12h-53q-11 0 -17 12l-82 242v-594q0 -20 -20 -20h-74
q-20 0 -20 20v725q0 21 20 21h113q17 0 24 -17l82 -225l82 225q7 17 25 17h112q21 0 21 -21z" />
    <glyph glyph-name="Omega" unicode="&#x2126;" 
d="M512 1290q-140 0 -220.5 -92t-80.5 -278q0 -204 49.5 -377.5t179.5 -368.5q17 -27 17 -41v-113q0 -20 -21 -20h-348q-20 0 -20 20v123q0 21 20 21h193q-242 380 -242 756q0 253 125.5 393.5t347.5 140.5t347.5 -140.5t125.5 -393.5q0 -376 -242 -756h193q20 0 20 -21
v-123q0 -20 -20 -20h-348q-21 0 -21 20v113q0 17 17 41q130 195 179.5 368.5t49.5 377.5q0 186 -80.5 278t-220.5 92z" />
    <glyph glyph-name="onethird" unicode="&#x2153;" 
d="M109 688v70q0 20 20 20h152v500l-125 -68q-12 -6 -21 -6q-16 0 -16 17v96q0 12 14 20l164 88q15 9 31 9h47q20 0 20 -21v-635h152q20 0 20 -20v-70q0 -20 -20 -20h-418q-20 0 -20 20zM135 240l682 540q9 6 14 6t15 -10l45 -57q6 -9 6 -14q0 -7 -8 -15l-682 -540
q-11 -7 -14 -7q-4 0 -15 11l-45 57q-6 9 -6 14q0 7 8 15zM647 -39v70q0 20 21 20h20q127 0 127 123q0 45 -25.5 70.5t-74.5 25.5q-43 0 -70 -27t-33 -71q-3 -16 -20 -16h-72q-20 0 -20 18q11 88 67.5 143.5t147.5 55.5q103 0 159 -56.5t56 -134.5q0 -112 -84 -172
q115 -49 115 -192q0 -104 -67 -170t-171 -66q-105 0 -177.5 67t-72.5 165q0 20 21 20h73q18 0 21 -20q24 -121 133 -121q121 0 121 125q0 56 -34.5 89.5t-96.5 33.5h-43q-21 0 -21 20z" />
    <glyph glyph-name="twothirds" unicode="&#x2154;" 
d="M139 240l682 540q9 6 15 6q4 0 14 -10l45 -57q6 -9 6 -14q0 -7 -8 -15l-682 -540q-11 -7 -14 -7q-4 0 -15 11l-45 57q-6 9 -6 14q0 7 8 15zM647 -39v70q0 20 21 20h20q127 0 127 123q0 45 -25.5 70.5t-74.5 25.5q-43 0 -70 -27t-33 -71q-3 -16 -20 -16h-72q-20 0 -20 18
q11 88 67.5 143.5t147.5 55.5q103 0 159 -56.5t56 -134.5q0 -112 -84 -172q115 -49 115 -192q0 -104 -67 -170t-171 -66q-105 0 -177.5 67t-72.5 165q0 20 21 20h73q18 0 21 -20q24 -121 133 -121q121 0 121 125q0 56 -34.5 89.5t-96.5 33.5h-43q-21 0 -21 20zM80 688v62
q0 19 12 28l262 283q43 44 62.5 81.5t19.5 80.5q0 51 -27.5 81.5t-80.5 30.5q-107 0 -123 -112q-3 -21 -21 -21h-80q-20 0 -20 21q8 100 72.5 161.5t171.5 61.5q109 0 168 -62.5t59 -164.5q0 -64 -28.5 -116.5t-86.5 -115.5l-190 -209h309q21 0 21 -20v-70q0 -20 -21 -20
h-459q-20 0 -20 20z" />
    <glyph glyph-name="oneeighth" unicode="&#x215b;" 
d="M139 240l682 540q9 6 15 6q4 0 14 -10l45 -57q6 -9 6 -14q0 -7 -8 -15l-682 -540q-11 -7 -14 -7q-4 0 -15 11l-45 57q-6 9 -6 14q0 7 8 15zM559 170q0 92 56 147.5t153 55.5t153 -55.5t56 -147.5q0 -108 -90 -170q114 -60 114 -188q0 -101 -64 -165.5t-169 -64.5
t-169 64.5t-64 165.5q0 128 114 188q-90 62 -90 170zM653 -188q0 -60 32 -89.5t83 -29.5t83 29.5t32 89.5q0 59 -32.5 90.5t-82.5 31.5t-82.5 -31.5t-32.5 -90.5zM668 160q0 -54 26.5 -84.5t73.5 -30.5t73.5 30.5t26.5 84.5t-27.5 82t-72.5 28t-72.5 -28t-27.5 -82zM109 688
v70q0 20 20 20h152v500l-125 -68q-12 -6 -21 -6q-16 0 -16 17v96q0 12 14 20l164 88q15 9 31 9h47q20 0 20 -21v-635h152q20 0 20 -20v-70q0 -20 -20 -20h-418q-20 0 -20 20z" />
    <glyph glyph-name="threeeighths" unicode="&#x215c;" 
d="M139 240l682 540q9 6 15 6q4 0 14 -10l45 -57q6 -9 6 -14q0 -7 -8 -15l-682 -540q-11 -7 -14 -7q-4 0 -15 11l-45 57q-6 9 -6 14q0 7 8 15zM283 1034v70q0 20 20 20h21q127 0 127 123q0 45 -26 70.5t-75 25.5q-43 0 -69.5 -27t-32.5 -71q-3 -16 -21 -16h-71q-21 0 -21 18
q11 88 67.5 143.5t147.5 55.5q103 0 159 -56.5t56 -134.5q0 -112 -84 -172q115 -49 115 -192q0 -104 -67 -170t-171 -66q-105 0 -177 67t-72 165q0 20 20 20h74q17 0 20 -20q24 -121 133 -121q121 0 121 125q0 56 -34.5 89.5t-96.5 33.5h-43q-20 0 -20 20zM559 170
q0 92 56 147.5t153 55.5t153 -55.5t56 -147.5q0 -108 -90 -170q114 -60 114 -188q0 -101 -64 -165.5t-169 -64.5t-169 64.5t-64 165.5q0 128 114 188q-90 62 -90 170zM653 -188q0 -60 32 -89.5t83 -29.5t83 29.5t32 89.5q0 59 -32.5 90.5t-82.5 31.5t-82.5 -31.5
t-32.5 -90.5zM668 160q0 -54 26.5 -84.5t73.5 -30.5t73.5 30.5t26.5 84.5t-27.5 82t-72.5 28t-72.5 -28t-27.5 -82z" />
    <glyph glyph-name="fiveeighths" unicode="&#x215d;" 
d="M139 240l682 540q9 6 15 6q4 0 14 -10l45 -57q6 -9 6 -14q0 -7 -8 -15l-682 -540q-11 -7 -14 -7q-4 0 -15 11l-45 57q-6 9 -6 14q0 7 8 15zM559 170q0 92 56 147.5t153 55.5t153 -55.5t56 -147.5q0 -108 -90 -170q114 -60 114 -188q0 -101 -64 -165.5t-169 -64.5
t-169 64.5t-64 165.5q0 128 114 188q-90 62 -90 170zM653 -188q0 -60 32 -89.5t83 -29.5t83 29.5t32 89.5q0 59 -32.5 90.5t-82.5 31.5t-82.5 -31.5t-32.5 -90.5zM668 160q0 -54 26.5 -84.5t73.5 -30.5t73.5 30.5t26.5 84.5t-27.5 82t-72.5 28t-72.5 -28t-27.5 -82z
M164 1042l51 375q3 17 21 17h333q21 0 21 -21v-70q0 -20 -21 -20h-252l-36 -188q64 41 133 41q107 0 162 -66.5t55 -191.5q0 -121 -65.5 -192t-170.5 -71q-97 0 -163 60.5t-72 154.5q0 21 20 21h80q18 0 21 -21q23 -104 114 -104q59 0 88 42t29 107q0 148 -115 148
q-58 0 -110 -49q-6 -6 -25 -6l-88 18q-10 3 -10 16z" />
    <glyph glyph-name="seveneighths" unicode="&#x215e;" 
d="M139 240l682 540q9 6 15 6q4 0 14 -10l45 -57q6 -9 6 -14q0 -7 -8 -15l-682 -540q-11 -7 -14 -7q-4 0 -15 11l-45 57q-6 9 -6 14q0 7 8 15zM559 170q0 92 56 147.5t153 55.5t153 -55.5t56 -147.5q0 -108 -90 -170q114 -60 114 -188q0 -101 -64 -165.5t-169 -64.5
t-169 64.5t-64 165.5q0 128 114 188q-90 62 -90 170zM653 -188q0 -60 32 -89.5t83 -29.5t83 29.5t32 89.5q0 59 -32.5 90.5t-82.5 31.5t-82.5 -31.5t-32.5 -90.5zM668 160q0 -54 26.5 -84.5t73.5 -30.5t73.5 30.5t26.5 84.5t-27.5 82t-72.5 28t-72.5 -28t-27.5 -82z
M242 1343v70q0 21 20 21h402q20 0 20 -21v-33q0 -16 -8 -37l-199 -657q-6 -18 -24 -18h-82q-17 0 -17 12q0 2 4 14l195 629h-291q-20 0 -20 20z" />
    <glyph glyph-name="partialdiff" unicode="&#x2202;" 
d="M719 936q-19 77 -41 130.5t-57 97.5t-83.5 69.5t-117.5 39t-162 13.5q-16 0 -16 29v104q0 15 28 15q175 0 296.5 -50t196 -154.5t107.5 -252.5t33 -356q0 -318 -110 -479.5t-312 -161.5q-185 0 -303.5 148.5t-118.5 385.5q0 245 108.5 390t293.5 145q91 0 152 -27.5
t106 -85.5zM227 514q0 -184 67 -283.5t187 -99.5q122 0 188 97.5t66 285.5q0 184 -67 283.5t-187 99.5t-187 -99.5t-67 -283.5z" />
    <glyph glyph-name="Delta" unicode="&#x2206;" 
d="M618 1413l322 -1241q8 -24 8 -53v-99q0 -20 -20 -20h-832q-20 0 -20 20v99q0 29 8 53l317 1241q9 21 27 21h164q17 0 26 -21zM772 164l-262 1073l-258 -1073h520z" />
    <glyph glyph-name="product" unicode="&#x220f;" 
d="M295 1270v-1655q0 -21 -21 -21h-131q-20 0 -20 21v1798q0 21 20 21h738q20 0 20 -21v-1798q0 -21 -20 -21h-131q-21 0 -21 21v1655h-434z" />
    <glyph glyph-name="summation" unicode="&#x2211;" 
d="M86 -385v131q0 19 16 41l379 682q15 27 15 45t-15 45l-379 682q-16 26 -16 41v131q0 21 20 21h814q20 0 20 -21v-123q0 -20 -20 -20h-629l379 -690q1 -2 5.5 -11.5t7 -15.5t5 -17t2.5 -22t-2.5 -21.5t-5 -17t-7 -15t-5.5 -11.5l-379 -691h661q21 0 21 -20v-123
q0 -21 -21 -21h-846q-20 0 -20 21z" />
    <glyph glyph-name="minus" unicode="&#x2212;" 
d="M152 780h720q21 0 21 -20v-119q0 -20 -21 -20h-720q-21 0 -21 20v119q0 20 21 20z" />
    <glyph glyph-name="radical" unicode="&#x221a;" 
d="M242 659h-107q-20 0 -20 21v111q0 20 20 20h213q23 0 29 -20l141 -582l326 1204q6 21 28 21h123q15 0 15 -11q0 -6 -2 -10l-387 -1393q-9 -20 -27 -20h-160q-20 0 -20 20z" />
    <glyph glyph-name="infinity" unicode="&#x221e;" 
d="M512 561q-40 -90 -102.5 -136t-137.5 -46q-91 0 -157 69t-66 205t66 205.5t157 69.5q75 0 137.5 -46t102.5 -137q40 91 102.5 137t137.5 46q91 0 157 -69.5t66 -205.5t-66 -205t-157 -69q-75 0 -137.5 46t-102.5 136zM868 653q0 174 -120 174q-62 0 -107.5 -43
t-83.5 -131q38 -88 83.5 -131t107.5 -43q120 0 120 174zM156 653q0 -174 120 -174q62 0 107.5 43t83.5 131q-38 88 -83.5 131t-107.5 43q-120 0 -120 -174z" />
    <glyph glyph-name="integral" unicode="&#x222b;" 
d="M319 -27l150 1125q24 168 120 262t255 94q84 0 153 -20q17 -3 17 -35v-105q0 -20 -15 -20l-16 4q-60 25 -135 25q-92 0 -148.5 -51.5t-72.5 -168.5l-158 -1177q-23 -173 -96 -252.5t-209 -79.5q-116 0 -178 29q-11 5 -14 11.5t-3 23.5v106q0 20 15 20q4 0 16 -4
q69 -34 137 -34q89 0 128.5 55t53.5 192z" />
    <glyph glyph-name="approxequal" unicode="&#x2248;" 
d="M141 500q98 73 221 73q52 0 95.5 -13t68.5 -29t59.5 -29t71.5 -13q41 0 73 11.5t73 40.5q12 4 14 4q11 0 21 -17l61 -102q2 -2 2 -8q0 -15 -18 -27q-99 -74 -221 -74q-52 0 -95.5 13t-68 29t-59.5 29t-72 13q-42 0 -73.5 -11t-72.5 -40q-12 -4 -14 -4q-11 0 -21 16
l-61 103q-2 2 -2 8q0 15 18 27zM141 889q99 74 221 74q52 0 95.5 -13t68.5 -29t59.5 -29t71.5 -13q42 0 73.5 11t72.5 40q12 4 14 4q11 0 21 -16l61 -103q2 -2 2 -8q0 -15 -18 -27q-98 -73 -221 -73q-52 0 -95.5 13t-68 29t-59.5 29t-72 13q-41 0 -73 -11.5t-73 -40.5
q-12 -4 -14 -4q-11 0 -21 17l-61 102q-2 2 -2 8q0 15 18 27z" />
    <glyph glyph-name="notequal" unicode="&#x2260;" 
d="M152 903h434l155 268q10 13 17 13q1 0 2.5 -0.5l4.5 -1.5t5 -2l102 -60q13 -10 13 -16l-4 -12l-109 -189h100q21 0 21 -20v-119q0 -21 -21 -21h-192l-150 -256h342q21 0 21 -20v-119q0 -20 -21 -20h-434l-155 -269q-9 -12 -17 -12l-12 4l-102 60q-13 10 -13 16
q0 1 0.5 2.5l1.5 4.5t2 5l109 189h-100q-21 0 -21 20v119q0 20 21 20h192l150 256h-342q-21 0 -21 21v119q0 20 21 20z" />
    <glyph glyph-name="lessequal" unicode="&#x2264;" 
d="M868 438v-147q0 -15 -10 -15q-7 0 -10 3l-690 376q-21 12 -21 27v139q0 15 21 27l690 377q2 2 10 2q10 0 10 -15v-147q0 -18 -20 -29l-522 -284l522 -285q20 -11 20 -29zM152 160h720q21 0 21 -21v-119q0 -20 -21 -20h-720q-21 0 -21 20v119q0 21 21 21z" />
    <glyph glyph-name="greaterequal" unicode="&#x2265;" 
d="M152 160h720q21 0 21 -21v-119q0 -20 -21 -20h-720q-21 0 -21 20v119q0 21 21 21zM156 291v147q0 18 20 29l522 285l-522 284q-20 11 -20 29v147q0 15 10 15q8 0 10 -2l690 -377q21 -12 21 -27v-139q0 -15 -21 -27l-690 -376q-3 -3 -10 -3q-10 0 -10 15z" />
    <glyph glyph-name="lozenge" unicode="&#x25ca;" 
d="M614 1413l338 -676q6 -12 6 -20q0 -9 -6 -21l-338 -676q-9 -20 -28 -20h-146q-19 0 -28 20l-340 676q-6 12 -6 21q0 8 6 20l340 676q9 21 28 21h146q19 0 28 -21zM512 1282l-276 -565l276 -565l276 565z" />
    <glyph glyph-name="apple" unicode="&#xf8ff;" 
d="M1118 1264v-1219q0 -18 -12.5 -31.5t-32.5 -13.5q-8 0 -14 2l-547 158l-547 -158q-6 -2 -14 -2q-20 0 -32.5 13.5t-12.5 31.5v1219q0 36 33 45l553 159l20 5l20 -5l553 -159q33 -9 33 -45zM467 750v620l-471 -137q12 -190 146 -328t325 -155zM557 1370v-620
q191 17 325 155t146 328zM-6 948v-844l473 138v417q-151 12 -275 88.5t-198 200.5zM1030 104v844q-76 -125 -199 -201t-274 -88v-417z" />
    <glyph glyph-name="fi" unicode="&#xfb01;" 
d="M655 877h-297v-857q0 -20 -20 -20h-119q-20 0 -20 20v857h-131q-21 0 -21 20v111q0 20 21 20h131v90q0 146 79 241t226 95q88 0 155 -33q11 -6 14 -13t3 -22v-102q0 -20 -14 -20q-3 0 -15 4q-39 20 -65.5 27.5t-65.5 7.5q-158 0 -158 -185v-90h297q21 0 21 -20v-111
q0 -20 -21 -20zM797 20v988q0 20 20 20h119q20 0 20 -20v-988q0 -20 -20 -20h-119q-20 0 -20 20zM768 1217v176q0 20 20 20h177q20 0 20 -20v-176q0 -21 -20 -21h-177q-20 0 -20 21z" />
    <glyph glyph-name="fl" unicode="&#xfb02;" 
d="M797 20v1393q0 21 20 21h119q20 0 20 -21v-1393q0 -20 -20 -20h-119q-20 0 -20 20zM655 877h-297v-857q0 -20 -20 -20h-119q-20 0 -20 20v857h-131q-21 0 -21 20v111q0 20 21 20h131v90q0 146 79 241t226 95q88 0 155 -33q11 -6 14 -13t3 -22v-102q0 -20 -14 -20
q-3 0 -15 4q-39 20 -65.5 27.5t-65.5 7.5q-158 0 -158 -185v-90h297q21 0 21 -20v-111q0 -20 -21 -20z" />
    <glyph glyph-name="sterling.tosn" 
d="M393 723q0 -54 33 -143h270q21 0 21 -21v-106q0 -21 -21 -21h-225v-22q0 -156 -102 -258h510q20 0 20 -21v-111q0 -20 -20 -20h-668q-21 0 -21 20v97q0 24 17 41q62 60 83 117t21 143v14h-131q-20 0 -20 21v106q0 21 20 21h86q-37 79 -37 151q0 141 91.5 229.5
t230.5 88.5q151 0 234.5 -83t91.5 -216q0 -21 -21 -21h-119q-17 0 -20 21q-6 66 -48.5 106.5t-117.5 40.5q-69 0 -113.5 -46t-44.5 -128z" />
    <glyph glyph-name="dollar.tosn" 
d="M905 301q0 -130 -81.5 -215t-221.5 -102v-168q0 -21 -20 -21h-119q-21 0 -21 21v174q-135 26 -213.5 115t-78.5 208q0 21 20 21h131q18 0 21 -21q15 -124 120 -163v315q-134 30 -202 100t-68 191q0 117 72.5 192t197.5 94v166q0 21 21 21h119q20 0 20 -21v-166
q124 -23 191 -97.5t81 -190.5q0 -21 -20 -21h-115q-3 0 -5.5 0.5t-4.5 1.5t-3.5 3.5t-2 4t-2 5.5t-2.5 6q-24 95 -117 129v-299q75 -19 125 -38.5t93.5 -51.5t64 -79.5t20.5 -113.5zM737 281q0 61 -29 94.5t-106 56.5v-297q66 12 100.5 50.5t34.5 95.5zM332 760
q0 -49 25.5 -83t84.5 -56v270q-110 -27 -110 -131z" />
    <glyph glyph-name="yen.tosn" 
d="M190 596h164l-231 412q-4 8 -4 10q0 10 16 10h162q13 0 20 -13q1 -2 2 -3l193 -361l193 361q8 13 14 15q3 1 8 1h162q16 0 16 -10q0 -2 -4 -10l-231 -412h164q20 0 20 -21v-110q0 -21 -20 -21h-242v-133h201q20 0 20 -20v-111q0 -20 -20 -20h-201v-140q0 -20 -21 -20
h-118q-21 0 -21 20v140h-201q-20 0 -20 20v111q0 20 20 20h201v133h-242q-20 0 -20 21v110q0 21 20 21z" />
    <glyph glyph-name="cent.tosn" 
d="M442 -182v168q-164 32 -255 175t-91 353t91 353t255 175v168q0 21 21 21h131q20 0 20 -21v-168q134 -24 213 -114.5t101 -220.5q2 -8 2 -21q0 -12 -15 -12h-124q-22 0 -29 18q-20 75 -53.5 124t-94.5 71v-746q61 22 94.5 71t53.5 124q7 18 29 18h124q15 0 15 -12t-2 -20
q-22 -130 -101 -221t-213 -115v-168q0 -21 -20 -21h-131q-21 0 -21 21zM264 514q0 -146 44 -244t134 -129v746q-90 -31 -134 -129t-44 -244z" />
    <glyph glyph-name="multiply.tosn" 
d="M823 715l-198 -199l198 -199q8 -8 8 -14t-8 -14l-84 -84q-8 -8 -14 -8t-14 8l-199 198l-199 -198q-8 -8 -14 -8t-14 8l-84 84q-8 8 -8 14t8 14l198 199l-198 199q-8 8 -8 14t8 14l84 84q9 9 14 9t14 -9l199 -198l199 198q9 9 14 9t14 -9l84 -84q8 -8 8 -14t-8 -14z" />
    <glyph glyph-name="plus.tosn" 
d="M592 877v-281h280q21 0 21 -21v-118q0 -21 -21 -21h-280v-280q0 -21 -21 -21h-118q-21 0 -21 21v280h-280q-21 0 -21 21v118q0 21 21 21h280v281q0 20 21 20h118q21 0 21 -20z" />
    <glyph glyph-name="minus.tosn" 
d="M152 596h720q21 0 21 -21v-118q0 -21 -21 -21h-720q-21 0 -21 21v118q0 21 21 21z" />
    <glyph glyph-name="divide.tosn" 
d="M408 250h208q21 0 21 -21v-209q0 -20 -21 -20h-208q-21 0 -21 20v209q0 21 21 21zM408 967h208q21 0 21 -21v-209q0 -20 -21 -20h-208q-21 0 -21 20v209q0 21 21 21zM152 563h720q21 0 21 -20v-119q0 -21 -21 -21h-720q-21 0 -21 21v119q0 20 21 20z" />
    <glyph glyph-name="Euro.tosn" 
d="M106 453h93q-2 23 -2 61t2 61h-93q-20 0 -20 21v111q0 20 20 20h121q38 148 127 235t221 87q153 0 244 -90.5t113 -229.5q0 -20 -21 -20h-120q-18 0 -21 20q-17 79 -69 123.5t-126 44.5t-121 -46.5t-67 -123.5h180q21 0 21 -20v-111q0 -21 -21 -21h-209q-2 -23 -2 -61
t2 -61h209q21 0 21 -21v-110q0 -21 -21 -21h-180q20 -77 67 -123.5t121 -46.5t126 44.5t69 123.5q3 20 21 20h120q21 0 21 -20q-22 -139 -113 -229t-244 -90q-132 0 -221 86.5t-127 234.5h-121q-20 0 -20 21v110q0 21 20 21z" />
    <glyph glyph-name="equal.tosn" 
d="M152 784h720q21 0 21 -20v-119q0 -20 -21 -20h-720q-21 0 -21 20v119q0 20 21 20zM152 369h720q21 0 21 -21v-119q0 -20 -21 -20h-720q-21 0 -21 20v119q0 21 21 21z" />
    <glyph glyph-name="zero.tosn" 
d="M51 514q0 246 127 390.5t334 144.5t334 -144.5t127 -390.5q0 -247 -127 -390.5t-334 -143.5t-334 143.5t-127 390.5zM219 514q0 -196 96 -301l275 674q-42 10 -78 10q-142 0 -217.5 -107.5t-75.5 -275.5zM805 514q0 196 -96 301l-275 -674q42 -10 78 -10
q142 0 217.5 107.5t75.5 275.5z" />
    <glyph glyph-name="one.tosn" 
d="M172 20v111q0 21 21 21h276v657l-240 -129q-12 -6 -22 -6q-14 0 -14 18v133q0 18 22 31l293 162q17 10 31 10h69q21 0 21 -20v-856h276q21 0 21 -21v-111q0 -20 -21 -20h-712q-21 0 -21 20z" />
    <glyph glyph-name="two.tosn" 
d="M174 20v86q0 28 23 48l378 362q69 64 96 110.5t27 110.5q0 74 -43.5 117t-126.5 43q-70 0 -118 -47.5t-54 -118.5q-1 -18 -6.5 -24.5t-19.5 -6.5h-109q-24 0 -24 31q13 154 102.5 236t228.5 82q156 0 243 -85t87 -212q0 -55 -12.5 -102t-38 -88t-51.5 -71.5t-66 -68.5
l-284 -270h444q20 0 20 -21v-111q0 -20 -20 -20h-655q-21 0 -21 20z" />
    <glyph glyph-name="three.tosn" 
d="M381 371v110q0 21 20 21h70q195 0 195 209q0 84 -45 135t-134 51q-80 0 -131 -45.5t-61 -134.5q-1 -16 -6.5 -19.5t-18.5 -3.5h-102q-25 0 -25 31q12 153 106 238.5t247 85.5q156 0 242.5 -93t86.5 -227q0 -211 -163 -291q98 -34 156.5 -118t58.5 -218q0 -175 -103 -280
t-276 -105q-169 0 -272.5 100t-114.5 271q0 31 24 31h109q12 0 18.5 -4.5t7.5 -20.5q10 -112 71 -168.5t157 -56.5q107 0 163 64t56 173q0 110 -62 177t-184 67h-70q-20 6 -20 21z" />
    <glyph glyph-name="four.tosn" 
d="M586 -262v262h-477q-21 0 -21 20v60q0 25 16 47l512 885q10 16 27 16h82q20 0 20 -20v-856h156q21 0 21 -21v-111q0 -20 -21 -20h-156v-262q0 -21 -22 -21h-117q-20 0 -20 21zM586 659l-291 -507h291v507z" />
    <glyph glyph-name="five.tosn" 
d="M137 332l84 676q3 20 21 20h573q21 0 21 -20v-111q0 -20 -21 -20h-459l-47 -379q101 98 240 98q166 0 262 -114.5t96 -311.5q0 -207 -107.5 -330t-279.5 -123q-162 0 -268.5 100t-110.5 265q0 31 25 31h104q12 0 17 -6t10 -25q17 -113 72.5 -163t150.5 -50
q110 0 169 79.5t59 217.5t-58.5 208t-169.5 70q-122 0 -215 -114q-16 -19 -35 -19h-112q-21 0 -21 21z" />
    <glyph glyph-name="six.tosn" 
d="M121 578q0 358 110.5 545.5t313.5 187.5q139 0 238.5 -93.5t111.5 -234.5q0 -12 -5.5 -16t-17.5 -4h-108q-20 0 -23 20q-18 88 -67 132t-139 44q-200 0 -234 -407q62 56 122.5 82t137.5 26q163 0 265 -112t102 -328q0 -196 -111.5 -318t-284.5 -122q-87 0 -158 31.5
t-129.5 99t-91 186.5t-32.5 281zM301 420q0 -138 62 -213.5t167 -75.5t167.5 75.5t62.5 213.5t-62.5 213.5t-167.5 75.5t-167 -75.5t-62 -213.5z" />
    <glyph glyph-name="seven.tosn" 
d="M156 897v111q0 20 20 20h701q20 0 20 -20v-66q0 -13 -10 -51l-369 -1159q-3 -15 -22 -15h-115q-21 0 -21 17q0 8 2 10l359 1133h-545q-20 0 -20 20z" />
    <glyph glyph-name="eight.tosn" 
d="M844 965q0 -173 -146 -277q185 -111 185 -323q0 -169 -100.5 -277t-270.5 -108t-270.5 108t-100.5 277q0 212 185 323q-146 104 -146 277q0 154 90.5 250t241.5 96t241.5 -96t90.5 -250zM715 365q0 105 -55.5 169t-147.5 64t-147.5 -64t-55.5 -169q0 -106 55.5 -170
t147.5 -64t147.5 64t55.5 170zM684 954q0 95 -48.5 150t-123.5 55t-123.5 -55t-48.5 -150q0 -92 47 -148t125 -56t125 56t47 148z" />
    <glyph glyph-name="nine.tosn" 
d="M899 451q0 -358 -110.5 -546t-313.5 -188q-142 0 -240 93t-110 235q0 21 22 21h109q20 0 23 -21q18 -88 67 -132t139 -44q200 0 234 407q-62 -56 -122.5 -82t-137.5 -26q-163 0 -265 112t-102 328q0 197 111 319t284 122q69 0 128 -19t112 -63.5t90.5 -112t59.5 -170.5
t22 -233zM719 608q0 138 -62.5 213.5t-167.5 75.5t-167 -75.5t-62 -213.5t62 -213.5t167 -75.5t167.5 75.5t62.5 213.5z" />
    <glyph glyph-name="ampersand.alt" 
d="M971 696h-125v-276q0 -204 -102.5 -322t-286.5 -118q-165 0 -274 118.5t-109 307.5q0 146 66.5 240.5t168.5 135.5q-94 48 -140 126t-46 200q0 161 102 253.5t264 92.5h60q20 0 20 -20v-119q0 -21 -20 -21h-60q-89 0 -147.5 -53t-58.5 -154q0 -105 67 -168t178 -63h150
v127q0 21 20 21h127q21 0 21 -21v-127h125q22 0 22 -22v-115q0 -17 -22 -23zM678 420v276h-129q-130 0 -216.5 -79t-86.5 -207q0 -127 54.5 -199t156.5 -72q109 0 165 76.5t56 204.5z" />
    <glyph glyph-name="braceleft.ss03" 
d="M508 549v-150q0 -139 24.5 -187t112.5 -48h98q21 0 21 -21v-123q0 -20 -21 -20h-98q-160 0 -234.5 94t-74.5 305v117q0 119 -109 119h-73q-21 0 -21 20v123q0 21 21 21h73q109 0 109 119v116q0 211 74.5 305.5t234.5 94.5h98q21 0 21 -21v-123q0 -20 -21 -20h-98
q-88 0 -112.5 -48.5t-24.5 -187.5v-149q0 -65 -24.5 -107t-92.5 -61q68 -19 92.5 -61t24.5 -107z" />
    <glyph glyph-name="braceright.ss03" 
d="M418 399v150q0 65 24.5 107t92.5 61q-68 19 -92.5 61t-24.5 107v149q0 139 -24.5 187.5t-112.5 48.5h-99q-20 0 -20 20v123q0 21 20 21h99q160 0 234.5 -94.5t74.5 -305.5v-116q0 -119 108 -119h74q21 0 21 -21v-123q0 -20 -21 -20h-74q-108 0 -108 -119v-117
q0 -211 -74.5 -305t-234.5 -94h-99q-20 0 -20 20v123q0 21 20 21h99q88 0 112.5 48t24.5 187z" />
    <glyph glyph-name="bracketleft.ss03" 
d="M287 20v1393q0 21 20 21h467q21 0 21 -21v-123q0 -20 -21 -20h-315v-1106h315q21 0 21 -21v-123q0 -20 -21 -20h-467q-20 0 -20 20z" />
    <glyph glyph-name="bracketright.ss03" 
d="M737 1413v-1393q0 -20 -20 -20h-467q-21 0 -21 20v123q0 21 21 21h315v1106h-315q-21 0 -21 20v123q0 21 21 21h467q20 0 20 -21z" />
    <glyph glyph-name="parenleft.ss03" 
d="M444 743v-49q0 -147 22.5 -232t78.5 -153t178 -162q8 -5 8 -14q0 -5 -6 -14l-84 -115q-5 -8 -14 -8q-6 0 -15 6q-340 227 -340 596v242q0 369 340 596q9 6 15 6q9 0 14 -8l84 -115q6 -9 6 -14q0 -10 -8 -15q-122 -94 -178 -162t-78.5 -153t-22.5 -232z" />
    <glyph glyph-name="parenright.ss03" 
d="M586 694v49q0 147 -22.5 232t-78.5 153t-178 162q-8 5 -8 15q0 5 6 14l84 115q5 8 14 8q6 0 15 -6q340 -227 340 -596v-242q0 -369 -340 -596q-9 -6 -15 -6q-9 0 -14 8l-84 115q-6 9 -6 14q0 9 8 14q122 94 178 162t78.5 153t22.5 232z" />
    <glyph glyph-name="braceleft.case" 
d="M539 551v-352q0 -139 24.5 -187.5t112.5 -48.5h98q21 0 21 -20v-123q0 -21 -21 -21h-98q-160 0 -234.5 94.5t-74.5 305.5v319q0 119 -109 119h-74q-20 0 -20 20v123q0 21 20 21h74q109 0 109 119v319q0 211 74.5 305t234.5 94h98q21 0 21 -20v-123q0 -20 -21 -20h-98
q-88 0 -112.5 -48.5t-24.5 -187.5v-352q0 -65 -24.5 -107t-92.5 -61q68 -19 92.5 -61t24.5 -107z" />
    <glyph glyph-name="braceright.case" 
d="M485 199v352q0 65 24.5 107t92.5 61q-68 19 -92.5 61t-24.5 107v352q0 139 -24.5 187.5t-112.5 48.5h-98q-21 0 -21 20v123q0 20 21 20h98q160 0 234.5 -94t74.5 -305v-319q0 -119 109 -119h74q20 0 20 -21v-123q0 -20 -20 -20h-74q-109 0 -109 -119v-319
q0 -211 -74.5 -305.5t-234.5 -94.5h-98q-21 0 -21 21v123q0 20 21 20h98q88 0 112.5 48.5t24.5 187.5z" />
    <glyph glyph-name="bracketleft.case" 
d="M287 -180v1798q0 20 20 20h467q21 0 21 -20v-123q0 -20 -21 -20h-315v-1512h315q21 0 21 -20v-123q0 -21 -21 -21h-467q-20 0 -20 21z" />
    <glyph glyph-name="bracketright.case" 
d="M737 1618v-1798q0 -21 -20 -21h-467q-21 0 -21 21v123q0 20 21 20h315v1512h-315q-21 0 -21 20v123q0 20 21 20h467q20 0 20 -20z" />
    <glyph glyph-name="parenleft.case" 
d="M520 860v-280q0 -96 4 -161t18 -125t32.5 -100.5t56.5 -88.5t80 -87.5t112 -99.5q8 -8 8 -14t-6 -15l-82 -96q-8 -8 -14 -8q-5 0 -14 6q-218 181 -292.5 330.5t-74.5 394.5v408q0 245 74.5 394.5t292.5 330.5q9 6 14 6q6 0 14 -8l82 -97q6 -9 6 -14q0 -6 -8 -14
q-70 -60 -112 -99.5t-80 -87.5t-56.5 -88.5t-32.5 -100.5t-18 -125t-4 -161z" />
    <glyph glyph-name="parenright.case" 
d="M504 580v280q0 96 -4 161t-18 125t-32.5 100.5t-56.5 88.5t-80 87.5t-112 99.5q-8 8 -8 14q0 5 6 14l82 97q8 8 14 8q5 0 14 -6q218 -181 292.5 -330.5t74.5 -394.5v-408q0 -245 -74.5 -394.5t-292.5 -330.5q-9 -6 -14 -6q-6 0 -14 8l-82 96q-6 9 -6 15t8 14
q70 60 112 99.5t80 87.5t56.5 88.5t32.5 100.5t18 125t4 161z" />
    <glyph glyph-name="bullet.case" 
d="M252 717q0 106 76.5 183t183.5 77q106 0 183 -77t77 -183q0 -107 -77 -183.5t-183 -76.5q-107 0 -183.5 76.5t-76.5 183.5z" />
    <glyph glyph-name="exclamdown.case" 
d="M578 0h-132q-20 0 -20 20v1014q0 21 20 21h132q20 0 20 -21v-1014q0 -20 -20 -20zM612 1192h-200q-21 0 -21 20v201q0 21 21 21h200q21 0 21 -21v-201q0 -20 -21 -20z" />
    <glyph glyph-name="questiondown.case" 
d="M901 365q-8 -163 -111.5 -274t-273.5 -111q-183 0 -282 98t-99 266q0 80 31 146t74.5 113t87.5 92t75 103.5t31 127.5v108q0 21 21 21h131q20 0 20 -21v-94q0 -88 -31 -159.5t-75 -119.5t-87.5 -92.5t-74.5 -101t-31 -123.5q0 -97 54.5 -149t154.5 -52q91 0 148.5 61
t68.5 161q3 20 21 20h127q20 0 20 -20zM621 1192h-201q-21 0 -21 20v201q0 21 21 21h201q20 0 20 -21v-201q0 -20 -20 -20z" />
    <glyph glyph-name="at.case" 
d="M975 1120v-817q0 -18 -19 -18h-106q-19 0 -19 18v49q-63 -84 -202 -84q-147 0 -241.5 119t-94.5 330q0 210 95 329t241 119q67 0 121.5 -23t80.5 -65v53q0 137 -72.5 213t-205.5 76q-94 0 -163.5 -50.5t-111 -145t-61.5 -220.5t-20 -286q0 -364 95 -529t286 -165
q88 0 152.5 24t148.5 90q9 6 14 6q9 0 14 -8l62 -90q4 -8 4 -12q0 -7 -6 -13q-110 -77 -193 -107t-196 -30q-101 0 -182.5 28.5t-147.5 91.5t-110.5 160t-68.5 236.5t-24 317.5q0 253 55.5 440.5t171.5 294.5t281 107q200 0 311 -120t111 -319zM844 717q0 157 -51.5 233
t-145.5 76q-89 0 -146 -72.5t-57 -236.5t57 -236.5t146 -72.5q94 0 145.5 76t51.5 233z" />
    <glyph glyph-name="less.tosn" 
d="M868 403v-147q0 -14 -10 -14q-8 0 -10 2l-690 377q-12 7 -16.5 11.5t-4.5 14.5v139q0 15 21 27l690 377q2 2 10 2q10 0 10 -14v-148q0 -18 -20 -29l-522 -284l522 -285q20 -11 20 -29z" />
    <glyph glyph-name="greater.tosn" 
d="M156 256v147q0 18 20 29l522 285l-522 284q-20 11 -20 29v148q0 14 10 14q8 0 10 -2l690 -377q21 -12 21 -27v-139q0 -10 -4.5 -14.5t-16.5 -11.5l-690 -377q-2 -2 -10 -2q-10 0 -10 14z" />
    <glyph glyph-name="guilsinglleft.case" 
d="M717 416v-172q0 -15 -12 -15q-6 0 -13 7l-401 387q-21 21 -21 36v115q0 16 21 37l401 387q6 6 13 6q12 0 12 -14v-172q0 -18 -15 -33l-268 -268l268 -268q15 -15 15 -33z" />
    <glyph glyph-name="guilsinglright.case" 
d="M307 244v172q0 18 15 33l268 268l-268 268q-15 15 -15 33v172q0 14 12 14q7 0 13 -6l401 -387q21 -21 21 -37v-115q0 -15 -21 -36l-401 -387q-7 -7 -13 -7q-12 0 -12 15z" />
    <glyph glyph-name="guillemotleft.case" 
d="M541 416v-172q0 -15 -13 -15q-5 0 -12 7l-401 387q-21 21 -21 36v115q0 16 21 37l401 387q6 6 12 6q13 0 13 -14v-172q0 -18 -15 -33l-268 -268l268 -268q15 -15 15 -33zM895 416v-172q0 -15 -12 -15q-6 0 -13 7l-401 387q-20 20 -20 36v115q0 17 20 37l401 387q6 6 13 6
q12 0 12 -14v-172q0 -19 -14 -33l-269 -268l269 -268q14 -14 14 -33z" />
    <glyph glyph-name="guillemotright.case" 
d="M483 244v172q0 18 15 33l268 268l-268 268q-15 15 -15 33v172q0 14 13 14q6 0 12 -6l401 -387q21 -21 21 -37v-115q0 -15 -21 -36l-401 -387q-7 -7 -12 -7q-13 0 -13 15zM129 244v172q0 19 14 33l269 268l-269 268q-14 14 -14 33v172q0 14 12 14q7 0 13 -6l401 -387
q20 -20 20 -37v-115q0 -16 -20 -36l-401 -387q-7 -7 -13 -7q-12 0 -12 15z" />
    <glyph glyph-name="a.alt" 
d="M905 1008v-988q0 -20 -20 -20h-119q-21 0 -21 20v84q-59 -66 -115.5 -95t-150.5 -29q-183 0 -292 140.5t-109 393.5t109 394t292 141q96 0 157.5 -32t108.5 -93v84q0 20 21 20h119q20 0 20 -20zM762 514q0 180 -64.5 281.5t-193.5 101.5t-193.5 -101.5t-64.5 -281.5
t64.5 -281.5t193.5 -101.5t193.5 101.5t64.5 281.5z" />
    <glyph glyph-name="aacute.alt" 
d="M905 1008v-988q0 -20 -20 -20h-119q-21 0 -21 20v84q-59 -66 -115.5 -95t-150.5 -29q-183 0 -292 140.5t-109 393.5t109 394t292 141q96 0 157.5 -32t108.5 -93v84q0 20 21 20h119q20 0 20 -20zM762 514q0 180 -64.5 281.5t-193.5 101.5t-193.5 -101.5t-64.5 -281.5
t64.5 -281.5t193.5 -101.5t193.5 101.5t64.5 281.5zM395 1155l117 258q9 21 31 21h205q14 0 14 -11q0 -2 -4 -10l-185 -260q-13 -18 -36 -18h-129q-15 0 -15 12q0 6 2 8z" />
    <glyph glyph-name="agrave.alt" 
d="M905 1008v-988q0 -20 -20 -20h-119q-21 0 -21 20v84q-59 -66 -115.5 -95t-150.5 -29q-183 0 -292 140.5t-109 393.5t109 394t292 141q96 0 157.5 -32t108.5 -93v84q0 20 21 20h119q20 0 20 -20zM762 514q0 180 -64.5 281.5t-193.5 101.5t-193.5 -101.5t-64.5 -281.5
t64.5 -281.5t193.5 -101.5t193.5 101.5t64.5 281.5zM502 1413l116 -258q3 -3 3 -8q0 -12 -15 -12h-129q-22 0 -37 18l-184 260q-4 8 -4 10q0 11 14 11h205q22 0 31 -21z" />
    <glyph glyph-name="acircumflex.alt" 
d="M905 1008v-988q0 -20 -20 -20h-119q-21 0 -21 20v84q-59 -66 -115.5 -95t-150.5 -29q-183 0 -292 140.5t-109 393.5t109 394t292 141q96 0 157.5 -32t108.5 -93v84q0 20 21 20h119q20 0 20 -20zM762 514q0 180 -64.5 281.5t-193.5 101.5t-193.5 -101.5t-64.5 -281.5
t64.5 -281.5t193.5 -101.5t193.5 101.5t64.5 281.5zM604 1417l191 -262q4 -8 4 -10q0 -10 -15 -10h-127q-21 0 -36 18l-105 121l-104 -121q-13 -18 -37 -18h-127q-15 0 -15 10l5 10l190 262q17 17 31 17h114q14 0 31 -17z" />
    <glyph glyph-name="adieresis.alt" 
d="M905 1008v-988q0 -20 -20 -20h-119q-21 0 -21 20v84q-59 -66 -115.5 -95t-150.5 -29q-183 0 -292 140.5t-109 393.5t109 394t292 141q96 0 157.5 -32t108.5 -93v84q0 20 21 20h119q20 0 20 -20zM762 514q0 180 -64.5 281.5t-193.5 101.5t-193.5 -101.5t-64.5 -281.5
t64.5 -281.5t193.5 -101.5t193.5 101.5t64.5 281.5zM246 1241v172q0 21 20 21h172q21 0 21 -21v-172q0 -20 -21 -20h-172q-20 0 -20 20zM578 1241v172q0 21 20 21h172q21 0 21 -21v-172q0 -20 -21 -20h-172q-20 0 -20 20z" />
    <glyph glyph-name="atilde.alt" 
d="M905 1008v-988q0 -20 -20 -20h-119q-21 0 -21 20v84q-59 -66 -115.5 -95t-150.5 -29q-183 0 -292 140.5t-109 393.5t109 394t292 141q96 0 157.5 -32t108.5 -93v84q0 20 21 20h119q20 0 20 -20zM762 514q0 180 -64.5 281.5t-193.5 101.5t-193.5 -101.5t-64.5 -281.5
t64.5 -281.5t193.5 -101.5t193.5 101.5t64.5 281.5zM223 1360q99 74 185 74q44 0 77.5 -13t50.5 -29t43 -29t56 -13q29 0 53.5 11t61.5 40q12 4 14 4q10 0 20 -16l58 -86q2 -2 2 -9q0 -13 -19 -26q-99 -74 -184 -74q-43 0 -77 13t-51.5 29t-43 29t-55.5 13q-29 0 -53.5 -11
t-61.5 -40q-12 -4 -14 -4q-11 0 -21 16l-57 86q-2 2 -2 8q0 15 18 27z" />
    <glyph glyph-name="aring.alt" 
d="M905 1008v-988q0 -20 -20 -20h-119q-21 0 -21 20v84q-59 -66 -115.5 -95t-150.5 -29q-183 0 -292 140.5t-109 393.5t109 394t292 141q96 0 157.5 -32t108.5 -93v84q0 20 21 20h119q20 0 20 -20zM762 514q0 180 -64.5 281.5t-193.5 101.5t-193.5 -101.5t-64.5 -281.5
t64.5 -281.5t193.5 -101.5t193.5 101.5t64.5 281.5zM342 1303q0 75 50 123.5t128 48.5t128 -48.5t50 -123.5t-50 -124t-128 -49t-128 49t-50 124zM440 1303q0 -38 22 -60t58 -22t58 22t22 60t-22 59.5t-58 21.5t-58 -21.5t-22 -59.5z" />
    <glyph glyph-name="amacron.alt" 
d="M905 1008v-988q0 -20 -20 -20h-119q-21 0 -21 20v84q-59 -66 -115.5 -95t-150.5 -29q-183 0 -292 140.5t-109 393.5t109 394t292 141q96 0 157.5 -32t108.5 -93v84q0 20 21 20h119q20 0 20 -20zM762 514q0 180 -64.5 281.5t-193.5 101.5t-193.5 -101.5t-64.5 -281.5
t64.5 -281.5t193.5 -101.5t193.5 101.5t64.5 281.5zM301 1241v102q0 21 21 21h380q21 0 21 -21v-102q0 -20 -21 -20h-380q-21 0 -21 20z" />
    <glyph glyph-name="abreve.alt" 
d="M905 1008v-988q0 -20 -20 -20h-119q-21 0 -21 20v84q-59 -66 -115.5 -95t-150.5 -29q-183 0 -292 140.5t-109 393.5t109 394t292 141q96 0 157.5 -32t108.5 -93v84q0 20 21 20h119q20 0 20 -20zM762 514q0 180 -64.5 281.5t-193.5 101.5t-193.5 -101.5t-64.5 -281.5
t64.5 -281.5t193.5 -101.5t193.5 101.5t64.5 281.5zM287 1403h98q21 0 21 -21q0 -48 30 -77t86 -29t86.5 29t30.5 77q0 21 20 21h99q20 0 20 -21q0 -110 -70 -175.5t-186 -65.5t-186 65.5t-70 175.5q0 21 21 21z" />
    <glyph glyph-name="aogonek.alt" 
d="M905 1008v-988q0 -17 -14 -20q-62 -19 -95.5 -55.5t-33.5 -87.5q0 -48 34.5 -76.5t94.5 -28.5h20q21 0 21 -20v-70q0 -20 -21 -20h-61q-100 0 -169 47.5t-69 138.5q0 71 37 120.5t96 74.5v81q-59 -66 -115.5 -95t-150.5 -29q-183 0 -292 140.5t-109 393.5t109 394
t292 141q96 0 157.5 -32t108.5 -93v84q0 20 21 20h119q20 0 20 -20zM762 514q0 180 -64.5 281.5t-193.5 101.5t-193.5 -101.5t-64.5 -281.5t64.5 -281.5t193.5 -101.5t193.5 101.5t64.5 281.5z" />
    <glyph glyph-name="aringacute.alt" 
d="M326 1303q0 75 50 123.5t128 48.5t128 -48.5t50 -123.5t-50 -124t-128 -49t-128 49t-50 124zM424 1303q0 -38 22 -60t58 -22t58 22t22 60t-22 59.5t-58 21.5t-58 -21.5t-22 -59.5zM399 1561l117 258q9 20 31 20h205q14 0 14 -10q0 -2 -4 -10l-184 -260q-14 -19 -37 -19
h-129q-15 0 -15 12q0 7 2 9zM905 1008v-988q0 -20 -20 -20h-119q-21 0 -21 20v84q-59 -66 -115.5 -95t-150.5 -29q-183 0 -292 140.5t-109 393.5t109 394t292 141q96 0 157.5 -32t108.5 -93v84q0 20 21 20h119q20 0 20 -20zM762 514q0 180 -64.5 281.5t-193.5 101.5
t-193.5 -101.5t-64.5 -281.5t64.5 -281.5t193.5 -101.5t193.5 101.5t64.5 281.5z" />
    <glyph glyph-name="g.alt" 
d="M532 -426q-153 0 -254.5 97.5t-101.5 236.5q0 20 21 20h118q18 0 21 -20q7 -89 61 -135.5t135 -46.5q65 0 110.5 24t69.5 70t34 102t10 131v68q-51 -59 -109 -88t-135 -29q-181 0 -284 136t-103 386q0 251 103 387t284 136q142 0 244 -109v68q0 20 20 20h119q20 0 20 -20
v-973q0 -95 -23 -177t-68.5 -146t-120 -101t-171.5 -37zM772 526q0 175 -62 273t-178 98t-177.5 -98t-61.5 -273t61.5 -272.5t177.5 -97.5t178 97.5t62 272.5z" />
    <glyph glyph-name="gcircumflex.alt" 
d="M532 -426q-153 0 -254.5 97.5t-101.5 236.5q0 20 21 20h118q18 0 21 -20q7 -89 61 -135.5t135 -46.5q65 0 110.5 24t69.5 70t34 102t10 131v68q-51 -59 -109 -88t-135 -29q-181 0 -284 136t-103 386q0 251 103 387t284 136q142 0 244 -109v68q0 20 20 20h119q20 0 20 -20
v-973q0 -95 -23 -177t-68.5 -146t-120 -101t-171.5 -37zM772 526q0 175 -62 273t-178 98t-177.5 -98t-61.5 -273t61.5 -272.5t177.5 -97.5t178 97.5t62 272.5zM608 1417l191 -262q4 -8 4 -10q0 -10 -15 -10h-126q-22 0 -37 18l-105 121l-104 -121q-13 -18 -37 -18h-127
q-14 0 -14 10q0 2 4 10l190 262q17 17 31 17h115q13 0 30 -17z" />
    <glyph glyph-name="gbreve.alt" 
d="M532 -426q-153 0 -254.5 97.5t-101.5 236.5q0 20 21 20h118q18 0 21 -20q7 -89 61 -135.5t135 -46.5q65 0 110.5 24t69.5 70t34 102t10 131v68q-51 -59 -109 -88t-135 -29q-181 0 -284 136t-103 386q0 251 103 387t284 136q142 0 244 -109v68q0 20 20 20h119q20 0 20 -20
v-973q0 -95 -23 -177t-68.5 -146t-120 -101t-171.5 -37zM772 526q0 175 -62 273t-178 98t-177.5 -98t-61.5 -273t61.5 -272.5t177.5 -97.5t178 97.5t62 272.5zM283 1403h98q20 0 20 -21q0 -48 30.5 -77t86.5 -29t86.5 29t30.5 77q0 21 20 21h99q20 0 20 -21
q0 -110 -70 -175.5t-186 -65.5t-186 65.5t-70 175.5q0 21 21 21z" />
    <glyph glyph-name="gdotaccent.alt" 
d="M532 -426q-153 0 -254.5 97.5t-101.5 236.5q0 20 21 20h118q18 0 21 -20q7 -89 61 -135.5t135 -46.5q65 0 110.5 24t69.5 70t34 102t10 131v68q-51 -59 -109 -88t-135 -29q-181 0 -284 136t-103 386q0 251 103 387t284 136q142 0 244 -109v68q0 20 20 20h119q20 0 20 -20
v-973q0 -95 -23 -177t-68.5 -146t-120 -101t-171.5 -37zM772 526q0 175 -62 273t-178 98t-177.5 -98t-61.5 -273t61.5 -272.5t177.5 -97.5t178 97.5t62 272.5zM403 1237v176q0 21 21 21h176q21 0 21 -21v-176q0 -20 -21 -20h-176q-21 0 -21 20z" />
    <glyph glyph-name="gcommaaccent.alt" 
d="M532 -426q-153 0 -254.5 97.5t-101.5 236.5q0 20 21 20h118q18 0 21 -20q7 -89 61 -135.5t135 -46.5q65 0 110.5 24t69.5 70t34 102t10 131v68q-51 -59 -109 -88t-135 -29q-181 0 -284 136t-103 386q0 251 103 387t284 136q142 0 244 -109v68q0 20 20 20h119q20 0 20 -20
v-973q0 -95 -23 -177t-68.5 -146t-120 -101t-171.5 -37zM772 526q0 175 -62 273t-178 98t-177.5 -98t-61.5 -273t61.5 -272.5t177.5 -97.5t178 97.5t62 272.5zM602 1552q-58 0 -76 -22t-18 -86v-39h94q21 0 21 -21v-208q0 -21 -21 -21h-209q-20 0 -20 21v301q0 90 41.5 140
t115.5 50h72q21 0 21 -20v-74q0 -21 -21 -21z" />
    <glyph glyph-name="left.arrow" 
d="M481 1149l68 -72q8 -8 8 -16q0 -9 -10 -19l-250 -245h674q20 0 20 -21v-110q0 -21 -20 -21h-674l250 -246q10 -10 10 -18t-8 -16l-68 -72q-10 -10 -20 -10q-13 0 -21 8l-387 387q-20 20 -20 43t20 43l387 387q8 8 21 8q10 0 20 -10z" />
    <glyph glyph-name="right.arrow" 
d="M475 1077l68 72q10 10 20 10q13 0 21 -8l387 -387q20 -20 20 -43t-20 -43l-387 -387q-8 -8 -21 -8q-10 0 -20 10l-68 72q-8 8 -8 16t10 18l250 246h-674q-20 0 -20 21v110q0 21 20 21h674l-250 245q-10 10 -10 19q0 8 8 16z" />
    <glyph glyph-name="up.arrow" 
d="M156 684l-72 68q-10 10 -10 20q0 13 8 21l387 387q20 20 43 20t43 -20l387 -387q8 -8 8 -21q0 -10 -10 -20l-72 -68q-8 -8 -16 -8t-18 10l-246 250v-674q0 -20 -21 -20h-110q-21 0 -21 20v674l-246 -250q-10 -10 -18 -10t-16 8z" />
    <glyph glyph-name="down.arrow" 
d="M84 690l72 68q8 8 16 8t18 -10l246 -250v674q0 20 21 20h110q21 0 21 -20v-674l246 250q10 10 18 10t16 -8l72 -68q10 -10 10 -20q0 -13 -8 -21l-387 -387q-20 -20 -43 -20t-43 20l-387 387q-8 8 -8 21q0 10 10 20z" />
    <glyph glyph-name="ul.arrow" 
d="M272 440h-110q-21 0 -21 21v555q0 25 17.5 42t42.5 17h555q20 0 20 -20v-111q0 -20 -20 -20h-357l475 -473q9 -9 9 -15q0 -5 -9 -14l-79 -80q-8 -8 -15 -8q-6 0 -14 8l-473 477v-358q0 -21 -21 -21z" />
    <glyph glyph-name="ur.arrow" 
d="M862 440h-110q-21 0 -21 21v358l-473 -477q-8 -8 -14 -8q-7 0 -15 8l-79 80q-9 9 -9 14q0 6 9 15l475 473h-357q-20 0 -20 20v111q0 20 20 20h555q25 0 42.5 -17t17.5 -42v-555q0 -21 -21 -21z" />
    <glyph glyph-name="dl.arrow" 
d="M162 969h110q21 0 21 -21v-358l473 477q8 8 14 8q7 0 15 -8l79 -80q9 -9 9 -14q0 -6 -9 -15l-475 -473h357q20 0 20 -20v-111q0 -20 -20 -20h-555q-25 0 -42.5 17t-17.5 42v555q0 21 21 21z" />
    <glyph glyph-name="dr.arrow" 
d="M752 969h110q21 0 21 -21v-555q0 -25 -17.5 -42t-42.5 -17h-555q-20 0 -20 20v111q0 20 20 20h357l-475 473q-9 9 -9 15q0 5 9 14l79 80q8 8 15 8q6 0 14 -8l473 -477v358q0 21 21 21z" />
    <glyph glyph-name="orn.001" 
d="M922 696v-676q0 -20 -21 -20h-778q-21 0 -21 20v676q0 21 21 21h778q21 0 21 -21zM831 635h-638v-553h638v553z" />
    <glyph glyph-name="orn.002" 
d="M922 1008v-988q0 -20 -21 -20h-778q-21 0 -21 20v988q0 20 21 20h778q21 0 21 -20zM831 946h-638v-864h638v864z" />
    <glyph glyph-name="orn.003" 
d="M922 1413v-1393q0 -20 -21 -20h-778q-21 0 -21 20v1393q0 21 21 21h778q21 0 21 -21zM831 1352h-638v-1270h638v1270z" />
    <glyph glyph-name="orn.004" 
d="M922 1413v-1798q0 -21 -21 -21h-778q-21 0 -21 21v1798q0 21 21 21h778q21 0 21 -21zM831 1352h-638v-1676h638v1676z" />
    <glyph glyph-name="orn.005" 
d="M922 696v-676q0 -20 -21 -20h-778q-21 0 -21 20v676q0 21 21 21h778q21 0 21 -21zM786 82l-274 233l-274 -233h548zM512 401l274 234h-548zM831 127v463l-270 -232zM193 590v-463l270 231z" />
    <glyph glyph-name="orn.006" 
d="M922 1008v-988q0 -20 -21 -20h-778q-21 0 -21 20v988q0 20 21 20h778q21 0 21 -20zM831 131v766l-276 -383zM193 897v-766l276 383zM782 82l-270 373l-270 -373h540zM512 573l270 373h-540z" />
    <glyph glyph-name="orn.007" 
d="M922 1413v-1393q0 -20 -21 -20h-778q-21 0 -21 20v1393q0 21 21 21h778q21 0 21 -21zM831 143v1147l-274 -573zM193 1290v-1147l274 574zM770 82l-258 541l-258 -541h516zM512 811l258 541h-516z" />
    <glyph glyph-name="orn.008" 
d="M922 1413v-1798q0 -21 -21 -21h-778q-21 0 -21 21v1798q0 21 21 21h778q21 0 21 -21zM831 -254v1536l-272 -768zM193 1282v-1536l272 768zM762 -324l-250 705l-250 -705h500zM512 647l250 705h-500z" />
  </font>
</defs>
</svg>
